osu file format v14

[General]
AudioFilename: audio.mp3
AudioLeadIn: 0
PreviewTime: 34764
Countdown: 0
SampleSet: Normal
StackLeniency: 0.7
Mode: 1
LetterboxInBreaks: 0
WidescreenStoryboard: 1

[Editor]
DistanceSpacing: 1
BeatDivisor: 1
GridSize: 8
TimelineZoom: 1.999999

[Metadata]
Title:Faggot
TitleUnicode:Faggot
Artist:Mindless Self Indulgence
ArtistUnicode:Mindless Self Indulgence
Creator:iamveryfat
Version:Inner Oni
Source:
Tags:never meiqth cryceptio molybdenum Frankenstein Girls Will Seem Strangely Sexy FGWSSS MSI Our Pain Your Gain Crappy Little Demo English electronic rock nevqr
BeatmapID:4045334
BeatmapSetID:1929399

[Difficulty]
HPDrainRate:5.5
CircleSize:2
OverallDifficulty:6
ApproachRate:0
SliderMultiplier:1.4
SliderTickRate:1

[Events]
//Background and Video events
0,0,"faggotbg.jpg",0,0
//Break Periods
//Storyboard Layer 0 (Background)
//Storyboard Layer 1 (Fail)
//Storyboard Layer 2 (Pass)
//Storyboard Layer 3 (Foreground)
//Storyboard Layer 4 (Overlay)
//Storyboard Sound Samples

[TimingPoints]
28,394.736842105263,4,1,0,50,1,0
28,-142.857142857143,4,1,0,50,0,0
9498,-100,4,1,0,64,0,0
22130,-76.9230769230769,4,1,0,74,0,0
34764,-90.9090909090909,4,1,0,90,0,1
39501,-90.9090909090909,4,1,0,90,0,0
39698,-90.9090909090909,4,1,0,90,0,0
39796,-86.9757174392936,4,1,0,90,0,0
39895,-83.3333333333333,4,1,0,90,0,0
39994,-84.0357598978289,4,1,0,90,0,0
40092,-84.7428522366275,4,1,0,90,0,0
40191,-85.4693453411846,4,1,0,90,0,0
40290,-86.208402480566,4,1,0,90,0,0
40388,-86.9526913928288,4,1,0,90,0,0
40487,-87.71773906861,4,1,0,90,0,0
40586,-88.4963686900386,4,1,0,90,0,0
40684,-89.280868385346,4,1,0,90,0,0
40783,-90.0876232201533,4,1,0,90,0,0
40882,-90.9090909090909,4,1,0,90,0,0
41080,-90.9090909090909,4,1,0,90,0,1
45817,-83.3333333333333,4,1,0,90,0,0
46208,-86.9565217391304,4,1,0,90,0,0
46602,-90.9090909090909,4,1,0,90,0,0
46997,-95.2380952380952,4,1,0,90,0,0
47392,-100,4,1,0,64,0,0
60024,-76.9230769230769,4,1,0,74,0,0
72659,-90.9090909090909,4,1,0,90,0,1
77396,-90.9090909090909,4,1,0,90,0,0
77593,-90.9090909090909,4,1,0,90,0,0
77691,-86.9757174392936,4,1,0,90,0,0
77790,-83.3333333333333,4,1,0,90,0,0
77889,-84.0357598978289,4,1,0,90,0,0
77987,-84.7428522366275,4,1,0,90,0,0
78086,-85.4693453411846,4,1,0,90,0,0
78185,-86.208402480566,4,1,0,90,0,0
78283,-86.9526913928288,4,1,0,90,0,0
78382,-87.71773906861,4,1,0,90,0,0
78481,-88.4963686900386,4,1,0,90,0,0
78579,-89.280868385346,4,1,0,90,0,0
78678,-90.0876232201533,4,1,0,90,0,0
78777,-90.9090909090909,4,1,0,90,0,0
78975,-90.9090909090909,4,1,0,90,0,1
83712,-83.3333333333333,4,1,0,90,0,0
84104,-86.9565217391304,4,1,0,90,0,0
84498,-90.9090909090909,4,1,0,90,0,0
84893,-95.2380952380952,4,1,0,90,0,0
85288,-100,4,1,0,64,0,0
97921,-100,4,1,0,74,0,0
98316,-99.0409129537453,4,1,0,74,0,0
98711,-98.1000481000481,4,1,0,74,0,0
99105,-97.1792061752514,4,1,0,74,0,0
99500,-96.2732186268262,4,1,0,74,0,0
99895,-95.3839678234029,4,1,0,74,0,0
100290,-94.5109942306355,4,1,0,74,0,0
100684,-93.6560053268431,4,1,0,74,0,0
101079,-92.8142350050059,4,1,0,74,0,0
101474,-91.9874613806012,4,1,0,74,0,0
101869,-91.17528722786,4,1,0,74,0,0
102263,-90.3793317380129,4,1,0,74,0,0
102658,-89.5951852746722,4,1,0,74,0,0
103053,-88.8245285484082,4,1,0,74,0,0
103448,-88.0670164302524,4,1,0,74,0,0
103546,-87.88107292901,4,1,0,74,0,0
103645,-87.6940276045922,4,1,0,74,0,0
103744,-87.5077768004634,4,1,0,74,0,0
103842,-87.3241848815054,4,1,0,74,0,0
103941,-87.1395001068148,4,1,0,74,0,0
104040,-86.9555948751839,4,1,0,74,0,0
104138,-86.7743102091178,4,1,0,74,0,0
104237,-86.5919415785675,4,1,0,74,0,0
104434,-86.2313172526055,4,1,0,74,0,0
104533,-86.0512214674486,4,1,0,74,0,0
104632,-85.8718763815499,4,1,0,74,0,0
104730,-85.6950776276813,4,1,0,74,0,0
104829,-85.5172124617384,4,1,0,74,0,0
105026,-85.1654661238125,4,1,0,74,0,0
105125,-84.9897903904655,4,1,0,74,0,0
105224,-84.8148379182002,4,1,0,74,0,0
105323,-84.640604249668,4,1,0,74,0,0
105421,-84.4688341271485,4,1,0,74,0,0
105520,-84.2960176899709,4,1,0,74,0,0
105619,-84.1239069460485,4,1,0,74,0,0
105816,-83.7835062134127,4,1,0,74,0,0
105915,-83.6134798294523,4,1,0,74,0,0
106013,-83.4458491878401,4,1,0,74,0,0
106112,-83.2771891141463,4,1,0,74,0,0
106211,-83.1092094539527,4,1,0,74,0,0
106309,-82.9435926633861,4,1,0,74,0,0
106408,-82.7769547659151,4,1,0,74,0,0
106605,-82.4473460807697,4,1,0,74,0,0
106704,-82.2826942085409,4,1,0,74,0,0
106803,-82.1186986632308,4,1,0,74,0,0
106901,-81.9570022101668,4,1,0,74,0,0
107000,-81.7943010688003,4,1,0,74,0,0
107099,-81.6322446365674,4,1,0,74,0,0
107198,-81.4708290890207,4,1,0,74,0,0
107395,-81.1515199745345,4,1,0,74,0,0
107494,-80.9919980938387,4,1,0,74,0,0
107592,-80.834704028854,4,1,0,74,0,0
107691,-80.6764240506329,4,1,0,74,0,0
107790,-80.518762707515,4,1,0,74,0,0
107888,-80.3632996433989,4,1,0,74,0,0
107987,-80.2068585810917,4,1,0,74,0,0
108184,-79.897361565432,4,1,0,74,0,0
108283,-79.7427275570848,4,1,0,74,0,0
108382,-79.5886909523716,4,1,0,74,0,0
108480,-79.4367952637831,4,1,0,74,0,0
108579,-79.2839371792878,4,1,0,74,0,0
108678,-79.1316662463383,4,1,0,74,0,0
108776,-78.9815083744796,4,1,0,74,0,0
108974,-78.6798603475879,4,1,0,74,0,0
109073,-78.5298987332024,4,1,0,74,0,0
109171,-78.3820138355111,4,1,0,74,0,0
109270,-78.2331843725426,4,1,0,74,0,0
109369,-78.084919024465,4,1,0,74,0,0
109467,-77.9387037603179,4,1,0,74,0,0
109566,-77.7915514446457,4,1,0,74,0,0
109763,-77.50037999696,4,1,0,74,0,0
109862,-77.3548766380307,4,1,0,74,0,0
109961,-77.2099186068522,4,1,0,74,0,0
110059,-77.0669588875453,4,1,0,74,0,0
110158,-76.9230769230769,4,1,0,74,0,0
110355,-76.9230769230769,4,1,0,74,0,0
110454,-80,4,1,0,74,0,0
110553,-83.3333333333333,4,1,0,74,0,0
123185,-90.9090909090909,4,1,0,90,0,1
127922,-90.9090909090909,4,1,0,90,0,0
128119,-90.9090909090909,4,1,0,90,0,0
128217,-86.9757174392936,4,1,0,90,0,0
128316,-83.3333333333333,4,1,0,90,0,0
128415,-84.0357598978289,4,1,0,90,0,0
128513,-84.7428522366275,4,1,0,90,0,0
128612,-85.4693453411846,4,1,0,90,0,0
128711,-86.208402480566,4,1,0,90,0,0
128809,-86.9526913928288,4,1,0,90,0,0
128908,-87.71773906861,4,1,0,90,0,0
129007,-88.4963686900386,4,1,0,90,0,0
129105,-89.280868385346,4,1,0,90,0,0
129204,-90.0876232201533,4,1,0,90,0,0
129303,-90.9090909090909,4,1,0,90,0,0
129501,-90.9090909090909,4,1,0,90,0,1
134238,-83.3333333333333,4,1,0,90,0,0
134629,-86.9565217391304,4,1,0,90,0,0
135023,-90.9090909090909,4,1,0,90,0,0
135418,-95.2380952380952,4,1,0,90,0,0
135809,-100,4,1,0,64,0,0
148442,-76.9230769230769,4,1,0,90,0,0
150022,-76.9230769230769,4,1,0,90,0,0
150121,-76.3705835409059,4,1,0,90,0,0
150220,-75.8259700345755,4,1,0,90,0,0
150319,-75.2890690189534,4,1,0,90,0,0
150417,-74.7650275811454,4,1,0,90,0,0
150516,-74.2429941696445,4,1,0,90,0,0
150615,-73.728200219457,4,1,0,90,0,0
150713,-73.2255895378765,4,1,0,90,0,0
150812,-72.7247605011054,4,1,0,90,0,0
150911,-72.2307358020173,4,1,0,90,0,0
151009,-71.7482676360332,4,1,0,90,0,0
151108,-71.2673767828128,4,1,0,90,0,0
151207,-70.7928893272658,4,1,0,90,0,0
151305,-70.3293766563481,4,1,0,90,0,0
151405,-69.862619737628,4,1,0,90,0,0
151503,-69.4111699672506,4,1,0,90,0,0
151601,-68.9655172413793,4,1,0,90,0,0
151701,-76.9230769230769,4,1,0,90,0,0
153181,-76.9230769230769,4,1,0,90,0,0
153280,-76.3705835409059,4,1,0,90,0,0
153379,-75.8259700345755,4,1,0,90,0,0
153478,-75.2890690189534,4,1,0,90,0,0
153576,-74.7650275811454,4,1,0,90,0,0
153675,-74.2429941696445,4,1,0,90,0,0
153774,-73.728200219457,4,1,0,90,0,0
153872,-73.2255895378765,4,1,0,90,0,0
153971,-72.7247605011054,4,1,0,90,0,0
154070,-72.2307358020173,4,1,0,90,0,0
154168,-71.7482676360332,4,1,0,90,0,0
154267,-71.2673767828128,4,1,0,90,0,0
154366,-70.7928893272658,4,1,0,90,0,0
154464,-70.3293766563481,4,1,0,90,0,0
154564,-69.862619737628,4,1,0,90,0,0
154662,-69.4111699672506,4,1,0,90,0,0
154760,-68.9655172413793,4,1,0,90,0,0
154860,-76.9230769230769,4,1,0,90,0,0
156339,-76.9230769230769,4,1,0,90,0,0
156438,-76.3705835409059,4,1,0,90,0,0
156537,-75.8259700345755,4,1,0,90,0,0
156636,-75.2890690189534,4,1,0,90,0,0
156734,-74.7650275811454,4,1,0,90,0,0
156833,-74.2429941696445,4,1,0,90,0,0
156932,-73.728200219457,4,1,0,90,0,0
157030,-73.2255895378765,4,1,0,90,0,0
157129,-72.7247605011054,4,1,0,90,0,0
157228,-72.2307358020173,4,1,0,90,0,0
157326,-71.7482676360332,4,1,0,90,0,0
157425,-71.2673767828128,4,1,0,90,0,0
157524,-70.7928893272658,4,1,0,90,0,0
157622,-70.3293766563481,4,1,0,90,0,0
157722,-69.862619737628,4,1,0,90,0,0
157820,-69.4111699672506,4,1,0,90,0,0
157918,-68.9655172413793,4,1,0,90,0,0
158018,-76.9230769230769,4,1,0,90,0,0
159497,-76.9230769230769,4,1,0,90,0,0
159596,-76.3705835409059,4,1,0,90,0,0
159695,-75.8259700345755,4,1,0,90,0,0
159794,-75.2890690189534,4,1,0,90,0,0
159892,-74.7650275811454,4,1,0,90,0,0
159991,-74.2429941696445,4,1,0,90,0,0
160090,-73.728200219457,4,1,0,90,0,0
160188,-73.2255895378765,4,1,0,90,0,0
160287,-72.7247605011054,4,1,0,90,0,0
160386,-72.2307358020173,4,1,0,90,0,0
160484,-71.7482676360332,4,1,0,90,0,0
160583,-71.2673767828128,4,1,0,90,0,0
160682,-70.7928893272658,4,1,0,90,0,0
160780,-70.3293766563481,4,1,0,90,0,0
160880,-69.862619737628,4,1,0,90,0,0
160978,-69.4111699672506,4,1,0,90,0,0
161076,-68.9655172413793,4,1,0,90,0,0
161176,-76.9230769230769,4,1,0,90,0,0

[HitObjects]
174,187,3185,5,0,0:0:0:0:
174,187,3975,1,8,0:0:0:0:
174,187,4567,1,0,0:0:0:0:
174,187,4764,1,0,0:0:0:0:
174,187,5554,1,8,0:0:0:0:
174,187,6343,1,0,0:0:0:0:
198,187,9106,1,8,0:0:0:0:
198,187,9501,1,4,0:0:0:0:
198,187,10291,1,8,0:0:0:0:
198,187,10883,1,8,0:0:0:0:
198,187,11080,1,12,0:0:0:0:
187,197,11277,1,8,0:0:0:0:
197,197,11870,1,8,0:0:0:0:
181,202,12462,1,8,0:0:0:0:
181,202,12659,1,4,0:0:0:0:
206,213,12856,1,0,0:0:0:0:
200,202,14041,1,0,0:0:0:0:
200,202,14238,1,0,0:0:0:0:
200,202,14435,1,0,0:0:0:0:
200,204,15817,1,12,0:0:0:0:
200,204,16606,1,0,0:0:0:0:
200,204,17199,1,0,0:0:0:0:
204,197,17396,1,12,0:0:0:0:
204,197,17593,1,8,0:0:0:0:
206,195,18185,1,0,0:0:0:0:
216,197,18777,1,8,0:0:0:0:
215,196,18975,1,4,0:0:0:0:
216,197,19172,1,0,0:0:0:0:
208,188,20356,1,0,0:0:0:0:
208,188,20554,1,0,0:0:0:0:
208,188,20751,1,0,0:0:0:0:
195,177,22133,1,12,0:0:0:0:
190,183,22330,1,0,0:0:0:0:
188,183,22429,1,0,0:0:0:0:
188,184,22527,1,8,0:0:0:0:
206,192,22626,1,8,0:0:0:0:
206,192,22725,1,0,0:0:0:0:
203,193,22824,1,0,0:0:0:0:
206,188,22922,1,12,0:0:0:0:
206,192,23120,1,0,0:0:0:0:
206,193,23218,1,0,0:0:0:0:
206,193,23317,1,8,0:0:0:0:
206,193,23416,1,0,0:0:0:0:
206,193,23514,1,0,0:0:0:0:
206,192,23613,1,8,0:0:0:0:
206,192,23712,1,0,0:0:0:0:
206,188,23909,1,8,0:0:0:0:
212,184,24008,1,8,0:0:0:0:
211,184,24106,1,8,0:0:0:0:
211,181,24205,1,0,0:0:0:0:
211,181,24304,1,8,0:0:0:0:
211,181,24501,1,8,0:0:0:0:
212,180,24600,1,8,0:0:0:0:
213,180,24699,1,0,0:0:0:0:
214,180,24797,1,0,0:0:0:0:
214,180,24896,1,8,0:0:0:0:
212,184,24995,1,8,0:0:0:0:
211,184,25093,1,0,0:0:0:0:
211,181,25192,1,0,0:0:0:0:
218,176,25291,1,12,0:0:0:0:
217,171,25488,1,0,0:0:0:0:
219,170,25587,1,8,0:0:0:0:
220,170,25685,1,8,0:0:0:0:
216,171,25784,1,8,0:0:0:0:
199,182,25883,1,8,0:0:0:0:
217,176,25981,1,0,0:0:0:0:
217,176,26080,1,12,0:0:0:0:
213,168,26277,1,0,0:0:0:0:
217,171,26376,1,0,0:0:0:0:
217,171,26475,1,8,0:0:0:0:
212,167,26574,1,8,0:0:0:0:
202,156,26672,1,8,0:0:0:0:
211,172,26771,1,8,0:0:0:0:
206,171,26870,1,0,0:0:0:0:
203,171,26968,1,0,0:0:0:0:
208,174,27067,1,8,0:0:0:0:
208,174,27166,1,8,0:0:0:0:
209,176,27264,1,0,0:0:0:0:
190,165,27363,1,0,0:0:0:0:
210,176,27462,1,8,0:0:0:0:
210,176,27560,1,0,0:0:0:0:
211,180,27659,1,8,0:0:0:0:
211,185,27856,1,0,0:0:0:0:
211,185,27955,1,0,0:0:0:0:
211,185,28054,1,8,0:0:0:0:
211,185,28251,1,8,0:0:0:0:
211,185,28449,1,4,0:0:0:0:
216,195,28646,1,0,0:0:0:0:
190,171,28745,1,0,0:0:0:0:
202,173,28843,1,8,0:0:0:0:
211,185,28942,1,8,0:0:0:0:
206,174,29041,1,0,0:0:0:0:
206,174,29139,1,0,0:0:0:0:
204,171,29238,1,12,0:0:0:0:
182,163,29435,1,0,0:0:0:0:
184,176,29534,1,0,0:0:0:0:
202,172,29633,1,8,0:0:0:0:
202,172,29731,1,8,0:0:0:0:
201,163,29830,1,8,0:0:0:0:
200,162,29929,1,8,0:0:0:0:
200,161,30027,1,0,0:0:0:0:
201,164,30225,1,8,0:0:0:0:
203,172,30324,1,0,0:0:0:0:
202,160,30422,1,8,0:0:0:0:
202,158,30521,1,8,0:0:0:0:
190,147,30620,1,8,0:0:0:0:
190,147,30718,1,8,0:0:0:0:
190,147,30817,1,0,0:0:0:0:
190,147,31014,1,8,0:0:0:0:
190,147,31113,1,8,0:0:0:0:
190,147,31212,1,0,0:0:0:0:
190,147,31310,1,8,0:0:0:0:
190,147,31409,1,8,0:0:0:0:
190,147,31508,1,8,0:0:0:0:
190,147,31606,1,4,0:0:0:0:
191,159,31804,1,0,0:0:0:0:
191,159,31902,1,0,0:0:0:0:
191,159,32001,1,8,0:0:0:0:
191,159,32100,1,8,0:0:0:0:
192,159,32199,1,0,0:0:0:0:
192,159,32297,1,0,0:0:0:0:
192,159,32396,1,12,0:0:0:0:
189,163,32593,1,0,0:0:0:0:
191,159,32692,1,0,0:0:0:0:
191,159,32791,1,8,0:0:0:0:
191,159,32889,1,8,0:0:0:0:
191,159,32988,1,0,0:0:0:0:
178,167,33087,1,8,0:0:0:0:
178,167,33185,1,4,0:0:0:0:
187,173,33383,1,4,0:0:0:0:
176,167,33580,1,8,0:0:0:0:
188,166,33679,1,8,0:0:0:0:
188,166,33777,1,0,0:0:0:0:
189,166,33876,1,8,0:0:0:0:
189,166,33975,1,4,0:0:0:0:
188,166,34764,1,8,0:0:0:0:
232,207,34863,1,8,0:0:0:0:
245,185,34962,1,0,0:0:0:0:
245,185,35159,1,8,0:0:0:0:
245,185,35356,1,0,0:0:0:0:
241,187,35554,1,0,0:0:0:0:
241,187,35652,1,8,0:0:0:0:
214,191,35751,1,8,0:0:0:0:
245,185,35949,1,8,0:0:0:0:
245,185,36146,1,8,0:0:0:0:
245,185,36245,1,8,0:0:0:0:
245,185,36343,1,0,0:0:0:0:
241,187,36442,1,8,0:0:0:0:
241,187,36541,1,0,0:0:0:0:
231,182,36738,1,8,0:0:0:0:
231,182,36935,1,0,0:0:0:0:
222,186,37034,1,0,0:0:0:0:
227,179,37133,1,8,0:0:0:0:
232,183,37231,1,0,0:0:0:0:
223,181,37330,1,8,0:0:0:0:
224,179,37527,1,0,0:0:0:0:
223,178,37725,1,0,0:0:0:0:
217,182,37824,1,0,0:0:0:0:
231,182,37922,1,8,0:0:0:0:
227,179,38021,1,8,0:0:0:0:
231,182,38120,1,0,0:0:0:0:
231,182,38317,1,0,0:0:0:0:
224,179,38514,1,8,0:0:0:0:
220,187,38613,1,0,0:0:0:0:
223,178,38712,1,8,0:0:0:0:
220,173,38909,1,8,0:0:0:0:
227,179,39008,1,0,0:0:0:0:
221,174,39106,1,8,0:0:0:0:
221,174,39304,1,8,0:0:0:0:
212,177,39402,1,8,0:0:0:0:
211,177,39501,1,0,0:0:0:0:
208,175,39699,1,0,0:0:0:0:
221,179,39896,1,8,0:0:0:0:
221,179,39995,1,8,0:0:0:0:
221,174,40093,1,0,0:0:0:0:
208,174,40192,1,0,0:0:0:0:
205,172,40291,1,8,0:0:0:0:
212,177,40389,1,8,0:0:0:0:
211,177,40488,1,0,0:0:0:0:
208,175,40587,1,0,0:0:0:0:
208,175,40685,1,8,0:0:0:0:
220,173,40784,1,8,0:0:0:0:
221,179,40883,1,0,0:0:0:0:
188,166,41080,1,8,0:0:0:0:
227,187,41179,1,8,0:0:0:0:
245,185,41277,1,0,0:0:0:0:
245,185,41475,1,8,0:0:0:0:
245,185,41672,1,0,0:0:0:0:
220,173,41771,1,8,0:0:0:0:
241,187,41870,1,0,0:0:0:0:
234,200,41968,1,0,0:0:0:0:
214,191,42067,1,8,0:0:0:0:
245,185,42264,1,8,0:0:0:0:
245,185,42462,1,8,0:0:0:0:
244,187,42560,1,8,0:0:0:0:
227,203,42659,1,8,0:0:0:0:
224,208,42758,1,0,0:0:0:0:
228,205,42856,1,8,0:0:0:0:
227,207,43054,1,8,0:0:0:0:
231,182,43251,1,0,0:0:0:0:
220,193,43350,1,0,0:0:0:0:
227,179,43449,1,8,0:0:0:0:
227,207,43547,1,8,0:0:0:0:
227,203,43646,1,0,0:0:0:0:
224,179,43843,1,0,0:0:0:0:
223,178,44041,1,0,0:0:0:0:
217,182,44139,1,0,0:0:0:0:
231,182,44238,1,8,0:0:0:0:
227,179,44337,1,8,0:0:0:0:
231,182,44435,1,0,0:0:0:0:
231,182,44633,1,0,0:0:0:0:
224,179,44830,1,8,0:0:0:0:
220,187,44929,1,0,0:0:0:0:
223,178,45027,1,8,0:0:0:0:
220,173,45225,1,8,0:0:0:0:
227,179,45324,1,0,0:0:0:0:
221,174,45422,1,8,0:0:0:0:
221,174,45620,1,8,0:0:0:0:
212,177,45718,1,8,0:0:0:0:
211,177,45817,1,4,0:0:0:0:
212,162,46212,1,4,0:0:0:0:
212,162,46606,1,4,0:0:0:0:
212,162,47001,1,4,0:0:0:0:
199,159,47396,1,12,0:0:0:0:
201,158,48185,1,8,0:0:0:0:
201,158,48777,1,0,0:0:0:0:
201,158,48975,1,12,0:0:0:0:
201,158,49172,1,8,0:0:0:0:
201,158,49764,1,8,0:0:0:0:
201,158,50356,1,8,0:0:0:0:
201,158,50554,1,4,0:0:0:0:
201,158,50751,1,0,0:0:0:0:
196,157,51935,1,0,0:0:0:0:
196,157,52133,1,0,0:0:0:0:
196,157,52330,1,0,0:0:0:0:
202,157,52527,1,4,0:0:0:0:
204,157,52922,1,4,0:0:0:0:
203,157,53317,1,4,0:0:0:0:
204,157,53712,1,12,0:0:0:0:
265,161,54501,1,8,0:0:0:0:
242,162,55093,1,0,0:0:0:0:
242,162,55291,1,12,0:0:0:0:
242,162,55488,1,8,0:0:0:0:
229,162,56080,1,8,0:0:0:0:
236,166,56672,1,8,0:0:0:0:
229,162,56870,1,4,0:0:0:0:
229,162,57067,1,0,0:0:0:0:
230,184,58251,1,0,0:0:0:0:
230,184,58449,1,0,0:0:0:0:
226,190,58646,1,0,0:0:0:0:
195,177,60027,1,12,0:0:0:0:
190,183,60225,1,0,0:0:0:0:
188,183,60324,1,0,0:0:0:0:
188,184,60422,1,8,0:0:0:0:
206,192,60521,1,8,0:0:0:0:
206,192,60620,1,0,0:0:0:0:
203,193,60718,1,0,0:0:0:0:
206,188,60817,1,12,0:0:0:0:
206,192,61014,1,0,0:0:0:0:
206,193,61113,1,0,0:0:0:0:
206,193,61212,1,8,0:0:0:0:
206,193,61310,1,0,0:0:0:0:
206,193,61409,1,0,0:0:0:0:
206,192,61508,1,8,0:0:0:0:
206,192,61606,1,0,0:0:0:0:
206,188,61804,1,8,0:0:0:0:
212,184,61902,1,8,0:0:0:0:
211,184,62001,1,8,0:0:0:0:
211,181,62100,1,0,0:0:0:0:
211,181,62199,1,8,0:0:0:0:
211,181,62396,1,8,0:0:0:0:
212,180,62495,1,8,0:0:0:0:
213,180,62593,1,0,0:0:0:0:
214,180,62692,1,0,0:0:0:0:
214,180,62791,1,8,0:0:0:0:
212,184,62889,1,8,0:0:0:0:
211,184,62988,1,0,0:0:0:0:
211,181,63087,1,0,0:0:0:0:
218,176,63185,1,12,0:0:0:0:
217,171,63383,1,0,0:0:0:0:
219,170,63481,1,8,0:0:0:0:
220,170,63580,1,8,0:0:0:0:
216,171,63679,1,8,0:0:0:0:
199,182,63777,1,8,0:0:0:0:
217,176,63876,1,0,0:0:0:0:
217,176,63975,1,12,0:0:0:0:
213,168,64172,1,0,0:0:0:0:
217,171,64271,1,0,0:0:0:0:
217,171,64370,1,8,0:0:0:0:
212,167,64468,1,8,0:0:0:0:
202,156,64567,1,8,0:0:0:0:
211,172,64666,1,8,0:0:0:0:
206,171,64764,1,0,0:0:0:0:
203,171,64863,1,0,0:0:0:0:
208,174,64962,1,8,0:0:0:0:
208,174,65060,1,8,0:0:0:0:
209,176,65159,1,0,0:0:0:0:
190,165,65258,1,0,0:0:0:0:
210,176,65356,1,8,0:0:0:0:
210,176,65455,1,0,0:0:0:0:
211,180,65554,1,8,0:0:0:0:
211,185,65751,1,0,0:0:0:0:
211,185,65850,1,0,0:0:0:0:
211,185,65949,1,8,0:0:0:0:
211,185,66146,1,8,0:0:0:0:
211,185,66343,1,4,0:0:0:0:
216,195,66541,1,0,0:0:0:0:
190,171,66639,1,0,0:0:0:0:
202,173,66738,1,8,0:0:0:0:
211,185,66837,1,8,0:0:0:0:
206,174,66935,1,0,0:0:0:0:
206,174,67034,1,0,0:0:0:0:
204,171,67133,1,12,0:0:0:0:
182,163,67330,1,0,0:0:0:0:
184,176,67429,1,0,0:0:0:0:
202,172,67527,1,8,0:0:0:0:
202,172,67626,1,8,0:0:0:0:
201,163,67725,1,8,0:0:0:0:
200,162,67824,1,8,0:0:0:0:
200,161,67922,1,0,0:0:0:0:
201,164,68120,1,8,0:0:0:0:
203,172,68218,1,0,0:0:0:0:
202,160,68317,1,8,0:0:0:0:
202,158,68416,1,8,0:0:0:0:
190,147,68514,1,8,0:0:0:0:
190,147,68613,1,8,0:0:0:0:
190,147,68712,1,0,0:0:0:0:
190,147,68909,1,8,0:0:0:0:
190,147,69008,1,8,0:0:0:0:
190,147,69106,1,0,0:0:0:0:
190,147,69205,1,8,0:0:0:0:
190,147,69304,1,8,0:0:0:0:
190,147,69402,1,8,0:0:0:0:
190,147,69501,1,4,0:0:0:0:
191,159,69699,1,0,0:0:0:0:
183,168,69797,1,0,0:0:0:0:
191,159,69896,1,8,0:0:0:0:
191,159,69995,1,8,0:0:0:0:
192,159,70093,1,0,0:0:0:0:
192,159,70192,1,0,0:0:0:0:
192,159,70291,1,12,0:0:0:0:
189,163,70488,1,0,0:0:0:0:
191,159,70587,1,0,0:0:0:0:
191,159,70685,1,8,0:0:0:0:
191,159,70784,1,8,0:0:0:0:
191,159,70883,1,0,0:0:0:0:
178,167,70981,1,8,0:0:0:0:
178,167,71080,1,4,0:0:0:0:
187,173,71277,1,4,0:0:0:0:
176,167,71475,1,8,0:0:0:0:
188,166,71574,1,8,0:0:0:0:
212,184,71672,1,0,0:0:0:0:
218,184,71771,1,0,0:0:0:0:
189,166,71870,1,12,0:0:0:0:
188,166,72659,1,8,0:0:0:0:
232,207,72758,1,8,0:0:0:0:
245,185,72856,1,0,0:0:0:0:
245,185,73054,1,8,0:0:0:0:
245,185,73251,1,0,0:0:0:0:
241,187,73449,1,0,0:0:0:0:
241,187,73547,1,8,0:0:0:0:
214,191,73646,1,8,0:0:0:0:
245,185,73843,1,8,0:0:0:0:
245,185,74041,1,8,0:0:0:0:
245,185,74139,1,8,0:0:0:0:
245,185,74238,1,0,0:0:0:0:
241,187,74337,1,8,0:0:0:0:
241,187,74435,1,0,0:0:0:0:
231,182,74633,1,8,0:0:0:0:
231,182,74830,1,0,0:0:0:0:
222,186,74929,1,0,0:0:0:0:
227,179,75027,1,8,0:0:0:0:
232,183,75126,1,0,0:0:0:0:
223,181,75225,1,8,0:0:0:0:
224,179,75422,1,0,0:0:0:0:
223,178,75620,1,0,0:0:0:0:
217,182,75718,1,0,0:0:0:0:
231,182,75817,1,8,0:0:0:0:
227,179,75916,1,8,0:0:0:0:
231,182,76014,1,0,0:0:0:0:
231,182,76212,1,0,0:0:0:0:
224,179,76409,1,8,0:0:0:0:
220,187,76508,1,0,0:0:0:0:
223,178,76606,1,8,0:0:0:0:
220,173,76804,1,8,0:0:0:0:
227,179,76902,1,0,0:0:0:0:
221,174,77001,1,8,0:0:0:0:
221,174,77199,1,8,0:0:0:0:
212,177,77297,1,8,0:0:0:0:
211,177,77396,1,0,0:0:0:0:
208,175,77593,1,0,0:0:0:0:
221,179,77791,1,8,0:0:0:0:
221,179,77889,1,8,0:0:0:0:
221,174,77988,1,0,0:0:0:0:
208,174,78087,1,0,0:0:0:0:
205,172,78185,1,8,0:0:0:0:
212,177,78284,1,8,0:0:0:0:
211,177,78383,1,0,0:0:0:0:
208,175,78481,1,0,0:0:0:0:
208,175,78580,1,8,0:0:0:0:
220,173,78679,1,8,0:0:0:0:
221,179,78777,1,0,0:0:0:0:
188,166,78975,1,8,0:0:0:0:
227,187,79074,1,8,0:0:0:0:
245,185,79172,1,0,0:0:0:0:
245,185,79370,1,8,0:0:0:0:
245,185,79567,1,0,0:0:0:0:
220,173,79666,1,8,0:0:0:0:
241,187,79764,1,0,0:0:0:0:
234,200,79863,1,0,0:0:0:0:
214,191,79962,1,8,0:0:0:0:
245,185,80159,1,8,0:0:0:0:
245,185,80356,1,8,0:0:0:0:
244,187,80455,1,8,0:0:0:0:
227,203,80554,1,8,0:0:0:0:
224,208,80652,1,0,0:0:0:0:
228,205,80751,1,8,0:0:0:0:
227,207,80949,1,8,0:0:0:0:
231,182,81146,1,0,0:0:0:0:
220,193,81245,1,0,0:0:0:0:
227,179,81343,1,8,0:0:0:0:
227,207,81442,1,8,0:0:0:0:
227,203,81541,1,0,0:0:0:0:
224,179,81738,1,0,0:0:0:0:
223,178,81935,1,0,0:0:0:0:
217,182,82034,1,0,0:0:0:0:
231,182,82133,1,8,0:0:0:0:
227,179,82231,1,8,0:0:0:0:
231,182,82330,1,0,0:0:0:0:
231,182,82527,1,0,0:0:0:0:
224,179,82725,1,8,0:0:0:0:
220,187,82824,1,0,0:0:0:0:
223,178,82922,1,8,0:0:0:0:
220,173,83120,1,8,0:0:0:0:
227,179,83218,1,0,0:0:0:0:
221,174,83317,1,8,0:0:0:0:
221,174,83514,1,8,0:0:0:0:
212,177,83613,1,8,0:0:0:0:
211,177,83712,1,4,0:0:0:0:
212,162,84106,1,4,0:0:0:0:
212,162,84501,5,4,0:0:0:0:
212,162,84896,1,4,0:0:0:0:
199,159,85291,1,12,0:0:0:0:
198,187,86080,1,8,0:0:0:0:
198,187,86672,1,8,0:0:0:0:
198,187,86870,1,12,0:0:0:0:
187,197,87067,1,8,0:0:0:0:
197,197,87659,1,8,0:0:0:0:
181,202,88251,1,8,0:0:0:0:
181,202,88449,1,4,0:0:0:0:
206,213,88646,1,0,0:0:0:0:
200,202,89830,1,0,0:0:0:0:
200,202,90027,1,0,0:0:0:0:
200,202,90225,1,0,0:0:0:0:
206,200,90422,1,12,0:0:0:0:
206,201,90817,1,12,0:0:0:0:
200,202,91212,1,12,0:0:0:0:
200,204,91606,1,4,0:0:0:0:
200,204,92396,1,0,0:0:0:0:
200,204,92988,1,0,0:0:0:0:
204,197,93185,1,12,0:0:0:0:
204,197,93383,1,8,0:0:0:0:
206,195,93975,1,0,0:0:0:0:
216,197,94567,1,8,0:0:0:0:
215,196,94764,1,4,0:0:0:0:
216,197,94962,1,0,0:0:0:0:
208,188,96146,1,0,0:0:0:0:
208,188,96343,1,0,0:0:0:0:
208,188,96541,1,0,0:0:0:0:
200,177,96738,1,8,0:0:0:0:
200,178,96837,1,8,0:0:0:0:
200,178,96935,1,8,0:0:0:0:
199,182,97133,1,8,0:0:0:0:
199,182,97231,1,8,0:0:0:0:
199,182,97330,1,8,0:0:0:0:
199,180,97527,1,8,0:0:0:0:
200,177,97626,1,8,0:0:0:0:
200,177,97725,1,8,0:0:0:0:
200,178,97824,1,8,0:0:0:0:
200,178,97922,1,4,0:0:0:0:
206,178,98317,1,0,0:0:0:0:
211,174,98712,1,8,0:0:0:0:
199,182,99106,1,8,0:0:0:0:
211,174,99501,1,12,0:0:0:0:
209,183,99896,1,0,0:0:0:0:
199,189,100291,1,0,0:0:0:0:
209,183,100685,1,0,0:0:0:0:
196,177,101080,1,12,0:0:0:0:
199,181,101475,1,8,0:0:0:0:
207,181,101870,1,0,0:0:0:0:
207,181,102264,1,8,0:0:0:0:
207,181,102659,1,12,0:0:0:0:
207,181,103054,1,8,0:0:0:0:
207,181,103449,1,8,0:0:0:0:
207,172,103547,1,0,0:0:0:0:
210,168,103646,1,0,0:0:0:0:
209,168,103745,1,0,0:0:0:0:
208,167,103843,1,8,0:0:0:0:
208,169,103942,1,0,0:0:0:0:
208,169,104041,1,0,0:0:0:0:
208,169,104139,1,0,0:0:0:0:
196,178,104238,1,8,0:0:0:0:
196,178,104435,1,0,0:0:0:0:
204,173,104534,1,0,0:0:0:0:
205,172,104633,1,8,0:0:0:0:
204,167,104731,1,8,0:0:0:0:
188,155,104830,1,0,0:0:0:0:
203,165,105027,1,8,0:0:0:0:
203,163,105126,1,8,0:0:0:0:
204,164,105225,1,0,0:0:0:0:
202,163,105324,1,0,0:0:0:0:
202,163,105422,1,8,0:0:0:0:
199,164,105521,1,8,0:0:0:0:
186,154,105620,1,0,0:0:0:0:
188,155,105817,1,0,0:0:0:0:
186,152,105916,1,0,0:0:0:0:
203,165,106014,1,0,0:0:0:0:
203,163,106113,1,0,0:0:0:0:
204,164,106212,1,8,0:0:0:0:
218,159,106310,1,8,0:0:0:0:
210,162,106409,1,0,0:0:0:0:
207,162,106606,1,8,0:0:0:0:
204,167,106705,1,8,0:0:0:0:
204,167,106804,1,0,0:0:0:0:
204,167,106902,1,0,0:0:0:0:
203,165,107001,1,8,0:0:0:0:
203,163,107100,1,8,0:0:0:0:
204,164,107199,1,8,0:0:0:0:
201,177,107396,1,8,0:0:0:0:
199,177,107495,1,8,0:0:0:0:
199,177,107593,1,0,0:0:0:0:
200,176,107692,1,0,0:0:0:0:
200,176,107791,1,8,0:0:0:0:
200,176,107889,1,8,0:0:0:0:
201,176,107988,1,0,0:0:0:0:
201,174,108185,1,8,0:0:0:0:
201,177,108284,1,8,0:0:0:0:
200,165,108383,1,8,0:0:0:0:
203,171,108481,1,0,0:0:0:0:
199,177,108580,1,0,0:0:0:0:
200,176,108679,1,8,0:0:0:0:
200,176,108777,1,0,0:0:0:0:
201,176,108975,1,8,0:0:0:0:
201,176,109074,1,8,0:0:0:0:
201,174,109172,1,0,0:0:0:0:
201,177,109271,1,0,0:0:0:0:
206,172,109370,1,8,0:0:0:0:
203,171,109468,1,8,0:0:0:0:
205,172,109567,1,0,0:0:0:0:
200,176,109764,1,8,0:0:0:0:
200,176,109863,1,8,0:0:0:0:
201,176,109962,1,0,0:0:0:0:
175,173,110060,1,8,0:0:0:0:
201,174,110159,1,8,0:0:0:0:
206,172,110356,1,8,0:0:0:0:
198,176,110455,1,8,0:0:0:0:
192,180,110554,1,0,0:0:0:0:
192,179,110751,1,0,0:0:0:0:
236,206,110850,1,0,0:0:0:0:
236,206,110949,1,8,0:0:0:0:
228,207,111047,1,8,0:0:0:0:
224,210,111146,1,0,0:0:0:0:
198,230,111245,1,0,0:0:0:0:
223,211,111343,1,8,0:0:0:0:
224,211,111541,1,8,0:0:0:0:
222,212,111639,1,0,0:0:0:0:
222,212,111738,1,8,0:0:0:0:
222,213,111837,1,8,0:0:0:0:
233,236,111935,1,0,0:0:0:0:
233,236,112034,1,8,0:0:0:0:
233,236,112133,1,0,0:0:0:0:
209,234,112330,1,0,0:0:0:0:
230,229,112527,1,0,0:0:0:0:
201,225,112626,1,0,0:0:0:0:
229,227,112725,1,8,0:0:0:0:
229,226,112824,1,8,0:0:0:0:
229,225,112922,1,0,0:0:0:0:
195,204,113120,1,8,0:0:0:0:
225,221,113218,1,8,0:0:0:0:
226,222,113317,1,8,0:0:0:0:
219,209,113416,1,8,0:0:0:0:
216,203,113514,1,8,0:0:0:0:
229,231,113613,1,8,0:0:0:0:
229,227,113712,1,0,0:0:0:0:
192,179,113909,1,0,0:0:0:0:
236,206,114008,1,0,0:0:0:0:
236,206,114106,1,8,0:0:0:0:
228,207,114205,1,8,0:0:0:0:
224,210,114304,1,0,0:0:0:0:
222,210,114402,1,8,0:0:0:0:
223,211,114501,1,8,0:0:0:0:
224,211,114699,1,8,0:0:0:0:
222,212,114797,1,0,0:0:0:0:
222,212,114896,1,8,0:0:0:0:
222,213,114995,1,8,0:0:0:0:
233,236,115093,1,0,0:0:0:0:
233,236,115192,1,8,0:0:0:0:
233,236,115291,1,0,0:0:0:0:
209,234,115488,1,0,0:0:0:0:
230,229,115685,1,0,0:0:0:0:
201,225,115784,1,0,0:0:0:0:
229,227,115883,1,8,0:0:0:0:
229,226,115981,1,8,0:0:0:0:
229,225,116080,1,0,0:0:0:0:
195,204,116277,1,8,0:0:0:0:
225,221,116376,1,8,0:0:0:0:
226,222,116475,1,8,0:0:0:0:
219,209,116574,1,8,0:0:0:0:
225,222,116672,1,8,0:0:0:0:
229,231,116771,1,8,0:0:0:0:
229,227,116870,1,0,0:0:0:0:
192,179,117067,1,0,0:0:0:0:
236,206,117166,1,0,0:0:0:0:
236,206,117264,1,8,0:0:0:0:
228,207,117363,1,8,0:0:0:0:
224,210,117462,1,0,0:0:0:0:
222,210,117560,1,8,0:0:0:0:
223,211,117659,1,8,0:0:0:0:
224,211,117856,1,8,0:0:0:0:
222,212,117955,1,0,0:0:0:0:
222,212,118054,1,8,0:0:0:0:
222,213,118152,1,8,0:0:0:0:
233,236,118251,1,0,0:0:0:0:
233,236,118350,1,8,0:0:0:0:
233,236,118449,1,0,0:0:0:0:
209,234,118646,1,0,0:0:0:0:
230,229,118843,1,0,0:0:0:0:
201,225,118942,1,0,0:0:0:0:
229,227,119041,1,8,0:0:0:0:
229,226,119139,1,8,0:0:0:0:
229,225,119238,1,0,0:0:0:0:
195,204,119435,1,8,0:0:0:0:
225,221,119534,1,8,0:0:0:0:
226,222,119633,1,8,0:0:0:0:
219,209,119731,1,8,0:0:0:0:
225,222,119830,1,8,0:0:0:0:
229,231,119929,1,8,0:0:0:0:
229,227,120027,1,0,0:0:0:0:
191,159,120225,1,0,0:0:0:0:
191,159,120324,1,0,0:0:0:0:
191,159,120422,1,8,0:0:0:0:
191,159,120521,1,8,0:0:0:0:
192,159,120620,1,0,0:0:0:0:
192,159,120718,1,0,0:0:0:0:
192,159,120817,1,8,0:0:0:0:
189,163,121014,1,0,0:0:0:0:
191,159,121113,1,0,0:0:0:0:
191,159,121212,1,8,0:0:0:0:
191,159,121310,1,8,0:0:0:0:
191,159,121409,1,0,0:0:0:0:
178,167,121508,1,8,0:0:0:0:
178,167,121606,1,0,0:0:0:0:
187,173,121804,1,0,0:0:0:0:
176,167,122001,1,8,0:0:0:0:
188,166,122100,1,8,0:0:0:0:
188,166,122199,1,0,0:0:0:0:
189,166,122297,1,8,0:0:0:0:
189,166,122396,1,4,0:0:0:0:
188,166,123185,1,8,0:0:0:0:
232,207,123284,1,8,0:0:0:0:
245,185,123383,1,0,0:0:0:0:
245,185,123580,1,8,0:0:0:0:
245,185,123777,1,0,0:0:0:0:
241,187,123975,1,0,0:0:0:0:
241,187,124074,1,8,0:0:0:0:
214,191,124172,1,8,0:0:0:0:
245,185,124370,1,8,0:0:0:0:
245,185,124567,1,8,0:0:0:0:
245,185,124666,1,8,0:0:0:0:
245,185,124764,1,0,0:0:0:0:
241,187,124863,1,8,0:0:0:0:
241,187,124962,1,0,0:0:0:0:
231,182,125159,1,8,0:0:0:0:
231,182,125356,1,0,0:0:0:0:
222,186,125455,1,0,0:0:0:0:
227,179,125554,1,8,0:0:0:0:
232,183,125652,1,0,0:0:0:0:
223,181,125751,1,8,0:0:0:0:
224,179,125949,1,0,0:0:0:0:
223,178,126146,1,0,0:0:0:0:
217,182,126245,1,0,0:0:0:0:
231,182,126343,1,8,0:0:0:0:
227,179,126442,1,8,0:0:0:0:
231,182,126541,1,0,0:0:0:0:
231,182,126738,1,0,0:0:0:0:
224,179,126935,1,8,0:0:0:0:
220,187,127034,1,0,0:0:0:0:
223,178,127133,1,8,0:0:0:0:
220,173,127330,1,8,0:0:0:0:
227,179,127429,1,0,0:0:0:0:
221,174,127527,1,8,0:0:0:0:
221,174,127725,1,8,0:0:0:0:
212,177,127824,1,8,0:0:0:0:
211,177,127922,1,0,0:0:0:0:
208,175,128120,1,0,0:0:0:0:
221,179,128317,1,8,0:0:0:0:
221,179,128416,1,8,0:0:0:0:
221,174,128514,1,0,0:0:0:0:
208,174,128613,1,0,0:0:0:0:
205,172,128712,1,8,0:0:0:0:
212,177,128810,1,8,0:0:0:0:
211,177,128909,1,0,0:0:0:0:
208,175,129008,1,0,0:0:0:0:
208,175,129106,1,8,0:0:0:0:
220,173,129205,1,8,0:0:0:0:
221,179,129304,1,0,0:0:0:0:
188,166,129501,1,8,0:0:0:0:
227,187,129600,1,8,0:0:0:0:
245,185,129699,1,0,0:0:0:0:
245,185,129896,1,8,0:0:0:0:
245,185,130093,1,0,0:0:0:0:
220,173,130192,1,8,0:0:0:0:
241,187,130291,1,0,0:0:0:0:
234,200,130389,1,0,0:0:0:0:
214,191,130488,1,8,0:0:0:0:
245,185,130685,1,8,0:0:0:0:
245,185,130883,1,8,0:0:0:0:
244,187,130981,1,8,0:0:0:0:
227,203,131080,1,8,0:0:0:0:
224,208,131179,1,0,0:0:0:0:
228,205,131277,1,8,0:0:0:0:
227,207,131475,1,8,0:0:0:0:
231,182,131672,1,0,0:0:0:0:
220,193,131771,1,0,0:0:0:0:
227,179,131870,1,8,0:0:0:0:
227,207,131968,1,8,0:0:0:0:
227,203,132067,1,0,0:0:0:0:
224,179,132264,1,0,0:0:0:0:
223,178,132462,1,0,0:0:0:0:
217,182,132560,1,0,0:0:0:0:
231,182,132659,1,8,0:0:0:0:
227,179,132758,1,8,0:0:0:0:
231,182,132856,5,0,0:0:0:0:
231,182,133054,1,0,0:0:0:0:
224,179,133251,1,8,0:0:0:0:
220,187,133350,1,0,0:0:0:0:
223,178,133449,1,8,0:0:0:0:
220,173,133646,1,8,0:0:0:0:
227,179,133745,1,0,0:0:0:0:
221,174,133843,1,8,0:0:0:0:
221,174,134041,1,8,0:0:0:0:
212,177,134139,1,8,0:0:0:0:
211,177,134238,1,4,0:0:0:0:
212,162,134633,5,4,0:0:0:0:
212,162,135027,1,4,0:0:0:0:
212,162,135422,1,4,0:0:0:0:
199,159,135817,1,12,0:0:0:0:
201,158,136606,1,8,0:0:0:0:
201,158,137001,1,8,0:0:0:0:
201,158,137199,1,0,0:0:0:0:
201,158,137396,1,12,0:0:0:0:
201,158,137593,1,12,0:0:0:0:
201,158,138185,1,8,0:0:0:0:
201,158,138777,1,8,0:0:0:0:
201,158,138975,1,4,0:0:0:0:
201,158,139172,1,4,0:0:0:0:
196,157,140356,1,0,0:0:0:0:
196,157,140554,1,0,0:0:0:0:
196,157,140751,1,0,0:0:0:0:
202,157,140949,1,4,0:0:0:0:
204,157,141343,1,4,0:0:0:0:
203,157,141738,1,4,0:0:0:0:
204,157,142133,1,8,0:0:0:0:
265,161,142922,1,8,0:0:0:0:
242,162,143514,1,0,0:0:0:0:
242,162,143712,1,12,0:0:0:0:
242,162,143909,1,8,0:0:0:0:
229,162,144501,1,8,0:0:0:0:
236,166,145093,1,8,0:0:0:0:
229,162,145291,1,4,0:0:0:0:
229,162,145488,1,0,0:0:0:0:
230,184,146672,1,0,0:0:0:0:
230,184,146870,1,0,0:0:0:0:
226,190,147067,1,0,0:0:0:0:
195,177,148449,1,12,0:0:0:0:
190,183,148646,1,0,0:0:0:0:
188,183,148745,1,0,0:0:0:0:
188,184,148843,1,8,0:0:0:0:
206,192,148942,1,8,0:0:0:0:
206,192,149041,1,0,0:0:0:0:
203,193,149139,1,0,0:0:0:0:
206,188,149238,1,12,0:0:0:0:
206,192,149435,1,0,0:0:0:0:
206,193,149534,1,0,0:0:0:0:
206,193,149633,1,8,0:0:0:0:
206,193,149731,1,0,0:0:0:0:
206,193,149830,1,0,0:0:0:0:
206,192,149929,1,8,0:0:0:0:
200,161,150027,1,0,0:0:0:0:
223,159,150126,1,0,0:0:0:0:
201,164,150225,1,0,0:0:0:0:
203,172,150324,1,8,0:0:0:0:
202,160,150422,1,0,0:0:0:0:
202,158,150521,1,0,0:0:0:0:
190,147,150620,1,8,0:0:0:0:
190,147,150718,1,8,0:0:0:0:
190,147,150817,1,0,0:0:0:0:
210,146,150916,1,8,0:0:0:0:
190,147,151014,1,8,0:0:0:0:
190,147,151113,1,8,0:0:0:0:
179,158,151212,1,8,0:0:0:0:
190,147,151310,1,0,0:0:0:0:
193,150,151409,1,8,0:0:0:0:
211,181,151508,1,0,0:0:0:0:
218,176,151606,1,12,0:0:0:0:
217,171,151804,1,0,0:0:0:0:
219,170,151902,1,0,0:0:0:0:
220,170,152001,1,8,0:0:0:0:
206,179,152100,1,8,0:0:0:0:
206,180,152199,1,0,0:0:0:0:
217,176,152297,1,0,0:0:0:0:
217,176,152396,1,12,0:0:0:0:
206,192,152593,1,0,0:0:0:0:
206,193,152692,1,0,0:0:0:0:
206,193,152791,1,8,0:0:0:0:
206,193,152889,1,0,0:0:0:0:
206,193,152988,1,0,0:0:0:0:
206,192,153087,1,8,0:0:0:0:
200,161,153185,1,0,0:0:0:0:
223,159,153284,1,0,0:0:0:0:
201,164,153383,1,0,0:0:0:0:
203,172,153481,1,8,0:0:0:0:
202,160,153580,1,0,0:0:0:0:
202,158,153679,1,0,0:0:0:0:
190,147,153777,1,8,0:0:0:0:
190,147,153876,1,8,0:0:0:0:
190,147,153975,1,0,0:0:0:0:
210,146,154074,1,8,0:0:0:0:
190,147,154172,1,8,0:0:0:0:
190,147,154271,1,8,0:0:0:0:
179,158,154370,1,8,0:0:0:0:
190,147,154468,1,0,0:0:0:0:
193,150,154567,1,8,0:0:0:0:
211,181,154666,1,0,0:0:0:0:
218,176,154764,1,12,0:0:0:0:
217,171,154962,1,0,0:0:0:0:
219,170,155060,1,0,0:0:0:0:
220,170,155159,1,8,0:0:0:0:
206,179,155258,1,8,0:0:0:0:
206,180,155356,1,0,0:0:0:0:
217,176,155455,1,0,0:0:0:0:
217,176,155554,1,12,0:0:0:0:
206,192,155751,1,0,0:0:0:0:
206,193,155850,1,0,0:0:0:0:
206,193,155949,1,8,0:0:0:0:
206,193,156047,1,0,0:0:0:0:
206,193,156146,1,0,0:0:0:0:
206,192,156245,1,8,0:0:0:0:
200,161,156343,1,0,0:0:0:0:
223,159,156442,1,0,0:0:0:0:
201,164,156541,1,0,0:0:0:0:
203,172,156639,1,8,0:0:0:0:
202,160,156738,1,0,0:0:0:0:
202,158,156837,1,0,0:0:0:0:
190,147,156935,1,8,0:0:0:0:
190,147,157034,1,8,0:0:0:0:
190,147,157133,1,0,0:0:0:0:
210,146,157231,1,8,0:0:0:0:
190,147,157330,1,8,0:0:0:0:
190,147,157429,1,8,0:0:0:0:
179,158,157527,1,8,0:0:0:0:
190,147,157626,1,0,0:0:0:0:
193,150,157725,1,8,0:0:0:0:
211,181,157824,1,0,0:0:0:0:
218,176,157922,1,12,0:0:0:0:
217,171,158120,1,0,0:0:0:0:
219,170,158218,1,0,0:0:0:0:
220,170,158317,1,8,0:0:0:0:
206,179,158416,1,8,0:0:0:0:
206,180,158514,1,0,0:0:0:0:
217,176,158613,1,0,0:0:0:0:
217,176,158712,1,12,0:0:0:0:
206,192,158909,1,0,0:0:0:0:
206,193,159008,1,0,0:0:0:0:
206,193,159106,1,8,0:0:0:0:
206,193,159205,1,0,0:0:0:0:
206,193,159304,1,0,0:0:0:0:
206,192,159402,1,8,0:0:0:0:
200,161,159501,1,0,0:0:0:0:
223,159,159600,1,0,0:0:0:0:
201,164,159699,1,0,0:0:0:0:
203,172,159797,1,8,0:0:0:0:
202,160,159896,1,0,0:0:0:0:
202,158,159995,1,0,0:0:0:0:
190,147,160093,1,8,0:0:0:0:
190,147,160192,1,8,0:0:0:0:
190,147,160291,1,0,0:0:0:0:
210,146,160389,1,8,0:0:0:0:
190,147,160488,1,8,0:0:0:0:
190,147,160587,1,8,0:0:0:0:
179,158,160685,1,8,0:0:0:0:
190,147,160784,1,0,0:0:0:0:
193,150,160883,1,8,0:0:0:0:
211,181,160981,1,0,0:0:0:0:
218,176,161080,1,12,0:0:0:0:
181,164,161277,1,8,0:0:0:0:
178,167,161376,1,8,0:0:0:0:
