osu file format v14

[General]
AudioFilename: audio.mp3
AudioLeadIn: 0
PreviewTime: 10335
Countdown: 0
SampleSet: Normal
StackLeniency: 0
Mode: 1
LetterboxInBreaks: 0
WidescreenStoryboard: 1

[Editor]
DistanceSpacing: 1
BeatDivisor: 8
GridSize: 32
TimelineZoom: 3.399999

[Metadata]
Title:3 S'
TitleUnicode:3 S'
Artist:Mindless Self Indulgence
ArtistUnicode:Mindless Self Indulgence
Creator:koul
Version:Muzukashii
Source:
Tags:if english rock stupid sadistic and & suicidal alternative 3s' industrial nu pussy jungle punk if 3 s <3 less than 3 liku msi the_law the law
BeatmapID:4101658
BeatmapSetID:1976167

[Difficulty]
HPDrainRate:5.5
CircleSize:5
OverallDifficulty:5
ApproachRate:10
SliderMultiplier:1.4
SliderTickRate:1

[Events]
//Background and Video events
0,0,"goaway.png",0,80
//Break Periods
//Storyboard Layer 0 (Background)
//Storyboard Layer 1 (Fail)
//Storyboard Layer 2 (Pass)
//Storyboard Layer 3 (Foreground)
//Storyboard Layer 4 (Overlay)
//Storyboard Sound Samples

[TimingPoints]
230,315.78947368421,4,1,0,80,1,0
230,-100,4,1,0,80,0,0
7887,-100,4,1,0,80,0,0
9861,-100,4,1,0,80,0,0
10019,-100,4,1,0,84,0,0
10098,-100,4,1,0,88,0,0
10177,-100,4,1,0,92,0,0
10256,-100,4,1,0,96,0,0
10335,-100,4,1,0,100,0,1
20440,-100,4,1,0,100,0,0
20756,-100,4,1,0,60,0,0
22335,-100,4,1,0,70,0,0
22887,-100,4,1,0,80,0,0
32440,-100,4,1,0,80,0,0
32756,-100,4,1,0,85,0,0
32914,-100,4,1,0,90,0,0
33072,-100,4,1,0,100,0,1
43177,-100,4,1,0,80,0,0
52808,-100,4,1,0,80,0,0
52966,-100,4,1,0,87,0,0
53045,-100,4,1,0,90,0,0
53124,-100,4,1,0,93,0,0
53203,-100,4,1,0,97,0,0
53282,-100,4,1,0,100,0,1
63387,-100,4,1,0,100,0,0
63703,-100,4,1,0,60,0,0
65282,-100,4,1,0,70,0,0
65597,-100,4,1,0,70,0,0
65835,-100,4,1,0,80,0,0
75703,-100,4,1,0,85,0,0
75861,-100,4,1,0,90,0,0
75945,-100,4,1,0,90,0,0
77045,-100,4,1,0,100,0,0
77282,-100,4,1,0,100,0,0
77361,-100,4,1,0,100,0,0
77519,-100,4,1,0,90,0,0
77676,-100,4,1,0,100,0,0
77913,-100,4,1,0,100,0,0
77992,-100,4,1,0,100,0,0
78308,-100,4,1,0,90,0,0
79571,-100,4,1,0,100,0,0
79808,-100,4,1,0,100,0,0
79887,-100,4,1,0,100,0,0
80045,-100,4,1,0,90,0,0
80203,-100,4,1,0,100,0,0
80440,-100,4,1,0,100,0,0
80519,-100,4,1,0,100,0,0
80835,-100,4,1,0,90,0,0
80914,-100,4,1,0,90,0,0
82098,-100,4,1,0,100,0,0
82335,-100,4,1,0,100,0,0
82414,-100,4,1,0,100,0,0
82572,-100,4,1,0,90,0,0
82730,-100,4,1,0,100,0,0
82967,-100,4,1,0,100,0,0
83435,-100,4,1,0,70,0,0
86124,-100,4,1,0,75,0,0
88651,-100,4,1,0,90,0,0
98756,-100,4,1,0,100,0,1
108940,-100,4,1,0,60,0,0
110835,-100,4,1,0,70,0,0
111071,-100,4,1,0,70,0,0
111382,-100,4,1,0,80,0,0
120861,-100,4,1,0,100,0,0
131509,-100,4,1,0,60,0,0
131588,-100,4,1,0,40,0,0
131677,-100,4,1,0,5,0,0

[HitObjects]
192,130,230,5,0,0:0:0:0:
232,130,545,1,8,0:0:0:0:
239,132,703,1,0,0:0:0:0:
241,132,1019,1,8,0:0:0:0:
244,130,1335,1,0,0:0:0:0:
246,130,1651,1,8,0:0:0:0:
244,130,1966,1,0,0:0:0:0:
244,130,2124,1,8,0:0:0:0:
246,130,2282,1,0,0:0:0:0:
246,130,2440,1,8,0:0:0:0:
246,130,2519,1,8,0:0:0:0:
250,127,2598,1,8,0:0:0:0:
344,190,2756,1,12,0:0:0:0:
262,122,3072,1,8,0:0:0:0:
262,122,3229,1,0,0:0:0:0:
306,110,3545,1,0,0:0:0:0:
306,110,3861,1,8,0:0:0:0:
306,110,4493,1,8,0:0:0:0:
306,110,4808,1,0,0:0:0:0:
342,105,4966,1,8,0:0:0:0:
342,105,5045,1,8,0:0:0:0:
342,105,5124,1,8,0:0:0:0:
346,131,5282,1,4,0:0:0:0:
232,130,5598,1,8,0:0:0:0:
239,132,5756,1,0,0:0:0:0:
241,132,6072,1,8,0:0:0:0:
244,130,6387,1,0,0:0:0:0:
246,130,6703,1,8,0:0:0:0:
244,130,7019,1,0,0:0:0:0:
244,130,7177,1,8,0:0:0:0:
246,130,7335,1,0,0:0:0:0:
246,130,7493,1,8,0:0:0:0:
246,130,7572,1,8,0:0:0:0:
250,127,7651,1,8,0:0:0:0:
344,190,7808,1,12,0:0:0:0:
262,122,8124,1,8,0:0:0:0:
262,122,8282,1,0,0:0:0:0:
306,110,8598,1,0,0:0:0:0:
306,110,8914,1,8,0:0:0:0:
306,110,9545,1,8,0:0:0:0:
306,110,9861,1,0,0:0:0:0:
342,105,10019,1,8,0:0:0:0:
342,105,10098,1,8,0:0:0:0:
342,105,10177,1,8,0:0:0:0:
344,190,10335,1,12,0:0:0:0:
363,84,10651,1,8,0:0:0:0:
363,84,10808,1,0,0:0:0:0:
351,120,10887,1,0,0:0:0:0:
363,84,10966,1,0,0:0:0:0:
363,84,11124,1,8,0:0:0:0:
363,84,11282,1,0,0:0:0:0:
276,37,11440,1,8,0:0:0:0:
351,92,11756,1,0,0:0:0:0:
386,76,12072,1,8,0:0:0:0:
351,92,12229,1,0,0:0:0:0:
351,92,12387,1,8,0:0:0:0:
386,76,12545,1,8,0:0:0:0:
304,86,12861,1,8,0:0:0:0:
347,85,13177,1,8,0:0:0:0:
342,102,13493,1,8,0:0:0:0:
347,85,13651,1,0,0:0:0:0:
351,133,13808,1,8,0:0:0:0:
347,85,13966,1,8,0:0:0:0:
354,141,14045,1,8,0:0:0:0:
316,84,14124,1,8,0:0:0:0:
351,133,14282,1,0,0:0:0:0:
229,175,14598,1,0,0:0:0:0:
378,102,14756,1,8,0:0:0:0:
378,102,14914,1,8,0:0:0:0:
378,102,15072,1,0,0:0:0:0:
378,102,15151,1,0,0:0:0:0:
378,102,15229,1,0,0:0:0:0:
378,102,15387,1,12,0:0:0:0:
357,83,15703,1,8,0:0:0:0:
357,83,15782,1,8,0:0:0:0:
357,83,15861,1,8,0:0:0:0:
361,82,16019,1,0,0:0:0:0:
367,81,16177,1,0,0:0:0:0:
144,209,16256,1,0,0:0:0:0:
170,203,16335,1,0,0:0:0:0:
367,81,16493,1,0,0:0:0:0:
374,78,16651,1,8,0:0:0:0:
378,77,16966,1,8,0:0:0:0:
378,77,17282,1,0,0:0:0:0:
381,76,17440,1,0,0:0:0:0:
381,59,17598,1,8,0:0:0:0:
381,59,17677,1,8,0:0:0:0:
381,59,17756,1,8,0:0:0:0:
393,56,17914,1,8,0:0:0:0:
334,285,18229,1,0,0:0:0:0:
357,65,18545,1,8,0:0:0:0:
396,46,18861,1,8,0:0:0:0:
393,56,19019,1,0,0:0:0:0:
390,64,19098,1,0,0:0:0:0:
393,56,19177,1,0,0:0:0:0:
393,56,19335,1,8,0:0:0:0:
390,64,19493,1,0,0:0:0:0:
390,64,19651,1,0,0:0:0:0:
241,25,19808,1,8,0:0:0:0:
393,85,20124,1,8,0:0:0:0:
393,85,20440,1,4,0:0:0:0:
311,87,22493,1,0,0:0:0:0:
340,104,22651,1,8,0:0:0:0:
344,190,22966,1,12,0:0:0:0:
255,190,23203,1,0,0:0:0:0:
351,96,23440,1,8,0:0:0:0:
351,96,23598,1,0,0:0:0:0:
351,96,23835,1,8,0:0:0:0:
351,142,24072,1,8,0:0:0:0:
356,144,24229,1,0,0:0:0:0:
479,254,24466,1,0,0:0:0:0:
363,154,24703,1,8,0:0:0:0:
363,154,25019,1,0,0:0:0:0:
243,169,25493,1,4,0:0:0:0:
277,174,25729,1,8,0:0:0:0:
259,146,25966,1,0,0:0:0:0:
342,174,26124,1,8,0:0:0:0:
303,177,26598,1,0,0:0:0:0:
303,171,26756,1,8,0:0:0:0:
307,72,27072,1,8,0:0:0:0:
358,51,27229,1,0,0:0:0:0:
61,92,27545,1,8,0:0:0:0:
242,170,28019,1,4,0:0:0:0:
242,170,28256,1,8,0:0:0:0:
385,88,28493,1,0,0:0:0:0:
385,88,28651,1,8,0:0:0:0:
356,132,29124,1,0,0:0:0:0:
356,132,29282,1,8,0:0:0:0:
356,132,29598,1,8,0:0:0:0:
395,133,29756,1,0,0:0:0:0:
350,184,30072,1,8,0:0:0:0:
268,148,30545,1,4,0:0:0:0:
396,147,30782,1,8,0:0:0:0:
435,158,31019,1,0,0:0:0:0:
435,158,31177,1,8,0:0:0:0:
226,158,31493,1,0,0:0:0:0:
310,103,31808,1,8,0:0:0:0:
310,103,31966,1,0,0:0:0:0:
310,103,32124,1,8,0:0:0:0:
324,115,32440,1,8,0:0:0:0:
312,114,32756,1,8,0:0:0:0:
280,145,32914,1,8,0:0:0:0:
280,145,33072,1,4,0:0:0:0:
320,107,33387,1,4,0:0:0:0:
325,97,33545,1,4,0:0:0:0:
325,97,33703,1,12,0:0:0:0:
318,97,34335,1,12,0:0:0:0:
318,97,34651,1,4,0:0:0:0:
318,97,34808,1,12,0:0:0:0:
318,97,35124,1,4,0:0:0:0:
318,97,35282,1,12,0:0:0:0:
323,95,35598,1,4,0:0:0:0:
323,95,35914,1,4,0:0:0:0:
323,95,36072,1,4,0:0:0:0:
323,95,36229,1,12,0:0:0:0:
260,103,36861,1,12,0:0:0:0:
260,103,37177,1,4,0:0:0:0:
260,103,37335,1,12,0:0:0:0:
260,103,37651,1,4,0:0:0:0:
260,103,37808,1,12,0:0:0:0:
260,103,38124,1,4,0:0:0:0:
344,190,38598,1,4,0:0:0:0:
260,103,38756,1,12,0:0:0:0:
255,190,39072,1,8,0:0:0:0:
255,190,39230,1,8,0:0:0:0:
344,190,39387,1,4,0:0:0:0:
266,99,39703,1,0,0:0:0:0:
311,98,40019,1,12,0:0:0:0:
320,82,40177,1,0,0:0:0:0:
320,82,40335,1,8,0:0:0:0:
302,92,40651,1,4,0:0:0:0:
302,92,41124,1,0,0:0:0:0:
302,92,41282,1,12,0:0:0:0:
255,190,41598,1,8,0:0:0:0:
255,190,41756,1,8,0:0:0:0:
344,190,41914,1,4,0:0:0:0:
313,107,42229,1,0,0:0:0:0:
313,98,42545,1,12,0:0:0:0:
313,98,42703,1,0,0:0:0:0:
313,98,42861,1,0,0:0:0:0:
255,190,43177,1,8,0:0:0:0:
232,130,43493,1,8,0:0:0:0:
239,132,43651,1,0,0:0:0:0:
241,132,43967,1,8,0:0:0:0:
244,130,44283,1,0,0:0:0:0:
246,130,44599,1,8,0:0:0:0:
244,130,45072,1,8,0:0:0:0:
246,130,45230,1,0,0:0:0:0:
246,130,45388,1,8,0:0:0:0:
246,130,45467,1,8,0:0:0:0:
250,127,45546,1,8,0:0:0:0:
344,190,45704,1,12,0:0:0:0:
262,122,46020,1,8,0:0:0:0:
262,122,46177,1,0,0:0:0:0:
306,110,46493,1,0,0:0:0:0:
306,110,46809,1,8,0:0:0:0:
306,110,47441,1,8,0:0:0:0:
306,110,47756,1,0,0:0:0:0:
342,105,47914,1,8,0:0:0:0:
342,105,47993,1,8,0:0:0:0:
342,105,48072,1,8,0:0:0:0:
346,131,48230,1,4,0:0:0:0:
232,130,48546,1,8,0:0:0:0:
239,132,48704,1,0,0:0:0:0:
241,132,49020,1,8,0:0:0:0:
244,130,49335,1,0,0:0:0:0:
246,130,49651,1,8,0:0:0:0:
244,130,50125,1,8,0:0:0:0:
246,130,50283,1,0,0:0:0:0:
246,130,50441,1,8,0:0:0:0:
246,130,50520,1,8,0:0:0:0:
250,127,50599,1,8,0:0:0:0:
344,190,50756,1,12,0:0:0:0:
262,122,51072,1,8,0:0:0:0:
262,122,51230,1,0,0:0:0:0:
306,110,51546,1,0,0:0:0:0:
306,110,51862,1,8,0:0:0:0:
306,110,52493,1,8,0:0:0:0:
306,110,52809,1,0,0:0:0:0:
342,105,52967,1,8,0:0:0:0:
342,105,53046,1,8,0:0:0:0:
342,105,53125,1,8,0:0:0:0:
344,190,53283,1,12,0:0:0:0:
363,84,53598,1,8,0:0:0:0:
363,84,53755,1,0,0:0:0:0:
351,120,53834,1,0,0:0:0:0:
363,84,53913,1,0,0:0:0:0:
363,84,54071,1,8,0:0:0:0:
363,84,54229,1,0,0:0:0:0:
276,37,54387,1,8,0:0:0:0:
351,92,54703,1,0,0:0:0:0:
386,76,55019,1,8,0:0:0:0:
351,92,55176,1,0,0:0:0:0:
351,92,55334,1,8,0:0:0:0:
386,76,55492,1,8,0:0:0:0:
304,86,55808,1,8,0:0:0:0:
347,85,56124,1,8,0:0:0:0:
342,102,56440,1,8,0:0:0:0:
347,85,56598,1,0,0:0:0:0:
351,133,56755,1,8,0:0:0:0:
347,85,56913,1,8,0:0:0:0:
354,141,56992,1,8,0:0:0:0:
316,84,57071,1,8,0:0:0:0:
351,133,57229,1,0,0:0:0:0:
229,175,57545,1,0,0:0:0:0:
378,102,57703,1,8,0:0:0:0:
378,102,57861,1,8,0:0:0:0:
378,102,58019,1,0,0:0:0:0:
378,102,58098,1,0,0:0:0:0:
378,102,58176,1,0,0:0:0:0:
378,102,58334,1,12,0:0:0:0:
357,83,58650,1,8,0:0:0:0:
357,83,58729,1,8,0:0:0:0:
357,83,58808,1,8,0:0:0:0:
361,82,58966,1,0,0:0:0:0:
367,81,59124,1,0,0:0:0:0:
144,209,59203,1,0,0:0:0:0:
170,203,59282,1,0,0:0:0:0:
367,81,59440,1,0,0:0:0:0:
374,78,59598,1,8,0:0:0:0:
378,77,59913,1,8,0:0:0:0:
378,77,60229,1,0,0:0:0:0:
381,76,60387,1,0,0:0:0:0:
381,59,60545,1,8,0:0:0:0:
381,59,60624,1,8,0:0:0:0:
381,59,60703,1,8,0:0:0:0:
393,56,60861,1,8,0:0:0:0:
334,285,61176,1,0,0:0:0:0:
357,65,61492,1,8,0:0:0:0:
396,46,61808,1,8,0:0:0:0:
393,56,61966,1,0,0:0:0:0:
390,64,62045,1,0,0:0:0:0:
393,56,62124,1,0,0:0:0:0:
393,56,62282,1,8,0:0:0:0:
390,64,62440,1,0,0:0:0:0:
390,64,62598,1,0,0:0:0:0:
241,25,62755,1,8,0:0:0:0:
393,85,63071,1,8,0:0:0:0:
393,85,63387,1,4,0:0:0:0:
311,87,65440,5,0,0:0:0:0:
340,104,65598,1,8,0:0:0:0:
344,190,65914,1,12,0:0:0:0:
255,190,66151,1,0,0:0:0:0:
351,96,66387,1,8,0:0:0:0:
351,96,66545,1,0,0:0:0:0:
351,96,66782,1,8,0:0:0:0:
351,142,67019,1,8,0:0:0:0:
356,144,67177,1,0,0:0:0:0:
363,154,67651,1,8,0:0:0:0:
363,154,67966,1,0,0:0:0:0:
243,169,68440,1,4,0:0:0:0:
277,174,68677,1,8,0:0:0:0:
259,146,68914,1,0,0:0:0:0:
342,174,69072,1,8,0:0:0:0:
303,177,69545,1,0,0:0:0:0:
303,171,69703,1,8,0:0:0:0:
307,72,70019,1,8,0:0:0:0:
358,51,70177,1,0,0:0:0:0:
84,134,70493,1,8,0:0:0:0:
242,170,70966,1,4,0:0:0:0:
242,170,71203,1,8,0:0:0:0:
385,88,71440,1,0,0:0:0:0:
385,88,71598,1,8,0:0:0:0:
356,132,72072,1,0,0:0:0:0:
356,132,72229,1,8,0:0:0:0:
356,132,72545,1,8,0:0:0:0:
395,133,72703,1,0,0:0:0:0:
146,60,73019,1,8,0:0:0:0:
268,148,73493,1,4,0:0:0:0:
396,147,73729,1,8,0:0:0:0:
435,158,73966,1,0,0:0:0:0:
435,158,74124,1,8,0:0:0:0:
226,158,74440,1,0,0:0:0:0:
310,103,74756,1,8,0:0:0:0:
310,103,74914,1,0,0:0:0:0:
310,103,75072,1,8,0:0:0:0:
324,115,75387,1,8,0:0:0:0:
312,114,75703,1,8,0:0:0:0:
312,114,75861,1,8,0:0:0:0:
320,107,76019,1,0,0:0:0:0:
268,109,76651,1,8,0:0:0:0:
268,109,76966,1,0,0:0:0:0:
268,109,77124,1,12,0:0:0:0:
268,109,77440,1,12,0:0:0:0:
268,109,77756,1,12,0:0:0:0:
254,110,78072,1,12,0:0:0:0:
247,89,78387,1,0,0:0:0:0:
247,89,78545,1,8,0:0:0:0:
247,89,79177,1,8,0:0:0:0:
247,89,79493,1,0,0:0:0:0:
247,89,79651,1,12,0:0:0:0:
247,89,79966,1,12,0:0:0:0:
247,89,80282,1,12,0:0:0:0:
247,89,80598,1,12,0:0:0:0:
247,89,80756,1,12,0:0:0:0:
276,93,81072,1,8,0:0:0:0:
276,93,81703,1,8,0:0:0:0:
267,98,82019,1,0,0:0:0:0:
267,98,82177,1,12,0:0:0:0:
228,122,82493,1,12,0:0:0:0:
238,101,82808,1,12,0:0:0:0:
238,100,83124,1,12,0:0:0:0:
279,104,83440,1,0,0:0:0:0:
280,76,83598,1,8,0:0:0:0:
260,106,83914,1,0,0:0:0:0:
260,106,84072,1,8,0:0:0:0:
258,90,84229,1,0,0:0:0:0:
226,96,84545,1,8,0:0:0:0:
282,125,84861,1,8,0:0:0:0:
269,99,85019,1,0,0:0:0:0:
275,96,85177,1,8,0:0:0:0:
291,122,85335,1,0,0:0:0:0:
291,122,85651,1,8,0:0:0:0:
291,122,85966,1,8,0:0:0:0:
291,122,86124,1,0,0:0:0:0:
291,122,86440,1,0,0:0:0:0:
291,122,86598,1,8,0:0:0:0:
291,122,86756,1,0,0:0:0:0:
283,122,87072,1,0,0:0:0:0:
283,122,87387,1,8,0:0:0:0:
283,122,87703,1,0,0:0:0:0:
283,122,87861,1,8,0:0:0:0:
283,122,88177,1,0,0:0:0:0:
277,97,88651,1,12,0:0:0:0:
337,133,89124,1,8,0:0:0:0:
337,133,89203,1,8,0:0:0:0:
337,133,89282,1,8,0:0:0:0:
337,133,89440,1,0,0:0:0:0:
337,133,89598,1,8,0:0:0:0:
344,128,89914,1,0,0:0:0:0:
276,93,90072,1,8,0:0:0:0:
344,128,90229,1,0,0:0:0:0:
344,128,90545,1,8,0:0:0:0:
283,120,90703,1,0,0:0:0:0:
345,119,90861,1,8,0:0:0:0:
345,119,90940,1,8,0:0:0:0:
345,119,91019,1,8,0:0:0:0:
344,190,91177,1,12,0:0:0:0:
337,133,91651,1,8,0:0:0:0:
337,133,91729,1,8,0:0:0:0:
337,133,91808,1,8,0:0:0:0:
337,133,91966,1,0,0:0:0:0:
337,133,92124,1,8,0:0:0:0:
344,128,92440,1,0,0:0:0:0:
276,93,92598,1,8,0:0:0:0:
344,128,92756,1,0,0:0:0:0:
344,128,93072,1,8,0:0:0:0:
283,120,93229,1,0,0:0:0:0:
345,119,93387,1,8,0:0:0:0:
345,119,93466,1,8,0:0:0:0:
345,119,93545,1,8,0:0:0:0:
344,190,93703,1,12,0:0:0:0:
337,133,94177,1,8,0:0:0:0:
337,133,94256,1,8,0:0:0:0:
337,133,94335,1,8,0:0:0:0:
337,133,94493,1,0,0:0:0:0:
337,133,94651,1,8,0:0:0:0:
344,128,94966,1,0,0:0:0:0:
276,93,95124,1,8,0:0:0:0:
344,128,95282,1,0,0:0:0:0:
344,128,95598,1,8,0:0:0:0:
283,120,95756,1,0,0:0:0:0:
345,119,95914,1,8,0:0:0:0:
345,119,95993,1,8,0:0:0:0:
345,119,96072,1,8,0:0:0:0:
344,190,96230,1,12,0:0:0:0:
337,133,96703,1,8,0:0:0:0:
337,133,96782,1,8,0:0:0:0:
337,133,96861,1,8,0:0:0:0:
337,133,97019,1,0,0:0:0:0:
337,133,97177,1,8,0:0:0:0:
344,128,97493,1,0,0:0:0:0:
276,93,97651,1,8,0:0:0:0:
344,128,97808,1,0,0:0:0:0:
344,128,98124,1,8,0:0:0:0:
345,119,98440,1,8,0:0:0:0:
345,119,98598,1,8,0:0:0:0:
345,119,98756,1,0,0:0:0:0:
165,175,98914,1,0,0:0:0:0:
235,50,99072,1,8,0:0:0:0:
226,42,99229,1,0,0:0:0:0:
252,80,99387,1,12,0:0:0:0:
229,68,99703,1,12,0:0:0:0:
345,119,100019,1,0,0:0:0:0:
258,83,100177,1,8,0:0:0:0:
258,83,100256,1,8,0:0:0:0:
286,70,100335,1,8,0:0:0:0:
252,80,100651,1,12,0:0:0:0:
229,68,100966,1,12,0:0:0:0:
345,119,101282,1,0,0:0:0:0:
145,106,101440,1,0,0:0:0:0:
286,70,101598,1,8,0:0:0:0:
258,83,101756,1,0,0:0:0:0:
252,80,101914,1,12,0:0:0:0:
229,68,102229,1,12,0:0:0:0:
219,66,102545,1,0,0:0:0:0:
258,83,102861,1,8,0:0:0:0:
345,119,103019,1,0,0:0:0:0:
252,80,103177,1,12,0:0:0:0:
229,68,103493,1,12,0:0:0:0:
345,119,103808,1,0,0:0:0:0:
149,98,103966,1,0,0:0:0:0:
286,70,104124,1,8,0:0:0:0:
258,83,104282,1,0,0:0:0:0:
252,80,104440,1,12,0:0:0:0:
229,68,104756,1,12,0:0:0:0:
345,119,105072,1,0,0:0:0:0:
258,83,105229,1,8,0:0:0:0:
258,83,105308,1,8,0:0:0:0:
286,70,105387,1,8,0:0:0:0:
258,83,105545,1,0,0:0:0:0:
252,80,105703,1,12,0:0:0:0:
229,68,106019,1,12,0:0:0:0:
345,119,106335,1,0,0:0:0:0:
286,70,106651,1,8,0:0:0:0:
258,83,106808,1,0,0:0:0:0:
252,80,106966,1,12,0:0:0:0:
229,68,107282,1,12,0:0:0:0:
345,119,107598,1,0,0:0:0:0:
258,83,107756,1,8,0:0:0:0:
258,83,107835,1,8,0:0:0:0:
286,70,107914,1,8,0:0:0:0:
252,80,108229,1,12,0:0:0:0:
229,68,108545,1,12,0:0:0:0:
258,74,108861,1,4,0:0:0:0:
311,87,110914,1,0,0:0:0:0:
340,104,111072,1,8,0:0:0:0:
344,190,111388,1,12,0:0:0:0:
255,190,111625,1,0,0:0:0:0:
351,96,111861,1,8,0:0:0:0:
351,96,112019,1,0,0:0:0:0:
351,96,112256,1,8,0:0:0:0:
351,142,112493,1,8,0:0:0:0:
356,144,112651,1,0,0:0:0:0:
363,154,113125,1,8,0:0:0:0:
363,154,113440,1,0,0:0:0:0:
243,169,113914,1,4,0:0:0:0:
277,174,114151,1,8,0:0:0:0:
259,146,114388,1,0,0:0:0:0:
342,174,114546,1,8,0:0:0:0:
303,177,115019,1,0,0:0:0:0:
303,171,115177,1,8,0:0:0:0:
307,72,115493,1,8,0:0:0:0:
358,51,115651,1,0,0:0:0:0:
242,170,116440,1,4,0:0:0:0:
242,170,116677,1,8,0:0:0:0:
385,88,116914,1,0,0:0:0:0:
385,88,117072,1,8,0:0:0:0:
356,132,117546,1,0,0:0:0:0:
356,132,117703,1,8,0:0:0:0:
356,132,118019,1,8,0:0:0:0:
395,133,118177,1,0,0:0:0:0:
268,148,118967,1,4,0:0:0:0:
396,147,119203,1,8,0:0:0:0:
435,158,119440,1,0,0:0:0:0:
435,158,119598,1,8,0:0:0:0:
226,158,119914,1,0,0:0:0:0:
310,103,120230,1,8,0:0:0:0:
310,103,120388,1,0,0:0:0:0:
310,103,120546,1,8,0:0:0:0:
324,115,120861,1,8,0:0:0:0:
312,114,121177,5,8,0:0:0:0:
312,114,121335,1,8,0:0:0:0:
344,190,121493,5,4,0:0:0:0:
359,67,121651,1,8,0:0:0:0:
359,67,121729,1,8,0:0:0:0:
359,67,121808,1,8,0:0:0:0:
359,67,121966,1,0,0:0:0:0:
359,67,122124,1,8,0:0:0:0:
359,67,122598,1,8,0:0:0:0:
359,67,122756,1,0,0:0:0:0:
359,67,122835,1,0,0:0:0:0:
359,67,122914,1,0,0:0:0:0:
365,56,123072,1,0,0:0:0:0:
365,56,123229,1,8,0:0:0:0:
365,56,123545,1,8,0:0:0:0:
353,87,123703,1,0,0:0:0:0:
353,87,123861,1,0,0:0:0:0:
344,76,124019,1,12,0:0:0:0:
311,50,124177,1,8,0:0:0:0:
341,75,124335,1,0,0:0:0:0:
342,45,124414,1,0,0:0:0:0:
342,45,124493,1,0,0:0:0:0:
341,75,124651,1,8,0:0:0:0:
338,40,125124,1,0,0:0:0:0:
338,40,125282,1,8,0:0:0:0:
338,40,125361,1,8,0:0:0:0:
338,40,125440,1,8,0:0:0:0:
338,40,125598,1,0,0:0:0:0:
338,40,125756,1,8,0:0:0:0:
330,38,126072,1,8,0:0:0:0:
330,38,126545,1,12,0:0:0:0:
330,38,126703,1,8,0:0:0:0:
330,38,126782,1,8,0:0:0:0:
330,38,126861,1,8,0:0:0:0:
330,38,127019,1,0,0:0:0:0:
330,38,127177,1,8,0:0:0:0:
330,38,127651,1,0,0:0:0:0:
330,38,127808,1,8,0:0:0:0:
330,38,127887,1,8,0:0:0:0:
330,38,127966,1,8,0:0:0:0:
224,108,128124,1,8,0:0:0:0:
230,104,128282,1,0,0:0:0:0:
230,104,128598,1,8,0:0:0:0:
202,70,129072,1,12,0:0:0:0:
238,90,129229,1,0,0:0:0:0:
238,90,129308,1,0,0:0:0:0:
238,90,129387,1,0,0:0:0:0:
238,90,129545,1,0,0:0:0:0:
238,90,129703,1,8,0:0:0:0:
238,90,130019,1,8,0:0:0:0:
284,103,130335,1,0,0:0:0:0:
284,103,130493,1,0,0:0:0:0:
284,103,130651,1,8,0:0:0:0:
289,95,130966,1,8,0:0:0:0:
273,124,131124,1,0,0:0:0:0:
289,95,131282,1,8,0:0:0:0:
258,77,131440,1,0,0:0:0:0:
