osu file format v14

[General]
AudioFilename: audio.mp3
AudioLeadIn: 0
PreviewTime: 10335
Countdown: 0
SampleSet: Normal
StackLeniency: 0
Mode: 1
LetterboxInBreaks: 0
WidescreenStoryboard: 1

[Editor]
DistanceSpacing: 1
BeatDivisor: 2
GridSize: 32
TimelineZoom: 1.6

[Metadata]
Title:3 S'
TitleUnicode:3 S'
Artist:Mindless Self Indulgence
ArtistUnicode:Mindless Self Indulgence
Creator:koul
Version:Kantan
Source:
Tags:if english rock stupid sadistic and & suicidal alternative 3s' industrial nu pussy jungle punk if 3 s <3 less than 3 liku msi the_law the law
BeatmapID:4115103
BeatmapSetID:1976167

[Difficulty]
HPDrainRate:8
CircleSize:5
OverallDifficulty:3
ApproachRate:10
SliderMultiplier:1.4
SliderTickRate:1

[Events]
//Background and Video events
0,0,"goaway.png",0,80
//Break Periods
//Storyboard Layer 0 (Background)
//Storyboard Layer 1 (Fail)
//Storyboard Layer 2 (Pass)
//Storyboard Layer 3 (Foreground)
//Storyboard Layer 4 (Overlay)
//Storyboard Sound Samples

[TimingPoints]
230,315.78947368421,4,1,0,100,1,0
230,-100,4,1,0,80,0,0
9861,-100,4,1,0,80,0,0
10019,-100,4,1,0,84,0,0
10098,-100,4,1,0,88,0,0
10177,-100,4,1,0,92,0,0
10256,-100,4,1,0,96,0,0
10335,-100,4,1,0,100,0,1
20440,-100,4,1,0,100,0,0
20756,-100,4,1,0,60,0,0
22335,-100,4,1,0,70,0,0
22887,-100,4,1,0,80,0,0
32440,-100,4,1,0,80,0,0
32756,-100,4,1,0,85,0,0
32914,-100,4,1,0,90,0,0
33072,-100,4,1,0,100,0,1
43177,-100,4,1,0,80,0,0
52808,-100,4,1,0,80,0,0
52966,-100,4,1,0,87,0,0
53045,-100,4,1,0,90,0,0
53124,-100,4,1,0,93,0,0
53203,-100,4,1,0,97,0,0
53282,-100,4,1,0,100,0,1
63387,-100,4,1,0,100,0,0
63703,-100,4,1,0,60,0,0
65282,-100,4,1,0,70,0,0
65835,-100,4,1,0,80,0,0
75703,-100,4,1,0,85,0,0
75861,-100,4,1,0,90,0,0
77045,-100,4,1,0,100,0,0
77519,-100,4,1,0,90,0,0
77676,-100,4,1,0,100,0,0
78308,-100,4,1,0,90,0,0
79571,-100,4,1,0,100,0,0
80045,-100,4,1,0,90,0,0
80203,-100,4,1,0,100,0,0
80835,-100,4,1,0,90,0,0
82098,-100,4,1,0,100,0,0
82572,-100,4,1,0,90,0,0
82730,-100,4,1,0,100,0,0
83435,-100,4,1,0,70,0,0
86124,-100,4,1,0,75,0,0
88651,-100,4,1,0,90,0,0
98756,-100,4,1,0,100,0,1
108940,-100,4,1,0,60,0,0
110835,-100,4,1,0,70,0,0
111071,-100,4,1,0,70,0,0
111382,-100,4,1,0,80,0,0
120861,-100,4,1,0,100,0,0
131509,-100,4,1,0,60,0,0
131588,-100,4,1,0,40,0,0
131677,-100,4,1,0,5,0,0

[HitObjects]
326,170,230,5,0,0:0:0:0:
255,190,1019,1,8,0:0:0:0:
326,170,1335,1,0,0:0:0:0:
317,146,2124,1,0,0:0:0:0:
344,190,2756,1,12,0:0:0:0:
325,126,3229,1,8,0:0:0:0:
326,135,3861,1,0,0:0:0:0:
322,118,4493,1,8,0:0:0:0:
332,132,4808,1,0,0:0:0:0:
344,190,5282,1,4,0:0:0:0:
322,103,6387,1,0,0:0:0:0:
354,98,6861,1,8,0:0:0:0:
354,98,7177,1,0,0:0:0:0:
344,190,7808,1,12,0:0:0:0:
354,98,8282,1,8,0:0:0:0:
354,98,8914,1,0,0:0:0:0:
354,98,9545,1,8,0:0:0:0:
304,105,10335,1,12,0:0:0:0:
328,91,11598,1,8,0:0:0:0:
311,85,11914,1,8,0:0:0:0:
315,82,12229,1,0,0:0:0:0:
255,190,12861,1,8,0:0:0:0:
311,85,13493,1,0,0:0:0:0:
311,85,13966,1,8,0:0:0:0:
323,89,14756,1,0,0:0:0:0:
304,105,15387,1,12,0:0:0:0:
328,91,16651,1,8,0:0:0:0:
311,85,16966,1,8,0:0:0:0:
315,82,17281,1,0,0:0:0:0:
255,190,17913,1,8,0:0:0:0:
311,85,18545,1,0,0:0:0:0:
311,85,19018,1,8,0:0:0:0:
323,89,19808,1,0,0:0:0:0:
345,93,20440,1,8,0:0:0:0:
344,190,22966,1,12,0:0:0:0:
360,132,23598,1,0,0:0:0:0:
360,132,24229,1,8,0:0:0:0:
334,135,25493,1,4,0:0:0:0:
334,135,26124,1,8,0:0:0:0:
334,135,26756,1,0,0:0:0:0:
316,160,28019,1,4,0:0:0:0:
306,132,28651,1,8,0:0:0:0:
324,146,29282,1,0,0:0:0:0:
318,128,30545,1,4,0:0:0:0:
318,128,31177,1,8,0:0:0:0:
327,124,31808,1,0,0:0:0:0:
327,124,33072,1,4,0:0:0:0:
327,124,33703,1,4,0:0:0:0:
344,190,34335,1,12,0:0:0:0:
344,190,35282,1,12,0:0:0:0:
349,132,35598,1,4,0:0:0:0:
349,132,36229,1,4,0:0:0:0:
344,190,36861,1,12,0:0:0:0:
344,190,37808,1,12,0:0:0:0:
338,126,38124,1,4,0:0:0:0:
344,190,38756,1,12,0:0:0:0:
332,114,39387,1,4,0:0:0:0:
332,114,40019,1,12,0:0:0:0:
347,98,40335,1,0,0:0:0:0:
344,128,40651,1,4,0:0:0:0:
344,190,41282,1,12,0:0:0:0:
342,143,41914,1,4,0:0:0:0:
344,190,42545,1,12,0:0:0:0:
347,98,42861,1,0,0:0:0:0:
326,170,43177,1,8,0:0:0:0:
326,170,44282,1,0,0:0:0:0:
317,146,45071,1,0,0:0:0:0:
344,190,45703,1,12,0:0:0:0:
325,126,46176,1,8,0:0:0:0:
326,135,46808,1,0,0:0:0:0:
322,118,47440,1,8,0:0:0:0:
332,132,47755,1,0,0:0:0:0:
344,190,48229,1,4,0:0:0:0:
322,103,49334,1,0,0:0:0:0:
354,98,50124,1,0,0:0:0:0:
344,190,50755,1,12,0:0:0:0:
354,98,51861,1,0,0:0:0:0:
354,98,52492,1,8,0:0:0:0:
304,105,53282,1,12,0:0:0:0:
328,91,53755,1,0,0:0:0:0:
328,91,54545,1,8,0:0:0:0:
311,85,54861,1,8,0:0:0:0:
315,82,55176,1,0,0:0:0:0:
255,190,55808,1,8,0:0:0:0:
311,85,56440,1,0,0:0:0:0:
311,85,56913,1,8,0:0:0:0:
323,87,58019,1,0,0:0:0:0:
304,105,58334,1,12,0:0:0:0:
328,91,58807,1,0,0:0:0:0:
328,91,59439,1,8,0:0:0:0:
311,85,59913,1,8,0:0:0:0:
315,82,60228,1,0,0:0:0:0:
255,190,60860,1,8,0:0:0:0:
311,85,61492,1,0,0:0:0:0:
311,85,61965,1,8,0:0:0:0:
323,89,62755,1,0,0:0:0:0:
345,93,63387,1,8,0:0:0:0:
344,190,65914,1,12,0:0:0:0:
353,197,66545,1,8,0:0:0:0:
362,184,67177,1,0,0:0:0:0:
362,184,68440,1,4,0:0:0:0:
362,184,69072,1,8,0:0:0:0:
362,184,69703,1,8,0:0:0:0:
362,184,70966,1,4,0:0:0:0:
362,184,71598,1,8,0:0:0:0:
362,184,72229,1,0,0:0:0:0:
365,177,73493,1,4,0:0:0:0:
365,177,74124,1,8,0:0:0:0:
361,171,74756,1,0,0:0:0:0:
361,171,76019,1,0,0:0:0:0:
381,164,76651,1,8,0:0:0:0:
359,145,77124,1,12,0:0:0:0:
359,145,77756,1,12,0:0:0:0:
377,140,78545,1,0,0:0:0:0:
359,145,79177,1,8,0:0:0:0:
359,145,79651,1,12,0:0:0:0:
359,145,80282,1,12,0:0:0:0:
344,190,81072,1,12,0:0:0:0:
353,136,82177,1,12,0:0:0:0:
353,136,82808,1,12,0:0:0:0:
346,137,83282,1,0,0:0:0:0:
340,138,83598,1,8,0:0:0:0:
330,145,84229,1,8,0:0:0:0:
339,155,84861,1,8,0:0:0:0:
339,155,85335,1,0,0:0:0:0:
339,155,85651,1,8,0:0:0:0:
332,154,86124,1,0,0:0:0:0:
332,154,87387,1,0,0:0:0:0:
332,154,87861,1,8,0:0:0:0:
296,151,88177,1,0,0:0:0:0:
334,172,88651,1,12,0:0:0:0:
376,170,89124,1,8,0:0:0:0:
360,156,89914,1,0,0:0:0:0:
334,129,90545,1,8,0:0:0:0:
391,141,91177,1,12,0:0:0:0:
352,144,92440,1,0,0:0:0:0:
352,144,93072,1,8,0:0:0:0:
345,142,93703,1,12,0:0:0:0:
352,135,94177,1,8,0:0:0:0:
352,135,94966,1,0,0:0:0:0:
352,135,95598,1,8,0:0:0:0:
352,135,96229,1,12,0:0:0:0:
285,127,97493,1,0,0:0:0:0:
285,127,98124,1,8,0:0:0:0:
292,118,98756,1,0,0:0:0:0:
292,118,99072,1,0,0:0:0:0:
310,105,99387,1,8,0:0:0:0:
310,105,100019,1,0,0:0:0:0:
310,105,100651,1,8,0:0:0:0:
341,97,101282,1,0,0:0:0:0:
341,97,101598,1,0,0:0:0:0:
341,97,101914,1,8,0:0:0:0:
330,100,102545,1,0,0:0:0:0:
330,100,103177,1,8,0:0:0:0:
330,100,103808,1,0,0:0:0:0:
330,100,104124,1,0,0:0:0:0:
330,100,104440,1,8,0:0:0:0:
333,108,105072,1,0,0:0:0:0:
317,149,105703,1,8,0:0:0:0:
317,149,106335,1,0,0:0:0:0:
241,160,106651,1,0,0:0:0:0:
241,160,106966,1,8,0:0:0:0:
317,149,107598,1,8,0:0:0:0:
246,109,107914,1,8,0:0:0:0:
246,109,108229,1,0,0:0:0:0:
246,109,108545,1,0,0:0:0:0:
306,145,108861,1,12,0:0:0:0:
344,190,111387,1,12,0:0:0:0:
362,184,112651,1,0,0:0:0:0:
362,184,113124,1,8,0:0:0:0:
362,184,113914,1,4,0:0:0:0:
362,184,114545,1,8,0:0:0:0:
362,184,115651,1,0,0:0:0:0:
362,184,115966,1,8,0:0:0:0:
362,184,116440,1,4,0:0:0:0:
362,184,117072,1,8,0:0:0:0:
362,184,118177,1,8,0:0:0:0:
238,137,118493,1,0,0:0:0:0:
365,177,118966,1,4,0:0:0:0:
365,177,119598,1,8,0:0:0:0:
361,171,120861,1,8,0:0:0:0:
361,171,121493,1,4,0:0:0:0:
361,187,122124,1,8,0:0:0:0:
367,169,122756,1,0,0:0:0:0:
331,187,123229,1,8,0:0:0:0:
335,180,124019,1,12,0:0:0:0:
337,186,124651,1,8,0:0:0:0:
343,180,125282,1,0,0:0:0:0:
339,177,126545,1,12,0:0:0:0:
329,181,127177,1,0,0:0:0:0:
329,181,127808,1,8,0:0:0:0:
305,173,128282,1,0,0:0:0:0:
291,169,129072,1,12,0:0:0:0:
291,169,129703,1,8,0:0:0:0:
292,176,130019,1,0,0:0:0:0:
292,176,130966,1,8,0:0:0:0:
292,176,131282,1,0,0:0:0:0:
