osu file format v14

[General]
AudioFilename: audio.mp3
AudioLeadIn: 0
PreviewTime: 10335
Countdown: 0
SampleSet: Normal
StackLeniency: 0
Mode: 1
LetterboxInBreaks: 0
WidescreenStoryboard: 1

[Editor]
DistanceSpacing: 1
BeatDivisor: 4
GridSize: 32
TimelineZoom: 1.4

[Metadata]
Title:3 S'
TitleUnicode:3 S'
Artist:Mindless Self Indulgence
ArtistUnicode:Mindless Self Indulgence
Creator:koul
Version:Futsuu
Source:
Tags:if english rock stupid sadistic and & suicidal alternative 3s' industrial nu pussy jungle punk if 3 s <3 less than 3 liku msi the_law the law
BeatmapID:4115119
BeatmapSetID:1976167

[Difficulty]
HPDrainRate:7
CircleSize:5
OverallDifficulty:4
ApproachRate:10
SliderMultiplier:1.4
SliderTickRate:1

[Events]
//Background and Video events
0,0,"goaway.png",0,80
//Break Periods
//Storyboard Layer 0 (Background)
//Storyboard Layer 1 (Fail)
//Storyboard Layer 2 (Pass)
//Storyboard Layer 3 (Foreground)
//Storyboard Layer 4 (Overlay)
//Storyboard Sound Samples

[TimingPoints]
230,315.78947368421,4,1,0,100,1,0
230,-100,4,1,0,80,0,0
9861,-100,4,1,0,80,0,0
10019,-100,4,1,0,84,0,0
10098,-100,4,1,0,88,0,0
10177,-100,4,1,0,92,0,0
10256,-100,4,1,0,96,0,0
10335,-100,4,1,0,100,0,1
20440,-100,4,1,0,100,0,0
20756,-100,4,1,0,60,0,0
22335,-100,4,1,0,70,0,0
22887,-100,4,1,0,80,0,0
32440,-100,4,1,0,80,0,0
32756,-100,4,1,0,85,0,0
32914,-100,4,1,0,90,0,0
33072,-100,4,1,0,100,0,1
43177,-100,4,1,0,80,0,0
52808,-100,4,1,0,80,0,0
52966,-100,4,1,0,87,0,0
53045,-100,4,1,0,90,0,0
53124,-100,4,1,0,93,0,0
53203,-100,4,1,0,97,0,0
53282,-100,4,1,0,100,0,1
63387,-100,4,1,0,100,0,0
63703,-100,4,1,0,60,0,0
65282,-100,4,1,0,70,0,0
65835,-100,4,1,0,80,0,0
75703,-100,4,1,0,85,0,0
75861,-100,4,1,0,90,0,0
77045,-100,4,1,0,100,0,0
77519,-100,4,1,0,90,0,0
77676,-100,4,1,0,100,0,0
78308,-100,4,1,0,90,0,0
79571,-100,4,1,0,100,0,0
80045,-100,4,1,0,90,0,0
80203,-100,4,1,0,100,0,0
80835,-100,4,1,0,90,0,0
82098,-100,4,1,0,100,0,0
82572,-100,4,1,0,90,0,0
82730,-100,4,1,0,100,0,0
83435,-100,4,1,0,70,0,0
86124,-100,4,1,0,75,0,0
88651,-100,4,1,0,90,0,0
98756,-100,4,1,0,100,0,1
108940,-100,4,1,0,60,0,0
110835,-100,4,1,0,70,0,0
111071,-100,4,1,0,70,0,0
111382,-100,4,1,0,80,0,0
120861,-100,4,1,0,100,0,0
131509,-100,4,1,0,60,0,0
131588,-100,4,1,0,40,0,0
131677,-100,4,1,0,5,0,0

[HitObjects]
241,195,230,5,0,0:0:0:0:
241,195,545,1,8,0:0:0:0:
288,185,1019,1,8,0:0:0:0:
288,185,1335,1,0,0:0:0:0:
263,185,1808,1,8,0:0:0:0:
277,183,2440,1,8,0:0:0:0:
277,183,2756,1,12,0:0:0:0:
290,179,3229,1,8,0:0:0:0:
315,184,3861,1,8,0:0:0:0:
327,178,4493,1,0,0:0:0:0:
316,161,4808,1,8,0:0:0:0:
327,178,5282,1,4,0:0:0:0:
333,176,5756,1,8,0:0:0:0:
333,176,6072,1,0,0:0:0:0:
340,171,6387,1,8,0:0:0:0:
340,171,6861,1,8,0:0:0:0:
340,171,7493,1,8,0:0:0:0:
344,190,7808,1,12,0:0:0:0:
340,171,8282,1,8,0:0:0:0:
340,171,8598,1,0,0:0:0:0:
340,171,8914,1,8,0:0:0:0:
340,171,9545,1,8,0:0:0:0:
340,171,9861,1,0,0:0:0:0:
332,176,10335,1,12,0:0:0:0:
332,176,10651,1,0,0:0:0:0:
332,176,10808,1,8,0:0:0:0:
332,176,11124,1,8,0:0:0:0:
332,176,11440,1,0,0:0:0:0:
173,174,11755,1,0,0:0:0:0:
332,176,12071,1,8,0:0:0:0:
332,176,12229,1,8,0:0:0:0:
332,176,12545,1,0,0:0:0:0:
255,190,12861,1,8,0:0:0:0:
156,179,13176,1,0,0:0:0:0:
332,176,13493,1,8,0:0:0:0:
318,155,13808,1,0,0:0:0:0:
332,176,13966,1,8,0:0:0:0:
341,171,14756,1,8,0:0:0:0:
341,171,15072,1,0,0:0:0:0:
341,171,15387,1,12,0:0:0:0:
332,176,15703,1,0,0:0:0:0:
332,176,15860,1,8,0:0:0:0:
332,176,16176,1,8,0:0:0:0:
332,176,16492,1,0,0:0:0:0:
332,176,16966,1,8,0:0:0:0:
332,176,17281,1,8,0:0:0:0:
332,176,17597,1,0,0:0:0:0:
255,190,17913,1,8,0:0:0:0:
332,176,18545,1,8,0:0:0:0:
318,155,18860,1,0,0:0:0:0:
332,176,19018,1,8,0:0:0:0:
341,171,19808,1,8,0:0:0:0:
341,171,20124,1,0,0:0:0:0:
341,171,20439,1,4,0:0:0:0:
361,192,22493,5,0,0:0:0:0:
361,192,22651,1,8,0:0:0:0:
344,190,22966,1,12,0:0:0:0:
356,192,23598,1,8,0:0:0:0:
375,186,24072,1,0,0:0:0:0:
369,184,24229,1,8,0:0:0:0:
331,204,24703,1,8,0:0:0:0:
322,184,25019,1,0,0:0:0:0:
326,180,25493,1,4,0:0:0:0:
352,195,25966,1,0,0:0:0:0:
352,195,26124,1,8,0:0:0:0:
364,173,26756,1,8,0:0:0:0:
349,179,27072,1,8,0:0:0:0:
353,180,27229,1,0,0:0:0:0:
353,180,27545,1,8,0:0:0:0:
353,180,28019,1,4,0:0:0:0:
353,180,28256,1,8,0:0:0:0:
290,162,28651,1,8,0:0:0:0:
333,144,29124,1,8,0:0:0:0:
333,144,29282,1,0,0:0:0:0:
316,123,29756,1,0,0:0:0:0:
333,144,30072,1,8,0:0:0:0:
333,144,30545,1,4,0:0:0:0:
333,144,30782,1,8,0:0:0:0:
313,137,31177,1,8,0:0:0:0:
313,137,31493,1,0,0:0:0:0:
310,137,31808,1,8,0:0:0:0:
313,137,32440,1,0,0:0:0:0:
305,129,32756,1,8,0:0:0:0:
306,124,32914,1,8,0:0:0:0:
296,125,33072,1,4,0:0:0:0:
296,125,33703,1,4,0:0:0:0:
344,190,34019,1,4,0:0:0:0:
303,104,34335,1,12,0:0:0:0:
303,104,34808,1,12,0:0:0:0:
303,104,35282,1,12,0:0:0:0:
316,124,35598,1,4,0:0:0:0:
316,124,36229,1,4,0:0:0:0:
344,190,36545,1,4,0:0:0:0:
313,112,36861,1,12,0:0:0:0:
313,112,37335,1,12,0:0:0:0:
313,112,37808,1,12,0:0:0:0:
311,102,38124,1,4,0:0:0:0:
311,102,38756,1,12,0:0:0:0:
255,190,39072,1,8,0:0:0:0:
311,102,39387,1,4,0:0:0:0:
311,102,40019,1,12,0:0:0:0:
293,96,40335,1,0,0:0:0:0:
293,96,40651,1,4,0:0:0:0:
293,96,41282,1,12,0:0:0:0:
255,190,41598,1,8,0:0:0:0:
294,88,41914,1,4,0:0:0:0:
294,88,42545,1,12,0:0:0:0:
283,84,42861,1,0,0:0:0:0:
241,195,43177,5,8,0:0:0:0:
241,195,43493,1,8,0:0:0:0:
288,185,43967,1,8,0:0:0:0:
288,185,44283,1,0,0:0:0:0:
263,185,44756,1,8,0:0:0:0:
277,183,45388,1,8,0:0:0:0:
277,183,45704,1,12,0:0:0:0:
290,179,46177,1,8,0:0:0:0:
315,184,46809,1,8,0:0:0:0:
327,178,47441,1,0,0:0:0:0:
316,161,47756,1,8,0:0:0:0:
327,178,48230,1,4,0:0:0:0:
333,176,48704,1,8,0:0:0:0:
333,176,49020,1,0,0:0:0:0:
340,171,49335,1,8,0:0:0:0:
340,171,49809,1,8,0:0:0:0:
340,171,50441,1,8,0:0:0:0:
344,190,50756,1,12,0:0:0:0:
340,171,51230,1,8,0:0:0:0:
340,171,51546,1,0,0:0:0:0:
340,171,51862,1,8,0:0:0:0:
340,171,52493,1,8,0:0:0:0:
340,171,52809,1,0,0:0:0:0:
332,176,53283,1,12,0:0:0:0:
332,176,53599,1,0,0:0:0:0:
332,176,53756,1,8,0:0:0:0:
332,176,54072,1,8,0:0:0:0:
332,176,54388,1,0,0:0:0:0:
173,174,54703,1,0,0:0:0:0:
332,176,55019,1,8,0:0:0:0:
332,176,55177,1,8,0:0:0:0:
332,176,55493,1,0,0:0:0:0:
255,190,55809,1,8,0:0:0:0:
156,179,56124,1,0,0:0:0:0:
332,176,56441,1,8,0:0:0:0:
318,155,56756,1,0,0:0:0:0:
332,176,56914,1,8,0:0:0:0:
341,171,57704,1,8,0:0:0:0:
341,171,58020,1,0,0:0:0:0:
341,171,58335,1,12,0:0:0:0:
332,176,58651,1,0,0:0:0:0:
332,176,58808,1,8,0:0:0:0:
332,176,59124,1,8,0:0:0:0:
332,176,59440,1,0,0:0:0:0:
332,176,59914,1,8,0:0:0:0:
332,176,60229,1,8,0:0:0:0:
332,176,60545,1,0,0:0:0:0:
255,190,60861,1,8,0:0:0:0:
332,176,61493,1,8,0:0:0:0:
318,155,61808,1,0,0:0:0:0:
332,176,61966,1,8,0:0:0:0:
341,171,62756,1,8,0:0:0:0:
341,171,63072,1,0,0:0:0:0:
341,171,63387,1,4,0:0:0:0:
361,192,65440,5,0,0:0:0:0:
361,192,65598,1,8,0:0:0:0:
344,190,65913,1,12,0:0:0:0:
356,192,66545,1,8,0:0:0:0:
375,186,67019,1,0,0:0:0:0:
369,184,67176,1,8,0:0:0:0:
331,204,67650,1,8,0:0:0:0:
322,184,67966,1,0,0:0:0:0:
326,180,68440,1,4,0:0:0:0:
352,195,68913,1,0,0:0:0:0:
352,195,69071,1,8,0:0:0:0:
364,173,69703,1,8,0:0:0:0:
349,179,70019,1,8,0:0:0:0:
353,180,70176,1,0,0:0:0:0:
353,180,70492,1,8,0:0:0:0:
353,180,70966,1,4,0:0:0:0:
353,180,71203,1,8,0:0:0:0:
290,162,71598,1,8,0:0:0:0:
333,144,72071,1,8,0:0:0:0:
333,144,72229,1,0,0:0:0:0:
316,123,72703,1,0,0:0:0:0:
333,144,73019,1,8,0:0:0:0:
333,144,73492,1,4,0:0:0:0:
333,144,73729,1,8,0:0:0:0:
313,137,74124,1,8,0:0:0:0:
313,137,74440,1,0,0:0:0:0:
310,137,74755,1,8,0:0:0:0:
313,137,75387,5,0,0:0:0:0:
305,129,75703,1,8,0:0:0:0:
306,124,75861,1,8,0:0:0:0:
296,125,76019,1,0,0:0:0:0:
337,157,76651,1,8,0:0:0:0:
342,154,77124,1,12,0:0:0:0:
342,154,77756,1,12,0:0:0:0:
342,154,78072,1,0,0:0:0:0:
342,154,78387,1,8,0:0:0:0:
342,154,78545,1,0,0:0:0:0:
332,155,78861,1,0,0:0:0:0:
332,155,79177,1,8,0:0:0:0:
332,155,79651,1,12,0:0:0:0:
332,155,80282,1,12,0:0:0:0:
336,154,80756,1,12,0:0:0:0:
336,154,81072,1,0,0:0:0:0:
331,148,81703,1,8,0:0:0:0:
331,148,82177,1,12,0:0:0:0:
331,148,82808,1,12,0:0:0:0:
355,156,83124,1,0,0:0:0:0:
355,156,83440,1,8,0:0:0:0:
355,156,83598,1,0,0:0:0:0:
359,134,84229,1,8,0:0:0:0:
362,147,84545,1,0,0:0:0:0:
362,147,84861,1,8,0:0:0:0:
351,139,85177,1,0,0:0:0:0:
351,139,85335,1,8,0:0:0:0:
362,147,85651,1,0,0:0:0:0:
356,149,86124,1,8,0:0:0:0:
354,154,86440,1,0,0:0:0:0:
348,156,86756,1,8,0:0:0:0:
348,156,87387,1,0,0:0:0:0:
348,156,87703,1,8,0:0:0:0:
348,156,87861,1,0,0:0:0:0:
355,153,88177,1,8,0:0:0:0:
344,190,88651,1,12,0:0:0:0:
360,167,89124,1,0,0:0:0:0:
355,153,89440,1,0,0:0:0:0:
346,157,89756,1,8,0:0:0:0:
346,157,89914,1,0,0:0:0:0:
346,160,90229,1,0,0:0:0:0:
341,172,90545,1,8,0:0:0:0:
344,190,91177,1,12,0:0:0:0:
360,167,91650,1,0,0:0:0:0:
355,153,91966,1,0,0:0:0:0:
346,157,92282,1,8,0:0:0:0:
346,157,92440,1,0,0:0:0:0:
346,160,92755,1,0,0:0:0:0:
341,172,93071,1,8,0:0:0:0:
344,190,93703,1,12,0:0:0:0:
360,167,94176,1,0,0:0:0:0:
355,153,94492,1,0,0:0:0:0:
346,157,94808,1,8,0:0:0:0:
346,157,94966,1,0,0:0:0:0:
346,160,95281,1,0,0:0:0:0:
341,172,95597,1,8,0:0:0:0:
344,190,96229,1,12,0:0:0:0:
360,167,96702,1,0,0:0:0:0:
355,153,97018,1,0,0:0:0:0:
346,157,97334,1,8,0:0:0:0:
346,157,97492,1,0,0:0:0:0:
346,160,97807,1,0,0:0:0:0:
341,172,98123,1,8,0:0:0:0:
266,88,98756,1,12,0:0:0:0:
268,122,99387,1,0,0:0:0:0:
268,122,99703,1,0,0:0:0:0:
204,153,100019,1,12,0:0:0:0:
290,83,100651,1,8,0:0:0:0:
242,211,101282,1,12,0:0:0:0:
411,147,101914,1,0,0:0:0:0:
271,115,102229,1,0,0:0:0:0:
271,115,102545,1,12,0:0:0:0:
345,154,103019,1,8,0:0:0:0:
345,154,103177,1,8,0:0:0:0:
345,154,103493,1,0,0:0:0:0:
266,88,103808,1,12,0:0:0:0:
268,122,104439,1,0,0:0:0:0:
268,122,104755,1,0,0:0:0:0:
204,153,105071,1,12,0:0:0:0:
290,83,105703,1,8,0:0:0:0:
266,88,106335,1,12,0:0:0:0:
268,122,106966,1,0,0:0:0:0:
268,122,107282,1,0,0:0:0:0:
204,153,107598,1,12,0:0:0:0:
290,83,108230,1,8,0:0:0:0:
237,94,108545,1,0,0:0:0:0:
242,211,108861,1,12,0:0:0:0:
361,192,110914,5,0,0:0:0:0:
344,190,111387,1,12,0:0:0:0:
356,192,112019,1,8,0:0:0:0:
371,181,112177,1,0,0:0:0:0:
369,184,112651,1,8,0:0:0:0:
331,204,113124,1,8,0:0:0:0:
322,184,113440,1,0,0:0:0:0:
326,180,113914,1,4,0:0:0:0:
352,195,114387,1,0,0:0:0:0:
352,195,114545,1,8,0:0:0:0:
364,173,115177,1,8,0:0:0:0:
349,179,115493,1,8,0:0:0:0:
353,180,115651,1,0,0:0:0:0:
353,180,115966,1,8,0:0:0:0:
353,180,116440,1,4,0:0:0:0:
298,162,116914,1,0,0:0:0:0:
290,162,117072,1,8,0:0:0:0:
333,144,117545,1,8,0:0:0:0:
333,144,117703,1,0,0:0:0:0:
333,144,118177,1,0,0:0:0:0:
333,144,118493,1,8,0:0:0:0:
333,144,118966,1,4,0:0:0:0:
305,132,119440,1,0,0:0:0:0:
313,137,119598,1,8,0:0:0:0:
313,137,119914,1,0,0:0:0:0:
310,137,120229,1,8,0:0:0:0:
313,137,120861,1,0,0:0:0:0:
305,129,121177,1,8,0:0:0:0:
306,124,121335,1,8,0:0:0:0:
296,125,121493,1,4,0:0:0:0:
341,139,122124,1,8,0:0:0:0:
343,133,122361,1,0,0:0:0:0:
344,113,122598,1,8,0:0:0:0:
344,113,122756,1,0,0:0:0:0:
322,128,123229,1,0,0:0:0:0:
314,123,123545,1,8,0:0:0:0:
321,158,124019,1,12,0:0:0:0:
327,134,124256,1,0,0:0:0:0:
336,130,124651,1,8,0:0:0:0:
336,130,125124,1,0,0:0:0:0:
336,130,125282,1,8,0:0:0:0:
336,130,125756,1,0,0:0:0:0:
324,137,126072,1,8,0:0:0:0:
328,122,126545,1,12,0:0:0:0:
341,146,127019,1,0,0:0:0:0:
265,159,127177,1,8,0:0:0:0:
295,137,127651,1,0,0:0:0:0:
295,137,127808,1,8,0:0:0:0:
295,137,128282,1,0,0:0:0:0:
295,137,128598,1,8,0:0:0:0:
295,137,129072,1,12,0:0:0:0:
310,138,129308,1,0,0:0:0:0:
295,144,129703,1,8,0:0:0:0:
327,149,130019,1,0,0:0:0:0:
327,149,130335,1,8,0:0:0:0:
327,149,130493,1,0,0:0:0:0:
327,149,130966,1,8,0:0:0:0:
327,149,131282,1,8,0:0:0:0:
327,149,131440,1,0,0:0:0:0:
