osu file format v14

[General]
AudioFilename: audio.mp3
AudioLeadIn: 0
PreviewTime: 57950
Countdown: 0
SampleSet: Soft
StackLeniency: 0.2
Mode: 0
LetterboxInBreaks: 0
WidescreenStoryboard: 0

[Editor]
DistanceSpacing: 0.4
BeatDivisor: 4
GridSize: 4
TimelineZoom: 2

[Metadata]
Title:Future Has Arrived
TitleUnicode:Future Has Arrived
Artist:Mindex
ArtistUnicode:Mindex
Creator:Fookiz
Version:Eclipsed
Source:
Tags:electronic idm jazz downtempo ambient glitch
BeatmapID:1651873
BeatmapSetID:786977

[Difficulty]
HPDrainRate:5
CircleSize:4
OverallDifficulty:8.5
ApproachRate:9.5
SliderMultiplier:2
SliderTickRate:1

[Events]
//Background and Video events
0,0,"cvzcvzxcvzx.jpg",0,0
//Break Periods
//Storyboard Layer 0 (Background)
//Storyboard Layer 1 (Fail)
//Storyboard Layer 2 (Pass)
//Storyboard Layer 3 (Foreground)
//Storyboard Sound Samples

[TimingPoints]
68,352.941176470588,4,2,0,60,1,0
68,-1000,4,2,0,60,0,0
12067,-50,4,2,0,60,0,0
12597,-285.714285714286,4,2,0,60,0,0
13126,-66.6666666666667,4,2,0,60,0,0
13479,-66.6666666666667,4,2,0,60,0,0
13832,-100,4,2,0,60,0,0
14185,-1000,4,2,0,60,0,0
14891,-62.5,4,2,0,60,0,0
15420,-285.714285714286,4,2,0,60,0,0
15950,-66.6666666666667,4,2,0,60,0,0
16479,-666.666666666667,4,2,0,60,0,0
17009,-1000,4,2,0,60,0,0
17715,-50,4,2,0,60,0,0
18244,-285.714285714286,4,2,0,60,0,0
18773,-100,4,2,0,60,0,0
19126,-66.6666666666667,4,2,0,60,0,0
19479,-100,4,2,0,60,0,0
19579,-1000,4,2,0,60,0,0
20538,-41.6666666666667,4,2,0,60,0,0
20891,-100,4,2,0,60,0,0
23538,-133.333333333333,4,2,0,60,0,0
23715,-200,4,2,0,60,0,0
23891,-133.333333333333,4,2,0,60,0,0
24420,-133.333333333333,4,2,0,60,0,0
24597,-74.0740740740741,4,2,0,60,0,0
24773,-40,4,2,0,60,0,0
25126,-55.5555555555556,4,2,0,60,0,0
25479,-100,4,2,0,60,0,0
27244,-50,4,2,0,60,0,0
27597,-100,4,2,0,60,0,0
29185,-50,4,2,0,60,0,0
29362,-100,4,2,0,60,0,0
29538,-83.3333333333333,4,2,0,60,0,0
30067,-133.333333333333,4,2,0,60,0,0
30420,-90.9090909090909,4,2,0,60,0,0
30773,-50,4,2,0,60,0,0
31126,-100,4,2,0,60,0,0
32891,-200,4,2,0,60,0,0
33597,-100,4,2,0,60,0,0
33773,-50,4,2,0,60,0,0
33950,-47.6190476190476,4,2,0,60,0,0
34303,-100,4,2,0,60,0,0
34832,-66.6666666666667,4,2,0,60,0,0
35009,-50,4,2,0,60,0,0
35185,-66.6666666666667,4,2,0,60,0,0
36420,-40,4,2,0,60,0,0
36773,-100,4,2,0,60,0,0
37656,-66.6666666666667,4,2,0,60,0,0
38009,-54.9450549450549,4,2,0,60,0,0
38891,-100,4,2,0,60,0,0
40479,-33.3333333333333,4,2,0,60,0,0
40832,-285.714285714286,4,2,0,60,0,0
41715,-60.6060606060606,4,2,0,60,0,0
42067,-40,4,2,0,60,0,0
42420,-100,4,2,0,60,0,0

[HitObjects]
168,208,68,6,0,L|176:148,1,60
155,281,1303,1,0,0:0:0:0:
256,192,1920,12,0,8538,0:0:0:0:
131,106,11362,6,0,L|163:110,1,30
231,194,12067,6,0,B|163:110|211:10|279:26|303:58|303:86|291:126|215:122,1,300
52,94,12420,2,0,L|-16:86,1,50
231,194,12597,6,0,P|237:226|233:250,1,52.4999983978272
212,321,12950,1,0,0:0:0:0:
315,215,13126,6,0,L|399:205,1,75.0000028610231
459,197,13303,2,0,B|420:189|420:189|388:206,1,75.0000028610231
485,284,13479,6,0,B|464:227|505:183|505:183|431:166|418:73,1,225.000008583069
410,12,13832,6,0,B|395:116|395:116|338:149,1,150
296,52,14185,6,0,P|317:58|326:67,1,35
220,60,14891,6,0,B|164:72|164:72|168:80|168:80|164:72|164:72|119:81|119:81|88:158|88:158|48:202|-5:199|-46:129|24:64|72:96|80:116|72:144,1,400
39,258,15420,6,0,L|26:329,1,69.9999978637696
116,235,15950,6,0,B|266:203|188:280|336:255,1,225.000008583069
352,162,16303,2,0,P|311:161|263:194,1,75.0000028610231
177,311,16479,6,0,P|159:321|142:323,1,37.4999988555909
240,359,17009,6,0,L|275:355,1,35
408,280,17715,6,0,B|373:224|293:258|293:258|276:256|276:256|288:269|288:269|303:362|393:345,1,300
455,344,18067,2,0,P|486:296|478:237,1,100
454,132,18244,6,0,L|438:220,1,50
445,181,18597,1,0,0:0:0:0:
415,0,18773,6,0,B|406:65|406:65|384:84|384:84|372:146,1,150
445,181,19126,6,0,P|312:173|237:233,1,225.000008583069
204,294,19479,6,0,P|215:229|157:138,1,150
109,121,19832,6,0,P|92:122|84:124,1,25
23,173,20362,1,0,0:0:0:0:
168,48,20538,6,0,B|276:67|276:67|296:120|296:120|289:131|289:131|297:123|297:123|319:181|319:181|432:204,1,359.999989013672
498,218,20891,6,0,L|508:266,1,50
496,302,21067,2,0,L|485:253,1,50
477,142,21244,5,0,0:0:0:0:
488,126,21420,1,0,0:0:0:0:
464,51,21597,5,0,0:0:0:0:
444,126,21773,1,0,0:0:0:0:
370,166,21950,5,0,0:0:0:0:
383,12,22126,1,0,0:0:0:0:
283,1,22303,5,0,0:0:0:0:
315,245,22479,1,0,0:0:0:0:
87,150,22656,5,0,0:0:0:0:
144,138,22744,1,0,0:0:0:0:
205,148,22832,1,0,0:0:0:0:
254,181,22920,1,0,0:0:0:0:
230,266,23009,5,0,0:0:0:0:
197,278,23097,1,0,0:0:0:0:
170,300,23185,1,0,0:0:0:0:
155,331,23273,1,0,0:0:0:0:
155,331,23362,6,0,L|150:261,1,50
0,141,23538,2,0,P|3:159|5:178,1,37.5000014305115
228,357,23715,2,0,P|239:346|262:338,1,25
6,178,23891,6,0,L|15:50,1,112.500004291535
2,257,24244,1,0,0:0:0:0:
76,19,24420,6,0,P|98:13|142:11,1,37.5000014305115
178,109,24597,2,0,B|128:101|128:101|118:87,1,67.5000002574921
187,31,24773,6,0,B|281:8|325:60|344:81|344:81|363:76|363:76|348:86|348:86|401:144|523:122,1,375
437,37,25126,6,0,B|365:31|327:65|327:65|315:61|315:61|322:70|322:70|267:127|168:103,1,269.999991760254
127,100,25479,5,0,0:0:0:0:
184,147,25567,1,0,0:0:0:0:
191,217,25656,1,0,0:0:0:0:
172,279,25744,1,0,0:0:0:0:
118,306,25832,5,0,0:0:0:0:
172,297,25920,1,0,0:0:0:0:
220,310,26009,1,0,0:0:0:0:
256,336,26097,1,0,0:0:0:0:
292,352,26185,5,0,0:0:0:0:
326,356,26273,1,0,0:0:0:0:
355,350,26362,1,0,0:0:0:0:
376,337,26450,1,0,0:0:0:0:
384,324,26538,2,0,P|400:288|396:256,1,50
348,16,26715,5,0,0:0:0:0:
336,88,26803,1,0,0:0:0:0:
328,148,26891,1,0,0:0:0:0:
320,192,26979,1,0,0:0:0:0:
316,220,27067,2,0,L|324:308,1,50
412,64,27244,6,0,B|264:48|264:48|244:168,1,200
255,98,27509,1,0,0:0:0:0:
255,98,27597,2,0,P|252:128|240:160,1,50
164,40,27773,5,0,0:0:0:0:
172,52,27862,1,0,0:0:0:0:
176,80,27950,1,0,0:0:0:0:
164,124,28038,1,0,0:0:0:0:
128,172,28126,1,0,0:0:0:0:
108,244,28215,1,0,0:0:0:0:
132,320,28303,5,0,0:0:0:0:
188,296,28391,1,0,0:0:0:0:
248,296,28479,1,0,0:0:0:0:
304,320,28567,1,0,0:0:0:0:
372,352,28656,5,0,0:0:0:0:
400,352,28744,1,0,0:0:0:0:
428,344,28832,1,0,0:0:0:0:
452,328,28920,1,0,0:0:0:0:
452,328,29009,6,0,L|464:260,1,50
424,100,29185,2,0,B|436:156|436:156|408:200,1,100
296,128,29362,2,0,L|346:137,1,50
500,60,29538,6,0,B|380:80|420:16|320:24|320:24|360:32|372:64,1,239.999992675781
305,101,29979,1,0,0:0:0:0:
287,98,30067,6,0,L|208:83,1,75.0000028610231
62,52,30420,6,0,B|98:-24|98:-24|192:28,1,165.000005035401
133,88,30773,6,0,B|161:196|161:196|85:268|85:268|113:164,1,300
221,116,31126,1,0,0:0:0:0:
285,156,31215,1,0,0:0:0:0:
309,220,31303,1,0,0:0:0:0:
301,284,31391,1,0,0:0:0:0:
273,336,31479,5,0,0:0:0:0:
285,284,31567,1,0,0:0:0:0:
317,248,31656,1,0,0:0:0:0:
361,232,31744,1,0,0:0:0:0:
393,232,31832,5,0,0:0:0:0:
381,192,31920,1,0,0:0:0:0:
385,132,32009,1,0,0:0:0:0:
405,64,32097,1,0,0:0:0:0:
461,8,32185,5,0,0:0:0:0:
437,12,32273,1,0,0:0:0:0:
401,20,32362,1,0,0:0:0:0:
357,28,32450,1,0,0:0:0:0:
305,40,32538,6,0,L|221:28,1,50
129,12,32715,2,0,L|178:19,1,50
269,120,32891,6,0,L|223:103,1,25
141,96,33067,2,0,L|165:95,1,25
189,172,33244,5,0,0:0:0:0:
189,172,33420,6,0,L|181:204,1,25
142,319,33597,6,0,L|157:272,1,50
329,224,33773,6,0,L|227:253,1,100
55,147,33950,6,0,B|118:219|118:219|232:252|232:252|340:220,1,314.999990386963
403,195,34303,5,0,0:0:0:0:
363,224,34391,1,0,0:0:0:0:
345,270,34479,1,0,0:0:0:0:
346,319,34567,1,0,0:0:0:0:
367,364,34656,2,0,P|402:372|446:352,1,50
482,185,34832,6,0,P|471:150|445:124,1,75.0000028610231
310,221,35009,2,0,P|350:221|429:151,1,100
424,46,35185,6,0,L|250:63,1,150.000005722046
195,71,35538,1,0,0:0:0:0:
481,104,35715,2,0,P|507:37|463:-28,1,150.000005722046
174,82,36067,6,0,B|86:119|34:53|34:53|68:83|125:73,1,225.000008583069
228,0,36420,6,0,B|232:56|232:56|216:76|208:104|208:104|222:160|222:160|186:180|166:216|166:216|220:276|182:336,1,375
112,368,36773,5,0,0:0:0:0:
184,360,36862,1,0,0:0:0:0:
252,336,36950,1,0,0:0:0:0:
324,344,37039,1,0,0:0:0:0:
384,376,37126,5,0,0:0:0:0:
368,340,37215,1,0,0:0:0:0:
388,304,37303,1,0,0:0:0:0:
368,268,37391,1,0,0:0:0:0:
380,228,37479,6,0,L|360:136,1,50
480,92,37656,6,0,P|408:120|364:204,1,150.000005722046
296,212,38009,6,0,B|264:184|228:192|228:192|184:196|164:236|164:236|300:224|176:120|304:76|304:76|300:116|220:140,1,455.000015274048
160,128,38538,2,0,L|48:68,1,91.0000030548097
264,284,38715,5,0,0:0:0:0:
268,304,38803,1,0,0:0:0:0:
272,324,38891,2,0,L|288:400,1,50
20,340,39067,5,0,0:0:0:0:
22,325,39156,5,0,0:0:0:0:
37,299,39244,5,0,0:0:0:0:
77,275,39332,5,0,0:0:0:0:
121,235,39420,5,0,0:0:0:0:
145,163,39509,5,0,0:0:0:0:
113,83,39597,5,0,0:0:0:0:
142,78,39685,1,0,0:0:0:0:
171,83,39773,1,0,0:0:0:0:
197,98,39862,1,0,0:0:0:0:
218,119,39950,5,0,0:0:0:0:
180,54,40038,1,0,0:0:0:0:
106,40,40126,1,0,0:0:0:0:
35,66,40215,1,0,0:0:0:0:
14,138,40303,6,0,P|22:193|30:209,1,50
376,108,40479,6,0,B|284:96|284:96|182:162|182:162|59:146,1,300
306,176,40832,6,0,L|358:183,1,52.4999983978272
387,187,41185,1,0,0:0:0:0:
307,257,41362,6,0,L|359:264,1,52.4999983978272
433,276,41715,6,0,P|326:297|167:384,1,247.500002360344
202,357,42067,6,0,B|197:204|72:138|72:138|101:206|213:258,1,375
181,119,42420,1,0,0:0:0:0:
256,111,42509,1,0,0:0:0:0:
330,103,42597,1,0,0:0:0:0:
404,95,42685,1,0,0:0:0:0:
478,85,42773,5,0,0:0:0:0:
427,81,42862,1,0,0:0:0:0:
396,106,42950,1,0,0:0:0:0:
366,98,43038,1,0,0:0:0:0:
346,102,43126,1,0,0:0:0:0:
