osu file format v14

[General]
AudioFilename: audio.mp3
AudioLeadIn: 0
PreviewTime:57964
Countdown: 0
SampleSet: Soft
StackLeniency: 0.7
Mode: 0
LetterboxInBreaks: 0
WidescreenStoryboard: 1

[Editor]
DistanceSpacing: 0.3
BeatDivisor: 4
GridSize: 32
TimelineZoom: 1.6

[Metadata]
Title:Like Flames (TV Size)
TitleUnicode:Like Flames (TV Size)
Artist:MindaRyn
ArtistUnicode:MindaRyn
Creator:Sotarks
Version:Reform's Expert
Source:転生したらスライムだった件 第2期
Tags:that time i got reincarnated as a red crewmate sachiko 小山 寿 tensei shitara slime datta ken 2nd second season part 2 two tensura anime japanese opening op rock jrock j-rock armin a_r_m_i_n vaporfly akitoshi corinn -laura- [_eli_] eli elinor kowari snownino_ reform kujinn english appleeaterx mint
BeatmapID:3095041
BeatmapSetID:1511528

[Difficulty]
HPDrainRate:5
CircleSize:4
OverallDifficulty:8.5
ApproachRate:9
SliderMultiplier:1.74
SliderTickRate:1

[Events]
//Background and Video events
0,0,"slime-game.jpg",0,0
Video,0,"video.mp4"
//Break Periods
//Storyboard Layer 0 (Background)
//Storyboard Layer 1 (Fail)
//Storyboard Layer 2 (Pass)
//Storyboard Layer 3 (Foreground)
//Storyboard Layer 4 (Overlay)
//Storyboard Sound Samples

[TimingPoints]
570,342.857142857143,4,2,22,52,1,0
570,-121.951219512195,4,2,22,52,0,0
3227,-121.951219512195,4,2,22,5,0,0
3312,-121.951219512195,4,2,22,52,0,0
4684,-121.951219512195,4,2,22,62,0,0
5970,-121.951219512195,4,2,22,5,0,0
6055,-95.2380952380952,4,2,22,72,0,0
17027,-95.2380952380952,4,2,22,62,0,0
19770,-117.647058823529,4,2,22,52,0,0
28341,-117.647058823529,4,2,22,42,0,0
29541,-117.647058823529,4,2,22,52,0,0
30741,-105.263157894737,4,2,22,62,0,0
55427,-105.263157894737,4,2,22,72,0,0
58170,-86.9565217391306,4,2,22,82,0,1
80112,-95.2380952380952,4,2,22,72,0,0
85598,-285.714285714286,4,2,22,72,0,0

[Colours]
Combo1 : 230,254,92
Combo2 : 156,206,243
Combo3 : 105,47,202
Combo4 : 80,228,214

[HitObjects]
370,284,570,6,0,P|404:292|438:302,1,71.340001088562,0|0,1:2|1:2,0:0:0:0:
379,192,912,2,0,B|322:171|257:228|319:244|253:297|189:272,1,214.020003265686,8|0,0:2|0:2,0:0:0:0:
92,116,1598,2,0,B|102:175|184:203|167:141|245:172|256:240,1,214.020003265686,12|0,0:2|0:2,0:0:0:0:
120,308,2284,2,0,P|111:261|137:217,1,71.340001088562,8|0,0:2|0:2,0:0:0:0:
263,320,2627,2,0,P|226:351|176:350,1,71.340001088562,0|0,0:2|0:2,0:0:0:0:
193,194,2970,2,0,P|238:209|262:254,1,71.340001088562,12|0,0:2|0:0,0:0:0:0:
388,322,3312,6,0,L|399:258,3,35.670000544281,8|0|0|0,1:2|1:2|1:2|1:2,0:0:0:0:
338,218,3655,2,0,L|327:154,3,35.670000544281,8|0|0|0,1:2|1:2|1:2|1:2,0:0:0:0:
401,116,3998,1,8,1:2:0:0:
401,116,4084,1,0,1:2:0:0:
401,116,4170,2,0,L|435:107,1,35.670000544281,0|0,1:2|1:2,0:0:0:0:
332,34,4341,1,8,1:3:0:0:
335,37,4427,1,8,1:3:0:0:
339,41,4513,2,0,L|304:32,1,35.670000544281,4|4,1:3|1:3,0:0:0:0:
467,25,4684,5,10,0:2:0:0:
254,114,4855,1,10,0:2:0:0:
479,207,5027,1,10,0:2:0:0:
479,207,5370,2,0,L|492:265,3,35.670000544281,8|8|8|4,0:2|0:3|0:3|0:3,0:0:0:0:
450,315,5712,2,0,P|409:329|347:281,1,107.010001632843,12|0,0:2|0:2,0:0:0:0:
297,251,6055,6,0,B|246:226|195:258|226:281|173:311|116:277,1,182.699994424439,6|8,1:2|0:2,0:0:0:0:
23,73,6570,1,2,0:2:0:0:
223,148,6741,1,0,1:2:0:0:
43,247,6912,1,0,1:2:0:0:
115,27,7084,6,0,P|128:99|147:215,1,182.699994424439,10|0,0:2|0:2,0:0:0:0:
248,60,7598,1,0,1:2:0:0:
331,259,7770,2,0,P|338:213|346:167,1,91.3499972122193,10|0,0:2|0:2,0:0:0:0:
234,206,8112,1,2,1:2:0:0:
416,295,8284,1,0,1:2:0:0:
365,96,8455,2,0,P|309:98|279:131,1,91.3499972122193,10|0,0:2|0:2,0:0:0:0:
99,256,8798,6,0,B|166:269|166:269|192:310|192:310|279:328,1,182.699994424439,6|8,1:2|0:2,0:0:0:0:
433,155,9312,1,2,0:2:0:0:
252,229,9484,1,0,1:2:0:0:
432,332,9655,1,0,1:2:0:0:
354,66,9827,6,0,B|325:89|298:107|298:107|342:221,1,182.699994424439,10|0,0:2|1:2,0:0:0:0:
253,363,10341,1,14,0:2:0:0:
106,215,10512,2,0,P|135:176|200:169,1,91.3499972122193,8|0,0:2|1:2,0:0:0:0:
323,301,10855,1,10,0:2:0:0:
323,301,10941,1,8,1:3:0:0:
323,301,11027,2,0,L|260:286,1,45.6749986061097,8|4,1:3|1:3,0:0:0:0:
152,356,11198,1,8,0:2:0:0:
287,151,11370,5,8,1:2:0:0:
287,151,11455,1,8,1:2:0:0:
287,151,11541,2,0,B|341:134|386:173|352:191|400:229|461:204,1,182.699994424439,6|8,1:2|0:2,0:0:0:0:
299,36,12055,1,2,0:2:0:0:
484,124,12227,1,0,1:2:0:0:
301,235,12398,1,0,1:2:0:0:
422,28,12570,6,0,P|432:109|449:227,1,182.699994424439,10|0,0:2|1:2,0:0:0:0:
333,337,13084,1,0,1:2:0:0:
333,337,13170,1,0,1:2:0:0:
333,337,13255,2,0,P|375:362|434:348,1,91.3499972122193,10|0,0:2|0:2,0:0:0:0:
265,122,13598,1,2,1:2:0:0:
195,297,13770,1,0,1:2:0:0:
422,240,13941,2,0,P|380:215|321:229,1,91.3499972122193,10|0,0:2|0:2,0:0:0:0:
248,379,14284,5,6,1:2:0:0:
170,148,14455,1,0,1:2:0:0:
362,296,14627,1,8,0:2:0:0:
135,266,14798,2,0,P|92:281|65:291,2,45.6749986061097,2|0|8,1:2|1:2|0:2,0:0:0:0:
309,123,15141,1,0,1:2:0:0:
309,123,15227,1,0,1:2:0:0:
309,123,15312,1,10,0:2:0:0:
244,337,15484,5,0,1:2:0:0:
244,337,15570,1,0,1:2:0:0:
244,337,15655,2,0,P|229:271|215:213,1,91.3499972122193,8|0,0:2|1:2,0:0:0:0:
210,204,15912,1,8,0:2:0:0:
210,204,15998,1,10,0:2:0:0:
364,278,16170,1,4,1:2:0:0:
302,114,16341,2,0,L|315:55,2,45.6749986061097,2|8|8,1:2|0:2|0:2,0:0:0:0:
143,253,16684,1,6,1:2:0:0:
204,48,16855,5,8,0:2:0:0:
204,48,16941,1,8,0:2:0:0:
204,48,17027,2,0,P|256:61|302:69,1,91.3499972122193,6|0,1:2|0:0,0:0:0:0:
145,178,17370,2,0,P|93:191|47:199,1,91.3499972122193,8|0,0:2|0:0,0:0:0:0:
221,326,17712,2,0,P|277:350|355:301,1,137.024995818329,8|8,0:2|0:2,0:0:0:0:
360,290,18055,1,0,1:2:0:0:
417,106,18227,6,0,P|430:175|440:223,1,91.3499972122193,8|0,0:2|1:2,0:0:0:0:
482,250,18484,2,0,P|469:319|459:367,1,91.3499972122193,8|0,0:2|1:2,0:0:0:0:
401,375,18741,1,8,0:2:0:0:
249,222,18912,1,8,0:2:0:0:
249,222,18998,1,8,0:2:0:0:
249,222,19084,2,0,P|283:213|313:205,3,45.6749986061097,8|8|8|4,0:2|0:3|0:3|0:3,0:0:0:0:
364,213,19427,6,0,P|296:197|192:170,1,137.024995818329,12|0,0:2|0:2,0:0:0:0:
219,110,19770,6,0,P|177:128|160:172,1,73.9500014104843,6|0,1:2|1:2,0:0:0:0:
27,209,20112,2,0,P|61:200|141:285,1,147.900002820969,8|0,0:2|0:0,0:0:0:0:
304,354,20798,5,10,0:2:0:0:
304,354,20970,2,0,P|343:361|384:370,1,73.9500014104843,2|0,0:2|0:2,0:0:0:0:
480,247,21312,1,2,0:2:0:0:
480,247,21484,2,0,P|441:254|400:263,1,73.9500014104843,8|0,0:2|0:2,0:0:0:0:
321,123,21827,1,2,0:2:0:0:
432,174,21998,1,2,0:2:0:0:
329,306,22170,2,0,P|315:267|326:219,1,73.9500014104843,10|2,0:2|0:2,0:0:0:0:
418,45,22512,5,0,1:2:0:0:
418,45,22684,1,0,1:2:0:0:
321,123,22855,2,0,P|276:113|153:84,1,147.900002820969,8|0,0:2|0:0,0:0:0:0:
176,89,23541,5,10,0:2:0:0:
116,152,23712,2,0,P|129:197|141:250,1,73.9500014104843,2|0,0:2|0:2,0:0:0:0:
224,334,24055,1,2,0:2:0:0:
224,334,24227,2,0,P|232:298|243:262,1,73.9500014104843,8|2,0:2|0:2,0:0:0:0:
313,112,24570,1,2,0:2:0:0:
178,169,24741,1,2,1:2:0:0:
323,271,24912,2,0,P|347:235|341:186,1,73.9500014104843,8|2,0:2|1:2,0:0:0:0:
244,57,25255,5,4,1:2:0:0:
244,57,25427,1,0,1:2:0:0:
178,169,25598,2,0,P|192:224|202:268,1,73.9500014104843,8|0,0:2|0:0,0:0:0:0:
106,360,25941,1,2,0:2:0:0:
106,360,26112,2,0,P|98:324|89:288,1,73.9500014104843,2|8,0:2|0:2,0:0:0:0:
256,286,26455,6,0,P|217:314|176:316,1,73.9500014104843,2|0,0:2|0:2,0:0:0:0:
340,250,26798,2,0,P|344:297|325:334,1,73.9500014104843,2|8,0:2|0:2,0:0:0:0:
352,164,27141,2,0,P|395:183|417:218,1,73.9500014104843,2|0,0:2|0:2,0:0:0:0:
237,156,27484,1,2,1:2:0:0:
381,80,27655,1,8,0:2:0:0:
340,250,27827,1,2,0:2:0:0:
258,69,27998,6,0,P|205:60|99:42,1,147.900002820969,6|0,1:2|0:2,0:0:0:0:
81,157,28512,1,0,3:2:0:0:
81,157,28684,2,0,P|123:165|162:143,1,73.9500014104843,0|0,3:2|0:2,0:0:0:0:
78,14,29027,2,0,P|42:39|55:135,1,147.900002820969,0|0,3:2|0:2,0:0:0:0:
221,223,29541,5,0,1:2:0:0:
161,62,29712,1,8,0:2:0:0:
310,160,29884,1,8,0:2:0:0:
310,160,29970,1,8,0:2:0:0:
310,160,30055,1,8,0:2:0:0:
135,176,30227,2,0,L|95:189,2,36.9750007052422,0|0|10,1:2|1:2|0:2,0:0:0:0:
254,24,30570,5,8,0:2:0:0:
254,24,30655,1,8,0:2:0:0:
254,24,30741,2,0,P|262:77|283:215,1,165.299995586014,6|8,1:2|0:2,0:0:0:0:
402,269,31255,2,0,P|416:224|389:174,1,82.649997793007,0|0,0:2|1:2,0:0:0:0:
260,270,31598,1,0,1:2:0:0:
404,368,31770,1,8,0:2:0:0:
404,112,31941,6,0,P|358:122|328:170,1,82.649997793007,2|0,0:2|0:0,0:0:0:0:
505,221,32284,1,2,1:2:0:0:
491,84,32455,2,0,P|502:37|518:-17,1,82.649997793007,8|2,0:2|0:2,0:0:0:0:
413,199,32798,1,2,1:2:0:0:
327,67,32970,1,2,1:2:0:0:
243,181,33141,2,0,P|254:220|263:261,1,82.649997793007,8|10,0:2|0:2,0:0:0:0:
101,373,33484,6,0,P|37:372|-3:269,1,165.299995586014,4|8,1:2|0:2,0:0:0:0:
102,153,33998,2,0,P|50:140|-4:125,1,82.649997793007,0|0,0:2|1:2,0:0:0:0:
82,288,34341,1,0,1:2:0:0:
212,180,34512,1,8,0:2:0:0:
82,72,34684,6,0,P|97:134|110:190,1,82.649997793007,2|0,0:2|0:0,0:0:0:0:
189,55,35027,1,2,1:2:0:0:
14,6,35198,1,8,0:2:0:0:
212,180,35370,1,2,1:2:0:0:
212,180,35455,1,8,0:2:0:0:
212,180,35541,2,0,P|259:165|310:147,1,82.649997793007,2|2,1:2|1:2,0:0:0:0:
206,294,35884,2,0,P|165:288|135:260,1,82.649997793007,8|2,0:2|0:2,0:0:0:0:
390,207,36227,6,0,B|439:261|439:261|382:367,1,165.299995586014,4|8,1:2|0:2,0:0:0:0:
260,226,36741,2,0,P|271:276|284:330,1,82.649997793007,0|2,0:2|1:2,0:0:0:0:
326,62,37084,1,2,1:2:0:0:
158,140,37255,1,8,0:2:0:0:
391,132,37427,6,0,P|349:158|247:89,1,165.299995586014,2|2,0:2|1:2,0:0:0:0:
345,18,37941,2,0,P|391:30|437:43,1,82.649997793007,8|2,0:2|0:2,0:0:0:0:
284,194,38284,1,0,1:2:0:0:
219,34,38455,1,2,1:2:0:0:
369,111,38627,1,8,0:2:0:0:
178,232,38798,1,10,0:2:0:0:
178,232,38884,1,8,0:2:0:0:
178,232,38970,6,0,P|165:163|140:38,2,165.299995586014,6|8|0,1:2|0:2|1:2,0:0:0:0:
248,109,39827,1,0,1:2:0:0:
64,202,39998,1,8,0:2:0:0:
264,296,40170,6,0,P|237:333|111:325,1,165.299995586014,6|0,1:2|1:2,0:0:0:0:
279,191,40684,2,0,P|322:194|368:262,1,123.97499668951,8|8,0:2|0:2,0:0:0:0:
369,293,41027,1,0,1:2:0:0:
164,220,41198,1,8,0:3:0:0:
167,207,41284,1,8,0:3:0:0:
171,195,41370,2,0,L|154:123,3,41.3249988965035,8|4|4|4,0:2|0:3|0:3|0:3,0:0:0:0:
204,71,41712,6,0,P|249:57|334:145,1,165.299995586014,6|10,1:2|0:2,0:0:0:0:
300,273,42227,2,0,P|252:288|186:309,1,82.649997793007,2|0,0:2|1:2,0:0:0:0:
333,126,42570,2,0,P|381:141|447:162,1,82.649997793007,2|8,1:2|0:2,0:0:0:0:
184,201,42912,1,2,0:2:0:0:
277,21,43084,5,0,1:2:0:0:
354,237,43255,1,0,1:2:0:0:
165,118,43427,1,8,0:2:0:0:
369,47,43598,1,2,0:2:0:0:
238,210,43770,2,0,P|199:234|140:217,1,82.649997793007,2|0,1:2|1:2,0:0:0:0:
38,151,44112,1,10,0:2:0:0:
238,76,44284,5,10,0:2:0:0:
238,76,44370,1,8,0:2:0:0:
238,76,44455,2,0,P|250:132|277:258,1,165.299995586014,0|8,1:2|0:2,0:0:0:0:
205,360,44970,1,0,0:2:0:0:
393,243,45141,2,0,P|380:294|365:357,1,82.649997793007,2|0,1:2|1:2,0:0:0:0:
238,191,45484,1,10,0:2:0:0:
446,128,45655,6,0,P|488:140|518:192,1,82.649997793007,2|0,0:2|1:2,0:0:0:0:
320,97,45998,2,0,P|309:54|339:2,1,82.649997793007,2|8,1:2|0:2,0:0:0:0:
375,236,46341,2,0,P|343:266|283:266,1,82.649997793007,2|0,0:2|1:2,0:0:0:0:
116,158,46684,1,2,1:2:0:0:
190,335,46855,1,8,0:2:0:0:
286,172,47027,5,8,0:2:0:0:
286,172,47112,1,8,0:2:0:0:
286,172,47198,2,0,P|240:186|222:303,1,165.299995586014,6|10,1:2|0:2,0:0:0:0:
404,190,47712,2,0,P|416:143|432:77,1,82.649997793007,2|0,0:2|1:2,0:0:0:0:
311,269,48055,2,0,P|321:308|331:349,1,82.649997793007,2|8,1:2|0:2,0:0:0:0:
206,102,48398,1,2,0:2:0:0:
382,187,48570,5,0,1:2:0:0:
213,289,48741,1,0,1:2:0:0:
325,101,48912,2,0,P|364:82|425:103,1,82.649997793007,8|0,0:2|0:2,0:0:0:0:
169,184,49255,2,0,P|133:159|120:96,1,82.649997793007,2|0,1:2|1:2,0:0:0:0:
345,215,49598,1,10,0:2:0:0:
204,344,49770,5,10,0:2:0:0:
204,344,49855,1,8,0:2:0:0:
204,344,49941,2,0,P|196:274|178:144,1,165.299995586014,0|8,1:2|0:2,0:0:0:0:
252,10,50455,1,0,0:0:0:0:
109,100,50627,2,0,P|55:89|-5:77,1,82.649997793007,2|0,1:2|1:2,0:0:0:0:
279,222,50970,1,10,0:2:0:0:
228,10,51141,6,0,P|204:45|217:102,1,82.649997793007,10|0,0:2|1:2,0:0:0:0:
303,221,51484,2,0,P|327:186|314:129,1,82.649997793007,10|0,0:2|1:2,0:0:0:0:
118,231,51827,1,2,1:2:0:0:
299,329,51998,1,8,0:2:0:0:
233,170,52170,1,10,0:3:0:0:
233,170,52255,1,8,0:3:0:0:
233,170,52341,2,0,L|222:229,3,41.3249988965035,8|4|4|4,0:3|0:3|0:3|0:3,0:0:0:0:
146,253,52684,6,0,P|197:295|293:264,1,165.299995586014,6|10,1:2|0:2,0:0:0:0:
393,195,53198,2,0,P|401:235|409:275,1,82.649997793007,2|0,0:2|1:2,0:0:0:0:
302,112,53541,1,2,1:2:0:0:
500,60,53712,2,0,P|491:100|483:140,1,82.649997793007,8|0,0:2|1:2,0:0:0:0:
223,71,54055,6,0,P|250:38|309:30,1,82.649997793007,2|0,1:2|1:2,0:0:0:0:
426,233,54398,1,10,0:2:0:0:
227,152,54570,1,2,1:2:0:0:
418,59,54741,1,8,0:2:0:0:
335,256,54912,1,8,0:3:0:0:
335,256,54998,1,8,0:3:0:0:
335,256,55084,2,0,L|321:191,3,41.3249988965035,8|4|4|4,0:3|0:3|0:3|0:3,0:0:0:0:
223,125,55427,5,10,0:2:0:0:
445,215,55598,1,8,0:2:0:0:
242,343,55770,1,8,0:2:0:0:
242,343,56798,6,0,P|230:288|218:231,1,82.649997793007,14|8,0:2|0:2,0:0:0:0:
224,262,57055,1,8,0:2:0:0:
224,262,57141,1,8,0:2:0:0:
403,131,57312,2,0,P|391:186|379:243,1,82.649997793007,4|10,1:2|0:2,0:0:0:0:
385,211,57569,1,8,0:2:0:0:
385,211,57655,1,8,0:2:0:0:
232,69,57827,2,0,L|218:1,1,41.3249988965035,8|8,0:2|0:2,0:0:0:0:
121,159,57998,2,0,L|112:199,1,41.3249988965035,8|8,0:2|0:2,0:0:0:0:
37,41,58170,5,6,1:2:0:0:
244,150,58341,1,2,0:2:0:0:
28,244,58512,1,8,0:2:0:0:
135,81,58684,1,0,0:2:0:0:
216,289,58855,2,0,P|169:320|99:302,1,100.050001908302,2|0,1:2|1:2,0:0:0:0:
247,64,59198,5,10,0:2:0:0:
331,261,59370,1,2,0:2:0:0:
416,65,59541,1,0,1:2:0:0:
216,184,59712,1,0,1:2:0:0:
432,297,59884,2,0,P|453:246|427:176,1,100.050001908302,10|0,0:2|0:2,0:0:0:0:
255,111,60227,1,2,1:2:0:0:
433,19,60398,1,0,1:2:0:0:
351,227,60570,1,10,0:2:0:0:
225,29,60741,5,8,0:2:0:0:
225,29,60827,1,8,0:2:0:0:
225,29,60912,2,0,P|233:97|240:147,1,100.050001908302,0|0,1:2|0:0,0:0:0:0:
92,239,61255,2,0,B|152:224|198:271|159:288|208:333|277:310,1,200.100003816605,10|0,0:2|1:2,0:0:0:0:
358,164,61770,1,2,1:2:0:0:
451,361,61941,2,0,P|487:321|484:262,1,100.050001908302,8|0,0:2|0:2,0:0:0:0:
278,109,62284,6,0,P|242:149|245:208,1,100.050001908302,2|0,1:2|1:2,0:0:0:0:
244,205,62541,1,0,1:2:0:0:
249,215,62627,1,10,0:2:0:0:
413,137,62798,2,0,P|445:145|481:153,2,50.0250009541512,8|8|2,0:2|0:2|1:2,0:0:0:0:
258,19,63141,1,0,1:2:0:0:
346,237,63312,1,8,0:2:0:0:
451,25,63484,1,8,0:2:0:0:
451,25,63570,1,8,0:2:0:0:
451,25,63655,5,6,1:2:0:0:
225,122,63827,1,2,0:2:0:0:
448,235,63998,1,8,0:2:0:0:
354,34,64170,1,0,0:2:0:0:
275,265,64341,2,0,P|321:297|378:290,1,100.050001908302,2|0,1:2|1:2,0:0:0:0:
223,86,64684,5,10,0:2:0:0:
135,322,64855,1,2,0:2:0:0:
38,84,65027,1,0,1:2:0:0:
235,190,65198,1,0,1:2:0:0:
32,302,65370,2,0,P|22:241|6:172,1,100.050001908302,10|0,0:2|0:2,0:0:0:0:
227,34,65712,1,2,1:2:0:0:
137,235,65884,1,0,1:2:0:0:
0,63,66055,2,0,P|44:36|99:48,1,100.050001908302,10|0,0:2|0:0,0:0:0:0:
337,202,66398,6,0,P|349:143|366:69,1,100.050001908302,0|0,1:2|0:0,0:0:0:0:
146,240,66741,2,0,P|156:288|166:337,1,100.050001908302,8|0,0:2|0:0,0:0:0:0:
230,76,67084,1,2,1:2:0:0:
51,179,67255,1,0,1:2:0:0:
248,295,67427,2,0,P|268:243|244:184,1,100.050001908302,10|0,0:2|0:2,0:0:0:0:
37,22,67770,6,0,P|72:65|135:74,1,100.050001908302,2|8,1:2|0:2,0:0:0:0:
184,43,68027,1,8,0:2:0:0:
190,39,68112,2,0,L|178:125,3,50.0250009541512,10|8|0|0,0:2|0:2|1:2|1:2,0:0:0:0:
260,199,68455,2,0,L|272:285,3,50.0250009541512,10|8|4|4,0:3|0:3|0:3|0:3,0:0:0:0:
189,340,68798,1,14,0:2:0:0:
309,105,68970,1,8,0:2:0:0:
309,105,69055,1,8,0:2:0:0:
309,105,69141,5,4,1:2:0:0:
350,331,69312,1,0,1:2:0:0:
220,46,69484,5,10,0:2:0:0:
158,288,69655,1,0,1:2:0:0:
100,55,69827,5,8,0:2:0:0:
327,239,69998,1,2,1:2:0:0:
60,218,70170,5,8,0:2:0:0:
318,93,70341,1,0,1:2:0:0:
222,309,70512,5,10,0:2:0:0:
136,29,70684,1,0,0:0:0:0:
118,340,70855,5,8,0:2:0:0:
226,84,71027,1,2,1:2:0:0:
226,84,71112,1,0,1:2:0:0:
226,84,71198,2,0,P|235:143|242:192,1,100.050001908302,8|0,0:2|1:2,0:0:0:0:
373,347,71541,2,0,P|380:297|387:248,1,100.050001908302,10|0,0:2|1:2,0:0:0:0:
503,76,71884,5,12,0:2:0:0:
240,182,72055,1,0,1:0:0:0:
502,268,72227,5,8,0:2:0:0:
326,39,72398,1,0,1:2:0:0:
326,39,72484,1,0,1:2:0:0:
326,39,72570,5,8,0:2:0:0:
251,306,72741,1,0,1:2:0:0:
470,146,72912,5,8,0:2:0:0:
182,90,73084,1,0,1:2:0:0:
410,321,73255,5,8,0:2:0:0:
328,29,73427,1,0,1:0:0:0:
328,29,73512,1,0,1:0:0:0:
328,29,73598,2,0,L|316:90,1,50.0250009541512,8|8,0:0|0:0,0:0:0:0:
171,243,73770,2,0,L|162:194,1,50.0250009541512,8|8,0:0|0:0,0:0:0:0:
91,42,73941,1,0,1:0:0:0:
91,42,74027,1,0,1:0:0:0:
91,42,74112,2,0,L|153:54,1,50.0250009541512,8|8,0:3|0:3,0:0:0:0:
322,163,74284,2,0,L|260:175,1,50.0250009541512,8|8,0:0|0:3,0:0:0:0:
74,336,74455,1,8,0:3:0:0:
74,336,74541,1,4,0:3:0:0:
74,336,74627,6,0,P|96:278|232:279,1,200.100003816605,4|10,1:2|0:2,0:0:0:0:
376,369,75141,1,0,0:0:0:0:
281,152,75312,1,0,1:2:0:0:
201,355,75484,1,2,1:2:0:0:
384,253,75655,2,0,P|439:237|503:222,1,100.050001908302,8|2,0:2|0:2,0:0:0:0:
263,60,75998,6,0,P|212:83|191:151,1,100.050001908302,2|0,1:2|1:2,0:0:0:0:
296,294,76341,1,8,0:2:0:0:
399,109,76512,2,0,P|389:49|378:-7,1,100.050001908302,2|0,0:2|1:2,0:0:0:0:
220,208,76855,1,0,1:2:0:0:
130,37,77027,1,10,0:2:0:0:
322,148,77198,5,0,0:0:0:0:
322,148,77284,1,8,0:2:0:0:
322,148,77370,2,0,B|376:199|376:199|307:324,1,200.100003816605,4|8,1:2|0:2,0:0:0:0:
112,179,77884,1,0,0:0:0:0:
243,65,78055,2,0,P|287:33|357:47,1,100.050001908302,0|0,1:2|1:2,0:0:0:0:
210,264,78398,1,10,0:2:0:0:
110,81,78570,1,10,0:2:0:0:
311,160,78741,5,0,1:2:0:0:
133,334,78912,2,0,P|198:349|275:369,1,100.050001908302,12|0,0:2|1:2,0:0:0:0:
399,231,79255,1,0,1:2:0:0:
399,231,79341,1,0,1:2:0:0:
399,231,79427,1,10,0:2:0:0:
228,95,79598,1,8,0:3:0:0:
327,327,79770,1,6,0:3:0:0:
424,110,79941,1,4,0:3:0:0:
215,253,80112,6,0,B|170:237|111:273|158:297|98:342|40:313,1,182.699994424439,4|0,1:2|1:2,0:0:0:0:
5,230,80627,1,0,1:2:0:0:
5,230,80798,2,0,P|17:176|26:128,1,91.3499972122193,10|0,0:2|0:0,0:0:0:0:
157,19,81141,2,0,P|165:63|175:108,1,91.3499972122193,2|0,1:2|1:2,0:0:0:0:
280,257,81484,5,2,1:2:0:0:
410,106,81655,2,0,P|363:76|314:82,1,91.3499972122193,8|0,0:2|1:2,0:0:0:0:
425,248,81998,1,0,1:2:0:0:
425,248,82170,2,0,P|474:222|493:176,1,91.3499972122193,10|0,0:2|0:0,0:0:0:0:
264,190,82512,1,2,1:2:0:0:
420,349,82684,1,8,0:2:0:0:
400,125,82855,6,0,P|409:69|419:8,1,91.3499972122193,2|0,1:2|0:2,0:0:0:0:
184,187,83198,2,0,P|191:232|198:277,1,91.3499972122193,2|0,1:2|0:2,0:0:0:0:
259,59,83541,1,10,0:2:0:0:
98,143,83712,1,0,1:2:0:0:
295,236,83884,2,0,P|311:193|294:131,1,91.3499972122193,10|0,0:2|0:0,0:0:0:0:
176,331,84227,6,0,P|239:349|299:366,1,91.3499972122193,2|8,1:2|0:2,0:0:0:0:
126,190,84570,1,0,1:2:0:0:
40,335,84741,1,0,1:2:0:0:
245,257,84912,2,0,P|236:190|222:100,1,137.024995818329,10|0,0:2|1:2,0:0:0:0:
279,62,85255,2,0,L|290:-8,3,45.6749986061097,10|8|4|4,0:3|0:3|0:3|0:3,0:0:0:0:
358,163,85598,6,0,L|426:180,1,60.8999981414796,4|0,1:2|0:0,0:0:0:0:
