osu file format v14

[General]
AudioFilename: audio.mp3
AudioLeadIn: 0
PreviewTime:57964
Countdown: 0
SampleSet: Soft
StackLeniency: 0.7
Mode: 0
LetterboxInBreaks: 0
WidescreenStoryboard: 1

[Editor]
DistanceSpacing: 1.8
BeatDivisor: 4
GridSize: 4
TimelineZoom: 1

[Metadata]
Title:Like Flames (TV Size)
TitleUnicode:Like Flames (TV Size)
Artist:MindaRyn
ArtistUnicode:MindaRyn
Creator:Sotarks
Version:Kowari's Insane
Source:転生したらスライムだった件 第2期
Tags:that time i got reincarnated as a red crewmate sachiko 小山 寿 tensei shitara slime datta ken 2nd second season part 2 two tensura anime japanese opening op rock jrock j-rock armin a_r_m_i_n vaporfly akitoshi corinn -laura- [_eli_] eli elinor kowari snownino_ reform kujinn english appleeaterx mint
BeatmapID:3095040
BeatmapSetID:1511528

[Difficulty]
HPDrainRate:5
CircleSize:4
OverallDifficulty:8
ApproachRate:9
SliderMultiplier:1.7
SliderTickRate:1

[Events]
//Background and Video events
0,0,"slime-game.jpg",0,0
Video,0,"video.mp4"
//Break Periods
//Storyboard Layer 0 (Background)
//Storyboard Layer 1 (Fail)
//Storyboard Layer 2 (Pass)
//Storyboard Layer 3 (Foreground)
//Storyboard Layer 4 (Overlay)
//Storyboard Sound Samples

[TimingPoints]
570,342.857142857143,4,2,22,52,1,0
570,-125,4,2,22,52,0,0
3227,-125,4,2,22,5,0,0
3312,-125,4,2,22,52,0,0
4684,-125,4,2,22,62,0,0
5712,-83.3333333333333,4,2,22,62,0,0
5970,-83.3333333333333,4,2,22,5,0,0
6055,-100,4,2,22,72,0,0
17027,-100,4,2,22,62,0,0
19427,-83.3333333333333,4,2,22,62,0,0
19770,-125,4,2,22,52,0,0
27998,-250,4,2,22,52,0,0
28341,-250,4,2,22,42,0,0
29541,-250,4,2,22,52,0,0
30055,-100,4,2,22,52,0,0
30741,-111.111111111111,4,2,22,62,0,0
55427,-111.111111111111,4,2,22,72,0,0
58170,-100,4,2,22,82,0,1
80112,-100,4,2,22,72,0,0

[Colours]
Combo1 : 230,254,92
Combo2 : 156,206,243
Combo3 : 105,47,202
Combo4 : 80,228,214

[HitObjects]
107,287,570,5,0,1:2:0:0:
107,287,741,2,0,P|99:332|93:371,1,68,0|8,1:2|0:2,0:0:0:0:
196,234,1084,1,0,0:0:0:0:
196,234,1255,2,0,P|204:279|209:318,1,68,0|0,0:0|0:2,0:0:0:0:
42,164,1598,6,0,B|92:181|92:181|152:105|252:137,1,204,12|0,0:2|0:2,0:0:0:0:
263,245,2284,2,0,L|187:232,1,68,8|0,0:2|0:2,0:0:0:0:
375,203,2627,1,0,0:2:0:0:
308,306,2798,1,0,0:2:0:0:
440,359,2970,1,12,0:2:0:0:
440,359,3312,6,0,L|432:306,3,34,8|0|0|0,1:2|1:2|1:2|1:2,0:0:0:0:
359,208,3655,2,0,L|353:241,3,34,8|0|0|0,1:2|1:2|1:2|1:2,0:0:0:0:
268,345,3998,2,0,L|257:299,1,34,8|0,1:2|1:2,0:0:0:0:
169,238,4170,2,0,L|161:271,1,34,0|0,1:2|1:2,0:0:0:0:
86,323,4341,1,8,1:3:0:0:
69,328,4426,1,8,1:3:0:0:
52,330,4512,1,4,1:3:0:0:
36,330,4598,1,4,1:3:0:0:
19,328,4683,5,10,0:2:0:0:
189,228,4855,1,10,0:2:0:0:
3,106,5027,1,10,0:2:0:0:
3,106,5370,6,0,L|55:96,1,34,8|8,0:2|0:3,0:0:0:0:
221,49,5541,2,0,L|169:39,1,34,8|4,0:3|0:3,0:0:0:0:
101,0,5712,6,0,B|106:35|117:56|117:56|108:90|108:90|122:117|128:165,1,152.999995330811,12|0,0:2|0:2,0:0:0:0:
78,223,6055,6,0,P|134:173|235:193,1,170,6|8,1:2|0:2,0:0:0:0:
343,340,6570,1,2,0:2:0:0:
220,290,6741,1,0,1:2:0:0:
344,182,6912,1,0,1:2:0:0:
306,357,7084,1,10,0:2:0:0:
472,292,7255,6,0,P|466:238|458:195,1,85,0|0,0:0|0:2,0:0:0:0:
342,89,7598,1,0,1:2:0:0:
240,155,7770,2,0,P|233:196|228:239,1,85,10|0,0:2|0:2,0:0:0:0:
333,210,8112,1,2,1:2:0:0:
253,64,8284,1,0,1:2:0:0:
135,175,8455,2,0,P|135:252|147:323,1,127.5,10|0,0:2|0:0,0:0:0:0:
151,338,8798,6,0,P|95:331|43:321,1,85,6|0,1:2|0:0,0:0:0:0:
0,210,9141,1,8,0:2:0:0:
179,125,9312,1,2,0:2:0:0:
108,242,9484,1,0,1:2:0:0:
0,76,9655,1,0,1:2:0:0:
183,34,9827,1,10,0:2:0:0:
248,175,9998,6,0,P|304:191|340:195,1,85,0|0,0:0|1:2,0:0:0:0:
505,91,10341,1,14,0:2:0:0:
294,14,10512,2,0,P|307:62|323:107,1,85,8|0,0:2|1:2,0:0:0:0:
437,274,10855,1,10,0:2:0:0:
437,274,10942,1,8,1:3:0:0:
437,274,11027,1,8,1:3:0:0:
248,175,11198,1,8,0:2:0:0:
138,262,11370,1,8,1:2:0:0:
138,262,11455,1,8,1:2:0:0:
138,262,11541,6,0,P|208:215|319:243,1,170,6|8,1:2|0:2,0:0:0:0:
117,363,12055,2,0,P|52:345|26:338,1,85,2|0,0:2|1:2,0:0:0:0:
23,177,12398,1,0,1:2:0:0:
153,333,12570,1,10,0:2:0:0:
233,188,12741,6,0,P|241:141|246:93,1,85,0|0,0:0|1:2,0:0:0:0:
99,14,13084,1,0,1:2:0:0:
103,42,13170,1,0,1:2:0:0:
108,70,13255,1,10,0:2:0:0:
129,203,13427,1,0,0:2:0:0:
245,103,13598,2,0,P|302:88|345:79,1,85,2|0,1:2|1:2,0:0:0:0:
480,219,13941,2,0,P|396:205|341:196,1,127.5,10|0,0:2|0:0,0:0:0:0:
314,190,14284,5,6,1:2:0:0:
273,270,14455,1,0,1:2:0:0:
233,359,14627,1,8,0:2:0:0:
397,299,14798,1,2,1:2:0:0:
402,276,14884,1,0,1:2:0:0:
396,252,14970,1,8,0:2:0:0:
228,149,15141,1,0,1:2:0:0:
214,167,15227,1,0,1:2:0:0:
211,192,15312,1,10,0:2:0:0:
304,316,15484,6,0,L|296:255,1,42.5,0|0,1:2|1:2,0:0:0:0:
274,87,15655,2,0,P|266:22|259:-10,1,85,8|0,0:2|1:2,0:0:0:0:
262,2,15912,1,8,0:2:0:0:
262,2,15998,1,10,0:2:0:0:
114,204,16170,2,0,P|121:162|125:119,1,85,4|2,1:2|1:2,0:0:0:0:
125,120,16427,1,8,0:2:0:0:
125,120,16513,1,8,0:2:0:0:
237,293,16684,1,6,1:2:0:0:
34,249,16855,5,8,0:2:0:0:
34,249,16941,1,8,0:2:0:0:
34,249,17027,2,0,P|101:235|206:214,2,170,6|8|8,1:2|0:2|0:2,0:0:0:0:
119,117,17884,1,0,0:0:0:0:
119,117,17970,1,8,0:2:0:0:
119,117,18055,1,0,1:2:0:0:
190,294,18227,6,0,P|247:313|292:320,1,85,8|0,0:2|1:2,0:0:0:0:
330,371,18485,2,0,P|371:361|411:347,1,85,8|0,0:2|1:2,0:0:0:0:
487,375,18741,2,0,P|448:282|438:231,1,127.5,8|8,0:2|0:2,0:0:0:0:
446,217,19084,2,0,L|459:164,3,42.5,8|8|8|4,0:2|0:3|0:3|0:3,0:0:0:0:
508,104,19427,6,0,P|462:68|356:94,1,152.999995330811,12|0,0:2|0:2,0:0:0:0:
349,103,19770,6,0,P|280:91|252:84,1,68,6|0,1:2|1:2,0:0:0:0:
166,16,20112,2,0,P|187:98|202:160,1,136,8|0,0:2|0:0,0:0:0:0:
199,147,20798,1,10,0:2:0:0:
137,241,20970,6,0,P|75:245|20:190,1,136,2|2,0:2|0:2,0:0:0:0:
132,159,21484,2,0,L|221:143,1,68,8|0,0:2|0:2,0:0:0:0:
310,75,21827,1,2,0:2:0:0:
310,75,21998,2,0,L|291:155,1,68,2|10,0:2|0:2,0:0:0:0:
267,236,22341,1,2,0:2:0:0:
382,182,22512,5,0,1:2:0:0:
382,182,22684,1,0,1:2:0:0:
471,274,22855,2,0,P|438:305|334:300,1,136,8|0,0:2|0:0,0:0:0:0:
351,309,23540,1,10,0:2:0:0:
259,358,23712,6,0,P|247:304|242:267,1,68,2|0,0:2|0:2,0:0:0:0:
315,164,24055,2,0,P|327:218|332:255,1,68,2|8,0:2|0:2,0:0:0:0:
245,291,24398,1,2,0:2:0:0:
161,187,24570,1,2,0:2:0:0:
161,187,24741,2,0,P|107:174|65:173,2,68,2|8|2,1:2|0:2|1:2,0:0:0:0:
16,221,25255,6,0,P|2:171|-3:140,1,68,4|0,1:2|1:2,0:0:0:0:
91,48,25598,2,0,P|115:100|79:187,1,136,8|2,0:2|0:2,0:0:0:0:
14,256,26112,2,0,P|59:269|94:283,1,68,2|8,0:2|0:2,0:0:0:0:
186,360,26455,6,0,B|239:350|239:350|271:360|271:360|340:351,1,136,2|2,0:2|0:2,0:0:0:0:
407,204,26970,1,8,0:2:0:0:
503,292,27141,2,0,B|464:276|464:276|417:308|360:279,1,136,2|2,0:2|1:2,0:0:0:0:
300,175,27655,2,0,P|304:117|314:85,1,68,8|2,0:2|0:2,0:0:0:0:
439,27,27998,6,0,B|492:90|471:198|471:198|436:140|389:142,1,272,6|0,1:2|0:2,0:0:0:0:
307,190,29541,5,0,1:2:0:0:
219,60,29712,1,8,0:2:0:0:
164,233,29884,1,8,0:2:0:0:
156,260,29970,1,8,0:2:0:0:
149,287,30055,1,8,0:2:0:0:
67,147,30227,1,0,1:2:0:0:
67,147,30312,1,0,1:2:0:0:
67,147,30398,1,10,0:2:0:0:
0,246,30570,2,0,L|53:237,1,42.5,8|8,0:2|0:2,0:0:0:0:
161,212,30741,6,0,B|208:200|208:200|235:138|310:146,1,152.999995330811,6|8,1:2|0:2,0:0:0:0:
375,83,31255,2,0,P|385:137|388:178,1,76.4999976654053,0|0,0:2|1:2,0:0:0:0:
320,317,31598,1,0,1:2:0:0:
447,259,31770,2,0,P|366:242|291:228,1,152.999995330811,8|0,0:2|0:0,0:0:0:0:
201,327,32284,5,2,1:2:0:0:
94,260,32455,2,0,P|86:211|82:175,1,76.4999976654053,8|2,0:2|0:2,0:0:0:0:
189,91,32798,2,0,P|197:140|201:176,1,76.4999976654053,2|2,1:2|1:2,0:0:0:0:
113,40,33141,1,8,0:2:0:0:
283,141,33312,5,10,0:2:0:0:
283,141,33398,1,8,0:2:0:0:
283,141,33484,2,0,P|310:94|282:-17,1,152.999995330811,4|8,1:2|0:2,0:0:0:0:
400,147,33998,2,0,P|454:161|496:170,1,76.4999976654053,0|0,0:2|1:2,0:0:0:0:
319,268,34340,1,0,1:2:0:0:
182,136,34512,6,0,P|107:153|33:171,1,152.999995330811,8|0,0:2|0:0,0:0:0:0:
155,256,35027,1,2,1:2:0:0:
54,280,35198,2,0,P|41:330|36:370,1,76.4999976654053,8|2,0:2|1:2,0:0:0:0:
37,354,35455,1,8,0:2:0:0:
37,354,35541,1,2,1:2:0:0:
166,295,35712,2,0,P|216:282|256:277,1,76.4999976654053,2|8,1:2|0:2,0:0:0:0:
119,202,36055,1,2,0:2:0:0:
233,371,36227,6,0,P|287:379|358:312,1,152.999995330811,4|8,1:2|0:2,0:0:0:0:
334,183,36741,1,0,0:2:0:0:
488,264,36912,1,2,1:2:0:0:
437,174,37084,1,2,1:2:0:0:
273,275,37255,6,0,P|285:208|305:109,1,152.999995330811,8|0,0:2|0:0,0:0:0:0:
351,39,37770,1,2,1:2:0:0:
409,177,37941,2,0,P|459:186|504:188,1,76.4999976654053,8|2,0:2|0:2,0:0:0:0:
455,90,38284,1,0,1:2:0:0:
455,90,38455,1,2,1:2:0:0:
301,202,38627,2,0,P|251:211|177:208,1,114.749996498108,8|8,0:2|0:2,0:0:0:0:
158,195,38970,6,0,P|143:137|140:104,1,76.4999976654053,6|0,1:2|0:0,0:0:0:0:
242,22,39312,2,0,P|257:80|260:113,1,76.4999976654053,8|0,0:2|0:0,0:0:0:0:
159,231,39655,1,0,1:2:0:0:
305,281,39827,1,0,1:2:0:0:
235,132,39998,1,8,0:2:0:0:
72,275,40170,6,0,P|101:320|201:331,1,152.999995330811,6|0,1:2|1:2,0:0:0:0:
318,207,40684,1,8,0:2:0:0:
400,324,40855,1,0,1:2:0:0:
400,324,40941,1,8,0:2:0:0:
400,324,41027,1,0,1:2:0:0:
226,218,41198,1,8,0:3:0:0:
220,199,41283,1,8,0:3:0:0:
217,180,41369,1,8,0:2:0:0:
215,161,41455,1,4,0:3:0:0:
216,142,41540,1,4,0:3:0:0:
219,123,41626,1,4,0:3:0:0:
222,107,41712,6,0,P|306:92|393:78,1,152.999995330811,6|10,1:2|0:2,0:0:0:0:
187,200,42227,2,0,P|145:192|90:179,1,76.4999976654053,2|0,0:2|1:2,0:0:0:0:
283,279,42570,2,0,P|291:237|304:182,1,76.4999976654053,2|8,1:2|0:2,0:0:0:0:
405,100,42912,1,2,0:2:0:0:
491,249,43084,5,0,1:2:0:0:
367,286,43255,1,0,1:2:0:0:
483,155,43427,1,8,0:2:0:0:
483,155,43597,1,2,0:2:0:0:
328,65,43770,2,0,P|272:47|228:37,1,76.4999976654053,2|0,1:2|1:2,0:0:0:0:
105,152,44112,1,10,0:2:0:0:
211,291,44284,5,10,0:2:0:0:
211,291,44370,1,8,0:2:0:0:
211,291,44455,2,0,P|251:248|239:134,1,152.999995330811,0|8,1:2|0:2,0:0:0:0:
159,43,44970,1,0,0:2:0:0:
75,137,45141,2,0,P|29:146|-17:148,1,76.4999976654053,2|0,1:2|1:2,0:0:0:0:
166,204,45484,1,10,0:2:0:0:
71,296,45655,6,0,P|59:343|48:394,1,76.4999976654053,2|0,0:2|1:2,0:0:0:0:
166,204,45998,2,0,P|131:170|92:135,1,76.4999976654053,2|8,1:2|0:2,0:0:0:0:
209,317,46341,2,0,P|255:303|305:287,1,76.4999976654053,2|0,0:2|1:2,0:0:0:0:
417,189,46684,1,2,1:2:0:0:
266,94,46855,1,8,0:2:0:0:
367,8,47027,5,8,0:2:0:0:
367,8,47112,1,8,0:2:0:0:
367,8,47198,2,0,P|352:103|340:167,1,152.999995330811,6|10,1:2|0:2,0:0:0:0:
237,42,47712,2,0,P|196:30|160:14,1,76.4999976654053,2|0,0:2|1:2,0:0:0:0:
373,179,48055,2,0,P|414:167|450:151,1,76.4999976654053,2|8,1:2|0:2,0:0:0:0:
248,148,48398,1,2,0:2:0:0:
421,283,48570,6,0,P|363:305|271:253,1,152.999995330811,0|8,1:2|0:2,0:0:0:0:
225,123,49085,1,0,0:2:0:0:
125,266,49255,1,2,1:2:0:0:
125,266,49427,1,0,1:2:0:0:
266,230,49598,1,10,0:2:0:0:
91,348,49770,5,10,0:2:0:0:
91,348,49855,1,8,0:2:0:0:
91,348,49941,2,0,P|75:255|65:171,2,152.999995330811,0|8|2,1:2|0:2|1:2,0:0:0:0:
198,212,50798,1,0,1:2:0:0:
97,112,50970,5,10,0:2:0:0:
97,112,51141,2,0,P|41:100|-11:91,1,76.4999976654053,10|0,0:2|1:2,0:0:0:0:
190,246,51484,2,0,P|227:238|264:230,1,76.4999976654053,10|0,0:2|1:2,0:0:0:0:
376,136,51827,1,2,1:2:0:0:
321,296,51998,1,8,0:2:0:0:
207,148,52170,1,10,0:3:0:0:
201,129,52255,1,8,0:3:0:0:
197,110,52341,1,8,0:3:0:0:
195,91,52427,1,4,0:3:0:0:
196,72,52512,1,4,0:3:0:0:
198,53,52598,1,4,0:3:0:0:
200,37,52684,6,0,P|266:24|347:73,1,152.999995330811,6|10,1:2|0:2,0:0:0:0:
449,21,53198,2,0,P|447:71|440:116,1,76.4999976654053,2|0,0:2|1:2,0:0:0:0:
284,225,53541,2,0,P|279:187|278:148,1,76.4999976654053,2|8,1:2|0:2,0:0:0:0:
402,218,53884,1,0,1:2:0:0:
291,342,54055,6,0,P|243:333|202:321,1,76.4999976654053,2|0,1:2|1:2,0:0:0:0:
55,322,54398,2,0,P|86:284|117:255,1,76.4999976654053,10|2,0:2|1:2,0:0:0:0:
228,176,54741,1,8,0:2:0:0:
126,65,54912,1,8,0:3:0:0:
109,56,54997,1,8,0:3:0:0:
91,48,55083,1,8,0:3:0:0:
73,41,55169,1,4,0:3:0:0:
55,35,55254,1,4,0:3:0:0:
37,30,55340,1,4,0:3:0:0:
18,26,55426,5,10,0:2:0:0:
95,200,55598,1,8,0:2:0:0:
235,20,55770,1,8,0:2:0:0:
235,20,56798,5,14,0:2:0:0:
317,188,56970,2,0,L|332:136,1,38.2499988327027,8|8,0:2|0:2,0:0:0:0:
376,41,57141,1,8,0:2:0:0:
220,166,57312,5,4,1:2:0:0:
406,260,57484,1,10,0:2:0:0:
406,260,57570,1,8,0:2:0:0:
406,260,57655,1,8,0:2:0:0:
290,379,57827,2,0,L|275:328,1,38.2499988327027,8|8,0:2|0:2,0:0:0:0:
195,201,57998,2,0,L|184:237,1,38.2499988327027,8|8,0:2|0:2,0:0:0:0:
110,298,58170,6,0,P|157:323|265:286,1,170,6|8,1:2|0:2,0:0:0:0:
341,147,58684,1,0,0:2:0:0:
184,237,58855,2,0,P|173:195|163:154,1,85,2|0,1:2|1:2,0:0:0:0:
285,0,59198,5,10,0:2:0:0:
412,134,59370,2,0,P|319:110|222:88,1,170,2|0,0:2|1:2,0:0:0:0:
100,7,59884,2,0,P|78:54|66:94,1,85,10|0,0:2|0:2,0:0:0:0:
196,232,60227,1,2,1:2:0:0:
168,84,60398,1,0,1:2:0:0:
71,232,60570,2,0,P|84:272|102:310,1,85,10|8,0:2|0:2,0:0:0:0:
102,310,60827,1,8,0:2:0:0:
102,310,60912,6,0,P|165:292|200:286,1,85,0|0,1:2|0:0,0:0:0:0:
340,362,61255,2,0,P|360:308|306:190,1,170,10|0,0:2|1:2,0:0:0:0:
172,143,61770,1,2,1:2:0:0:
290,11,61941,2,0,P|281:69|274:103,1,85,8|0,0:2|0:2,0:0:0:0:
73,199,62284,6,0,P|64:157|58:115,1,85,2|0,1:2|1:2,0:0:0:0:
62,90,62542,1,0,1:2:0:0:
73,65,62627,1,10,0:2:0:0:
222,231,62798,2,0,L|167:247,1,42.5,8|8,0:2|0:2,0:0:0:0:
85,278,62970,1,2,1:2:0:0:
268,307,63141,1,0,1:2:0:0:
156,157,63312,1,8,0:2:0:0:
329,37,63484,5,8,0:2:0:0:
329,37,63570,1,8,0:2:0:0:
329,37,63655,2,0,P|346:91|268:195,1,170,6|8,1:2|0:2,0:0:0:0:
442,129,64169,1,0,0:2:0:0:
255,95,64341,2,0,P|196:83|149:75,1,85,2|0,1:2|1:2,0:0:0:0:
251,256,64684,5,10,0:2:0:0:
402,228,64856,2,0,P|443:220|485:211,1,85,2|0,0:2|1:2,0:0:0:0:
321,167,65198,1,0,1:2:0:0:
274,353,65370,2,0,P|202:359|151:324,1,127.5,10|0,0:2|0:0,0:0:0:0:
125,295,65712,6,0,P|70:305|18:321,1,85,2|0,1:2|1:2,0:0:0:0:
156,151,66055,1,10,0:2:0:0:
241,250,66227,1,0,0:0:0:0:
54,199,66398,6,0,P|39:145|116:52,1,170,0|8,1:2|0:2,0:0:0:0:
99,57,66912,1,0,0:0:0:0:
240,165,67084,1,2,1:2:0:0:
240,165,67255,1,0,1:2:0:0:
326,35,67427,2,0,P|278:47|206:70,1,85,10|0,0:2|0:2,0:0:0:0:
145,192,67770,5,2,1:2:0:0:
291,298,67941,1,8,0:2:0:0:
322,303,68026,1,8,0:2:0:0:
353,299,68112,1,10,0:2:0:0:
382,285,68198,1,8,0:2:0:0:
408,267,68284,2,0,L|423:197,1,42.5,0|0,1:2|1:2,0:0:0:0:
448,77,68455,2,0,L|389:90,1,42.5,10|8,0:3|0:3,0:0:0:0:
326,175,68627,2,0,L|284:184,1,42.5,4|4,0:3|0:3,0:0:0:0:
187,136,68798,1,14,0:2:0:0:
280,358,68970,5,8,0:2:0:0:
280,358,69055,1,8,0:2:0:0:
280,358,69141,2,0,P|294:300|300:243,1,85,4|0,1:2|1:2,0:0:0:0:
100,181,69485,2,0,P|86:239|80:296,1,85,10|0,0:2|1:2,0:0:0:0:
197,144,69827,1,8,0:2:0:0:
34,90,69998,1,2,1:2:0:0:
227,237,70170,1,8,0:2:0:0:
96,288,70342,1,0,1:2:0:0:
142,77,70512,6,0,P|191:37|308:48,1,170,10|8,0:2|0:2,0:0:0:0:
449,192,71027,1,2,1:2:0:0:
449,192,71112,1,0,1:2:0:0:
449,192,71198,1,8,0:2:0:0:
243,139,71370,1,0,1:2:0:0:
322,280,71541,1,10,0:2:0:0:
413,74,71712,1,0,1:2:0:0:
185,182,71884,6,0,P|189:248|197:295,1,85,12|0,0:2|0:0,0:0:0:0:
384,357,72227,2,0,P|389:314|390:272,1,85,8|0,0:2|1:2,0:0:0:0:
390,272,72484,1,0,1:2:0:0:
390,272,72570,1,8,0:2:0:0:
338,143,72741,1,0,1:2:0:0:
224,305,72912,1,8,0:2:0:0:
229,79,73084,1,0,1:2:0:0:
136,182,73255,5,8,0:2:0:0:
322,146,73427,1,0,1:0:0:0:
322,146,73512,1,0,1:0:0:0:
322,146,73598,2,0,L|381:137,1,42.5,8|8,0:0|0:0,0:0:0:0:
440,40,73770,2,0,L|381:49,1,42.5,8|8,0:0|0:0,0:0:0:0:
282,0,73941,2,0,L|299:60,1,42.5,0|0,1:0|1:0,0:0:0:0:
372,235,74112,1,8,0:3:0:0:
373,256,74197,1,8,0:3:0:0:
373,277,74283,1,8,0:0:0:0:
370,298,74369,1,8,0:3:0:0:
365,318,74454,1,8,0:3:0:0:
357,338,74540,1,4,0:3:0:0:
348,356,74627,6,0,P|295:345|249:334,1,85,4|0,1:2|0:0,0:0:0:0:
97,253,74970,2,0,B|156:270|156:270|200:216|271:228,1,170,10|0,0:2|1:2,0:0:0:0:
264,337,75484,1,2,1:2:0:0:
137,166,75655,2,0,P|123:115|115:68,1,85,8|2,0:2|0:2,0:0:0:0:
269,0,75998,5,2,1:2:0:0:
226,113,76170,1,0,1:2:0:0:
355,73,76341,1,8,0:2:0:0:
418,222,76512,2,0,B|478:219|520:205,1,85,2|0,0:2|1:2,0:0:0:0:
442,124,76855,1,0,1:2:0:0:
411,336,77027,2,0,P|350:305|285:322,1,127.5,10|8,0:2|0:2,0:0:0:0:
260,351,77370,6,0,P|244:274|233:176,2,170,4|8|0,1:2|0:2|1:2,0:0:0:0:
325,215,78227,1,0,1:2:0:0:
138,155,78398,1,10,0:2:0:0:
283,73,78570,1,10,0:2:0:0:
244,169,78741,1,0,1:2:0:0:
119,25,78912,5,12,0:2:0:0:
319,101,79084,1,0,1:2:0:0:
165,196,79255,1,0,1:2:0:0:
165,196,79341,1,0,1:2:0:0:
165,196,79427,5,10,0:2:0:0:
189,344,79598,1,8,0:3:0:0:
334,316,79770,1,6,0:3:0:0:
310,168,79941,1,4,0:3:0:0:
246,257,80112,6,0,B|191:245|191:245|136:254|136:254|67:241,1,170,4|0,1:2|1:2,0:0:0:0:
196,335,80627,1,0,1:2:0:0:
126,159,80798,2,0,P|116:106|115:56,1,85,10|0,0:2|0:0,0:0:0:0:
294,26,81141,2,0,P|291:68|282:109,1,85,2|0,1:2|1:2,0:0:0:0:
206,222,81484,5,2,1:2:0:0:
316,348,81655,2,0,P|380:356|472:290,1,170,8|0,0:2|1:2,0:0:0:0:
512,197,82170,2,0,P|453:180|411:170,1,85,10|0,0:2|0:0,0:0:0:0:
304,82,82512,2,0,P|345:71|385:59,1,85,2|8,1:2|0:2,0:0:0:0:
233,162,82855,6,0,B|172:117|202:47|202:47|179:1,1,170,2|2,1:2|1:2,0:0:0:0:
304,83,83370,1,0,0:2:0:0:
131,198,83541,2,0,P|110:256|102:306,1,85,10|0,0:2|1:2,0:0:0:0:
258,374,83885,2,0,P|279:316|287:266,1,85,10|0,0:2|0:0,0:0:0:0:
161,108,84227,5,2,1:2:0:0:
192,267,84398,1,8,0:2:0:0:
241,188,84570,1,0,1:2:0:0:
286,107,84741,1,0,1:2:0:0:
81,186,84912,1,10,0:2:0:0:
270,321,85084,1,0,1:2:0:0:
270,321,85170,1,0,1:2:0:0:
270,321,85255,2,0,L|335:340,1,42.5,10|8,0:3|0:3,0:0:0:0:
382,256,85427,2,0,L|422:244,1,42.5,4|4,0:3|0:3,0:0:0:0:
512,384,85598,5,4,1:2:0:0:
