osu file format v14

[General]
AudioFilename: audio.mp3
AudioLeadIn: 0
PreviewTime: 57964
Countdown: 0
SampleSet: Soft
StackLeniency: 0.7
Mode: 0
LetterboxInBreaks: 0
WidescreenStoryboard: 0

[Editor]
DistanceSpacing: 1.8
BeatDivisor: 4
GridSize: 4
TimelineZoom: 4.899997

[Metadata]
Title:Like Flames (TV Size)
TitleUnicode:Like Flames (TV Size)
Artist:MindaRyn
ArtistUnicode:MindaRyn
Creator:Sotarks
Version:Eruption
Source:転生したらスライムだった件 第2期
Tags:that time i got reincarnated as a red crewmate sachiko 小山 寿 tensei shitara slime datta ken 2nd second season part 2 two tensura anime japanese opening op rock jrock j-rock armin a_r_m_i_n vaporfly akitoshi corinn -laura- [_eli_] eli elinor kowari snownino_ reform kujinn english appleeaterx mint
BeatmapID:3095039
BeatmapSetID:1511528

[Difficulty]
HPDrainRate:5.2
CircleSize:4
OverallDifficulty:9
ApproachRate:9.2
SliderMultiplier:1.72
SliderTickRate:1

[Events]
//Background and Video events
0,0,"slime-game.jpg",0,0
Video,0,"video.mp4"
//Break Periods
//Storyboard Layer 0 (Background)
//Storyboard Layer 1 (Fail)
//Storyboard Layer 2 (Pass)
//Storyboard Layer 3 (Foreground)
//Storyboard Layer 4 (Overlay)
//Storyboard Sound Samples

[TimingPoints]
570,342.857142857143,4,2,22,52,1,0
912,-121.951219512195,4,2,22,52,0,0
3227,-121.951219512195,4,2,22,5,0,0
3312,-121.951219512195,4,2,22,52,0,0
4684,-121.951219512195,4,2,22,62,0,0
5969,-121.951219512195,4,2,22,5,0,0
6055,-98.0392156862745,4,2,22,72,0,0
17027,-98.0392156862745,4,2,22,62,0,0
19770,-98.0392156862745,4,2,22,52,0,0
20112,-121.951219512195,4,2,22,52,0,0
28340,-121.951219512195,4,2,22,42,0,0
28684,-161.290322580645,4,2,22,42,0,0
29541,-161.290322580645,4,2,22,52,0,0
30227,-121.951219512195,4,2,22,52,0,0
30741,-98.0392156862745,4,2,22,62,0,0
55426,-98.0392156862745,4,2,22,72,0,0
58169,-98.0392156862745,4,2,22,82,0,0
58341,-89.2857142857143,4,2,22,82,0,0
80112,-98.0392156862745,4,2,22,72,0,0

[Colours]
Combo1 : 230,254,92
Combo2 : 156,206,243
Combo3 : 105,47,202
Combo4 : 80,228,214

[HitObjects]
139,193,570,5,0,1:2:0:0:
188,9,741,1,0,1:2:0:0:
308,258,912,2,0,B|252:223|203:264|224:286|175:337|101:292,1,211.560003228149,8|0,2:0|2:0,2:0:0:0:
275,93,1598,2,0,P|375:106|503:122,1,211.560003228149,12|0,2:0|2:0,2:0:0:0:
405,294,2284,2,0,P|394:255|383:212,1,70.5200010760498,8|0,2:0|2:0,2:0:0:0:
289,325,2627,2,0,P|298:291|307:256,1,70.5200010760498,0|0,2:0|2:0,2:0:0:0:
187,155,2970,2,0,P|197:206|213:291,1,105.780001614075,12|0,2:0|2:0,2:0:0:0:
177,332,3312,6,0,L|127:321,3,35.2600005380249,8|0|0|0,1:2|1:2|1:2|1:2,1:2:0:0:
36,255,3655,2,0,L|71:248,3,35.2600005380249,8|0|0|0,1:2|1:2|1:2|1:2,1:2:0:0:
166,135,3998,2,0,L|157:169,1,35.2600005380249,8|0,1:2|1:2,1:2:0:0:
26,110,4170,2,0,L|34:75,1,35.2600005380249,0|0,1:2|1:2,1:2:0:0:
109,0,4341,1,8,1:3:0:0:
111,17,4426,1,8,1:3:0:0:
114,34,4512,1,4,1:3:0:0:
117,52,4598,1,4,1:3:0:0:
119,69,4684,5,10,2:0:0:0:
355,171,4855,1,10,2:0:0:0:
71,248,5027,1,10,2:0:0:0:
71,248,5370,1,8,2:0:0:0:
91,276,5455,1,8,2:3:0:0:
122,292,5541,1,8,2:3:0:0:
157,292,5627,1,4,2:3:0:0:
188,276,5712,2,0,P|179:222|166:147,1,105.780001614075,12|0,2:0|2:0,2:0:0:0:
130,80,6055,6,0,P|174:88|254:101,1,87.7200005354004,6|0,1:2|2:0,2:0:0:0:
385,193,6398,1,8,2:0:0:0:
292,10,6570,1,2,2:0:0:0:
225,208,6741,1,0,1:2:0:0:
389,73,6912,1,0,1:2:0:0:
144,130,7084,2,0,P|113:195|162:301,1,175.440001070801,10|0,2:0|2:0,2:0:0:0:
338,354,7598,5,0,1:2:0:0:
225,208,7770,1,10,2:0:0:0:
185,384,7941,1,0,2:0:0:0:
308,158,8112,1,2,1:2:0:0:
372,345,8284,1,0,1:2:0:0:
144,130,8455,2,0,P|100:137|57:145,1,87.7200005354004,10|0,2:0|2:0,2:0:0:0:
268,291,8798,6,0,B|319:261|361:297|348:307|383:341|451:299,1,175.440001070801,6|8,1:2|2:0,2:0:0:0:
308,158,9312,1,2,2:0:0:0:
371,352,9484,1,0,1:2:0:0:
298,133,9655,1,0,1:2:0:0:
204,363,9827,2,0,B|183:343|156:320|156:320|179:277|210:213,1,175.440001070801,10|0,2:0|1:2,2:0:0:0:
100,42,10341,5,14,2:0:0:0:
268,291,10512,1,8,2:0:0:0:
346,13,10684,1,0,1:2:0:0:
149,159,10855,1,10,2:0:0:0:
170,196,10940,1,8,1:3:0:0:
206,220,11026,1,8,1:3:0:0:
249,225,11112,1,4,1:3:0:0:
289,208,11197,1,8,2:0:0:0:
431,58,11370,1,8,1:2:0:0:
431,58,11455,1,8,1:2:0:0:
431,58,11541,6,0,P|424:112|418:165,1,87.7200005354004,6|0,1:2|2:0,2:0:0:0:
323,306,11884,1,8,2:0:0:0:
512,229,12055,1,2,2:0:0:0:
329,100,12227,1,0,1:2:0:0:
459,309,12398,1,0,1:2:0:0:
233,171,12570,2,0,B|177:150|142:193|156:200|128:240|54:210,1,175.440001070801,10|0,2:0|1:2,2:0:0:0:
310,355,13084,5,0,1:2:0:0:
310,355,13170,1,0,1:2:0:0:
310,355,13255,2,0,P|300:311|291:268,1,87.7200005354004,10|0,2:0|2:0,2:0:0:0:
165,100,13598,1,2,1:2:0:0:
384,144,13770,1,0,1:2:0:0:
180,302,13941,2,0,P|189:258|198:215,1,87.7200005354004,10|0,2:0|2:0,2:0:0:0:
296,38,14284,5,6,1:2:0:0:
77,136,14455,1,0,1:2:0:0:
291,269,14627,1,8,2:0:0:0:
202,110,14798,1,2,1:2:0:0:
199,122,14883,1,0,1:2:0:0:
197,135,14969,1,8,2:0:0:0:
396,218,15141,1,0,1:2:0:0:
393,206,15226,1,0,1:2:0:0:
391,193,15312,1,10,2:0:0:0:
177,248,15484,2,0,L|166:302,1,43.8600002677002,0|0,1:2|1:2,2:0:0:0:
308,354,15655,6,0,P|299:311|290:268,1,87.7200005354004,8|0,2:0|1:2,2:0:0:0:
280,231,15912,1,8,2:0:0:0:
280,231,15998,1,10,2:0:0:0:
71,317,16170,2,0,P|79:274|88:231,1,87.7200005354004,4|2,1:2|1:2,2:0:0:0:
99,194,16427,1,8,2:0:0:0:
99,194,16513,1,8,2:0:0:0:
231,31,16684,1,6,1:2:0:0:
46,78,16855,1,8,2:0:0:0:
67,82,16940,1,8,2:0:0:0:
88,87,17027,5,6,1:2:0:0:
217,119,17370,1,8,2:0:0:0:
345,150,17712,2,0,P|356:220|367:289,1,131.580000803101,8|8,2:0|2:0,2:0:0:0:
370,314,18055,1,0,1:2:0:0:
180,384,18227,2,0,P|188:341|197:298,1,87.7200005354004,8|0,2:0|1:2,2:0:0:0:
158,236,18484,2,0,P|149:193|140:150,1,87.7200005354004,8|0,2:0|1:2,2:0:0:0:
169,76,18741,1,8,2:0:0:0:
80,284,18912,1,8,2:0:0:0:
80,284,18998,1,8,2:0:0:0:
80,284,19084,2,0,L|22:267,3,43.8600002677002,8|8|8|4,2:0|2:3|2:3|2:3,2:0:0:0:
0,249,19427,2,0,P|66:240|158:225,1,131.580000803101,12|0,2:0|2:0,2:0:0:0:
165,222,19770,5,6,1:2:0:0:
323,323,19941,1,0,1:2:0:0:
238,96,20112,2,0,B|205:127|177:146|177:146|207:201|241:273,1,211.560003228149,8|0,2:0|2:0,2:0:0:0:
358,149,20798,1,10,2:0:0:0:
358,149,20970,2,0,P|316:157|271:165,1,70.5200010760498,2|0,2:0|2:0,2:0:0:0:
148,177,21312,1,2,2:0:0:0:
223,27,21484,2,0,P|232:70|241:111,1,70.5200010760498,8|0,2:0|2:0,2:0:0:0:
274,255,21827,1,2,2:0:0:0:
274,255,21998,1,2,2:0:0:0:
323,61,22170,1,10,2:0:0:0:
384,228,22341,1,2,2:0:0:0:
134,86,22512,5,0,1:2:0:0:
318,148,22684,1,0,1:2:0:0:
143,265,22855,2,0,P|158:154|171:47,1,211.560003228149,8|0,2:0|2:0,2:0:0:0:
309,188,23541,1,10,2:0:0:0:
309,188,23712,2,0,P|267:196|222:204,1,70.5200010760498,2|0,2:0|2:0,2:0:0:0:
54,181,24055,2,0,P|88:174|123:168,1,70.5200010760498,2|8,2:0|2:0,2:0:0:0:
123,168,24398,1,2,2:0:0:0:
283,241,24570,1,2,2:0:0:0:
170,55,24741,1,2,1:2:0:0:
101,271,24912,1,8,2:0:0:0:
220,151,25084,1,2,1:2:0:0:
38,76,25255,5,4,1:2:0:0:
206,299,25427,1,0,1:2:0:0:
269,65,25598,2,0,P|201:84|121:104,1,141.0400021521,8|2,2:0|2:0,2:0:0:0:
338,230,26112,2,0,P|356:190|348:151,1,70.5200010760498,2|8,2:0|2:0,2:0:0:0:
186,256,26455,2,0,P|199:297|210:333,1,70.5200010760498,2|0,2:0|2:0,2:0:0:0:
228,164,26798,2,0,P|257:132|282:104,1,70.5200010760498,2|8,2:0|2:0,2:0:0:0:
136,181,27141,2,0,P|93:171|57:163,1,70.5200010760498,2|0,2:0|2:0,2:0:0:0:
271,258,27484,1,2,1:2:0:0:
162,91,27655,1,8,2:0:0:0:
88,280,27827,1,2,2:0:0:0:
275,112,27998,6,0,B|361:102|321:158|425:144,1,141.0400021521,6|0,1:2|2:0,2:0:0:0:
497,85,28512,1,0,3:2:0:0:
497,85,28684,2,0,P|503:117|509:150,1,53.3199978846436,0|0,3:2|2:0,2:0:0:0:
406,219,29027,1,0,3:2:0:0:
406,219,29199,2,0,P|412:187|418:154,1,53.3199978846436,0|0,3:2|2:0,2:0:0:0:
497,294,29541,5,0,1:2:0:0:
352,93,29712,1,8,2:0:0:0:
296,317,29884,1,8,2:0:0:0:
319,323,29969,1,8,2:0:0:0:
342,329,30055,1,8,2:0:0:0:
230,140,30227,2,0,L|212:199,1,35.2600005380249,0|0,1:2|1:2,2:0:0:0:
148,343,30398,1,10,2:0:0:0:
332,177,30570,1,8,2:0:0:0:
332,177,30655,1,8,2:0:0:0:
332,177,30741,6,0,P|324:133|316:85,1,87.7200005354004,6|0,1:2|2:0,2:0:0:0:
437,247,31084,1,8,2:0:0:0:
230,140,31255,1,0,2:0:0:0:
429,34,31427,1,0,1:2:0:0:
220,226,31598,1,0,1:2:0:0:
463,126,31770,1,8,2:0:0:0:
463,126,31941,6,0,P|402:72|310:95,1,175.440001070801,2|2,2:0|1:2,2:0:0:0:
134,178,32455,2,0,P|141:134|149:91,1,87.7200005354004,8|2,2:0|2:0,2:0:0:0:
241,264,32798,1,2,1:2:0:0:
34,144,32970,1,2,1:2:0:0:
232,26,33141,1,8,2:0:0:0:
110,253,33312,1,10,2:0:0:0:
110,253,33398,1,8,2:0:0:0:
110,253,33484,6,0,B|168:230|204:268|187:282|225:319|302:281,1,175.440001070801,4|8,1:2|2:0,2:0:0:0:
422,181,33998,1,0,2:0:0:0:
327,384,34170,1,0,1:2:0:0:
489,240,34341,1,0,1:2:0:0:
246,311,34512,1,8,2:0:0:0:
246,311,34684,6,0,B|302:288|358:264|358:264|386:282|429:313,1,175.440001070801,2|2,2:0|1:2,2:0:0:0:
258,198,35198,2,0,P|265:154|273:111,1,87.7200005354004,8|2,2:0|1:2,2:0:0:0:
281,75,35455,1,8,2:0:0:0:
281,75,35541,1,2,1:2:0:0:
365,240,35712,1,2,1:2:0:0:
171,117,35884,1,8,2:0:0:0:
375,35,36055,1,2,2:0:0:0:
200,217,36227,6,0,P|103:226|27:180,1,175.440001070801,4|8,1:2|2:0,2:0:0:0:
36,190,36741,1,0,2:0:0:0:
217,324,36912,1,2,1:2:0:0:
143,114,37084,1,2,1:2:0:0:
60,324,37255,1,8,2:0:0:0:
225,189,37427,6,0,P|316:202|431:217,1,175.440001070801,2|2,2:0|1:2,2:0:0:0:
340,35,37941,2,0,P|309:78|318:126,1,87.7200005354004,8|2,2:0|2:0,2:0:0:0:
410,298,38284,1,0,1:2:0:0:
225,189,38455,1,2,1:2:0:0:
418,96,38627,1,8,2:0:0:0:
231,283,38798,1,10,2:0:0:0:
231,283,38884,1,8,2:0:0:0:
231,283,38970,6,0,P|150:316|41:300,2,175.440001070801,6|8|0,1:2|2:0|1:2,2:0:0:0:
356,166,39827,1,0,1:2:0:0:
259,376,39998,1,8,2:0:0:0:
106,143,40170,6,0,P|142:71|253:79,1,175.440001070801,6|0,1:2|1:2,2:0:0:0:
372,271,40684,1,8,2:0:0:0:
193,175,40855,1,0,1:2:0:0:
209,170,40941,1,8,2:0:0:0:
226,165,41026,1,0,1:2:0:0:
288,347,41198,1,8,2:3:0:0:
254,319,41283,1,8,2:3:0:0:
211,313,41370,1,8,2:0:0:0:
171,331,41455,1,4,2:3:0:0:
131,348,41541,1,4,2:3:0:0:
88,342,41627,1,4,2:3:0:0:
54,315,41712,6,0,P|61:273|70:212,1,87.7200005354004,6|0,1:2|2:0,2:0:0:0:
0,74,42055,1,10,2:0:0:0:
174,256,42227,2,0,P|166:212|160:169,1,87.7200005354004,2|0,2:0|1:2,2:0:0:0:
211,4,42570,1,2,1:2:0:0:
29,94,42741,1,8,2:0:0:0:
257,191,42912,1,2,2:0:0:0:
150,83,43084,5,0,1:2:0:0:
68,270,43255,1,0,1:2:0:0:
297,107,43427,1,8,2:0:0:0:
209,316,43598,1,2,2:0:0:0:
140,53,43770,2,0,P|92:62|32:72,1,87.7200005354004,2|0,1:2|1:2,2:0:0:0:
231,212,44112,1,10,2:0:0:0:
375,5,44284,1,10,2:0:0:0:
375,5,44370,1,8,2:0:0:0:
375,5,44455,6,0,B|404:30|426:47|426:47|396:105|372:150,1,175.440001070801,0|8,1:2|2:0,2:0:0:0:
439,290,44970,1,0,2:0:0:0:
256,122,45141,2,0,P|262:165|269:208,1,87.7200005354004,2|0,1:2|1:2,2:0:0:0:
173,366,45484,1,10,2:0:0:0:
86,164,45655,6,0,P|129:172|172:179,1,87.7200005354004,2|0,2:0|1:2,2:0:0:0:
341,270,45998,1,2,1:2:0:0:
248,81,46170,1,8,2:0:0:0:
141,277,46341,2,0,P|184:269|227:261,1,87.7200005354004,2|0,2:0|1:2,2:0:0:0:
101,71,46684,1,2,1:2:0:0:
11,321,46855,1,8,2:0:0:0:
168,163,47027,1,8,2:0:0:0:
168,163,47112,1,8,2:0:0:0:
168,163,47198,6,0,B|217:134|263:174|246:188|297:229|366:182,1,175.440001070801,6|10,1:2|2:0,2:0:0:0:
424,48,47712,2,0,P|417:91|410:134,1,87.7200005354004,2|0,2:0|1:2,2:0:0:0:
315,289,48055,1,2,1:2:0:0:
512,203,48227,1,8,2:0:0:0:
314,94,48398,1,2,2:0:0:0:
411,183,48570,5,0,1:2:0:0:
303,0,48741,1,0,1:2:0:0:
216,207,48912,1,8,2:0:0:0:
403,73,49084,1,0,2:0:0:0:
186,0,49255,2,0,P|192:43|199:86,1,87.7200005354004,2|0,1:2|1:2,2:0:0:0:
87,248,49598,1,10,2:0:0:0:
287,52,49770,1,10,2:0:0:0:
287,52,49855,1,8,2:0:0:0:
287,52,49941,6,0,P|276:147|266:227,2,175.440001070801,0|8|2,1:2|2:0|1:2,2:0:0:0:
366,220,50798,1,0,1:2:0:0:
179,123,50970,1,10,2:0:0:0:
369,301,51141,1,10,2:0:0:0:
271,133,51312,5,0,1:2:0:0:
163,338,51484,1,10,2:0:0:0:
397,204,51655,1,0,1:2:0:0:
230,54,51827,1,2,1:2:0:0:
385,323,51998,1,8,2:0:0:0:
160,152,52170,1,10,2:3:0:0:
156,178,52255,1,8,2:3:0:0:
153,204,52341,1,8,2:3:0:0:
150,230,52427,1,4,2:3:0:0:
147,256,52512,1,4,2:3:0:0:
143,282,52598,1,4,2:3:0:0:
142,308,52684,6,0,P|91:299|31:288,1,87.7200005354004,6|0,1:2|1:2,2:0:0:0:
186,129,53027,1,10,2:0:0:0:
299,371,53198,2,0,P|350:362|410:351,1,87.7200005354004,2|0,2:0|1:2,2:0:0:0:
255,192,53541,1,2,1:2:0:0:
157,384,53712,1,8,2:0:0:0:
316,275,53884,1,0,1:2:0:0:
316,275,53970,1,0,1:2:0:0:
316,275,54055,6,0,P|304:229|293:184,1,87.7200005354004,2|0,1:2|1:2,2:0:0:0:
354,0,54398,1,10,2:0:0:0:
135,138,54570,1,2,1:2:0:0:
409,229,54741,1,8,2:0:0:0:
267,55,54912,1,8,2:3:0:0:
227,38,54997,1,8,2:3:0:0:
184,46,55083,1,8,2:3:0:0:
153,77,55169,1,4,2:3:0:0:
122,107,55255,1,4,2:3:0:0:
79,115,55341,1,4,2:3:0:0:
39,99,55426,5,10,2:0:0:0:
382,22,55598,1,8,2:0:0:0:
222,359,55770,1,8,2:0:0:0:
222,359,56798,5,14,2:0:0:0:
406,161,56970,1,8,2:0:0:0:
410,177,57055,1,8,2:0:0:0:
415,194,57141,1,8,2:0:0:0:
175,99,57312,1,4,1:2:0:0:
349,260,57484,1,10,2:0:0:0:
344,243,57570,1,8,2:0:0:0:
340,227,57655,1,8,2:0:0:0:
166,2,57827,1,8,2:0:0:0:
125,18,57912,1,8,2:0:0:0:
96,50,57998,1,8,2:0:0:0:
83,92,58084,1,8,2:0:0:0:
89,135,58169,5,6,1:2:0:0:
328,35,58341,2,0,P|384:48|458:62,1,96.3200011757813,2|8,2:0|2:0,2:0:0:0:
239,284,58684,1,0,2:0:0:0:
452,129,58855,1,2,1:2:0:0:
310,172,59027,1,0,1:2:0:0:
454,314,59198,5,10,2:0:0:0:
219,133,59370,2,0,P|163:146|89:160,1,96.3200011757813,2|0,2:0|1:2,2:0:0:0:
351,324,59712,1,0,1:2:0:0:
151,256,59884,1,10,2:0:0:0:
310,172,60055,1,0,2:0:0:0:
111,366,60227,1,2,1:2:0:0:
302,264,60398,1,0,1:2:0:0:
110,87,60570,2,0,P|80:133|90:182,1,96.3200011757813,10|8,2:0|2:0,2:0:0:0:
137,247,60827,1,8,2:0:0:0:
137,247,60912,6,0,P|226:259|318:273,1,144.480001763672,0|0,1:2|2:0,2:0:0:0:
320,284,61255,2,0,P|310:233|302:184,1,96.3200011757813,10|0,2:0|2:0,2:0:0:0:
177,29,61598,1,0,1:2:0:0:
400,91,61770,1,2,1:2:0:0:
198,224,61941,2,0,P|208:173|216:124,1,96.3200011757813,8|0,2:0|2:0,2:0:0:0:
80,301,62284,5,2,1:2:0:0:
302,189,62455,1,0,1:2:0:0:
302,189,62541,1,0,1:2:0:0:
302,189,62627,2,0,P|360:203|391:245,1,96.3200011757813,10|8,2:0|2:0,2:0:0:0:
401,305,62884,1,8,2:0:0:0:
401,305,62970,2,0,P|353:295|306:284,1,96.3200011757813,2|0,1:2|1:2,2:0:0:0:
117,132,63312,1,8,2:0:0:0:
217,365,63484,1,8,2:0:0:0:
221,341,63569,1,8,2:0:0:0:
226,317,63655,5,6,1:2:0:0:
355,100,63827,2,0,P|307:109|260:120,1,96.3200011757813,2|8,2:0|2:0,2:0:0:0:
105,240,64170,1,0,2:0:0:0:
220,26,64341,1,2,1:2:0:0:
314,203,64512,1,0,1:2:0:0:
99,58,64684,5,10,2:0:0:0:
231,288,64855,2,0,P|184:276|136:267,1,96.3200011757813,2|0,2:0|1:2,2:0:0:0:
260,120,65198,1,0,1:2:0:0:
351,353,65370,1,10,2:0:0:0:
196,203,65541,1,0,2:0:0:0:
392,80,65712,1,2,1:2:0:0:
314,203,65884,1,0,1:2:0:0:
124,54,66055,2,0,P|180:11|256:22,1,144.480001763672,10|0,2:0|2:0,2:0:0:0:
305,77,66398,6,0,P|293:180|280:296,2,192.640002351563,0|8|2,1:2|2:0|1:2,2:0:0:0:
174,294,67255,1,0,1:2:0:0:
390,188,67427,1,10,2:0:0:0:
232,105,67598,1,0,2:0:0:0:
407,281,67770,5,2,1:2:0:0:
146,153,67941,1,8,2:0:0:0:
178,187,68026,1,8,2:0:0:0:
224,202,68112,1,10,2:0:0:0:
271,193,68198,1,8,2:0:0:0:
308,164,68284,1,0,1:2:0:0:
346,135,68369,1,0,1:2:0:0:
393,133,68455,1,10,2:3:0:0:
433,159,68541,1,8,2:3:0:0:
451,203,68626,1,4,2:3:0:0:
441,249,68712,1,4,2:3:0:0:
407,281,68798,1,14,2:0:0:0:
231,105,68970,1,8,2:0:0:0:
235,85,69055,1,8,2:0:0:0:
239,66,69141,5,4,1:2:0:0:
129,124,69312,1,0,1:2:0:0:
278,176,69484,1,10,2:0:0:0:
155,32,69655,1,0,1:2:0:0:
103,212,69827,1,8,2:0:0:0:
305,29,69998,1,2,1:2:0:0:
39,129,70170,1,8,2:0:0:0:
285,312,70341,1,0,1:2:0:0:
157,15,70512,1,10,2:0:0:0:
0,342,70855,5,8,2:0:0:0:
210,207,71027,1,2,1:2:0:0:
186,197,71112,1,0,1:2:0:0:
164,189,71198,1,8,2:0:0:0:
327,319,71370,1,0,1:2:0:0:
217,71,71541,1,10,2:0:0:0:
250,374,71712,1,0,1:2:0:0:
147,17,71884,1,12,2:0:0:0:
418,242,72227,5,8,2:0:0:0:
110,131,72399,1,0,1:2:0:0:
134,121,72484,1,0,1:2:0:0:
156,113,72570,1,8,2:0:0:0:
11,239,72741,1,0,1:2:0:0:
316,112,72912,1,8,2:0:0:0:
22,0,73084,1,0,1:2:0:0:
323,283,73255,5,8,2:0:0:0:
188,24,73427,2,0,P|179:53|173:72,1,48.1600005878906,0|0,1:0|1:0,2:0:0:0:
38,278,73598,1,8,2:0:0:0:
11,239,73683,1,8,2:0:0:0:
4,191,73769,1,8,2:0:0:0:
20,146,73855,1,8,2:0:0:0:
55,114,73941,2,0,P|106:129|128:136,1,48.1600005878906,0|0,1:0|1:0,2:0:0:0:
235,115,74112,2,0,P|260:161|271:182,1,48.1600005878906,8|8,2:3|2:3,2:0:0:0:
233,288,74284,1,8,2:0:0:0:
233,288,74370,1,8,2:3:0:0:
233,288,74455,1,8,2:3:0:0:
233,288,74541,1,4,2:3:0:0:
233,288,74627,6,0,P|198:189|238:113,2,192.640002351563,4|10|0,1:2|2:0|1:2,2:0:0:0:
127,91,75484,1,2,1:2:0:0:
308,214,75655,1,8,2:0:0:0:
107,320,75827,1,2,2:0:0:0:
265,84,75998,6,0,P|276:139|287:193,1,96.3200011757813,2|0,1:2|1:2,2:0:0:0:
197,377,76341,1,8,2:0:0:0:
386,126,76512,2,0,P|375:181|364:235,1,96.3200011757813,2|0,2:0|1:2,2:0:0:0:
446,384,76855,1,0,1:2:0:0:
284,178,77027,2,0,P|206:172|136:206,1,144.480001763672,10|8,2:0|2:0,2:0:0:0:
61,231,77370,6,0,P|145:241|274:256,2,192.640002351563,4|8|0,1:2|2:0|1:2,2:0:0:0:
225,69,78227,1,0,1:2:0:0:
112,326,78398,1,10,2:0:0:0:
375,175,78570,1,10,2:0:0:0:
185,211,78741,5,0,1:2:0:0:
464,336,78912,1,12,2:0:0:0:
210,223,79084,1,0,1:2:0:0:
398,112,79255,1,0,1:2:0:0:
401,130,79340,1,0,1:2:0:0:
404,149,79427,1,10,2:0:0:0:
318,24,79598,1,8,2:3:0:0:
401,241,79770,1,6,2:3:0:0:
326,53,79941,1,4,2:3:0:0:
256,297,80112,6,0,B|313:274|358:309|330:323|373:354|431:328,1,175.440001070801,4|0,1:2|1:2,2:0:0:0:
416,333,80627,1,0,1:2:0:0:
193,243,80798,2,0,P|105:257|-8:274,1,175.440001070801,10|2,2:0|1:2,2:0:0:0:
19,269,81312,1,0,1:2:0:0:
179,133,81484,5,2,1:2:0:0:
102,348,81655,1,8,2:0:0:0:
14,145,81827,1,0,1:2:0:0:
193,243,81998,1,0,1:2:0:0:
94,79,82170,2,0,P|43:139|59:244,1,175.440001070801,10|2,2:0|1:2,2:0:0:0:
197,384,82684,1,8,2:0:0:0:
231,142,82855,6,0,P|185:153|124:166,1,87.7200005354004,2|0,1:2|2:0,2:0:0:0:
281,326,83198,2,0,P|323:316|366:306,1,87.7200005354004,2|0,1:2|2:0,2:0:0:0:
501,141,83541,1,10,2:0:0:0:
439,378,83712,1,0,1:2:0:0:
371,93,83884,1,10,2:0:0:0:
371,93,84227,5,2,1:2:0:0:
137,264,84398,1,8,2:0:0:0:
365,187,84570,1,0,1:2:0:0:
213,79,84741,1,0,1:2:0:0:
359,306,84912,1,10,2:0:0:0:
218,181,85084,1,0,1:2:0:0:
218,181,85170,1,0,1:2:0:0:
218,181,85255,2,0,L|162:194,1,43.8600002677002,10|8,2:3|2:3,2:3:0:0:
104,209,85427,2,0,L|61:218,1,43.8600002677002,4|4,2:3|2:3,2:0:0:0:
201,10,85598,5,4,1:2:0:0:
