osu file format v14

[General]
AudioFilename: audio.mp3
AudioLeadIn: 0
PreviewTime:57964
Countdown: 0
SampleSet: Soft
StackLeniency: 0.7
Mode: 0
LetterboxInBreaks: 0
WidescreenStoryboard: 1

[Editor]
Bookmarks: 10492,22492,25235,30721,33464,38950,40150,47178,49921,51464,54035,59178,62264,63635,64664,67064,70492,71864,75978,78892,80092,82835
DistanceSpacing: 1.3
BeatDivisor: 4
GridSize: 32
TimelineZoom: 1.9

[Metadata]
Title:Like Flames (TV Size)
TitleUnicode:Like Flames (TV Size)
Artist:MindaRyn
ArtistUnicode:MindaRyn
Creator:Sotarks
Version:Eli's Hard
Source:転生したらスライムだった件 第2期
Tags:that time i got reincarnated as a red crewmate sachiko 小山 寿 tensei shitara slime datta ken 2nd second season part 2 two tensura anime japanese opening op rock jrock j-rock armin a_r_m_i_n vaporfly akitoshi corinn -laura- [_eli_] eli elinor kowari snownino_ reform kujinn english appleeaterx mint
BeatmapID:3096970
BeatmapSetID:1511528

[Difficulty]
HPDrainRate:4.4
CircleSize:3.8
OverallDifficulty:6
ApproachRate:7.6
SliderMultiplier:1.4
SliderTickRate:1

[Events]
//Background and Video events
0,0,"slime-game.jpg",0,0
Video,0,"video.mp4"
//Break Periods
//Storyboard Layer 0 (Background)
//Storyboard Layer 1 (Fail)
//Storyboard Layer 2 (Pass)
//Storyboard Layer 3 (Foreground)
//Storyboard Layer 4 (Overlay)
//Storyboard Sound Samples

[TimingPoints]
570,342.857142857143,4,2,22,52,1,0
570,-125,4,2,22,52,0,0
3227,-125,4,2,22,5,0,0
3312,-125,4,2,22,52,0,0
4684,-125,4,2,22,62,0,0
5970,-125,4,2,22,5,0,0
6055,-100,4,2,22,72,0,0
8712,-100,4,2,22,5,0,0
8798,-100,4,2,22,72,0,0
14198,-100,4,2,22,5,0,0
14284,-100,4,2,22,72,0,0
17027,-100,4,2,22,62,0,0
19770,-125,4,2,22,52,0,0
28341,-125,4,2,22,42,0,0
29541,-125,4,2,22,52,0,0
30741,-111.111111111111,4,2,22,62,0,0
41712,-111.111111111111,4,2,22,62,0,0
55427,-111.111111111111,4,2,22,72,0,0
56798,-99.9999999999999,4,2,22,72,0,0
58170,-90.9090909090908,4,2,22,82,0,0
58255,-90.9090909090908,4,2,22,5,0,0
58341,-90.9090909090908,4,2,22,82,0,0
59284,-90.9090909090908,4,2,22,5,0,0
59370,-90.9090909090908,4,2,22,82,0,0
63741,-90.9090909090908,4,2,22,5,0,0
63827,-90.9090909090908,4,2,22,82,0,0
64770,-90.9090909090908,4,2,22,5,0,0
64855,-90.9090909090908,4,2,22,82,0,0
80112,-111.111111111111,4,2,22,72,0,0
85598,-125,4,2,22,72,0,0
86284,-125,4,2,22,5,0,0
86455,-125,4,2,22,72,0,0
86798,-125,4,2,22,5,0,0
86970,-125,4,2,22,72,0,0
88255,-125,4,2,22,5,0,0

[Colours]
Combo1 : 230,254,92
Combo2 : 156,206,243
Combo3 : 105,47,202
Combo4 : 80,228,214

[HitObjects]
108,200,570,6,0,L|100:144,1,56,0|0,1:2|1:2,0:0:0:0:
164,100,912,1,8,0:2:0:0:
164,100,1084,2,0,B|220:80|220:144|264:128,1,112,0|0,0:0|0:2,0:0:0:0:
332,88,1598,6,0,L|496:128,1,168,12|0,0:2|0:2,0:0:0:0:
496,208,2284,1,8,0:2:0:0:
388,320,2627,1,0,0:2:0:0:
276,208,2970,2,0,P|232:208|204:240,1,84,12|0,0:2|0:2,0:0:0:0:
188,268,3312,6,0,L|160:276,5,28,8|0|0|0|8|0,1:2|1:2|1:2|1:2|1:2|1:2,0:0:0:0:
132,300,3827,2,0,L|104:308,5,28,0|0|8|0|0|0,1:2|1:2|1:2|1:2|1:2|1:2,0:0:0:0:
76,284,4341,2,0,L|68:256,3,28,8|8|4|4,1:3|1:3|1:3|1:3,0:0:0:0:
60,220,4684,5,10,0:2:0:0:
40,144,4855,1,10,0:2:0:0:
108,104,5027,1,10,0:2:0:0:
228,204,5370,2,0,L|260:196,3,28,8|8|8|4,0:2|0:3|0:3|0:3,0:0:0:0:
292,192,5712,2,0,B|340:192|328:224|368:224,1,84,12|0,0:2|0:2,0:0:0:0:
412,204,6055,6,0,P|456:168|456:88,1,140,6|8,1:2|0:2,0:0:0:0:
396,20,6570,1,2,0:2:0:0:
308,8,6741,2,0,L|236:32,1,70,0|0,1:2|1:2,0:0:0:0:
172,89,7084,2,0,B|156:151|240:139|224:207,1,140,10|0,0:2|0:2,0:0:0:0:
192,292,7598,5,0,1:2:0:0:
108,332,7770,2,0,P|72:332|44:312,1,70,10|0,0:2|0:2,0:0:0:0:
20,224,8112,2,0,P|20:192|40:160,1,70,2|0,1:2|1:2,0:0:0:0:
104,96,8455,2,0,L|208:124,1,105,10|0,0:2|0:0,0:0:0:0:
252,132,8798,6,0,P|296:160|296:244,1,140,6|8,1:2|0:2,0:0:0:0:
256,324,9312,1,2,0:2:0:0:
336,364,9484,2,0,L|404:348,1,70,0|0,1:2|1:2,0:0:0:0:
476,292,9827,2,0,L|444:156,1,140,10|0,0:2|1:2,0:0:0:0:
412,72,10341,5,14,0:2:0:0:
304,24,10512,2,0,P|268:24|240:44,1,70,8|0,0:2|1:2,0:0:0:0:
220,132,10855,2,0,L|228:168,3,35,10|8|8|4,0:2|1:3|1:3|1:3,0:0:0:0:
248,208,11198,2,0,L|236:276,1,70,8|8,0:2|1:2,0:0:0:0:
232,300,11455,5,8,1:2:0:0:
228,320,11541,2,0,P|168:348|108:316,1,140,6|8,1:2|0:2,0:0:0:0:
52,240,12056,1,2,0:2:0:0:
72,152,12227,2,0,L|138:129,1,70,0|0,1:2|1:2,0:0:0:0:
228,104,12570,2,0,B|296:88|284:172|346:156,1,140,10|0,0:2|1:2,0:0:0:0:
436,132,13084,5,0,1:2:0:0:
440,116,13170,1,0,1:2:0:0:
444,96,13255,2,0,L|456:28,1,70,10|0,0:2|0:2,0:0:0:0:
368,0,13598,2,0,P|332:0|304:20,1,70,2|0,1:2|1:2,0:0:0:0:
252,96,13941,2,0,L|150:68,1,105,10|0,0:2|0:0,0:0:0:0:
112,80,14284,5,6,1:2:0:0:
44,136,14455,2,0,P|32:168|44:204,1,70,0|8,1:2|0:2,0:0:0:0:
96,284,14798,1,2,1:2:0:0:
112,280,14884,1,0,1:2:0:0:
132,276,14970,1,8,0:2:0:0:
204,220,15141,1,0,1:2:0:0:
220,224,15227,1,0,1:2:0:0:
236,228,15313,2,0,L|304:248,1,70,10|0,0:2|1:2,0:0:0:0:
320,252,15570,1,0,1:2:0:0:
339,258,15655,1,8,0:2:0:0:
428,236,15827,5,0,1:2:0:0:
436,220,15912,1,8,0:2:0:0:
444,202,15998,2,0,P|456:166|444:134,1,70,10|4,0:2|1:2,0:0:0:0:
396,60,16341,1,2,1:2:0:0:
378,52,16427,1,8,0:2:0:0:
360,44,16512,1,8,0:2:0:0:
272,16,16684,2,0,L|204:36,1,70,6|8,1:2|0:2,0:0:0:0:
197,56,16941,5,8,0:2:0:0:
196,76,17027,2,0,B|180:144|264:132|248:194,1,140,6|8,1:2|0:2,0:0:0:0:
240,284,17541,2,0,P|200:336|128:336,1,140
116,324,17970,1,8,0:2:0:0:
104,308,18055,1,0,1:2:0:0:
68,224,18227,1,8,0:2:0:0:
128,156,18398,5,0,1:2:0:0:
144,162,18484,2,0,L|224:182,1,70,8|0,0:2|1:2,0:0:0:0:
244,212,18741,2,0,L|312:192,1,70,8|8,0:2|0:2,0:0:0:0:
332,188,18998,1,8,0:2:0:0:
350,192,19084,2,0,L|382:208,3,35,8|8|8|4,0:2|0:3|0:3|0:3,0:0:0:0:
422,228,19427,1,12,0:2:0:0:
484,96,19770,6,0,P|484:68|472:44,1,56,6|0,1:2|1:2,0:0:0:0:
404,4,20112,2,0,L|296:32,1,112,8|0,0:2|0:0,0:0:0:0:
180,112,20798,1,10,0:2:0:0:
180,112,20970,2,0,L|212:220,1,112,2|2,0:2|0:2,0:0:0:0:
240,288,21484,1,8,0:2:0:0:
372,348,21827,2,0,P|400:348|424:332,2,56,2|2|10,0:2|0:2|0:2,0:0:0:0:
312,244,22341,5,2,0:2:0:0:
312,244,22512,2,0,L|324:180,1,56,0|0,1:2|1:2,0:0:0:0:
392,152,22855,2,0,L|364:40,1,112,8|0,0:2|0:0,0:0:0:0:
208,12,23541,1,10,0:2:0:0:
208,12,23712,2,0,L|152:24,1,56,2|0,0:2|0:2,0:0:0:0:
88,68,24055,2,0,B|68:120|128:120|108:172,1,112,2|2,0:2|0:2,0:0:0:0:
88,248,24570,2,0,L|20:268,2,56,2|2|8,0:2|1:2|0:2,0:0:0:0:
204,220,25084,5,2,1:2:0:0:
204,220,25255,2,0,B|260:200|260:264|308:244,1,112,4|8,1:2|0:2,0:0:0:0:
464,224,25941,1,2,0:2:0:0:
464,224,26112,2,0,P|472:196|468:168,1,56,2|8,0:2|0:2,0:0:0:0:
424,104,26455,6,0,P|392:104|372:116,1,56,2|0,0:2|0:2,0:0:0:0:
312,168,26798,2,0,P|284:168|264:148,1,56,2|8,0:2|0:2,0:0:0:0:
216,88,27141,2,0,P|216:56|232:36,1,56,2|0,0:2|0:2,0:0:0:0:
300,4,27484,2,0,L|356:16,1,56,2|8,1:2|0:2,0:0:0:0:
476,44,27827,5,2,0:2:0:0:
476,44,27998,2,0,B|500:96|440:96|460:152,1,112,6|0,1:2|0:2,0:0:0:0:
484,224,28512,1,0,3:2:0:0:
484,224,28684,1,0,3:2:0:0:
368,328,29027,1,0,3:2:0:0:
368,328,29198,1,0,3:2:0:0:
248,228,29541,5,0,1:2:0:0:
248,228,29712,2,0,P|240:200|248:176,1,56,8|8,0:2|0:2,0:0:0:0:
256,160,29969,1,8,0:2:0:0:
268,148,30055,1,8,0:2:0:0:
324,92,30227,1,0,1:2:0:0:
320,76,30312,1,0,1:2:0:0:
316,60,30398,1,10,0:2:0:0:
208,12,30570,5,8,0:2:0:0:
192,8,30655,1,8,0:2:0:0:
176,4,30741,2,0,B|116:-8|124:68|72:60,1,125.999996154785,6|8,1:2|0:2,0:0:0:0:
20,216,31427,2,0,P|12:248|24:276,2,62.9999980773926,0|0|8,1:2|1:2|0:2,0:0:0:0:
84,164,31941,6,0,L|144:180,1,62.9999980773926,2|0,0:2|0:0,0:0:0:0:
200,240,32284,2,0,L|320:204,1,125.999996154785,2|2,1:2|0:2,0:0:0:0:
396,168,32798,1,2,1:2:0:0:
396,168,32970,2,0,L|380:104,1,62.9999980773926,2|8,1:2|0:2,0:0:0:0:
328,44,33312,5,10,0:2:0:0:
312,52,33398,1,8,0:2:0:0:
296,60,33484,2,0,B|264:78|238:52|249:42|224:15|184:31,1,125.999996154785,4|8,1:2|0:2,0:0:0:0:
92,168,34170,2,0,P|72:144|72:112,2,62.9999980773926,0|0|8,1:2|1:2|0:2,0:0:0:0:
148,228,34684,6,0,L|212:212,1,62.9999980773926,2|0,0:2|0:0,0:0:0:0:
280,168,35027,2,0,L|340:188,1,62.9999980773926,2|8,1:2|0:2,0:0:0:0:
420,216,35370,1,2,1:2:0:0:
436,220,35455,1,8,0:2:0:0:
452,224,35541,1,2,1:2:0:0:
484,300,35712,2,0,P|484:328|464:356,1,62.9999980773926,2|8,1:2|0:2,0:0:0:0:
344,364,36055,5,2,0:2:0:0:
344,364,36227,2,0,L|224:324,1,125.999996154785,4|8,1:2|0:2,0:0:0:0:
60,336,36912,1,2,1:2:0:0:
60,336,37084,2,0,P|44:308|44:276,1,62.9999980773926,2|8,1:2|0:2,0:0:0:0:
44,196,37427,6,0,L|104:180,1,62.9999980773926,2|0,0:2|0:0,0:0:0:0:
164,124,37770,2,0,L|224:144,1,62.9999980773926,2|8,1:2|0:2,0:0:0:0:
288,196,38112,2,0,P|324:196|348:180,1,62.9999980773926,2|0,0:2|1:2,0:0:0:0:
396,116,38455,2,0,P|396:84|372:60,1,62.9999980773926,2|8,1:2|0:2,0:0:0:0:
268,12,38798,5,10,0:2:0:0:
252,16,38884,1,8,0:2:0:0:
236,20,38970,2,0,L|116:56,1,125.999996154785,6|8,1:2|0:2,0:0:0:0:
44,204,39655,2,0,L|60:264,1,62.9999980773926,0|0,1:2|1:2,0:0:0:0:
164,328,39998,5,8,0:2:0:0:
164,328,40170,2,0,B|236:300|236:300|284:316,1,125.999996154785,6|0,1:2|1:2,0:0:0:0:
362,345,40684,1,8,0:2:0:0:
437,299,40855,1,0,1:2:0:0:
440,280,40940,1,8,0:2:0:0:
444,264,41027,1,0,1:2:0:0:
408,192,41198,2,0,L|400:160,5,31.4999990386963,8|8|8|4|4|4,0:3|0:3|0:2|0:3|0:3|0:3,0:0:0:0:
392,120,41712,6,0,B|336:96|332:168|276:144,1,125.999996154785,6|10,1:2|0:2,0:0:0:0:
200,112,42227,2,0,P|188:84|196:52,1,62.9999980773926,2|0,0:2|1:2,0:0:0:0:
260,4,42570,2,0,L|324:16,1,62.9999980773926,2|8,1:2|0:2,0:0:0:0:
404,32,42912,1,2,0:2:0:0:
404,32,43084,2,0,P|436:76|412:140,1,125.999996154785,0|8,1:2|0:2,0:0:0:0:
364,204,43598,1,2,0:2:0:0:
364,204,43770,2,0,L|240:172,1,125.999996154785,2|10,1:2|0:2,0:0:0:0:
164,200,44284,5,10,0:2:0:0:
152,216,44370,1,8,0:2:0:0:
144,232,44455,2,0,B|112:284|112:284|144:340,1,125.999996154785,0|8,1:2|0:2,0:0:0:0:
308,360,45141,2,0,L|372:348,1,62.9999980773926,2|0,1:2|1:2,0:0:0:0:
444,312,45484,5,10,0:2:0:0:
444,312,45655,2,0,L|428:248,1,62.9999980773926,2|0,0:2|1:2,0:0:0:0:
372,192,45998,2,0,P|360:164|372:136,1,62.9999980773926,2|8,1:2|0:2,0:0:0:0:
432,80,46341,2,0,P|432:48|412:24,1,62.9999980773926,2|0,0:2|1:2,0:0:0:0:
336,0,46684,2,0,L|272:24,1,62.9999980773926,2|8,1:2|0:2,0:0:0:0:
176,84,47027,5,8,0:2:0:0:
172,100,47112,1,8,0:2:0:0:
168,116,47198,2,0,B|148:172|220:172|192:232,1,125.999996154785,6|10,1:2|0:2,0:0:0:0:
192,312,47712,2,0,P|164:328|132:328,1,62.9999980773926,2|0,0:2|1:2,0:0:0:0:
64,288,48055,2,0,P|48:260|48:228,1,62.9999980773926,2|8,1:2|0:2,0:0:0:0:
80,152,48398,5,2,0:2:0:0:
80,152,48570,2,0,L|204:180,1,125.999996154785,0|8,1:2|0:2,0:0:0:0:
340,272,49255,2,0,L|400:256,1,62.9999980773926,2|0,1:2|1:2,0:0:0:0:
460,196,49598,1,10,0:2:0:0:
488,84,49770,5,10,0:2:0:0:
484,64,49855,1,8,0:2:0:0:
480,44,49941,2,0,P|428:16|372:44,1,125.999996154785,0|8,1:2|0:2,0:0:0:0:
220,100,50627,2,0,L|236:160,1,62.9999980773926,2|0,1:2|1:2,0:0:0:0:
296,220,50970,5,10,0:2:0:0:
296,220,51141,2,0,L|280:280,1,62.9999980773926,10|0,0:2|1:2,0:0:0:0:
188,356,51484,2,0,P|156:356|132:336,1,62.9999980773926,10|0,0:2|1:2,0:0:0:0:
84,268,51827,2,0,P|72:240|84:208,1,62.9999980773926,2|8,1:2|0:2,0:0:0:0:
160,144,52170,1,10,0:3:0:0:
176,148,52255,1,8,0:3:0:0:
192,152,52341,2,0,L|224:160,3,31.4999990386963,8|4|4|4,0:3|0:3|0:3|0:3,0:0:0:0:
264,168,52684,6,0,B|324:148|324:224|376:204,1,125.999996154785,6|10,1:2|0:2,0:0:0:0:
436,152,53198,2,0,P|452:124|452:92,1,62.9999980773926,2|0,0:2|1:2,0:0:0:0:
404,28,53541,2,0,L|340:16,1,62.9999980773926,2|8,1:2|0:2,0:0:0:0:
224,8,53884,5,0,1:2:0:0:
224,8,54055,2,0,L|108:60,1,125.999996154785,2|10,1:2|0:2,0:0:0:0:
48,112,54570,2,0,P|40:144|48:172,1,62.9999980773926,2|8,1:2|0:2,0:0:0:0:
100,236,54912,1,8,0:3:0:0:
116,240,54998,1,8,0:3:0:0:
132,244,55084,2,0,L|164:236,3,31.4999990386963,8|4|4|4,0:3|0:3|0:3|0:3,0:0:0:0:
204,228,55427,5,10,0:2:0:0:
260,288,55598,1,8,0:2:0:0:
204,356,55770,1,8,0:2:0:0:
204,356,56798,6,0,L|136:340,1,70,14|8,0:2|0:2,0:0:0:0:
112,336,57055,1,8,0:2:0:0:
92,332,57141,2,0,P|72:308|72:268,1,70,8|4,0:2|1:2,0:0:0:0:
100,184,57484,1,10,0:2:0:0:
116,188,57570,1,8,0:2:0:0:
132,192,57655,1,8,0:2:0:0:
204,248,57827,2,0,L|236:236,3,35,8|8|8|8,0:2|0:2|0:2|0:2,0:0:0:0:
280,208,58170,6,0,L|316:224,1,38.5000011749268,6|0,1:2|0:0,0:0:0:0:
364,240,58341,2,0,B|404:216|444:248|420:264|460:300|496:280,1,154.000004699707,2|0,0:2|0:2,0:0:0:0:
508,180,58855,2,0,P|516:140|504:104,1,77.0000023498536,2|0,1:2|1:2,0:0:0:0:
400,24,59198,6,0,L|360:36,1,38.5000011749268,10|0,0:2|0:0,0:0:0:0:
320,60,59370,2,0,B|284:80|244:44|268:28|228:-4|188:20,1,154.000004699707,2|0,0:2|1:2,0:0:0:0:
128,100,59884,2,0,L|148:176,1,77.0000023498536,10|0,0:2|0:2,0:0:0:0:
232,228,60227,2,0,L|216:304,1,77.0000023498536,2|0,1:2|1:2,0:0:0:0:
140,360,60570,2,0,P|104:360|76:332,1,77.0000023498536,10|8,0:2|0:2,0:0:0:0:
72,308,60827,5,8,0:2:0:0:
72,284,60912,2,0,P|100:256|136:256,1,77.0000023498536,0|0,1:2|0:0,0:0:0:0:
216,303,61255,2,0,L|364:356,1,154.000004699707,10|0,0:2|1:2,0:0:0:0:
460,328,61770,1,2,1:2:0:0:
504,240,61941,2,0,P|504:200|480:172,1,77.0000023498536,8|0,0:2|0:2,0:0:0:0:
364,104,62284,6,0,L|288:128,1,77.0000023498536,2|0,1:2|1:2,0:0:0:0:
272,144,62541,1,0,1:2:0:0:
256,156,62627,2,0,L|182:132,1,77.0000023498536,10|8,0:2|0:2,0:0:0:0:
92,88,62970,2,0,P|92:40|180:0,1,154.000004699707,2|8,1:2|0:2,0:0:0:0:
312,20,63484,5,8,0:2:0:0:
328,24,63570,1,8,0:2:0:0:
346,31,63655,2,0,L|386:43,1,38.5000011749268,6|0,1:2|0:0,0:0:0:0:
416,80,63827,2,0,B|436:116|400:156|384:132|352:172|376:212,1,154.000004699707,2|0,0:2|0:2,0:0:0:0:
364,312,64341,2,0,L|288:336,1,77.0000023498536,2|0,1:2|1:2,0:0:0:0:
160,360,64684,6,0,L|124:348,1,38.5000011749268,10|0,0:2|0:0,0:0:0:0:
88,312,64855,2,0,B|64:272|96:232|112:256|148:216|128:180,1,154.000004699707,2|0,0:2|1:2,0:0:0:0:
100,84,65370,2,0,L|24:100,1,77.0000023498536,10|0,0:2|0:2,0:0:0:0:
0,196,65712,2,0,P|0:236|20:268,1,77.0000023498536,2|0,1:2|1:2,0:0:0:0:
104,320,66055,2,0,B|208:356|208:356|248:328,1,154.000004699707,10|0,0:2|1:2,0:0:0:0:
328,276,66570,5,0,0:0:0:0:
360,180,66741,2,0,P|360:140|336:112,1,77.0000023498536,8|0,0:2|0:0,0:0:0:0:
228,36,67084,1,2,1:2:0:0:
228,36,67255,1,0,1:2:0:0:
128,16,67427,2,0,L|52:40,1,77.0000023498536,10|0,0:2|0:2,0:0:0:0:
28,136,67770,6,0,L|52:212,1,77.0000023498536,2|8,1:2|0:2,0:0:0:0:
60,236,68027,1,8,0:2:0:0:
68,256,68112,2,0,L|104:244,3,38.5000011749268,10|8|0|0,0:2|0:2|1:2|1:2,0:0:0:0:
152,232,68455,2,0,L|188:244,3,38.5000011749268,10|8|4|4,0:3|0:3|0:3|0:3,0:0:0:0:
232,268,68798,2,0,P|272:268|300:244,1,77.0000023498536,14|8,0:2|0:2,0:0:0:0:
308,228,69055,1,8,0:2:0:0:
312,208,69141,5,4,1:2:0:0:
244,20,69484,2,0,L|96:60,1,154.000004699707,10|8,0:2|0:2,0:0:0:0:
20,124,69998,1,2,1:2:0:0:
20,224,70170,2,0,P|20:260|44:292,1,77.0000023498536,8|0,0:2|1:2,0:0:0:0:
160,360,70512,6,0,L|236:336,1,77.0000023498536,10|0,0:2|0:0,0:0:0:0:
280,248,70855,2,0,L|353:271,1,77.0000023498536,8|2,0:2|1:2,0:0:0:0:
372,280,71112,1,0,1:2:0:0:
389,287,71198,1,8,0:2:0:0:
476,240,71370,1,0,1:2:0:0:
472,140,71541,2,0,P|444:120|400:120,1,77.0000023498536,10|0,0:2|1:2,0:0:0:0:
276,168,71884,6,0,B|228:200|228:200|136:160,1,154.000004699707,12|8,0:2|0:2,0:0:0:0:
48,116,72398,1,0,1:2:0:0:
40,100,72484,1,0,1:2:0:0:
32,80,72570,2,0,P|32:40|56:12,1,77.0000023498536,8|0,0:2|1:2,0:0:0:0:
156,8,72912,1,8,0:2:0:0:
156,8,73084,1,0,1:2:0:0:
256,12,73255,6,0,L|332:32,1,77.0000023498536,8|0,0:2|1:0,0:0:0:0:
348,44,73512,1,0,1:0:0:0:
360,64,73598,2,0,L|348:104,3,38.5000011749268,8|8|8|8,0:0|0:0|0:0|0:0,0:0:0:0:
316,140,73941,2,0,L|328:180,3,38.5000011749268,0|0|8|8,1:0|1:0|0:3|0:3,0:0:0:0:
356,216,74284,2,0,L|336:292,1,77.0000023498536,8|8,0:0|0:3,0:0:0:0:
328,312,74541,5,4,0:3:0:0:
316,328,74627,2,0,P|276:340|244:328,1,77.0000023498536,4|0,1:2|0:0,0:0:0:0:
164,268,74970,2,0,B|120:204|120:204|160:140,1,154.000004699707,10|0,0:2|1:2,0:0:0:0:
232,68,75484,2,0,P|272:56|304:68,1,77.0000023498536,2|8,1:2|0:2,0:0:0:0:
396,108,75827,1,2,0:2:0:0:
484,212,75998,6,0,P|484:284|416:324,1,154.000004699707,2|8,1:2|0:2,0:0:0:0:
320,344,76512,1,2,0:2:0:0:
228,304,76684,2,0,L|244:228,1,77.0000023498536,0|0,1:2|1:2,0:0:0:0:
312,156,77027,2,0,L|296:80,1,77.0000023498536,10|0,0:2|0:0,0:0:0:0:
292,56,77284,5,8,0:2:0:0:
276,44,77370,2,0,B|240:24|200:60|224:76|184:108|144:84,1,154.000004699707,4|8,1:2|0:2,0:0:0:0:
52,124,77884,1,0,0:0:0:0:
32,220,78055,2,0,L|52:296,1,77.0000023498536,0|0,1:2|1:2,0:0:0:0:
132,356,78398,1,10,0:2:0:0:
132,356,78570,1,10,0:2:0:0:
192,276,78741,5,0,1:2:0:0:
304,348,78912,2,0,B|344:372|384:340|360:324|400:288|436:308,1,154.000004699707,12|0,0:2|1:2,0:0:0:0:
452,320,79341,1,0,1:2:0:0:
468,332,79427,1,10,0:2:0:0:
508,240,79598,1,8,0:3:0:0:
428,180,79770,1,6,0:3:0:0:
428,180,79941,1,4,0:3:0:0:
316,256,80112,6,0,P|261:237|196:216,1,125.999996154785,4|0,1:2|1:2,0:0:0:0:
120,188,80627,1,0,1:2:0:0:
120,188,80798,2,0,P|112:160|120:128,1,62.9999980773926,10|0,0:2|0:0,0:0:0:0:
168,60,81141,2,0,P|204:60|228:72,1,62.9999980773926,2|0,1:2|1:2,0:0:0:0:
280,136,81484,5,2,1:2:0:0:
280,136,81655,2,0,P|324:176|388:176,1,125.999996154785,8|0,0:2|1:2,0:0:0:0:
444,116,82170,2,0,L|432:52,1,62.9999980773926,10|0,0:2|0:0,0:0:0:0:
364,8,82512,2,0,L|300:20,1,62.9999980773926,2|8,1:2|0:2,0:0:0:0:
184,32,82855,6,0,P|172:60|180:92,1,62.9999980773926,2|0,1:2|0:2,0:0:0:0:
244,140,83198,2,0,P|252:172|244:200,1,62.9999980773926,2|0,1:2|0:2,0:0:0:0:
204,272,83541,2,0,L|140:284,1,62.9999980773926,10|0,0:2|1:2,0:0:0:0:
88,348,83884,2,0,L|28:328,1,62.9999980773926,10|0,0:2|0:0,0:0:0:0:
16,248,84227,5,2,1:2:0:0:
16,248,84398,2,0,B|52:188|-24:188|4:128,1,125.999996154785,8|0,0:2|1:2,0:0:0:0:
44,60,84912,2,0,L|108:72,1,62.9999980773926,10|0,0:2|1:2,0:0:0:0:
124,84,85170,1,0,1:2:0:0:
144,96,85255,2,0,L|204:80,1,62.9999980773926,10|4,0:3|0:3,0:0:0:0:
324,56,85598,5,4,1:2:0:0:
480,140,85941,2,0,L|448:248,1,112
384,296,86455,2,0,L|352:184,1,112
300,132,86970,6,0,P|240:132|212:172,1,112
108,288,87655,2,0,B|156:192|24:192|56:116,1,196
