osu file format v14

[General]
AudioFilename: audio.mp3
AudioLeadIn: 0
PreviewTime:57964
Countdown: 0
SampleSet: Soft
StackLeniency: 0.7
Mode: 0
LetterboxInBreaks: 0
WidescreenStoryboard: 1

[Editor]
Bookmarks: 85578
DistanceSpacing: 1
BeatDivisor: 4
GridSize: 32
TimelineZoom: 1

[Metadata]
Title:Like Flames (TV Size)
TitleUnicode:Like Flames (TV Size)
Artist:MindaRyn
ArtistUnicode:MindaRyn
Creator:Sotarks
Version:Akitoshi's Normal
Source:転生したらスライムだった件 第2期
Tags:that time i got reincarnated as a red crewmate sachiko 小山 寿 tensei shitara slime datta ken 2nd second season part 2 two tensura anime japanese opening op rock jrock j-rock armin a_r_m_i_n vaporfly akitoshi corinn -laura- [_eli_] eli elinor kowari snownino_ reform kujinn english appleeaterx mint
BeatmapID:3095037
BeatmapSetID:1511528

[Difficulty]
HPDrainRate:4
CircleSize:3.2
OverallDifficulty:4
ApproachRate:5.5
SliderMultiplier:0.999999999999999
SliderTickRate:1

[Events]
//Background and Video events
0,0,"slime-game.jpg",0,0
Video,0,"video.mp4"
//Break Periods
//Storyboard Layer 0 (Background)
//Storyboard Layer 1 (Fail)
//Storyboard Layer 2 (Pass)
//Storyboard Layer 3 (Foreground)
//Storyboard Layer 4 (Overlay)
//Storyboard Sound Samples

[TimingPoints]
570,342.857142857143,4,2,22,52,1,0
570,-111.111111111111,4,2,22,52,0,0
3227,-111.111111111111,4,2,22,5,0,0
3312,-111.111111111111,4,2,22,52,0,0
4684,-111.111111111111,4,2,22,62,0,0
5970,-111.111111111111,4,2,22,5,0,0
6055,-100,4,2,22,72,0,0
17027,-100,4,2,22,62,0,0
19770,-111.111111111111,4,2,22,52,0,0
28341,-111.111111111111,4,2,22,42,0,0
29541,-111.111111111111,4,2,22,52,0,0
30741,-100,4,2,22,62,0,0
55427,-100,4,2,22,72,0,0
58170,-90.9090909090909,4,2,22,82,0,0
80112,-100,4,2,22,72,0,0

[Colours]
Combo1 : 230,254,92
Combo2 : 156,206,243
Combo3 : 105,47,202
Combo4 : 80,228,214

[HitObjects]
206,284,570,6,0,P|167:298|80:197,1,179.999994506836,0|0,1:2|0:0,0:0:0:0:
113,131,1598,2,0,P|152:117|239:218,1,179.999994506836,12|8,0:2|0:2,0:0:0:0:
206,284,2627,1,0,0:2:0:0:
269,348,2970,1,12,0:2:0:0:
357,335,3312,6,0,P|365:290|376:233,1,89.999997253418,8|8,1:2|1:2,0:0:0:0:
394,158,3998,1,8,1:2:0:0:
321,104,4341,1,8,1:3:0:0:
241,146,4684,2,0,P|245:168|250:197,2,44.999998626709,10|10|10,0:2|0:2|0:2,0:0:0:0:
185,74,5370,2,0,B|141:70|141:70|98:88,1,89.999997253418,8|12,0:2|0:2,0:0:0:0:
38,167,6055,6,0,B|53:198|53:198|43:279,1,99.9999999999999,6|8,1:2|0:2,0:0:0:0:
122,326,6741,2,0,P|156:320|189:315,1,50,0|0,1:2|1:2,0:0:0:0:
221,313,7084,2,0,P|265:337|325:323,1,99.9999999999999,10|0,0:2|0:2,0:0:0:0:
359,307,7598,1,0,1:2:0:0:
359,307,7770,2,0,P|363:253|368:201,1,99.9999999999999,10|2,0:2|1:2,0:0:0:0:
384,108,8455,1,10,0:2:0:0:
320,30,8798,6,0,P|277:48|217:39,1,99.9999999999999,6|8,1:2|0:2,0:0:0:0:
175,35,9312,2,0,P|181:95|186:141,1,99.9999999999999,2|0,0:2|1:2,0:0:0:0:
187,184,9827,1,10,0:2:0:0:
151,280,10170,1,0,1:2:0:0:
151,280,10341,2,0,P|108:298|48:289,1,99.9999999999999,14|0,0:2|1:2,0:0:0:0:
14,264,10855,2,0,P|19:214|24:164,1,99.9999999999999,10|8,0:2|0:2,0:0:0:0:
84,84,11541,6,0,B|120:97|120:97|188:84,1,99.9999999999999,6|8,1:2|0:2,0:0:0:0:
263,28,12227,2,0,P|299:34|325:37,1,50,0|0,1:2|1:2,0:0:0:0:
361,45,12570,2,0,P|344:99|366:153,1,99.9999999999999,10|0,0:2|1:2,0:0:0:0:
394,179,13084,1,0,1:2:0:0:
394,179,13255,2,0,P|386:232|380:281,1,99.9999999999999,10|2,0:2|1:2,0:0:0:0:
307,347,13941,1,10,0:2:0:0:
211,318,14284,6,0,P|198:271|215:219,1,99.9999999999999,6|8,1:2|0:2,0:0:0:0:
250,190,14798,1,2,1:2:0:0:
250,190,14970,2,0,P|243:137|236:86,1,99.9999999999999,8|10,0:2|0:2,0:0:0:0:
167,26,15655,1,8,0:2:0:0:
167,26,15827,2,0,P|129:48|66:48,1,99.9999999999999,0|4,1:2|1:2,0:0:0:0:
24,42,16341,1,2,1:2:0:0:
2,139,16684,2,0,P|9:181|12:195,1,50,6|8,1:2|0:2,0:0:0:0:
52,216,17027,6,0,P|45:271|38:329,2,99.9999999999999,6|8|8,1:2|0:2|0:2,0:0:0:0:
144,176,18055,2,0,P|190:191|245:180,1,99.9999999999999,0|0,1:2|1:2,0:0:0:0:
331,141,18741,1,8,0:2:0:0:
409,79,19084,2,0,P|445:83|466:87,2,50,8|8|12,0:2|0:3|0:2,0:0:0:0:
336,25,19770,6,0,P|305:31|281:35,1,44.999998626709,6|0,1:2|1:2,0:0:0:0:
258,63,20112,2,0,P|202:55|165:51,1,89.999997253418,8|0,0:2|0:0,0:0:0:0:
87,91,20798,2,0,P|51:162|81:257,1,179.999994506836,10|8,0:2|0:2,0:0:0:0:
142,317,21827,1,2,0:2:0:0:
232,317,22170,1,10,0:2:0:0:
295,253,22512,6,0,P|336:257|352:259,1,44.999998626709,0|0,1:2|1:2,0:0:0:0:
384,260,22855,2,0,P|397:218|392:161,1,89.999997253418,8|0,0:2|0:0,0:0:0:0:
338,101,23541,2,0,B|240:92|264:149|154:133,1,179.999994506836,10|8,0:2|0:2,0:0:0:0:
84,92,24570,2,0,P|90:71|95:48,2,44.999998626709,2|2|8,0:2|1:2|0:2,0:0:0:0:
9,141,25255,6,0,P|14:173|23:245,1,89.999997253418,4|8,1:2|0:2,0:0:0:0:
32,319,25941,1,2,0:2:0:0:
116,348,26284,2,0,P|171:350|214:328,1,89.999997253418,8|0,0:2|0:2,0:0:0:0:
261,268,26970,1,8,0:2:0:0:
208,195,27312,2,0,P|215:144|217:131,2,44.999998626709,0|2|8,0:2|1:2|0:2,0:0:0:0:
125,231,27998,1,6,1:2:0:0:
125,231,29541,6,0,P|148:235|179:242,2,44.999998626709,0|8|8,1:2|0:2|0:2,0:0:0:0:
81,220,30055,2,0,P|73:176|85:133,1,89.999997253418,8|10,0:2|0:2,0:0:0:0:
149,55,30741,5,6,1:2:0:0:
239,98,31084,2,0,P|289:90|346:81,1,99.9999999999999,8|0,0:2|1:2,0:0:0:0:
391,80,31598,1,0,1:2:0:0:
391,80,31770,2,0,P|375:130|389:191,1,99.9999999999999,8|0,0:2|0:0,0:0:0:0:
419,268,32455,1,8,0:2:0:0:
361,350,32798,2,0,P|311:342|262:334,1,99.9999999999999,2|8,1:2|0:2,0:0:0:0:
183,272,33484,5,4,1:2:0:0:
248,194,33827,2,0,P|254:144|238:97,1,99.9999999999999,8|0,0:2|1:2,0:0:0:0:
211,63,34341,1,0,1:2:0:0:
211,63,34512,2,0,P|146:75|108:82,1,99.9999999999999,8|0,0:2|0:0,0:0:0:0:
14,101,35198,1,8,0:2:0:0:
75,179,35541,2,0,P|63:244|78:279,1,99.9999999999999,2|8,1:2|0:2,0:0:0:0:
148,341,36227,6,0,P|214:328|254:322,1,99.9999999999999,4|8,1:2|0:2,0:0:0:0:
345,313,36912,2,0,P|350:282|355:258,1,50,2|2,1:2|1:2,0:0:0:0:
391,230,37255,2,0,P|379:171|372:126,1,99.9999999999999,8|0,0:2|0:0,0:0:0:0:
357,32,37941,1,8,0:2:0:0:
258,17,38284,2,0,P|236:61|247:123,1,99.9999999999999,0|8,1:2|0:2,0:0:0:0:
273,205,38970,6,0,P|265:260|258:312,1,99.9999999999999,6|8,1:2|0:2,0:0:0:0:
171,351,39655,2,0,P|130:329|66:335,1,99.9999999999999,0|8,1:2|0:2,0:0:0:0:
30,347,40170,2,0,P|22:292|15:240,1,99.9999999999999,6|0,1:2|1:2,0:0:0:0:
9,198,40684,1,8,0:2:0:0:
54,108,41027,2,0,P|103:110|147:87,1,99.9999999999999,0|8,1:2|0:2,0:0:0:0:
227,27,41712,6,0,P|284:35|343:44,1,99.9999999999999,6|10,1:2|0:2,0:0:0:0:
350,85,42227,2,0,P|407:77|466:68,1,99.9999999999999,2|2,0:2|1:2,0:0:0:0:
497,59,42741,1,8,0:2:0:0:
497,59,42912,2,0,P|474:122|462:219,1,150,2|8,0:2|0:2,0:0:0:0:
412,290,43770,2,0,P|428:332|431:355,2,50,2|0|10,1:2|1:2|0:2,0:0:0:0:
312,277,44455,6,0,P|259:283|212:289,1,99.9999999999999,0|8,1:2|0:2,0:0:0:0:
145,214,45141,2,0,P|124:159|132:121,1,99.9999999999999,2|10,1:2|0:2,0:0:0:0:
154,75,45655,1,2,0:2:0:0:
245,33,45998,2,0,P|287:41|297:42,1,50,2|8,1:2|0:2,0:0:0:0:
333,72,46341,2,0,P|382:63|438:55,1,99.9999999999999,2|2,0:2|1:2,0:0:0:0:
481,49,46855,1,8,0:2:0:0:
510,144,47198,6,0,P|488:187|488:253,1,99.9999999999999,6|10,1:2|0:2,0:0:0:0:
485,288,47712,2,0,P|442:266|376:266,1,99.9999999999999,2|2,0:2|1:2,0:0:0:0:
349,287,48227,1,8,0:2:0:0:
349,287,48398,2,0,P|306:309|209:290,1,150,2|8,0:2|0:2,0:0:0:0:
170,198,49255,2,0,P|177:153|187:96,1,99.9999999999999,2|10,1:2|0:2,0:0:0:0:
194,49,49770,6,0,P|147:29|83:43,1,99.9999999999999,10|0,0:2|0:0,0:0:0:0:
55,58,50284,1,8,0:2:0:0:
7,146,50627,2,0,P|16:192|26:254,1,99.9999999999999,2|10,1:2|0:2,0:0:0:0:
31,294,51141,1,10,0:2:0:0:
113,350,51484,2,0,P|155:331|208:327,1,99.9999999999999,10|2,0:2|1:2,0:0:0:0:
249,298,51998,2,0,P|291:317|344:321,1,99.9999999999999,8|8,0:2|0:3,0:0:0:0:
444,310,52684,6,0,P|449:260|456:201,1,99.9999999999999,6|10,1:2|0:2,0:0:0:0:
494,180,53198,2,0,P|489:130|482:71,1,99.9999999999999,2|2,0:2|1:2,0:0:0:0:
474,31,53712,1,8,0:2:0:0:
374,24,54055,2,0,P|324:47|272:40,1,99.9999999999999,2|10,1:2|0:2,0:0:0:0:
236,31,54570,1,2,1:2:0:0:
236,31,54741,2,0,P|168:42|128:49,1,99.9999999999999,8|8,0:2|0:3,0:0:0:0:
61,113,55427,6,0,P|70:142|74:174,1,50,10|8,0:2|0:2,0:0:0:0:
70,211,55770,1,8,0:2:0:0:
70,211,56798,6,0,P|97:192|168:184,1,99.9999999999999,14|8,0:2|0:2,0:0:0:0:
215,196,57312,1,4,1:2:0:0:
215,196,57484,2,0,P|220:145|231:94,1,99.9999999999999,10|8,0:2|0:2,0:0:0:0:
325,41,58170,6,0,B|356:63|356:63|433:51,1,110.000003356934,6|8,1:2|0:2,0:0:0:0:
508,126,58855,2,0,P|500:167|497:193,1,55.0000016784668,2|0,1:2|1:2,0:0:0:0:
462,222,59198,2,0,P|476:278|488:332,1,110.000003356934,10|0,0:2|1:2,0:0:0:0:
386,372,59884,1,10,0:2:0:0:
295,309,60227,2,0,P|252:318|237:321,1,55.0000016784668,2|0,1:2|1:2,0:0:0:0:
194,350,60570,2,0,P|132:338|69:328,1,110.000003356934,10|0,0:2|1:2,0:0:0:0:
19,242,61255,6,0,P|8:181|27:136,1,110.000003356934,10|0,0:2|1:2,0:0:0:0:
65,99,61770,1,2,1:2:0:0:
65,99,61941,2,0,P|97:103|124:105,1,55.0000016784668,8|0,0:2|0:2,0:0:0:0:
166,134,62284,2,0,P|221:125|280:116,1,110.000003356934,2|10,1:2|0:2,0:0:0:0:
383,101,62970,1,2,1:2:0:0:
461,178,63312,2,0,P|453:213|449:237,1,55.0000016784668,8|8,0:2|0:2,0:0:0:0:
434,284,63655,6,0,B|375:305|375:305|353:298|325:283,1,110.000003356934,6|8,1:2|0:2,0:0:0:0:
240,223,64341,2,0,P|235:195|228:169,1,55.0000016784668,2|0,1:2|1:2,0:0:0:0:
216,115,64684,2,0,P|157:96|92:119,1,110.000003356934,10|0,0:2|1:2,0:0:0:0:
13,157,65370,1,10,0:2:0:0:
87,237,65712,2,0,P|83:275|80:306,1,55.0000016784668,2|0,1:2|1:2,0:0:0:0:
76,346,66055,1,10,0:2:0:0:
183,369,66398,6,0,P|229:357|296:349,1,110.000003356934,0|8,1:2|0:2,0:0:0:0:
401,345,67084,1,2,1:2:0:0:
480,269,67427,1,10,0:2:0:0:
450,163,67770,2,0,P|393:143|341:155,1,110.000003356934,2|10,1:2|0:2,0:0:0:0:
301,183,68284,1,0,1:2:0:0:
301,183,68455,2,0,P|261:178|238:177,1,55.0000016784668,10|4,0:3|0:3,0:0:0:0:
205,140,68798,2,0,P|143:147|80:155,1,110.000003356934,14|4,0:2|1:2,0:0:0:0:
14,227,69484,5,10,0:2:0:0:
62,325,69827,2,0,P|107:337|182:317,1,110.000003356934,8|8,0:2|0:2,0:0:0:0:
267,277,70512,1,10,0:2:0:0:
313,177,70855,2,0,P|305:141|299:117,1,55.0000016784668,8|2,0:2|1:2,0:0:0:0:
292,68,71198,1,8,0:2:0:0:
388,14,71541,1,10,0:2:0:0:
480,72,71884,6,0,P|505:126|490:195,1,110.000003356934,12|8,0:2|0:2,0:0:0:0:
478,227,72398,1,0,1:2:0:0:
478,227,72570,2,0,P|427:235|357:248,1,110.000003356934,8|8,0:2|0:2,0:0:0:0:
261,267,73255,1,8,0:2:0:0:
155,234,73598,2,0,P|144:204|139:173,1,55.0000016784668,8|8,0:0|0:0,0:0:0:0:
182,147,73941,2,0,P|193:117|198:86,1,55.0000016784668,0|8,1:0|0:3,0:0:0:0:
205,39,74284,1,8,0:0:0:0:
311,12,74627,1,4,1:2:0:0:
414,50,74970,6,0,B|408:84|408:84|399:178,1,110.000003356934,10|0,0:2|1:2,0:0:0:0:
365,201,75484,1,2,1:2:0:0:
365,201,75655,2,0,P|379:269|390:322,1,110.000003356934,8|2,0:2|1:2,0:0:0:0:
297,372,76341,1,8,0:2:0:0:
201,317,76684,2,0,P|156:323|123:328,1,55.0000016784668,0|0,1:2|1:2,0:0:0:0:
92,334,77027,1,10,0:2:0:0:
24,247,77370,6,0,P|8:191|27:140,1,110.000003356934,4|8,1:2|0:2,0:0:0:0:
111,76,78055,2,0,P|143:82|168:87,1,55.0000016784668,0|0,1:2|1:2,0:0:0:0:
216,107,78398,2,0,P|248:101|273:96,1,55.0000016784668,10|10,0:2|0:2,0:0:0:0:
323,84,78741,1,0,1:2:0:0:
323,84,78912,2,0,B|309:129|309:129|334:199,1,110.000003356934,12|0,0:2|1:2,0:0:0:0:
377,216,79427,2,0,P|368:278|361:331,1,110.000003356934,10|6,0:2|0:3,0:0:0:0:
263,343,80112,6,0,B|246:340|230:334|230:334|166:349,1,99.9999999999999,4|0,1:2|1:2,0:0:0:0:
120,362,80627,1,0,1:2:0:0:
120,362,80798,2,0,P|102:310|115:259,1,99.9999999999999,10|2,0:2|1:2,0:0:0:0:
186,201,81484,1,2,1:2:0:0:
186,201,81655,2,0,P|179:156|170:100,1,99.9999999999999,8|0,0:2|1:2,0:0:0:0:
160,52,82170,1,10,0:2:0:0:
66,16,82512,1,2,1:2:0:0:
24,107,82855,6,0,B|47:147|47:147|29:217,1,99.9999999999999,2|2,1:2|1:2,0:0:0:0:
9,244,83370,1,0,0:2:0:0:
9,244,83541,2,0,P|21:296|33:350,1,99.9999999999999,10|10,0:2|0:2,0:0:0:0:
128,363,84227,2,0,P|171:340|228:344,1,99.9999999999999,2|0,1:2|1:2,0:0:0:0:
269,322,84741,1,0,1:2:0:0:
269,322,84912,2,0,P|312:345|369:341,1,99.9999999999999,10|10,0:2|0:3,0:0:0:0:
456,309,85598,5,4,1:2:0:0:
