osu file format v14

[General]
AudioFilename: audio.mp3
AudioLeadIn: 0
PreviewTime:57964
Countdown: 0
SampleSet: Soft
StackLeniency: 0.7
Mode: 0
LetterboxInBreaks: 0
WidescreenStoryboard: 1

[Editor]
Bookmarks: 6035,29350,74607
DistanceSpacing: 2
BeatDivisor: 4
GridSize: 4
TimelineZoom: 1.9

[Metadata]
Title:Like Flames (TV Size)
TitleUnicode:Like Flames (TV Size)
Artist:MindaRyn
ArtistUnicode:MindaRyn
Creator:Sotarks
Version:A r M i N & Vaporfly's Extra
Source:転生したらスライムだった件 第2期
Tags:that time i got reincarnated as a red crewmate sachiko 小山 寿 tensei shitara slime datta ken 2nd second season part 2 two tensura anime japanese opening op rock jrock j-rock armin a_r_m_i_n vaporfly akitoshi corinn -laura- [_eli_] eli elinor kowari snownino_ reform kujinn english appleeaterx mint
BeatmapID:3095036
BeatmapSetID:1511528

[Difficulty]
HPDrainRate:5.2
CircleSize:3.8
OverallDifficulty:8.8
ApproachRate:9.2
SliderMultiplier:1.8
SliderTickRate:1

[Events]
//Background and Video events
0,0,"slime-game.jpg",0,0
Video,0,"video.mp4"
//Break Periods
//Storyboard Layer 0 (Background)
//Storyboard Layer 1 (Fail)
//Storyboard Layer 2 (Pass)
//Storyboard Layer 3 (Foreground)
//Storyboard Layer 4 (Overlay)
//Storyboard Sound Samples

[TimingPoints]
570,342.857142857143,4,2,22,52,1,0
570,-125,4,2,22,52,0,0
3227,-125,4,2,22,5,0,0
3312,-125,4,2,22,52,0,0
4684,-125,4,2,22,62,0,0
5970,-125,4,2,22,5,0,0
6055,-100,4,2,22,72,0,0
17027,-111.111111111111,4,2,22,62,0,0
19770,-125,4,2,22,52,0,0
27998,-142.857142857143,4,2,22,52,0,0
28341,-142.857142857143,4,2,22,42,0,0
29370,-125,4,2,22,42,0,0
29541,-125,4,2,22,52,0,0
30741,-111.111111111111,4,2,22,62,0,0
41712,-100,4,2,22,62,0,0
55427,-100,4,2,22,72,0,0
58170,-90.9090909090909,4,2,22,82,0,1
80112,-90.9090909090909,4,2,22,72,0,1
85598,-100,4,2,22,72,0,0

[Colours]
Combo1 : 230,254,92
Combo2 : 156,206,243
Combo3 : 105,47,202
Combo4 : 80,228,214

[HitObjects]
166,306,570,6,0,P|184:336|190:371,2,72,0|0|8,1:2|1:2|0:2,0:0:0:0:
81,246,1084,2,0,P|45:247|11:234,2,72,0|0|0,0:0|0:0|0:2,0:0:0:0:
175,202,1598,2,0,B|185:133|185:133|182:129|182:129|190:60,1,144,12|0,0:2|0:0,0:0:0:0:
351,170,2112,5,0,0:2:0:0:
351,170,2284,2,0,P|369:200|375:235,1,72,8|0,0:2|0:2,0:0:0:0:
228,292,2627,2,0,P|244:260|272:237,1,72,0|0,0:2|0:2,0:0:0:0:
395,338,2970,2,0,P|359:339|325:326,1,72,12|0,0:2|0:0,0:0:0:0:
253,136,3312,6,0,L|259:100,3,36,8|0|0|0,1:2|1:2|1:2|1:2,0:0:0:0:
174,204,3655,2,0,L|180:239,3,36,8|0|0|0,1:2|1:2|1:2|1:2,0:0:0:0:
95,136,3998,2,0,L|101:100,3,36,8|0|0|0,1:2|1:2|1:2|1:2,0:0:0:0:
16,204,4341,1,8,1:3:0:0:
6,229,4426,1,8,1:3:0:0:
6,255,4512,1,4,1:3:0:0:
16,280,4598,1,4,1:3:0:0:
34,300,4683,5,10,0:2:0:0:
205,104,4855,1,10,0:2:0:0:
125,352,5027,1,10,0:2:0:0:
0,99,5370,5,8,0:2:0:0:
20,81,5455,1,8,0:3:0:0:
45,71,5541,1,8,0:3:0:0:
71,71,5627,1,4,0:3:0:0:
96,81,5712,2,0,P|103:134|109:188,1,108,12|0,0:2|0:2,0:0:0:0:
122,278,6055,5,6,1:2:0:0:
240,73,6227,1,0,0:2:0:0:
221,312,6398,1,8,0:2:0:0:
96,81,6570,5,2,0:2:0:0:
277,195,6741,1,0,1:2:0:0:
34,233,6912,1,0,1:2:0:0:
249,101,7084,6,0,B|349:78|327:155|422:133,1,180,10|0,0:2|0:2,0:0:0:0:
278,0,7598,1,0,1:2:0:0:
219,201,7770,2,0,L|128:216,1,90,10|0,0:2|0:2,0:0:0:0:
0,47,8112,1,2,1:2:0:0:
160,115,8284,1,0,1:2:0:0:
0,249,8455,2,0,L|19:159,1,90,10|0,0:2|0:2,0:0:0:0:
183,13,8798,5,6,1:2:0:0:
130,215,8970,1,0,0:0:0:0:
0,47,9141,1,8,0:2:0:0:
248,95,9312,5,2,0:2:0:0:
19,161,9484,1,0,1:2:0:0:
245,249,9655,1,0,1:2:0:0:
129,59,9827,6,0,B|84:124|84:124|129:214,1,180,10|0,0:2|1:2,0:0:0:0:
253,384,10341,1,14,0:2:0:0:
300,172,10512,1,8,0:2:0:0:
120,321,10684,1,0,1:2:0:0:
362,371,10855,5,10,0:2:0:0:
362,371,10941,1,8,1:3:0:0:
362,371,11027,2,0,L|353:323,1,45,8|4,1:3|1:3,0:0:0:0:
200,141,11198,1,8,0:2:0:0:
412,203,11370,1,8,1:2:0:0:
412,203,11455,1,8,1:2:0:0:
412,203,11541,5,6,1:2:0:0:
210,295,11712,1,0,0:2:0:0:
274,70,11884,1,8,0:2:0:0:
354,326,12055,5,2,0:2:0:0:
135,223,12227,1,0,1:2:0:0:
359,118,12398,1,0,1:2:0:0:
213,334,12570,6,0,B|127:319|127:319|121:322|121:322|36:305,1,180,10|0,0:2|1:2,0:0:0:0:
0,142,13084,1,0,1:2:0:0:
0,142,13170,1,0,1:2:0:0:
0,142,13255,2,0,L|88:126,1,90,10|0,0:2|0:2,0:0:0:0:
226,33,13598,1,2,1:2:0:0:
129,223,13770,1,0,1:2:0:0:
35,37,13941,2,0,P|74:21|120:27,1,90,10|0,0:2|0:2,0:0:0:0:
269,225,14284,5,6,1:2:0:0:
88,126,14455,1,0,1:2:0:0:
314,83,14627,1,8,0:2:0:0:
137,230,14798,5,2,1:2:0:0:
137,230,14884,1,0,1:2:0:0:
137,230,14970,1,8,0:2:0:0:
361,177,15141,2,0,L|404:184,2,45,0|0|10,1:2|1:2|0:2,0:0:0:0:
228,60,15484,2,0,L|219:107,1,45,0|0,1:2|1:2,0:0:0:0:
166,331,15655,1,8,0:2:0:0:
89,130,15827,5,0,1:2:0:0:
89,130,15912,1,8,0:2:0:0:
89,130,15998,1,10,0:2:0:0:
269,225,16170,1,4,1:2:0:0:
67,296,16341,2,0,L|22:288,2,45,2|8|8,1:2|0:2|0:2,0:0:0:0:
207,124,16684,1,6,1:2:0:0:
269,350,16855,1,8,0:2:0:0:
269,350,16941,1,8,0:2:0:0:
269,350,17027,6,0,L|347:336,1,80.9999975280763,6|0,1:2|0:0,0:0:0:0:
456,209,17370,2,0,L|442:289,1,80.9999975280763,8|0,0:2|0:0,0:0:0:0:
299,137,17712,2,0,L|312:215,1,80.9999975280763,8|0,0:2|0:0,0:0:0:0:
325,259,17970,1,8,0:2:0:0:
325,259,18055,1,0,1:2:0:0:
401,120,18227,1,8,0:2:0:0:
211,193,18398,2,0,L|168:185,2,40.4999987640381,0|8|0,1:2|0:2|0:0,0:0:0:0:
173,3,18741,6,0,P|134:-2|96:10,1,80.9999975280763,8|8,0:2|0:2,0:0:0:0:
106,114,18998,1,8,0:2:0:0:
106,114,19084,2,0,L|144:103,3,40.4999987640381,8|8|8|4,0:2|0:3|0:3|0:3,0:0:0:0:
9,66,19427,2,0,B|2:94|-13:116|-13:116|35:186,1,121.499996292114,12|0,0:2|0:2,0:0:0:0:
29,275,19770,5,6,1:2:0:0:
106,114,19941,1,0,1:2:0:0:
186,302,20112,2,0,B|295:265|276:373|386:337,1,216,8|0,0:2|0:2,0:0:0:0:
367,169,20798,1,10,0:2:0:0:
367,169,20970,6,0,L|354:239,1,72,2|0,0:2|0:2,0:0:0:0:
294,93,21312,1,2,0:2:0:0:
457,116,21484,2,0,P|471:150|470:186,1,72,8|0,0:2|0:2,0:0:0:0:
353,239,21827,2,0,L|282:226,2,72,2|2|10,0:2|0:2|0:2,0:0:0:0:
446,286,22341,1,2,0:2:0:0:
369,146,22512,5,0,1:2:0:0:
301,329,22684,1,0,1:2:0:0:
243,128,22855,2,0,B|133:91|152:199|42:163,1,216,8|0,0:2|0:2,0:0:0:0:
196,298,23541,5,10,0:2:0:0:
196,298,23712,2,0,L|208:227,1,72,2|0,0:2|0:2,0:0:0:0:
334,178,24055,2,0,L|346:248,1,72,2|8,0:2|0:2,0:0:0:0:
243,128,24398,1,2,0:2:0:0:
437,161,24570,1,2,0:2:0:0:
301,41,24741,2,0,P|267:25|230:25,1,72,2|8,1:2|0:2,0:0:0:0:
98,150,25084,1,2,1:2:0:0:
243,128,25255,5,4,1:2:0:0:
109,47,25427,1,0,1:2:0:0:
194,219,25598,2,0,P|239:233|266:229,1,72,8|0,0:2|0:0,0:0:0:0:
402,118,25941,6,0,L|389:188,2,72,2|2|8,0:2|0:2|0:2,0:0:0:0:
288,71,26455,2,0,L|300:141,1,72,2|0,0:2|0:2,0:0:0:0:
216,230,26798,2,0,L|145:217,1,72,2|8,0:2|0:2,0:0:0:0:
97,123,27141,2,0,L|167:110,1,72,2|0,0:2|0:2,0:0:0:0:
38,209,27484,2,0,P|11:183|-1:145,1,72,2|8,1:2|0:2,0:0:0:0:
26,56,27827,1,2,0:2:0:0:
145,217,27998,5,6,1:2:0:0:
145,217,28170,2,0,L|215:229,1,62.9999980773926,0|0,0:0|0:2,0:0:0:0:
239,91,28512,1,0,3:2:0:0:
239,91,28684,2,0,L|193:145,1,62.9999980773926,0|0,3:2|0:2,0:0:0:0:
301,235,29027,1,0,3:2:0:0:
301,235,29198,2,0,L|276:168,1,62.9999980773926,0|0,3:2|0:2,0:0:0:0:
397,123,29541,5,0,1:2:0:0:
471,251,29712,2,0,L|483:180,1,72,8|8,0:2|0:2,0:0:0:0:
494,147,29970,1,8,0:2:0:0:
494,147,30055,1,8,0:2:0:0:
368,251,30227,2,0,L|374:286,2,36,0|0|10,1:2|1:2|0:2,0:0:0:0:
330,42,30570,1,8,0:2:0:0:
330,42,30655,1,8,0:2:0:0:
330,42,30741,6,0,P|261:2|185:23,1,161.999995056153,6|8,1:2|0:2,0:0:0:0:
111,157,31255,2,0,L|96:77,1,80.9999975280763,0|0,0:2|1:2,0:0:0:0:
197,215,31598,1,0,1:2:0:0:
10,134,31770,1,8,0:2:0:0:
142,303,31941,6,0,P|179:318|219:316,1,80.9999975280763,2|0,0:2|0:0,0:0:0:0:
380,208,32284,2,0,L|365:287,1,80.9999975280763,2|8,1:2|0:2,0:0:0:0:
310,131,32627,1,2,0:2:0:0:
467,265,32798,1,2,1:2:0:0:
279,231,32970,1,2,1:2:0:0:
472,160,33141,2,0,L|457:80,1,80.9999975280763,8|10,0:2|0:2,0:0:0:0:
396,25,33398,1,8,0:2:0:0:
396,25,33484,6,0,B|312:3|325:73|241:52,1,161.999995056153,4|8,1:2|0:2,0:0:0:0:
69,0,33998,2,0,L|54:79,1,80.9999975280763,0|0,0:2|1:2,0:0:0:0:
132,250,34341,1,0,1:2:0:0:
0,169,34512,1,8,0:2:0:0:
220,194,34684,6,0,P|235:231|233:271,1,80.9999975280763,2|0,0:2|0:0,0:0:0:0:
44,348,35027,2,0,L|30:269,1,80.9999975280763,2|8,1:2|0:2,0:0:0:0:
156,112,35370,1,2,1:2:0:0:
156,112,35455,1,8,0:2:0:0:
156,112,35541,1,2,1:2:0:0:
131,292,35712,1,2,1:2:0:0:
0,169,35884,2,0,L|79:183,1,80.9999975280763,8|2,0:2|0:2,0:0:0:0:
255,80,36227,6,0,P|264:160|274:240,1,161.999995056153,4|8,1:2|0:2,0:0:0:0:
422,353,36741,1,0,0:2:0:0:
359,180,36912,1,2,1:2:0:0:
320,335,37084,1,2,1:2:0:0:
461,198,37255,1,8,0:2:0:0:
275,241,37427,6,0,L|195:226,1,80.9999975280763,2|0,0:2|0:0,0:0:0:0:
58,349,37770,2,0,P|94:330|118:299,1,80.9999975280763,2|8,1:2|0:2,0:0:0:0:
82,119,38112,2,0,P|80:159|96:197,1,80.9999975280763,2|0,0:2|1:2,0:0:0:0:
219,329,38455,1,2,1:2:0:0:
183,141,38627,1,8,0:2:0:0:
310,276,38798,1,10,0:2:0:0:
310,276,38884,1,8,0:2:0:0:
310,276,38970,6,0,L|389:261,1,80.9999975280763,6|0,1:2|0:0,0:0:0:0:
511,118,39312,2,0,L|431:103,1,80.9999975280763,8|0,0:2|0:0,0:0:0:0:
316,0,39655,1,0,1:2:0:0:
347,166,39827,1,0,1:2:0:0:
420,0,39998,1,8,0:2:0:0:
270,95,40170,6,0,B|192:86|192:86|188:89|188:89|111:78,1,161.999995056153,6|0,1:2|1:2,0:0:0:0:
7,237,40684,2,0,P|64:251|113:218,1,121.499996292114,8|8,0:2|0:2,0:0:0:0:
127,181,41027,1,0,1:2:0:0:
7,79,41198,6,0,L|15:119,1,40.4999987640381,8|8,0:3|0:3,0:0:0:0:
114,25,41370,1,8,0:2:0:0:
142,16,41455,1,4,0:3:0:0:
173,17,41541,1,4,0:3:0:0:
200,30,41627,1,4,0:3:0:0:
222,51,41712,6,0,P|232:140|242:229,1,180,6|10,1:2|0:2,0:0:0:0:
412,326,42227,2,0,P|417:281|423:235,1,90,2|0,0:2|1:2,0:0:0:0:
348,44,42570,1,2,1:2:0:0:
512,184,42741,1,8,0:2:0:0:
291,132,42912,6,0,P|206:113|136:168,1,180,2|0,0:2|1:2,0:0:0:0:
78,366,43427,1,8,0:2:0:0:
229,215,43598,1,2,0:2:0:0:
28,253,43770,2,0,L|117:269,1,90,2|0,1:2|1:2,0:0:0:0:
233,109,44112,1,10,0:2:0:0:
297,333,44284,1,10,0:2:0:0:
297,333,44370,1,8,0:2:0:0:
297,333,44455,6,0,L|209:318,1,90,0|0,1:2|0:0,0:0:0:0:
371,158,44798,2,0,P|394:196|398:240,1,90,8|0,0:2|0:2,0:0:0:0:
233,109,45141,1,2,1:2:0:0:
424,56,45312,1,0,1:2:0:0:
295,229,45484,1,10,0:2:0:0:
238,5,45655,6,0,L|326:20,1,90,2|0,0:2|1:2,0:0:0:0:
194,201,45998,1,2,1:2:0:0:
134,0,46170,1,8,0:2:0:0:
279,140,46341,2,0,L|294:228,1,90,2|0,0:2|1:2,0:0:0:0:
159,102,46684,1,2,1:2:0:0:
379,168,46855,1,8,0:2:0:0:
206,305,47027,1,8,0:2:0:0:
206,305,47112,1,8,0:2:0:0:
206,305,47198,6,0,B|164:265|107:271|107:271|87:303|53:314,1,180,6|10,1:2|0:2,0:0:0:0:
159,102,47712,2,0,L|174:190,1,90,2|0,0:2|1:2,0:0:0:0:
339,324,48055,1,2,1:2:0:0:
260,130,48227,1,8,0:2:0:0:
425,267,48398,6,0,B|455:277|478:295|478:295|491:176,1,180,2|0,0:2|1:2,0:0:0:0:
344,15,48912,2,0,L|360:104,1,90,8|0,0:2|0:2,0:0:0:0:
208,253,49255,1,2,1:2:0:0:
260,77,49427,1,0,1:2:0:0:
308,284,49598,1,10,0:2:0:0:
164,119,49770,1,10,0:2:0:0:
164,119,49855,1,8,0:2:0:0:
164,119,49941,6,0,L|75:134,1,90,0|0,1:2|0:0,0:0:0:0:
147,338,50284,2,0,L|235:353,1,90,8|0,0:2|0:0,0:0:0:0:
384,174,50627,1,2,1:2:0:0:
208,253,50798,1,0,1:2:0:0:
436,334,50970,1,10,0:2:0:0:
295,89,51141,6,0,L|280:178,1,90,10|0,0:2|1:2,0:0:0:0:
124,314,51484,2,0,L|108:225,1,90,10|0,0:2|1:2,0:0:0:0:
0,50,51827,1,2,1:2:0:0:
180,151,51998,1,8,0:2:0:0:
5,231,52170,2,0,L|12:186,1,45,10|8,0:3|0:3,0:0:0:0:
140,55,52341,1,8,0:3:0:0:
172,46,52426,1,4,0:3:0:0:
206,49,52512,1,4,0:3:0:0:
236,63,52598,1,4,0:3:0:0:
261,86,52684,6,0,B|352:58|338:143|429:115,1,180,6|10,1:2|0:2,0:0:0:0:
302,276,53198,2,0,L|287:188,1,90,2|0,0:2|1:2,0:0:0:0:
389,334,53541,1,2,1:2:0:0:
203,249,53712,1,8,0:2:0:0:
395,229,53884,1,0,1:2:0:0:
228,350,54055,6,0,P|181:351|131:324,1,90,2|0,1:2|1:2,0:0:0:0:
182,68,54398,5,10,0:2:0:0:
302,276,54570,1,2,1:2:0:0:
294,28,54741,5,8,0:2:0:0:
203,249,54912,2,0,L|158:241,1,45,8|8,0:3|0:3,0:0:0:0:
266,129,55084,5,8,0:3:0:0:
298,119,55169,1,4,0:3:0:0:
331,123,55255,1,4,0:3:0:0:
361,139,55341,1,4,0:3:0:0:
382,165,55426,5,10,0:2:0:0:
182,68,55598,1,8,0:2:0:0:
323,277,55770,1,8,0:2:0:0:
199,363,56798,6,0,L|214:274,1,90,14|8,0:2|0:2,0:0:0:0:
227,239,57055,1,8,0:2:0:0:
227,239,57141,1,8,0:2:0:0:
399,85,57312,6,0,P|424:121|425:165,1,90,4|10,1:2|0:2,0:0:0:0:
412,205,57570,1,8,0:2:0:0:
412,205,57655,1,8,0:2:0:0:
236,28,57827,5,8,0:2:0:0:
195,10,57912,1,8,0:2:0:0:
150,13,57998,1,8,0:2:0:0:
113,37,58084,1,8,0:2:0:0:
91,76,58169,5,6,1:2:0:0:
274,249,58341,2,0,L|291:151,1,99.0000030212403,2|8,0:2|0:2,0:0:0:0:
120,251,58684,1,0,0:2:0:0:
326,359,58855,2,0,P|369:336|417:340,1,99.0000030212403,2|0,1:2|1:2,0:0:0:0:
403,41,59198,5,10,0:2:0:0:
216,212,59370,2,0,L|234:310,1,99.0000030212403,2|0,0:2|1:2,0:0:0:0:
148,74,59712,1,0,1:2:0:0:
375,141,59884,2,0,P|423:145|466:122,1,99.0000030212403,10|0,0:2|0:2,0:0:0:0:
284,4,60227,6,0,L|266:101,1,99.0000030212403,2|0,1:2|1:2,0:0:0:0:
136,278,60570,2,0,L|153:375,1,99.0000030212403,10|8,0:2|0:2,0:0:0:0:
37,306,60827,1,8,0:2:0:0:
37,306,60912,6,0,P|32:257|55:214,1,99.0000030212403,0|0,1:2|0:0,0:0:0:0:
266,101,61255,2,0,P|168:82|72:60,1,198.000006042481,10|0,0:2|1:2,0:0:0:0:
234,200,61770,2,0,L|331:182,1,99.0000030212403,2|8,1:2|0:2,0:0:0:0:
166,307,62112,1,0,0:2:0:0:
266,101,62284,5,2,1:2:0:0:
386,314,62455,2,0,L|395:266,1,49.5000015106202,0|0,1:2|1:2,0:0:0:0:
452,7,62627,2,0,L|469:104,1,99.0000030212403,10|8,0:2|0:2,0:0:0:0:
384,165,62884,1,8,0:2:0:0:
384,165,62970,2,0,P|364:120|369:71,1,99.0000030212403,2|0,1:2|1:2,0:0:0:0:
511,249,63312,1,8,0:2:0:0:
277,176,63484,1,8,0:2:0:0:
277,176,63570,1,8,0:2:0:0:
277,176,63655,5,6,1:2:0:0:
486,7,63827,2,0,L|468:104,1,99.0000030212403,2|8,0:2|0:2,0:0:0:0:
388,291,64170,1,0,0:2:0:0:
301,68,64341,2,0,P|253:64|208:83,1,99.0000030212403,2|0,1:2|1:2,0:0:0:0:
0,293,64684,5,10,0:2:0:0:
107,53,64855,2,0,L|125:150,1,99.0000030212403,2|0,0:2|1:2,0:0:0:0:
262,331,65198,1,0,1:2:0:0:
329,120,65370,2,0,P|377:116|422:135,1,99.0000030212403,10|0,0:2|0:2,0:0:0:0:
461,371,65712,6,0,L|364:353,1,99.0000030212403,2|0,1:2|1:2,0:0:0:0:
187,197,66055,2,0,L|90:215,1,99.0000030212403,10|0,0:2|0:0,0:0:0:0:
271,87,66398,6,0,B|293:111|329:120|329:120|300:255,1,198.000006042481,0|8,1:2|0:2,0:0:0:0:
122,115,66912,1,0,0:0:0:0:
348,16,67084,1,2,1:2:0:0:
210,172,67255,1,0,1:2:0:0:
423,88,67427,2,0,P|471:93|512:121,1,99.0000030212403,10|0,0:2|0:2,0:0:0:0:
320,317,67770,6,0,L|302:220,1,99.0000030212403,2|8,1:2|0:2,0:0:0:0:
210,172,68027,1,8,0:2:0:0:
210,172,68112,6,0,L|200:220,1,49.5000015106202,10|8,0:2|0:2,0:0:0:0:
303,114,68284,2,0,L|293:65,1,49.5000015106202,0|0,1:2|1:2,0:0:0:0:
106,178,68455,5,10,0:3:0:0:
97,214,68540,1,8,0:3:0:0:
101,251,68626,1,4,0:3:0:0:
118,284,68712,1,4,0:3:0:0:
145,309,68798,2,0,L|242:292,1,99.0000030212403,14|8,0:2|0:2,0:0:0:0:
319,222,69055,1,8,0:2:0:0:
319,222,69141,6,0,P|278:194|230:189,1,99.0000030212403,4|0,1:2|1:2,0:0:0:0:
20,254,69484,5,10,0:2:0:0:
121,5,69655,1,0,1:2:0:0:
145,309,69827,5,8,0:2:0:0:
41,71,69998,1,2,1:2:0:0:
51,354,70170,5,8,0:2:0:0:
139,106,70341,1,0,1:2:0:0:
222,379,70512,6,0,P|270:383|315:364,1,99.0000030212403,10|0,0:2|0:2,0:0:0:0:
391,53,70855,5,8,0:2:0:0:
254,279,71027,2,0,L|245:231,1,49.5000015106202,2|0,1:2|1:2,0:0:0:0:
294,14,71198,5,8,0:2:0:0:
398,300,71370,1,0,1:2:0:0:
481,0,71541,5,10,0:2:0:0:
199,137,71712,1,0,1:2:0:0:
499,202,71884,6,0,L|482:105,1,99.0000030212403,14|0,0:2|0:2,0:0:0:0:
208,236,72227,5,8,0:2:0:0:
391,53,72398,2,0,L|382:101,1,49.5000015106202,0|0,1:2|1:2,0:0:0:0:
265,342,72570,5,8,0:2:0:0:
182,34,72741,1,0,1:2:0:0:
163,320,72912,5,8,0:2:0:0:
282,6,73084,1,0,1:2:0:0:
366,367,73255,5,8,0:2:0:0:
257,107,73427,2,0,L|266:155,1,49.5000015106202,0|0,1:0|1:0,0:0:0:0:
163,320,73598,5,8,0:0:0:0:
126,313,73683,1,8,0:0:0:0:
90,306,73769,1,8,0:0:0:0:
53,299,73855,1,8,0:0:0:0:
17,292,73941,6,0,P|9:268|2:244,3,49.5000015106202,0|0|8|8,1:0|1:0|0:3|0:3,0:0:0:0:
74,168,74284,6,0,P|97:175|122:178,1,49.5000015106202,8|8,0:0|0:3,0:0:0:0:
48,66,74455,2,0,P|23:69|0:76,1,49.5000015106202,8|4,0:3|0:3,0:0:0:0:
129,0,74627,6,0,L|226:17,1,99.0000030212403,4|0,1:2|0:0,0:0:0:0:
372,165,74970,2,0,L|350:67,1,99.0000030212403,10|0,0:2|0:0,0:0:0:0:
213,235,75312,1,0,1:2:0:0:
420,297,75484,2,0,P|467:274|514:280,1,99.0000030212403,2|8,1:2|0:2,0:0:0:0:
268,137,75827,1,2,0:2:0:0:
238,378,75998,5,2,1:2:0:0:
372,165,76170,1,0,1:2:0:0:
152,293,76341,1,8,0:2:0:0:
406,366,76512,2,0,L|388:267,1,99.0000030212403,2|0,0:2|1:2,0:0:0:0:
258,66,76855,1,0,1:2:0:0:
152,293,77027,2,0,L|250:275,1,99.0000030212403,10|0,0:2|0:0,0:0:0:0:
111,197,77284,1,8,0:2:0:0:
111,197,77370,6,0,P|71:223|51:273,1,99.0000030212403,4|0,1:2|0:0,0:0:0:0:
266,372,77712,2,0,L|249:273,1,99.0000030212403,8|0,0:2|0:0,0:0:0:0:
122,74,78055,1,0,1:2:0:0:
356,170,78227,1,0,1:2:0:0:
152,293,78398,1,10,0:2:0:0:
324,70,78570,2,0,P|376:65|418:85,1,99.0000030212403,10|0,0:2|1:2,0:0:0:0:
267,302,78912,6,0,L|249:203,1,99.0000030212403,12|0,0:2|1:2,0:0:0:0:
203,0,79255,1,0,1:2:0:0:
203,0,79341,1,0,1:2:0:0:
203,0,79427,5,10,0:2:0:0:
371,195,79598,1,8,0:3:0:0:
123,153,79770,1,6,0:3:0:0:
324,70,79941,1,4,0:3:0:0:
152,253,80112,6,0,P|98:255|58:233,1,99.0000030212403,4|0,1:2|0:0,0:0:0:0:
232,117,80455,1,0,1:2:0:0:
273,333,80627,1,0,1:2:0:0:
123,153,80798,2,0,L|140:54,1,99.0000030212403,10|0,0:2|0:0,0:0:0:0:
298,197,81141,2,0,P|250:222|207:218,1,99.0000030212403,2|0,1:2|1:2,0:0:0:0:
353,25,81484,6,0,L|451:42,1,99.0000030212403,2|8,1:2|0:2,0:0:0:0:
298,197,81827,1,0,1:2:0:0:
253,3,81998,1,0,1:2:0:0:
401,178,82170,2,0,P|400:229|373:270,1,99.0000030212403,10|0,0:2|0:0,0:0:0:0:
191,354,82512,1,2,1:2:0:0:
298,197,82684,1,8,0:2:0:0:
392,384,82855,6,0,L|293:366,1,99.0000030212403,2|0,1:2|0:2,0:0:0:0:
121,232,83198,2,0,L|23:249,1,99.0000030212403,2|0,1:2|0:2,0:0:0:0:
226,91,83541,2,0,L|208:189,1,99.0000030212403,10|0,0:2|1:2,0:0:0:0:
399,285,83884,2,0,L|381:186,1,99.0000030212403,10|0,0:2|0:0,0:0:0:0:
459,0,84227,5,2,1:2:0:0:
296,189,84398,1,8,0:2:0:0:
491,100,84570,1,0,1:2:0:0:
252,95,84741,1,0,1:2:0:0:
484,205,84912,5,10,0:2:0:0:
355,0,85084,2,0,L|345:48,1,49.5000015106202,0|0,1:2|1:2,0:0:0:0:
275,247,85255,1,10,0:3:0:0:
275,247,85341,1,8,0:3:0:0:
275,247,85427,2,0,L|267:199,1,49.5000015106202,4|4,0:3|0:3,0:0:0:0:
491,100,85598,1,4,1:2:0:0:
