osu file format v14

[General]
AudioFilename: audio.mp3
AudioLeadIn: 0
PreviewTime: 59116
Countdown: 0
SampleSet: Soft
StackLeniency: 0.7
Mode: 0
LetterboxInBreaks: 0
WidescreenStoryboard: 1

[Editor]
DistanceSpacing: 1.3
BeatDivisor: 4
GridSize: 16
TimelineZoom: 1.9

[Metadata]
Title:Like Flames (TV Size)
TitleUnicode:Like Flames (TV Size)
Artist:MindaRyn
ArtistUnicode:MindaRyn
Creator:Nao Tomori
Version:Normal
Source:転生したらスライムだった件 第2期
Tags:tensei shitara datta ken that time i got reincarnated as a slime season two second 2nd cut version japanese english pop anime opening
BeatmapID:3100528
BeatmapSetID:1513687

[Difficulty]
HPDrainRate:4
CircleSize:3.6
OverallDifficulty:4
ApproachRate:6
SliderMultiplier:0.96
SliderTickRate:1

[Events]
//Background and Video events
0,0,"tensura bg.jpg",0,0
//Break Periods
//Storyboard Layer 0 (Background)
//Storyboard Layer 1 (Fail)
//Storyboard Layer 2 (Pass)
//Storyboard Layer 3 (Foreground)
//Storyboard Layer 4 (Overlay)
//Storyboard Sound Samples

[TimingPoints]
1535,342.857142857143,4,2,1,44,1,0
1535,-111.111111111111,4,2,1,44,0,0
2135,-100,4,2,1,44,0,0
4192,-100,4,2,1,54,0,0
20392,-74.0740740740741,4,2,1,54,0,0
20735,-111.111111111111,4,2,1,44,0,0
23135,-111.111111111111,4,2,1,44,0,0
25106,-111.111111111111,4,2,1,54,0,0
30677,-100,4,2,1,54,0,0
57763,-90.9090909090909,4,2,1,64,0,0
59135,-86.9565217391304,4,2,1,64,0,1
80735,-100,4,2,1,64,0,1
81077,-86.9565217391304,4,2,1,64,0,1
82792,-100,4,2,1,64,0,1
88277,-100,4,2,1,64,0,0
88363,-100,4,2,1,54,0,0

[Colours]
Combo1 : 147,236,121
Combo2 : 248,116,116
Combo3 : 165,225,252
Combo4 : 192,150,224

[HitObjects]
62,150,1535,6,0,L|57:89,2,43.1999986816407,0|0|8,3:2|3:2|2:2,0:0:0:0:
62,150,2563,1,8,2:2:0:0:
62,150,3249,1,8,2:2:0:0:
62,150,3935,1,8,2:2:0:0:
139,220,4277,6,0,P|171:228|228:204,1,96,8|8,2:2|2:2,0:0:0:0:
268,171,4792,2,0,P|309:148|356:155,1,96,0|0,1:2|1:2,0:0:0:0:
398,187,5306,1,8,2:3:0:0:
357,288,5649,1,8,2:2:0:0:
357,288,5820,1,8,2:2:0:0:
357,288,5992,1,8,2:2:0:0:
432,361,6335,2,0,L|487:367,2,48,8|8|6,2:2|2:3|3:2,0:0:0:0:
357,288,7020,6,0,P|311:294|259:318,1,96,6|8,3:2|2:2,0:0:0:0:
216,294,7535,2,0,P|183:283|113:266,1,96,2|2,2:2|2:2,0:0:0:0:
74,288,8049,1,8,2:2:0:0:
74,288,8220,1,2,2:2:0:0:
17,198,8563,1,2,2:2:0:0:
17,198,8735,2,0,P|22:154|24:98,1,96,10|2,2:2|3:2,0:0:0:0:
7,52,9249,1,2,2:2:0:0:
7,52,9420,1,8,2:2:0:0:
107,19,9763,6,0,P|147:23|169:84,1,96,6|8,3:2|2:2,0:0:0:0:
165,121,10277,2,0,P|155:150|189:207,1,96,2|0,2:2|2:2,0:0:0:0:
236,211,10792,2,0,P|286:203|338:196,1,96,8|0,2:2|2:2,0:0:0:0:
377,222,11306,1,12,2:2:0:0:
377,222,11477,1,12,2:2:0:0:
461,158,11820,2,0,L|516:169,2,48,8|8|8,2:2|2:3|2:2,0:0:0:0:
403,68,12506,6,0,B|355:59|355:59|308:81,1,96,6|8,3:2|2:2,0:0:0:0:
266,105,13020,2,0,P|228:121|158:99,1,96,2|2,2:2|2:2,0:0:0:0:
128,86,13535,1,10,2:2:0:0:
128,86,13706,1,2,0:0:0:0:
48,155,14049,2,0,L|-16:171,2,48,0|10|0,3:2|2:2|2:2,0:0:0:0:
89,188,14563,1,2,3:2:0:0:
49,285,14906,1,10,2:2:0:0:
133,348,15249,6,0,P|206:330|244:317,1,96,6|8,3:2|2:2,0:0:0:0:
270,294,15763,2,0,P|291:321|363:311,1,96,0|0,3:2|3:2,0:0:0:0:
389,288,16277,1,8,2:2:0:0:
389,288,16449,1,0,3:2:0:0:
331,199,16792,1,8,2:2:0:0:
331,199,16963,2,0,P|337:140|346:95,1,96,2|0,3:2|3:2,0:0:0:0:
389,76,17477,1,8,2:2:0:0:
389,76,17649,1,0,3:2:0:0:
491,99,17992,6,0,P|499:146|503:194,1,96,6|8,3:2|2:2,0:0:0:0:
497,246,18506,2,0,P|456:260|412:298,1,96,2|8,2:2|2:2,0:0:0:0:
399,343,19020,2,0,B|280:326|280:326|234:226|234:226|74:197,1,384,8|14,2:2|2:2,0:0:0:0:
29,296,20735,6,0,P|20:337|17:358,2,43.1999986816407,6|0|8,3:2|3:2|2:2,0:0:0:0:
41,307,21763,1,8,2:2:0:0:
41,307,22449,1,8,2:2:0:0:
41,307,23135,6,0,P|77:324|134:316,1,86.3999973632813,8|0,2:2|3:2,0:0:0:0:
175,244,23820,1,8,2:2:0:0:
175,244,24506,1,8,2:2:0:0:
175,244,25192,2,0,P|232:211|294:225,1,129.599996044922,8|0,2:2|3:2,0:0:0:0:
327,254,25877,1,8,2:2:0:0:
422,253,26220,6,0,P|432:284|440:306,2,43.1999986816407,4|0|8,3:2|3:2|2:2,0:0:0:0:
429,261,27249,1,8,2:2:0:0:
429,261,27935,2,0,P|439:213|464:116,1,129.599996044922,8|0,2:2|3:2,0:0:0:0:
486,96,28620,1,8,2:2:0:0:
424,24,28963,5,6,3:2:0:0:
428,28,30506,5,0,3:2:0:0:
428,28,30677,2,0,P|412:56|337:73,1,96,8|8,2:2|2:2,0:0:0:0:
258,31,31363,1,8,2:2:0:0:
158,66,31706,6,0,P|119:71|77:128,1,96,6|8,3:2|2:2,0:0:0:0:
125,208,32392,1,0,3:2:0:0:
215,152,32735,2,0,B|282:143|278:184|354:185,1,144,8|0,2:2|3:2,0:0:0:0:
397,157,33420,1,8,2:2:0:0:
488,209,33763,2,0,P|510:250|503:306,1,96,0|8,3:2|2:2,0:0:0:0:
407,337,34449,6,0,B|364:356|364:356|303:336,1,96,6|8,3:2|2:2,0:0:0:0:
272,313,34963,2,0,L|282:206,1,96,2|0,2:2|3:2,0:0:0:0:
251,173,35477,2,0,P|230:137|292:56,1,144,8|0,2:2|3:2,0:0:0:0:
323,85,36163,1,8,2:2:0:0:
409,24,36506,1,0,3:2:0:0:
409,24,36677,2,0,B|456:14|456:14|502:49,1,96,2|2,3:2|2:2,0:0:0:0:
510,93,37192,6,0,L|495:202,1,96,4|8,3:2|2:2,0:0:0:0:
428,268,37877,1,0,3:2:0:0:
428,268,38049,1,0,3:2:0:0:
354,191,38392,2,0,L|246:211,1,96,2|2,0:0|3:2,0:0:0:0:
181,137,39077,2,0,P|119:132|91:213,1,144,2|8,0:0|2:2,0:0:0:0:
124,233,39763,1,0,3:2:0:0:
124,233,39935,6,0,B|181:245|181:245|208:289|208:289|306:308,1,192,6|0,3:2|3:2,0:0:0:0:
377,247,40963,1,8,2:2:0:0:
377,247,41135,2,0,L|354:142,1,96,6|0,3:2|3:2,0:0:0:0:
372,102,41649,1,8,2:2:0:0:
473,132,41992,2,0,L|467:191,1,48,0|0,3:2|3:3,0:0:0:0:
488,228,42335,2,0,L|503:291,1,48,8|4,2:3|2:3,0:0:0:0:
493,327,42677,6,0,P|444:351|400:329,1,96,6|8,3:2|2:2,0:0:0:0:
374,296,43192,1,2,2:2:0:0:
301,372,43535,1,2,2:2:0:0:
204,330,43877,2,0,L|210:186,1,144,2|8,2:2|2:2,0:0:0:0:
173,147,44563,1,0,0:0:0:0:
173,147,44735,2,0,P|137:163|76:179,1,96,2|8,3:2|2:2,0:0:0:0:
0,245,45420,6,0,P|41:275|85:310,1,96,0|8,3:2|2:2,0:0:0:0:
169,349,46106,1,2,3:2:0:0:
260,297,46449,1,8,2:2:0:0:
260,297,46620,1,2,2:2:0:0:
354,344,46963,2,0,P|396:358|441:335,1,96,2|2,2:2|2:2,0:0:0:0:
492,243,47649,2,0,L|474:146,1,96,2|8,2:2|2:2,0:0:0:0:
504,104,48163,6,0,B|512:44|471:14|471:14|414:31,1,144,6|2,3:2|2:2,0:0:0:0:
341,83,49020,1,2,2:2:0:0:
248,30,49363,2,0,P|187:57|143:62,1,96,2|0,2:2|2:2,0:0:0:0:
106,49,49877,1,8,2:2:0:0:
37,129,50220,2,0,L|52:236,1,96,2|8,3:2|2:2,0:0:0:0:
89,259,50735,1,2,2:2:0:0:
89,259,50906,6,0,B|133:262|182:211|242:208,1,144,6|0,3:2|0:0,0:0:0:0:
272,229,51592,1,0,3:2:0:0:
355,164,51935,1,8,2:2:0:0:
355,164,52106,1,10,2:2:0:0:
438,228,52449,1,12,2:2:0:0:
440,333,52792,2,0,P|423:358|402:370,1,48,2|8,3:2|2:2,0:0:0:0:
360,343,53135,2,0,P|322:347|264:314,1,96,8|4,2:2|2:3,0:0:0:0:
236,281,53649,6,0,L|85:313,1,144,6|2,3:2|2:2,0:0:0:0:
11,246,54506,1,2,2:2:0:0:
92,178,54849,1,0,0:0:0:0:
92,178,55020,2,0,P|84:123|67:75,1,96,2|10,3:2|2:2,0:0:0:0:
105,43,55535,2,0,P|138:68|254:74,1,144,0|4,3:2|2:3,0:0:0:0:
332,34,56392,5,10,2:2:0:0:
332,34,56563,1,8,2:2:0:0:
332,34,56735,1,8,2:2:0:0:
507,123,57763,6,0,P|451:120|398:218,1,158.400004833985,6|0,3:2|3:3,0:0:0:0:
432,241,58449,2,0,B|446:262|460:278|460:278|445:345,1,105.600003222656,0|8,3:2|2:2,0:0:0:0:
329,366,59135,5,6,3:2:0:0:
329,366,59306,2,0,B|287:352|283:337|217:316,1,110.400002105713,2|0,2:2|2:2,0:0:0:0:
172,343,59820,1,2,3:2:0:0:
54,310,60163,1,8,2:2:0:0:
54,310,60335,2,0,P|66:281|80:201,1,110.400002105713,2|0,2:2|2:2,0:0:0:0:
55,147,60849,1,8,2:2:0:0:
11,33,61192,1,2,3:2:0:0:
130,9,61535,2,0,L|249:20,1,110.400002105713,10|0,2:2|3:2,0:0:0:0:
331,98,62220,6,0,P|360:112|435:66,1,110.400002105713,10|0,2:2|3:2,0:0:0:0:
460,31,62735,2,0,L|474:152,1,110.400002105713,2|0,3:2|2:2,0:0:0:0:
493,197,63249,1,2,3:2:0:0:
394,268,63592,1,8,2:2:0:0:
293,199,63935,2,0,B|240:179|240:179|189:207,1,110.400002105713,2|8,3:2|2:2,0:0:0:0:
75,211,64620,5,6,3:2:0:0:
75,211,64792,2,0,P|93:278|108:335,1,110.400002105713,2|0,3:2|2:2,0:0:0:0:
123,375,65306,1,2,3:2:0:0:
233,324,65649,1,8,2:2:0:0:
233,324,65820,2,0,P|275:332|365:351,1,110.400002105713,2|0,2:2|2:2,0:0:0:0:
397,321,66335,1,8,2:2:0:0:
341,213,66677,1,2,3:2:0:0:
433,134,67020,2,0,P|449:103|431:25,2,110.400002105713,10|0|8,2:2|3:2|2:2,0:0:0:0:
330,68,68049,5,2,3:2:0:0:
222,124,68392,1,10,2:2:0:0:
135,39,68735,1,2,3:2:0:0:
42,116,69077,2,0,P|29:163|28:172,1,55.2000010528565,8|8,2:3|2:3,0:0:0:0:
61,220,69420,2,0,P|78:266|83:296,1,55.2000010528565,4|4,2:3|2:3,0:0:0:0:
61,330,69763,2,0,P|104:323|166:358,1,110.400002105713,14|6,2:2|3:2,0:0:0:0:
273,304,70449,6,0,P|260:244|253:193,1,110.400002105713,10|8,2:2|2:2,0:0:0:0:
223,142,70963,2,0,P|239:87|271:26,1,110.400002105713,2|0,3:2|3:2,0:0:0:0:
322,47,71477,2,0,B|342:59|365:69|365:69|397:52|440:45,1,110.400002105713,10|8,2:2|2:2,0:0:0:0:
472,84,71992,2,0,B|493:119|497:143|497:143|459:165|453:182,1,110.400002105713,2|0,3:2|3:2,0:0:0:0:
442,228,72506,1,10,2:2:0:0:
491,338,72849,5,8,2:2:0:0:
373,367,73192,1,8,2:2:0:0:
297,271,73535,1,8,2:2:0:0:
179,300,73878,1,8,2:2:0:0:
79,231,74220,2,0,P|82:187|133:144,1,110.400002105713,10|12,2:2|2:2,0:0:0:0:
163,94,74735,2,0,P|206:131|262:121,1,110.400002105713,0|8,2:2|2:2,0:0:0:0:
297,79,75249,2,0,L|294:18,2,55.2000010528565,8|4|6,2:3|0:3|3:2,0:0:0:0:
409,126,75935,6,0,P|433:166|420:236,1,110.400002105713,10|0,2:2|3:2,0:0:0:0:
391,278,76449,1,2,3:2:0:0:
279,250,76792,1,2,0:0:0:0:
279,250,76963,2,0,B|249:223|249:223|154:236,1,110.400002105713,2|8,3:2|2:2,0:0:0:0:
138,187,77477,2,0,P|95:190|51:257,1,110.400002105713,0|0,0:0|3:2,0:0:0:0:
78,294,77992,1,10,2:2:0:0:
190,340,78335,5,6,3:2:0:0:
295,280,78677,2,0,L|404:306,1,110.400002105713,8|0,2:2|3:2,0:0:0:0:
445,349,79192,1,0,3:2:0:0:
445,349,79363,1,8,2:2:0:0:
501,241,79706,1,2,3:2:0:0:
501,241,79877,2,0,B|498:220|506:186|506:186|460:135,1,110.400002105713,12|0,2:2|3:2,0:0:0:0:
425,102,80392,1,10,2:2:0:0:
337,161,80735,1,4,2:3:0:0:
215,155,81077,6,0,L|204:38,1,110.400002105713,6|6,3:2|3:2,0:0:0:0:
151,15,81592,1,0,3:2:0:0:
151,15,81763,2,0,P|101:1|48:52,1,110.400002105713,12|2,2:2|3:2,0:0:0:0:
11,145,82449,2,0,P|25:183|29:212,1,55.2000010528565,4|8,2:2|2:2,0:0:0:0:
71,227,82792,2,0,P|54:268|52:284,1,48,0|0,3:2|3:2,0:0:0:0:
73,320,83135,2,0,B|113:328|113:328|127:337|127:337|181:348,1,96,10|2,2:2|3:2,0:0:0:0:
249,281,83820,5,6,3:2:0:0:
192,191,84163,1,2,3:2:0:0:
230,92,84506,1,14,2:2:0:0:
334,75,84849,1,0,3:2:0:0:
425,127,85192,2,0,B|441:165|441:165|430:206|422:271,1,144,6|8,2:2|2:2,0:0:0:0:
448,311,85877,1,8,2:2:0:0:
351,354,86220,1,4,2:3:0:0:
351,354,86392,1,4,2:3:0:0:
351,354,86563,6,0,B|271:350|300:293|208:303,2,144,6|6|6,3:2|3:2|3:2,0:0:0:0:
431,284,87935,2,0,P|422:232|420:224,1,48,4|8,2:3|2:3,0:0:0:0:
458,197,88277,2,0,P|449:157|417:56,1,144,8|0,2:2|3:2,0:0:0:0:
382,19,88963,1,8,2:2:0:0:
308,94,89306,6,0,P|272:111|211:93,1,96,6|8,3:2|2:2,0:0:0:0:
173,71,89820,2,0,P|137:54|76:72,1,96,2|2,2:2|2:2,0:0:0:0:
42,98,90335,1,10,2:2:0:0:
42,98,90506,1,2,2:2:0:0:
97,188,90849,1,2,3:2:0:0:
97,188,91020,2,0,P|89:253|90:296,1,96,10|2,2:2|3:2,0:0:0:0:
110,332,91535,1,0,2:2:0:0:
110,332,91706,1,8,2:2:0:0:
201,279,92049,6,0,P|243:276|310:289,1,96,6|8,3:2|2:2,0:0:0:0:
336,318,92563,2,0,P|379:304|435:292,1,96,2|2,2:2|2:2,0:0:0:0:
472,263,93077,1,8,2:2:0:0:
407,179,93420,1,0,3:2:0:0:
407,179,93592,1,12,2:2:0:0:
407,179,93763,2,0,P|396:138|386:71,1,96,14|8,2:2|2:2,0:0:0:0:
398,33,94277,1,8,2:3:0:0:
398,33,94449,1,6,3:2:0:0:
295,8,94792,6,0,P|249:11|211:55,1,96,6|8,3:2|2:2,0:0:0:0:
185,88,95306,2,0,L|210:184,1,96,2|2,2:2|2:2,0:0:0:0:
254,208,95820,2,0,P|247:245|234:319,1,96,8|0,2:2|3:2,0:0:0:0:
252,358,96335,1,2,2:2:0:0:
252,358,96506,1,10,2:2:0:0:
148,338,96849,2,0,P|124:340|86:347,2,48,2|0|8,3:2|3:2|2:2,0:0:0:0:
155,232,97535,5,6,3:2:0:0:
89,149,97877,2,0,P|86:111|144:73,1,96,10|8,2:2|2:2,0:0:0:0:
174,52,98392,2,0,P|215:89|263:84,1,96,2|0,3:2|3:2,0:0:0:0:
298,61,98906,1,10,2:2:0:0:
381,125,99249,1,10,2:2:0:0:
456,51,99592,2,0,P|470:83|477:155,1,96,2|0,3:2|3:2,0:0:0:0:
499,191,100106,1,8,2:2:0:0:
499,191,100277,6,0,P|480:238|476:287,1,96,6|8,3:2|2:2,0:0:0:0:
443,325,100792,2,0,P|388:304|337:287,1,96,2|2,2:2|2:2,0:0:0:0:
301,306,101306,2,0,P|264:324|194:336,1,96,8|0,2:2|3:2,0:0:0:0:
116,286,101992,1,8,2:2:0:0:
183,204,102335,2,0,P|219:224|242:236,2,48,2|0|10,3:2|2:2|2:2,0:0:0:0:
168,99,103020,6,0,P|131:89|75:129,1,96,6|8,3:2|2:2,0:0:0:0:
36,141,103535,2,0,P|25:178|34:240,1,96,2|0,2:2|3:2,0:0:0:0:
65,275,104049,1,10,2:2:0:0:
217,232,104563,1,12,2:2:0:0:
217,232,104735,1,12,2:2:0:0:
302,293,105077,1,8,2:3:0:0:
302,293,105249,1,4,2:3:0:0:
302,293,105420,1,12,2:2:0:0:
328,190,105763,6,0,P|372:178|421:181,1,96,6|8,3:2|2:2,0:0:0:0:
450,225,106277,2,0,P|462:269|459:318,1,96,2|2,2:2|2:2,0:0:0:0:
429,363,106792,1,10,2:2:0:0:
429,363,106963,1,2,0:0:0:0:
331,321,107306,1,2,2:2:0:0:
331,321,107477,2,0,P|286:339|231:359,1,96,8|10,2:2|2:2,0:0:0:0:
194,329,107992,1,8,2:2:0:0:
194,329,108163,1,8,2:3:0:0:
94,365,108506,5,6,3:2:0:0:
