osu file format v14

[General]
AudioFilename: audio.mp3
AudioLeadIn: 0
PreviewTime: 58161
Countdown: 0
SampleSet: Soft
StackLeniency: 0.7
Mode: 3
LetterboxInBreaks: 0
SpecialStyle: 0
WidescreenStoryboard: 0

[Editor]
DistanceSpacing: 1.3
BeatDivisor: 4
GridSize: 16
TimelineZoom: 2.4

[Metadata]
Title:Like Flames (TV Size)
TitleUnicode:Like Flames (TV Size)
Artist:MindaRyn
ArtistUnicode:MindaRyn
Creator:LuxSayaka
Version:Tempest
Source:転生したらスライムだった件 第2期
Tags:LLENN- Takodachi- hikikuman si35 Sies Xyzeria-sama Kanon Matsubara tensei shitara datta ken that time i got reincarnated as a slime season two second 2nd part japanese rock english sachiko 小山 寿 anime opening jrock j-rock LACM-24139
BeatmapID:3189310
BeatmapSetID:1561624

[Difficulty]
HPDrainRate:8
CircleSize:4
OverallDifficulty:8
ApproachRate:5
SliderMultiplier:1.4
SliderTickRate:1

[Events]
//Background and Video events
Video,-9,"video.mp4"
0,0,"Rimuru.jpg",0,0
//Break Periods
//Storyboard Layer 0 (Background)
//Storyboard Layer 1 (Fail)
//Storyboard Layer 2 (Pass)
//Storyboard Layer 3 (Foreground)
//Storyboard Layer 4 (Overlay)
//Storyboard Sound Samples

[TimingPoints]
561,342.857142857143,4,2,1,50,1,0
3303,-100,4,2,1,40,0,0
4675,-100,4,2,1,50,0,0
6046,-100,4,2,1,60,0,0
19761,-100,4,2,1,50,0,0
30732,-100,4,2,1,55,0,0
55418,-100,4,2,1,50,0,0
58161,-100,4,2,1,65,0,1
69132,-100,4,2,1,60,0,0
80103,-100,4,2,1,55,0,0
85589,-100,4,2,1,50,0,0

[HitObjects]
320,192,561,5,2,0:0:0:0:
448,192,561,1,0,0:0:0:0:
320,192,732,1,2,0:0:0:0:
448,192,732,1,0,0:0:0:0:
64,192,903,128,8,1075:0:0:0:0:
192,192,903,1,0,0:0:0:0:
448,192,903,1,0,0:0:0:0:
320,192,1075,128,0,1246:0:0:0:0:
192,192,1246,128,0,1418:0:0:0:0:
448,192,1418,128,0,1589:0:0:0:0:
64,192,1589,128,8,1932:0:0:0:0:
192,192,1589,1,0,0:0:0:0:
320,192,1589,1,0,0:0:0:0:
192,192,1761,128,0,1932:0:0:0:0:
448,192,1932,1,0,0:0:0:0:
320,192,2103,128,0,2275:0:0:0:0:
64,192,2275,1,8,0:0:0:0:
192,192,2275,1,0,0:0:0:0:
448,192,2275,128,0,2446:0:0:0:0:
64,192,2446,128,0,2618:0:0:0:0:
320,192,2618,128,0,2789:0:0:0:0:
192,192,2789,128,0,2961:0:0:0:0:
64,192,2961,128,8,3303:0:0:0:0:
320,192,2961,1,0,0:0:0:60:Hat open.wav
448,192,2961,1,0,0:0:0:0:
320,192,3303,1,2,0:0:0:0:
448,192,3303,1,8,0:0:0:0:
192,192,3389,1,8,0:0:0:0:
64,192,3475,1,8,0:0:0:0:
448,192,3475,1,0,0:0:0:0:
320,192,3561,1,8,0:0:0:0:
64,192,3646,1,8,0:0:0:0:
192,192,3646,1,2,0:0:0:0:
320,192,3732,1,8,0:0:0:0:
64,192,3818,1,8,0:0:0:0:
448,192,3818,1,0,0:0:0:0:
192,192,3903,1,8,0:0:0:0:
320,192,3989,1,8,0:0:0:0:
448,192,3989,1,2,0:0:0:0:
192,192,4075,1,8,0:0:0:0:
64,192,4161,1,8,0:0:0:0:
448,192,4161,1,0,0:0:0:0:
320,192,4246,1,8,0:0:0:0:
64,192,4332,1,2,0:0:0:0:
192,192,4332,1,0,0:0:0:40:Tom1.wav
320,192,4418,1,0,0:0:0:50:Tom2.wav
448,192,4503,1,0,0:0:0:50:Tom3.wav
192,192,4589,1,2,0:0:0:0:
64,192,4675,128,8,4761:0:0:0:0:
320,192,4675,128,0,4761:0:0:0:50:Tom3.wav
448,192,4675,128,0,4761:0:0:0:0:
64,192,4846,128,8,4932:0:0:0:0:
320,192,4846,128,0,4932:0:0:0:50:Tom3.wav
448,192,4846,128,0,4932:0:0:0:0:
64,192,5018,128,8,5103:0:0:0:0:
320,192,5018,128,0,5103:0:0:0:50:Tom3.wav
448,192,5018,128,0,5103:0:0:0:0:
64,192,5361,1,8,0:0:0:0:
448,192,5361,1,0,0:0:0:0:
192,192,5446,1,0,0:0:0:40:Tom1.wav
320,192,5532,1,0,0:0:0:50:Tom2.wav
192,192,5618,1,2,0:0:0:0:
64,192,5703,128,8,6046:0:0:0:0:
320,192,5703,1,0,0:0:0:60:Crash 2.wav
448,192,5703,1,0,0:0:0:0:
192,192,6046,1,2,0:0:0:0:
320,192,6046,1,4,0:0:0:0:
448,192,6046,1,0,0:0:0:0:
320,192,6218,1,0,0:0:0:0:
64,192,6389,1,8,0:0:0:0:
192,192,6389,1,0,0:0:0:60:Hat open.wav
448,192,6389,1,0,0:0:0:0:
192,192,6561,128,0,6732:0:0:0:0:
320,192,6732,1,2,0:0:0:0:
448,192,6732,1,0,0:0:0:60:Hat open.wav
64,192,6903,1,2,0:0:0:0:
192,192,6903,1,0,0:0:0:0:
64,192,7075,1,8,0:0:0:0:
320,192,7075,1,0,0:0:0:60:Hat open.wav
448,192,7075,128,0,7246:0:0:0:0:
192,192,7246,128,0,7418:0:0:0:0:
320,192,7418,1,0,0:0:0:60:Hat open.wav
64,192,7589,1,2,0:0:0:0:
448,192,7589,1,0,0:0:0:0:
192,192,7761,1,8,0:0:0:0:
320,192,7761,1,0,0:0:0:60:Hat open.wav
448,192,7761,1,0,0:0:0:0:
64,192,7932,1,0,0:0:0:0:
320,192,8103,1,2,0:0:0:0:
448,192,8103,128,0,8275:0:0:0:60:Hat open.wav
64,192,8275,1,2,0:0:0:0:
192,192,8275,128,0,8446:0:0:0:0:
64,192,8446,128,8,8789:0:0:0:0:
320,192,8446,1,0,0:0:0:60:Hat open.wav
448,192,8446,1,0,0:0:0:0:
192,192,8789,1,2,0:0:0:0:
320,192,8789,1,4,0:0:0:0:
448,192,8789,1,0,0:0:0:0:
320,192,8961,1,0,0:0:0:0:
64,192,9132,1,8,0:0:0:0:
192,192,9132,1,0,0:0:0:60:Hat open.wav
448,192,9132,1,0,0:0:0:0:
64,192,9303,128,0,9475:0:0:0:0:
320,192,9475,1,2,0:0:0:0:
448,192,9475,1,0,0:0:0:60:Hat open.wav
64,192,9646,1,2,0:0:0:0:
192,192,9646,1,0,0:0:0:0:
64,192,9818,1,8,0:0:0:0:
320,192,9818,128,0,9989:0:0:0:60:Hat open.wav
448,192,9818,1,0,0:0:0:0:
192,192,9989,128,0,10161:0:0:0:50:Hat open.wav
320,192,10161,1,2,0:0:0:0:
448,192,10161,1,0,0:0:0:0:
64,192,10332,1,8,0:0:0:0:
192,192,10332,1,0,0:0:0:60:Crash 2.wav
448,192,10332,1,0,0:0:0:0:
64,192,10503,1,8,0:0:0:0:
192,192,10503,1,0,0:0:0:60:Crash 2.wav
448,192,10503,1,0,0:0:0:0:
192,192,10675,1,2,0:0:0:0:
320,192,10675,1,0,0:0:0:0:
64,192,10846,1,8,0:0:0:0:
320,192,10846,1,0,0:0:0:0:
448,192,10846,1,0,0:0:0:0:
192,192,10932,1,0,0:0:0:40:Tom1.wav
320,192,11018,1,0,0:0:0:50:Tom2.wav
192,192,11103,1,0,0:0:0:50:Tom3.wav
64,192,11189,1,8,0:0:0:0:
448,192,11189,1,2,0:0:0:0:
192,192,11361,1,8,0:0:0:0:
448,192,11361,1,0,0:0:0:0:
320,192,11446,1,8,0:0:0:0:
64,192,11532,1,2,0:0:0:0:
192,192,11532,1,4,0:0:0:0:
448,192,11532,1,0,0:0:0:0:
192,192,11703,1,0,0:0:0:0:
64,192,11875,1,8,0:0:0:0:
320,192,11875,1,0,0:0:0:60:Hat open.wav
448,192,11875,1,0,0:0:0:0:
448,192,12046,128,0,12218:0:0:0:0:
64,192,12218,1,2,0:0:0:0:
192,192,12218,1,0,0:0:0:60:Hat open.wav
320,192,12389,1,2,0:0:0:0:
448,192,12389,1,0,0:0:0:0:
64,192,12561,128,8,12732:0:0:0:0:
192,192,12561,1,0,0:0:0:60:Hat open.wav
448,192,12561,1,0,0:0:0:0:
320,192,12732,128,0,12903:0:0:0:0:
192,192,12903,1,0,0:0:0:60:Hat open.wav
64,192,13075,1,2,0:0:0:0:
320,192,13075,1,0,0:0:0:0:
192,192,13161,1,2,0:0:0:0:
64,192,13246,1,8,0:0:0:0:
320,192,13246,1,0,0:0:0:60:Hat open.wav
448,192,13246,1,0,0:0:0:0:
192,192,13418,1,0,0:0:0:0:
64,192,13589,1,2,0:0:0:0:
448,192,13589,128,0,13761:0:0:0:60:Hat open.wav
192,192,13761,128,2,13932:0:0:0:0:
320,192,13761,1,0,0:0:0:0:
64,192,13932,128,8,14275:0:0:0:0:
320,192,13932,1,0,0:0:0:60:Hat open.wav
448,192,13932,1,0,0:0:0:0:
192,192,14275,1,2,0:0:0:0:
320,192,14275,1,4,0:0:0:0:
448,192,14275,1,0,0:0:0:0:
64,192,14446,1,2,0:0:0:0:
320,192,14446,1,0,0:0:0:0:
64,192,14618,1,8,0:0:0:0:
192,192,14618,1,0,0:0:0:60:Hat open.wav
448,192,14618,1,0,0:0:0:0:
320,192,14789,1,2,0:0:0:0:
192,192,14875,1,2,0:0:0:0:
64,192,14961,1,8,0:0:0:0:
320,192,14961,1,0,0:0:0:60:Hat open.wav
448,192,14961,1,0,0:0:0:0:
192,192,15132,1,2,0:0:0:0:
320,192,15218,1,2,0:0:0:0:
64,192,15303,1,8,0:0:0:0:
192,192,15303,1,0,0:0:0:60:Hat open.wav
448,192,15303,1,0,0:0:0:0:
320,192,15475,1,2,0:0:0:0:
192,192,15561,1,2,0:0:0:0:
64,192,15646,1,8,0:0:0:0:
320,192,15646,1,0,0:0:0:60:Hat open.wav
448,192,15646,1,0,0:0:0:0:
64,192,15818,1,8,0:0:0:0:
192,192,15818,1,0,0:0:0:0:
320,192,15903,1,8,0:0:0:0:
448,192,15903,1,0,0:0:0:0:
64,192,15989,1,8,0:0:0:0:
192,192,15989,1,0,0:0:0:0:
192,192,16161,1,2,0:0:0:0:
320,192,16161,1,0,0:0:0:60:Hat open.wav
320,192,16332,1,8,0:0:0:0:
448,192,16332,1,0,0:0:0:0:
64,192,16418,1,8,0:0:0:0:
192,192,16418,1,0,0:0:0:0:
320,192,16503,1,8,0:0:0:0:
448,192,16503,1,0,0:0:0:0:
64,192,16675,1,2,0:0:0:0:
448,192,16675,1,0,0:0:0:60:Hat open.wav
64,192,16846,1,8,0:0:0:0:
192,192,16846,1,0,0:0:0:0:
320,192,16932,1,8,0:0:0:0:
64,192,17018,1,2,0:0:0:0:
192,192,17018,1,4,0:0:0:0:
448,192,17018,128,0,17361:0:0:0:0:
64,192,17361,1,8,0:0:0:0:
192,192,17361,1,2,0:0:0:0:
320,192,17532,1,0,0:0:0:20:Ride.wav
64,192,17703,1,2,0:0:0:0:
192,192,17703,1,8,0:0:0:0:
448,192,17703,1,0,0:0:0:0:
320,192,17875,1,0,0:0:0:20:Ride.wav
64,192,17961,1,8,0:0:0:0:
192,192,17961,1,0,0:0:0:0:
320,192,18046,1,2,0:0:0:0:
448,192,18046,1,0,0:0:0:0:
64,192,18218,1,8,0:0:0:0:
192,192,18218,1,0,0:0:0:20:Ride.wav
448,192,18218,1,0,0:0:0:0:
64,192,18389,1,2,0:0:0:0:
320,192,18389,1,0,0:0:0:0:
192,192,18475,1,8,0:0:0:0:
448,192,18475,1,0,0:0:0:0:
320,192,18561,1,0,0:0:0:20:Ride.wav
64,192,18732,1,8,0:0:0:0:
192,192,18732,1,2,0:0:0:0:
448,192,18732,1,0,0:0:0:0:
320,192,18903,1,0,0:0:0:20:Ride.wav
64,192,18989,1,8,0:0:0:0:
192,192,18989,1,0,0:0:0:0:
320,192,19075,1,8,0:0:0:0:
448,192,19075,1,0,0:0:0:0:
192,192,19161,1,0,0:0:0:40:Tom1.wav
64,192,19246,1,0,0:0:0:50:Tom2.wav
320,192,19332,1,2,0:0:0:0:
64,192,19418,1,8,0:0:0:0:
192,192,19418,1,0,0:0:0:60:Crash 2.wav
448,192,19418,1,0,0:0:0:0:
64,192,19761,1,2,0:0:0:0:
320,192,19761,1,4,0:0:0:0:
448,192,19761,1,0,0:0:0:0:
192,192,19932,1,2,0:0:0:0:
320,192,19932,128,0,20103:0:0:0:0:
64,192,20103,1,8,0:0:0:0:
192,192,20103,1,0,0:0:0:0:
448,192,20103,1,0,0:0:0:0:
320,192,20275,1,0,0:0:0:0:
320,192,20446,128,0,20618:0:0:0:0:
64,192,20789,1,8,0:0:0:0:
320,192,20789,1,0,0:0:0:0:
448,192,20789,1,0,0:0:0:0:
320,192,20961,128,0,21132:0:0:0:0:
320,192,21303,1,0,0:0:0:0:
64,192,21475,1,8,0:0:0:0:
320,192,21475,128,0,21646:0:0:0:0:
448,192,21475,1,0,0:0:0:0:
192,192,21646,1,0,0:0:0:0:
320,192,21732,1,0,0:0:0:0:
64,192,21818,1,0,0:0:0:0:
64,192,21989,1,0,0:0:0:0:
64,192,22161,1,8,0:0:0:0:
320,192,22161,1,0,0:0:0:0:
448,192,22161,1,0,0:0:0:0:
192,192,22332,1,0,0:0:0:0:
320,192,22503,1,2,0:0:0:0:
448,192,22503,1,0,0:0:0:60:Hat open.wav
64,192,22675,1,2,0:0:0:0:
192,192,22675,128,0,22846:0:0:0:0:
64,192,22846,1,8,0:0:0:0:
320,192,22846,1,0,0:0:0:0:
448,192,22846,1,0,0:0:0:0:
192,192,23018,1,0,0:0:0:0:
192,192,23189,128,0,23361:0:0:0:0:
64,192,23532,1,8,0:0:0:0:
192,192,23532,1,0,0:0:0:0:
448,192,23532,1,0,0:0:0:0:
192,192,23703,128,0,23875:0:0:0:0:
320,192,23789,1,0,0:0:0:0:
448,192,23875,1,0,0:0:0:0:
448,192,24046,1,0,0:0:0:0:
64,192,24218,1,8,0:0:0:0:
320,192,24218,1,0,0:0:0:0:
448,192,24218,1,0,0:0:0:0:
192,192,24389,1,0,0:0:0:0:
448,192,24561,128,0,24732:0:0:0:0:
192,192,24732,1,2,0:0:0:0:
320,192,24732,1,0,0:0:0:60:Hat open.wav
64,192,24903,1,8,0:0:0:0:
320,192,24903,1,0,0:0:0:0:
448,192,24903,1,0,0:0:0:0:
64,192,25246,1,2,0:0:0:0:
192,192,25246,1,4,0:0:0:0:
448,192,25246,1,0,0:0:0:0:
192,192,25418,1,2,0:0:0:0:
320,192,25418,128,0,25589:0:0:0:0:
64,192,25589,1,8,0:0:0:0:
192,192,25589,1,0,0:0:0:0:
448,192,25589,1,0,0:0:0:0:
320,192,25761,1,0,0:0:0:0:
320,192,25932,128,0,26103:0:0:0:0:
64,192,26275,1,8,0:0:0:0:
320,192,26275,1,0,0:0:0:0:
448,192,26275,1,0,0:0:0:0:
320,192,26446,128,0,26618:0:0:0:0:
320,192,26789,1,0,0:0:0:0:
64,192,26961,1,8,0:0:0:0:
320,192,26961,128,0,27132:0:0:0:0:
448,192,26961,1,0,0:0:0:0:
192,192,27132,1,0,0:0:0:0:
320,192,27218,1,0,0:0:0:0:
448,192,27303,1,0,0:0:0:0:
64,192,27475,1,2,0:0:0:0:
192,192,27475,1,0,0:0:0:0:
64,192,27646,1,8,0:0:0:0:
320,192,27646,1,0,0:0:0:60:Hat open.wav
448,192,27646,1,0,0:0:0:0:
320,192,27818,1,0,0:0:0:0:
64,192,27989,1,2,0:0:0:0:
192,192,27989,128,0,28161:0:0:0:75:Crash Short.wav
448,192,27989,1,0,0:0:0:0:
320,192,28161,128,0,28332:0:0:0:0:
192,192,28503,128,0,28675:0:0:0:0:
320,192,28675,128,0,28846:0:0:0:0:
192,192,29018,128,0,29189:0:0:0:0:
320,192,29189,128,0,29361:0:0:0:0:
64,192,29532,1,2,0:0:0:0:
320,192,29532,1,0,0:0:0:0:
64,192,29703,1,8,0:0:0:0:
192,192,29703,1,0,0:0:0:60:Hat open.wav
448,192,29703,1,0,0:0:0:0:
320,192,29875,1,8,0:0:0:0:
448,192,29875,1,0,0:0:0:0:
64,192,29961,1,8,0:0:0:0:
192,192,29961,1,0,0:0:0:0:
320,192,30046,1,8,0:0:0:0:
448,192,30046,1,0,0:0:0:0:
192,192,30218,1,2,0:0:0:0:
448,192,30218,1,0,0:0:0:0:
320,192,30303,1,2,0:0:0:0:
64,192,30389,1,8,0:0:0:0:
192,192,30389,1,0,0:0:0:60:Hat open.wav
448,192,30389,1,0,0:0:0:0:
64,192,30561,1,8,0:0:0:0:
320,192,30561,1,0,0:0:0:0:
192,192,30646,1,8,0:0:0:0:
64,192,30732,1,2,0:0:0:0:
320,192,30732,1,4,0:0:0:0:
448,192,30732,1,0,0:0:0:0:
320,192,30903,1,0,0:0:0:0:
64,192,31075,1,8,0:0:0:0:
192,192,31075,1,0,0:0:0:60:Hat open.wav
448,192,31075,1,0,0:0:0:0:
192,192,31246,1,0,0:0:0:0:
320,192,31418,1,2,0:0:0:0:
448,192,31418,1,0,0:0:0:60:Hat open.wav
64,192,31589,1,2,0:0:0:0:
192,192,31589,1,0,0:0:0:0:
64,192,31761,1,8,0:0:0:0:
320,192,31761,1,0,0:0:0:60:Hat open.wav
448,192,31761,1,0,0:0:0:0:
448,192,31932,1,0,0:0:0:0:
192,192,32103,1,0,0:0:0:60:Hat open.wav
64,192,32275,1,2,0:0:0:0:
448,192,32275,1,0,0:0:0:0:
64,192,32446,1,8,0:0:0:0:
192,192,32446,1,0,0:0:0:60:Hat open.wav
320,192,32446,1,0,0:0:0:0:
448,192,32618,1,0,0:0:0:0:
64,192,32789,1,2,0:0:0:0:
192,192,32789,1,0,0:0:0:60:Hat open.wav
320,192,32961,1,2,0:0:0:0:
448,192,32961,1,0,0:0:0:0:
64,192,33132,1,8,0:0:0:0:
192,192,33132,1,0,0:0:0:60:Hat open.wav
448,192,33132,1,0,0:0:0:0:
192,192,33303,1,0,0:0:0:0:
64,192,33475,1,2,0:0:0:0:
320,192,33475,1,4,0:0:0:0:
448,192,33475,1,0,0:0:0:0:
320,192,33646,1,0,0:0:0:0:
64,192,33818,1,8,0:0:0:0:
192,192,33818,1,0,0:0:0:60:Hat open.wav
448,192,33818,1,0,0:0:0:0:
64,192,33989,1,0,0:0:0:0:
320,192,34161,1,2,0:0:0:0:
448,192,34161,1,0,0:0:0:60:Hat open.wav
64,192,34332,1,2,0:0:0:0:
192,192,34332,1,0,0:0:0:0:
64,192,34503,1,8,0:0:0:0:
320,192,34503,1,0,0:0:0:60:Hat open.wav
448,192,34503,1,0,0:0:0:0:
320,192,34675,1,0,0:0:0:0:
192,192,34846,1,0,0:0:0:60:Hat open.wav
64,192,35018,1,2,0:0:0:0:
448,192,35018,1,0,0:0:0:0:
192,192,35189,1,8,0:0:0:0:
320,192,35189,1,0,0:0:0:60:Hat open.wav
448,192,35189,1,0,0:0:0:0:
64,192,35361,1,0,0:0:0:0:
320,192,35446,1,8,0:0:0:0:
448,192,35446,1,0,0:0:0:0:
64,192,35532,1,2,0:0:0:0:
192,192,35532,1,0,0:0:0:60:Hat open.wav
320,192,35703,1,2,0:0:0:0:
448,192,35703,1,0,0:0:0:0:
64,192,35875,1,8,0:0:0:0:
192,192,35875,1,0,0:0:0:60:Hat open.wav
448,192,35875,1,0,0:0:0:0:
192,192,36046,1,0,0:0:0:0:
64,192,36218,1,2,0:0:0:0:
320,192,36218,1,4,0:0:0:0:
448,192,36218,1,0,0:0:0:0:
320,192,36389,1,0,0:0:0:0:
64,192,36561,1,8,0:0:0:0:
192,192,36561,1,0,0:0:0:60:Hat open.wav
448,192,36561,1,0,0:0:0:0:
448,192,36732,1,0,0:0:0:0:
64,192,36903,1,2,0:0:0:0:
192,192,36903,1,0,0:0:0:60:Hat open.wav
320,192,37075,1,2,0:0:0:0:
448,192,37075,1,0,0:0:0:0:
64,192,37246,1,8,0:0:0:0:
192,192,37246,1,0,0:0:0:60:Hat open.wav
448,192,37246,1,0,0:0:0:0:
64,192,37418,1,0,0:0:0:0:
320,192,37589,1,0,0:0:0:60:Hat open.wav
192,192,37761,1,2,0:0:0:0:
448,192,37761,1,0,0:0:0:0:
64,192,37932,1,8,0:0:0:0:
320,192,37932,1,0,0:0:0:60:Hat open.wav
448,192,37932,1,0,0:0:0:0:
320,192,38103,1,0,0:0:0:0:
192,192,38275,1,2,0:0:0:0:
448,192,38275,1,0,0:0:0:60:Hat open.wav
64,192,38446,1,2,0:0:0:0:
320,192,38446,1,0,0:0:0:0:
64,192,38618,1,8,0:0:0:0:
192,192,38618,1,0,0:0:0:60:Hat open.wav
448,192,38618,1,0,0:0:0:0:
320,192,38789,1,0,0:0:0:0:
64,192,38875,1,8,0:0:0:0:
192,192,38875,1,0,0:0:0:0:
320,192,38961,1,2,0:0:0:0:
448,192,38961,1,4,0:0:0:0:
192,192,39132,1,0,0:0:0:0:
64,192,39303,1,8,0:0:0:0:
192,192,39303,1,0,0:0:0:60:Hat open.wav
448,192,39303,1,0,0:0:0:0:
320,192,39475,1,0,0:0:0:0:
64,192,39646,1,2,0:0:0:0:
320,192,39646,1,0,0:0:0:60:Hat open.wav
192,192,39818,1,2,0:0:0:0:
448,192,39818,1,0,0:0:0:0:
64,192,39989,1,8,0:0:0:0:
320,192,39989,1,0,0:0:0:0:
448,192,39989,1,0,0:0:0:0:
64,192,40161,1,2,0:0:0:0:
192,192,40161,128,0,40503:0:0:0:60:Crash 2.wav
448,192,40161,1,0,0:0:0:0:
320,192,40503,1,2,0:0:0:0:
448,192,40503,1,0,0:0:0:0:
64,192,40675,1,8,0:0:0:0:
320,192,40675,1,0,0:0:0:60:Hat open.wav
448,192,40675,1,0,0:0:0:0:
192,192,40846,1,0,0:0:0:0:
320,192,40932,1,8,0:0:0:0:
448,192,40932,1,0,0:0:0:0:
64,192,41018,1,2,0:0:0:0:
192,192,41018,1,0,0:0:0:60:Hat open.wav
320,192,41189,1,0,0:0:0:40:Tom1.wav
192,192,41275,1,0,0:0:0:40:Tom1.wav
64,192,41361,1,8,0:0:0:0:
448,192,41361,1,0,0:0:0:0:
320,192,41446,1,0,0:0:0:50:Tom2.wav
192,192,41532,1,0,0:0:0:50:Tom2.wav
320,192,41618,1,0,0:0:0:50:Tom3.wav
64,192,41703,1,2,0:0:0:0:
192,192,41703,1,4,0:0:0:0:
448,192,41703,128,0,42046:0:0:0:0:
64,192,42046,1,8,0:0:0:0:
192,192,42046,1,0,0:0:0:60:Hat open.wav
320,192,42046,1,0,0:0:0:0:
192,192,42218,1,0,0:0:0:0:
64,192,42389,1,2,0:0:0:0:
448,192,42389,1,0,0:0:0:60:Hat open.wav
192,192,42561,1,2,0:0:0:0:
320,192,42561,1,0,0:0:0:0:
64,192,42732,1,8,0:0:0:0:
320,192,42732,1,0,0:0:0:60:Hat open.wav
448,192,42732,1,0,0:0:0:0:
192,192,42903,1,0,0:0:0:0:
320,192,43075,1,2,0:0:0:0:
448,192,43075,1,0,0:0:0:60:Hat open.wav
64,192,43246,1,2,0:0:0:0:
192,192,43246,1,0,0:0:0:0:
64,192,43418,1,8,0:0:0:0:
320,192,43418,1,0,0:0:0:60:Hat open.wav
448,192,43418,1,0,0:0:0:0:
320,192,43589,1,0,0:0:0:0:
64,192,43761,1,2,0:0:0:0:
192,192,43761,1,0,0:0:0:60:Hat open.wav
320,192,43932,1,2,0:0:0:0:
448,192,43932,1,0,0:0:0:0:
64,192,44103,1,8,0:0:0:0:
192,192,44103,1,0,0:0:0:60:Hat open.wav
448,192,44103,1,0,0:0:0:0:
320,192,44275,1,0,0:0:0:0:
64,192,44361,1,8,0:0:0:0:
192,192,44361,1,0,0:0:0:0:
320,192,44446,1,2,0:0:0:0:
448,192,44446,128,0,44789:0:0:0:60:Hat open.wav
64,192,44789,1,8,0:0:0:0:
192,192,44789,1,0,0:0:0:60:Hat open.wav
320,192,44789,1,0,0:0:0:0:
192,192,44961,1,0,0:0:0:0:
64,192,45132,1,2,0:0:0:0:
448,192,45132,1,0,0:0:0:60:Hat open.wav
192,192,45303,1,2,0:0:0:0:
320,192,45303,1,0,0:0:0:0:
64,192,45475,1,8,0:0:0:0:
320,192,45475,1,0,0:0:0:60:Hat open.wav
448,192,45475,1,0,0:0:0:0:
448,192,45646,1,0,0:0:0:0:
64,192,45818,1,2,0:0:0:0:
192,192,45818,1,0,0:0:0:60:Hat open.wav
320,192,45989,1,2,0:0:0:0:
448,192,45989,1,0,0:0:0:0:
64,192,46161,1,8,0:0:0:0:
192,192,46161,1,0,0:0:0:60:Hat open.wav
448,192,46161,1,0,0:0:0:0:
192,192,46332,1,0,0:0:0:0:
64,192,46503,1,2,0:0:0:0:
320,192,46503,1,0,0:0:0:60:Hat open.wav
192,192,46675,1,2,0:0:0:0:
448,192,46675,1,0,0:0:0:0:
64,192,46846,1,8,0:0:0:0:
320,192,46846,1,0,0:0:0:60:Hat open.wav
448,192,46846,1,0,0:0:0:0:
64,192,47018,1,8,0:0:0:0:
192,192,47018,1,0,0:0:0:0:
320,192,47103,1,8,0:0:0:0:
64,192,47189,128,2,47532:0:0:0:0:
192,192,47189,1,4,0:0:0:0:
448,192,47189,1,0,0:0:0:0:
192,192,47532,1,8,0:0:0:0:
320,192,47532,1,0,0:0:0:60:Hat open.wav
448,192,47532,1,0,0:0:0:0:
320,192,47703,1,0,0:0:0:0:
64,192,47875,1,2,0:0:0:0:
192,192,47875,1,0,0:0:0:60:Hat open.wav
320,192,48046,1,2,0:0:0:0:
448,192,48046,1,0,0:0:0:0:
64,192,48218,1,8,0:0:0:0:
192,192,48218,1,0,0:0:0:60:Hat open.wav
448,192,48218,1,0,0:0:0:0:
192,192,48389,1,0,0:0:0:0:
320,192,48561,1,2,0:0:0:0:
448,192,48561,1,0,0:0:0:60:Hat open.wav
64,192,48732,1,2,0:0:0:0:
192,192,48732,1,0,0:0:0:0:
64,192,48903,1,8,0:0:0:0:
320,192,48903,1,0,0:0:0:60:Hat open.wav
448,192,48903,1,0,0:0:0:0:
448,192,49075,1,0,0:0:0:0:
64,192,49246,1,2,0:0:0:0:
192,192,49246,1,0,0:0:0:60:Hat open.wav
320,192,49418,1,2,0:0:0:0:
448,192,49418,1,0,0:0:0:0:
64,192,49589,1,8,0:0:0:0:
192,192,49589,1,0,0:0:0:60:Hat open.wav
448,192,49589,1,0,0:0:0:0:
320,192,49761,1,0,0:0:0:0:
64,192,49846,1,8,0:0:0:0:
192,192,49846,1,0,0:0:0:0:
320,192,49932,1,2,0:0:0:0:
448,192,49932,128,4,50275:0:0:0:0:
64,192,50275,1,8,0:0:0:0:
192,192,50275,1,0,0:0:0:60:Hat open.wav
320,192,50275,1,0,0:0:0:0:
320,192,50446,1,0,0:0:0:0:
192,192,50618,1,2,0:0:0:0:
448,192,50618,1,0,0:0:0:60:Hat open.wav
64,192,50789,1,2,0:0:0:0:
320,192,50789,1,0,0:0:0:0:
64,192,50961,1,8,0:0:0:0:
192,192,50961,1,0,0:0:0:0:
448,192,50961,1,0,0:0:0:0:
64,192,51132,1,8,0:0:0:0:
320,192,51132,1,0,0:0:0:0:
448,192,51132,1,0,0:0:0:0:
192,192,51303,1,2,0:0:0:0:
320,192,51303,1,0,0:0:0:0:
64,192,51475,1,8,0:0:0:0:
192,192,51475,1,0,0:0:0:60:Hat open.wav
448,192,51475,1,0,0:0:0:0:
320,192,51646,1,2,0:0:0:0:
448,192,51646,1,0,0:0:0:0:
64,192,51818,1,2,0:0:0:0:
192,192,51818,1,0,0:0:0:0:
64,192,51989,1,8,0:0:0:0:
320,192,51989,1,0,0:0:0:60:Hat open.wav
448,192,51989,1,0,0:0:0:0:
192,192,52161,1,0,0:0:0:40:Tom1.wav
320,192,52246,1,0,0:0:0:40:Tom1.wav
64,192,52332,1,2,0:0:0:0:
448,192,52332,1,0,0:0:0:50:Tom2.wav
192,192,52418,1,0,0:0:0:50:Tom2.wav
320,192,52503,1,0,0:0:0:50:Tom3.wav
448,192,52589,1,0,0:0:0:50:Tom3.wav
64,192,52675,1,2,0:0:0:0:
192,192,52675,1,4,0:0:0:0:
320,192,52675,1,0,0:0:0:0:
64,192,52846,1,2,0:0:0:0:
448,192,52846,1,0,0:0:0:0:
192,192,53018,1,8,0:0:0:0:
320,192,53018,1,0,0:0:0:60:Hat open.wav
448,192,53018,1,0,0:0:0:0:
192,192,53189,1,0,0:0:0:0:
320,192,53361,1,2,0:0:0:0:
448,192,53361,1,0,0:0:0:60:Hat open.wav
64,192,53532,1,2,0:0:0:0:
192,192,53532,1,0,0:0:0:0:
64,192,53703,1,8,0:0:0:0:
320,192,53703,1,0,0:0:0:60:Hat open.wav
448,192,53703,1,0,0:0:0:0:
320,192,53875,1,0,0:0:0:0:
64,192,54046,1,2,0:0:0:0:
192,192,54046,1,0,0:0:0:60:Hat open.wav
192,192,54218,1,2,0:0:0:0:
448,192,54218,1,0,0:0:0:0:
64,192,54389,1,8,0:0:0:0:
320,192,54389,1,0,0:0:0:60:Hat open.wav
448,192,54389,1,0,0:0:0:0:
192,192,54561,1,2,0:0:0:0:
320,192,54561,1,0,0:0:0:0:
64,192,54732,1,8,0:0:0:0:
192,192,54732,1,0,0:0:0:60:Hat open.wav
448,192,54732,1,0,0:0:0:0:
320,192,54903,1,0,0:0:0:40:Tom1.wav
192,192,54989,1,0,0:0:0:40:Tom1.wav
64,192,55075,1,0,0:0:0:50:Tom2.wav
448,192,55075,1,0,0:0:0:0:
320,192,55161,1,0,0:0:0:50:Tom2.wav
192,192,55246,1,0,0:0:0:50:Tom3.wav
64,192,55332,1,2,0:0:0:0:
192,192,55418,128,8,55503:0:0:0:0:
320,192,55418,128,0,55503:0:0:0:0:
448,192,55418,128,0,55503:0:0:0:0:
192,192,55589,128,8,55675:0:0:0:0:
320,192,55589,128,0,55675:0:0:0:0:
448,192,55589,128,0,55675:0:0:0:0:
192,192,55761,128,8,55846:0:0:0:0:
320,192,55761,128,0,55846:0:0:0:0:
448,192,55761,128,0,55846:0:0:0:0:
64,192,56789,1,8,0:0:0:0:
192,192,56789,1,2,0:0:0:0:
448,192,56789,1,0,0:0:0:60:Hat open.wav
320,192,56961,1,0,0:0:0:0:
64,192,57046,1,8,0:0:0:0:
192,192,57046,1,0,0:0:0:0:
320,192,57132,1,8,0:0:0:0:
448,192,57132,1,0,0:0:0:0:
64,192,57303,1,2,0:0:0:0:
192,192,57303,1,0,0:0:0:60:Hat open.wav
448,192,57303,1,0,0:0:0:0:
320,192,57475,1,0,0:0:0:0:
64,192,57561,1,8,0:0:0:0:
192,192,57561,1,0,0:0:0:0:
320,192,57646,1,8,0:0:0:0:
448,192,57646,1,0,0:0:0:0:
64,192,57818,1,8,0:0:0:0:
192,192,57818,1,2,0:0:0:0:
320,192,57903,1,8,0:0:0:0:
448,192,57903,1,0,0:0:0:0:
64,192,57989,1,8,0:0:0:0:
192,192,57989,1,0,0:0:0:0:
320,192,58075,1,8,0:0:0:0:
64,192,58161,128,2,58332:0:0:0:0:
192,192,58161,1,4,0:0:0:0:
448,192,58161,1,0,0:0:0:0:
192,192,58332,128,0,58503:0:0:0:0:
64,192,58503,1,8,0:0:0:0:
320,192,58503,1,0,0:0:0:60:Hat open.wav
448,192,58503,1,0,0:0:0:0:
448,192,58675,128,0,58846:0:0:0:0:
64,192,58846,1,2,0:0:0:0:
192,192,58846,128,0,59018:0:0:0:60:Hat open.wav
320,192,59018,1,2,0:0:0:0:
448,192,59018,1,0,0:0:0:0:
64,192,59189,128,8,59361:0:0:0:0:
192,192,59189,1,0,0:0:0:60:Hat open.wav
448,192,59189,1,0,0:0:0:0:
320,192,59361,128,0,59532:0:0:0:0:
192,192,59532,1,0,0:0:0:60:Hat open.wav
64,192,59703,1,2,0:0:0:0:
448,192,59703,128,0,59875:0:0:0:0:
64,192,59875,1,8,0:0:0:0:
192,192,59875,128,0,60046:0:0:0:60:Hat open.wav
320,192,59875,1,0,0:0:0:0:
320,192,60046,1,0,0:0:0:0:
64,192,60218,128,2,60389:0:0:0:0:
448,192,60218,1,0,0:0:0:60:Hat open.wav
192,192,60389,1,2,0:0:0:0:
320,192,60389,1,0,0:0:0:0:
64,192,60561,1,8,0:0:0:0:
320,192,60561,128,0,60732:0:0:0:60:Hat open.wav
448,192,60561,1,0,0:0:0:0:
64,192,60818,1,8,0:0:0:0:
192,192,60818,1,0,0:0:0:0:
320,192,60903,1,2,0:0:0:0:
448,192,60903,1,0,0:0:0:60:Hat open.wav
192,192,61075,1,0,0:0:0:0:
64,192,61246,1,8,0:0:0:0:
320,192,61246,1,0,0:0:0:60:Hat open.wav
448,192,61246,128,0,61589:0:0:0:0:
64,192,61589,1,2,0:0:0:0:
192,192,61589,1,0,0:0:0:60:Hat open.wav
320,192,61761,128,2,62103:0:0:0:0:
448,192,61761,1,0,0:0:0:0:
64,192,61932,1,8,0:0:0:0:
192,192,61932,1,0,0:0:0:60:Hat open.wav
448,192,61932,1,0,0:0:0:0:
192,192,62103,1,0,0:0:0:0:
64,192,62275,128,0,62446:0:0:0:60:Hat open.wav
320,192,62446,1,2,0:0:0:0:
448,192,62446,1,0,0:0:0:0:
192,192,62532,1,2,0:0:0:0:
64,192,62618,1,8,0:0:0:0:
320,192,62618,1,0,0:0:0:60:Hat open.wav
448,192,62618,128,0,62789:0:0:0:0:
64,192,62875,1,8,0:0:0:0:
192,192,62875,1,0,0:0:0:0:
320,192,62961,128,2,63303:0:0:0:0:
448,192,62961,1,0,0:0:0:60:Hat open.wav
64,192,63132,1,2,0:0:0:0:
192,192,63132,1,0,0:0:0:0:
64,192,63303,1,8,0:0:0:0:
192,192,63303,1,0,0:0:0:60:Hat open.wav
448,192,63303,1,0,0:0:0:0:
320,192,63475,1,8,0:0:0:0:
448,192,63475,1,0,0:0:0:0:
192,192,63561,1,8,0:0:0:0:
64,192,63646,1,2,0:0:0:0:
320,192,63646,1,4,0:0:0:0:
448,192,63646,128,0,63818:0:0:0:0:
192,192,63818,128,0,63989:0:0:0:0:
64,192,63989,1,8,0:0:0:0:
320,192,63989,1,0,0:0:0:60:Hat open.wav
448,192,63989,1,0,0:0:0:0:
64,192,64161,128,0,64332:0:0:0:0:
320,192,64332,128,2,64503:0:0:0:0:
448,192,64332,1,0,0:0:0:60:Hat open.wav
64,192,64503,1,2,0:0:0:0:
192,192,64503,1,0,0:0:0:0:
64,192,64675,1,8,0:0:0:0:
320,192,64675,1,0,0:0:0:60:Hat open.wav
448,192,64675,128,0,64846:0:0:0:0:
192,192,64846,128,0,65018:0:0:0:0:
320,192,65018,1,0,0:0:0:60:Hat open.wav
64,192,65189,128,2,65361:0:0:0:0:
448,192,65189,1,0,0:0:0:0:
192,192,65361,1,8,0:0:0:0:
320,192,65361,1,0,0:0:0:60:Hat open.wav
448,192,65361,128,0,65532:0:0:0:0:
320,192,65532,1,0,0:0:0:0:
64,192,65703,1,2,0:0:0:0:
192,192,65703,128,0,66046:0:0:0:60:Hat open.wav
320,192,65875,1,2,0:0:0:0:
448,192,65875,1,0,0:0:0:0:
64,192,66046,1,8,0:0:0:0:
320,192,66046,1,0,0:0:0:60:Hat open.wav
448,192,66046,128,0,66389:0:0:0:0:
192,192,66218,1,0,0:0:0:0:
64,192,66389,1,2,0:0:0:0:
192,192,66389,1,0,0:0:0:60:Hat open.wav
320,192,66389,1,0,0:0:0:0:
320,192,66561,1,0,0:0:0:0:
64,192,66732,1,8,0:0:0:0:
192,192,66732,1,0,0:0:0:60:Hat open.wav
448,192,66732,1,0,0:0:0:0:
64,192,66903,1,0,0:0:0:0:
320,192,67075,1,2,0:0:0:0:
448,192,67075,128,0,67418:0:0:0:60:Hat open.wav
64,192,67246,1,2,0:0:0:0:
192,192,67246,1,0,0:0:0:0:
64,192,67418,1,8,0:0:0:0:
192,192,67418,128,0,67761:0:0:0:60:Hat open.wav
320,192,67418,1,0,0:0:0:0:
320,192,67761,1,2,0:0:0:0:
448,192,67761,1,0,0:0:0:0:
64,192,67932,1,8,0:0:0:0:
192,192,67932,1,0,0:0:0:0:
320,192,68018,1,8,0:0:0:0:
448,192,68018,1,0,0:0:0:0:
64,192,68103,1,8,0:0:0:0:
192,192,68103,1,0,0:0:0:0:
320,192,68189,1,8,0:0:0:0:
448,192,68189,1,0,0:0:0:0:
64,192,68275,1,2,0:0:0:0:
192,192,68275,1,0,0:0:0:0:
320,192,68361,1,2,0:0:0:0:
64,192,68446,1,0,0:0:0:40:Tom1.wav
448,192,68446,1,0,0:0:0:0:
192,192,68532,1,0,0:0:0:50:Tom2.wav
320,192,68618,1,2,0:0:0:0:
448,192,68618,1,0,0:0:0:0:
192,192,68703,1,2,0:0:0:0:
64,192,68789,1,8,0:0:0:0:
320,192,68789,1,0,0:0:0:60:Crash 2.wav
448,192,68789,1,0,0:0:0:0:
64,192,68961,1,8,0:0:0:0:
192,192,68961,1,0,0:0:0:0:
320,192,69046,1,8,0:0:0:0:
64,192,69132,1,2,0:0:0:0:
192,192,69132,1,4,0:0:0:0:
448,192,69132,1,0,0:0:0:0:
320,192,69303,1,0,0:0:0:0:
64,192,69475,1,8,0:0:0:0:
192,192,69475,1,0,0:0:0:60:Hat open.wav
448,192,69475,1,0,0:0:0:0:
192,192,69646,1,0,0:0:0:0:
64,192,69818,1,8,0:0:0:0:
320,192,69818,1,0,0:0:0:60:Hat open.wav
448,192,69818,1,0,0:0:0:0:
192,192,69989,1,2,0:0:0:0:
320,192,69989,1,0,0:0:0:0:
64,192,70161,1,8,0:0:0:0:
192,192,70161,1,0,0:0:0:60:Hat open.wav
448,192,70161,1,0,0:0:0:0:
64,192,70332,1,2,0:0:0:0:
320,192,70332,1,0,0:0:0:0:
192,192,70503,128,8,70846:0:0:0:0:
320,192,70503,1,0,0:0:0:60:Hat open.wav
448,192,70503,1,0,0:0:0:0:
64,192,70675,1,0,0:0:0:0:
64,192,70846,1,8,0:0:0:0:
320,192,70846,1,0,0:0:0:60:Hat open.wav
448,192,70846,1,0,0:0:0:0:
192,192,71018,1,2,0:0:0:0:
320,192,71018,1,0,0:0:0:0:
448,192,71103,1,2,0:0:0:0:
64,192,71189,1,8,0:0:0:0:
192,192,71189,1,0,0:0:0:60:Hat open.wav
320,192,71189,1,0,0:0:0:0:
64,192,71361,1,2,0:0:0:0:
448,192,71361,1,0,0:0:0:0:
192,192,71532,1,8,0:0:0:0:
320,192,71532,1,0,0:0:0:60:Hat open.wav
448,192,71532,1,0,0:0:0:0:
64,192,71703,1,2,0:0:0:0:
320,192,71703,1,0,0:0:0:0:
64,192,71875,1,8,0:0:0:0:
192,192,71875,128,4,72218:0:0:0:0:
448,192,71875,1,0,0:0:0:0:
320,192,72046,1,0,0:0:0:0:
64,192,72218,1,8,0:0:0:0:
320,192,72218,1,0,0:0:0:60:Hat open.wav
448,192,72218,1,0,0:0:0:0:
64,192,72389,1,2,0:0:0:0:
448,192,72389,1,0,0:0:0:0:
192,192,72475,1,2,0:0:0:0:
64,192,72561,1,8,0:0:0:0:
320,192,72561,1,0,0:0:0:60:Hat open.wav
448,192,72561,1,0,0:0:0:0:
192,192,72732,1,2,0:0:0:0:
320,192,72732,1,0,0:0:0:0:
64,192,72903,1,8,0:0:0:0:
192,192,72903,1,0,0:0:0:60:Hat open.wav
448,192,72903,1,0,0:0:0:0:
64,192,73075,1,2,0:0:0:0:
320,192,73075,1,0,0:0:0:0:
192,192,73246,1,8,0:0:0:0:
320,192,73246,1,0,0:0:0:60:Hat open.wav
448,192,73246,1,0,0:0:0:0:
64,192,73418,1,2,0:0:0:0:
192,192,73418,1,0,0:0:0:0:
320,192,73503,1,2,0:0:0:0:
448,192,73503,1,0,0:0:0:0:
64,192,73589,1,8,0:0:0:0:
192,192,73589,1,0,0:0:0:0:
320,192,73675,1,8,0:0:0:0:
448,192,73675,1,0,0:0:0:0:
64,192,73761,1,8,0:0:0:0:
192,192,73761,1,0,0:0:0:0:
320,192,73846,1,8,0:0:0:0:
64,192,73932,1,2,0:0:0:0:
448,192,73932,1,0,0:0:0:0:
192,192,74018,1,2,0:0:0:0:
320,192,74103,1,0,0:0:0:40:Tom1.wav
448,192,74103,1,0,0:0:0:0:
192,192,74189,1,0,0:0:0:40:Tom1.wav
64,192,74275,1,8,0:0:0:0:
448,192,74275,1,0,0:0:0:0:
320,192,74361,1,0,0:0:0:40:Tom1.wav
192,192,74446,1,0,0:0:0:50:Tom2.wav
320,192,74532,1,0,0:0:0:50:Tom3.wav
64,192,74618,1,2,0:0:0:0:
192,192,74618,1,4,0:0:0:0:
448,192,74618,1,0,0:0:0:0:
64,192,74789,1,0,0:0:0:0:
192,192,74961,1,8,0:0:0:0:
320,192,74961,1,0,0:0:0:60:Hat open.wav
448,192,74961,128,0,75303:0:0:0:0:
64,192,75132,1,0,0:0:0:0:
192,192,75303,1,2,0:0:0:0:
320,192,75303,1,0,0:0:0:60:Hat open.wav
64,192,75475,128,2,75646:0:0:0:0:
448,192,75475,1,0,0:0:0:0:
192,192,75646,1,8,0:0:0:0:
320,192,75646,1,0,0:0:0:60:Hat open.wav
448,192,75646,1,0,0:0:0:0:
320,192,75818,128,0,75989:0:0:0:0:
64,192,75989,128,2,76503:0:0:0:0:
192,192,75989,1,0,0:0:0:60:Hat open.wav
320,192,76161,1,2,0:0:0:0:
448,192,76161,1,0,0:0:0:0:
192,192,76332,1,8,0:0:0:0:
320,192,76332,1,0,0:0:0:60:Hat open.wav
448,192,76332,1,0,0:0:0:0:
192,192,76503,128,0,77018:0:0:0:0:
320,192,76675,1,2,0:0:0:0:
448,192,76675,1,0,0:0:0:60:Hat open.wav
64,192,76846,1,2,0:0:0:0:
320,192,76846,1,0,0:0:0:0:
64,192,77018,1,8,0:0:0:0:
320,192,77018,1,0,0:0:0:60:Hat open.wav
448,192,77018,1,0,0:0:0:0:
192,192,77189,1,0,0:0:0:0:
320,192,77275,1,8,0:0:0:0:
64,192,77361,1,2,0:0:0:0:
192,192,77361,1,4,0:0:0:0:
448,192,77361,128,0,78389:0:0:0:0:
320,192,77532,1,0,0:0:0:0:
64,192,77703,1,8,0:0:0:0:
192,192,77703,1,0,0:0:0:60:Hat open.wav
320,192,77703,1,0,0:0:0:0:
64,192,77875,1,0,0:0:0:0:
192,192,78046,1,2,0:0:0:0:
320,192,78046,1,0,0:0:0:60:Hat open.wav
64,192,78218,1,2,0:0:0:0:
320,192,78218,1,0,0:0:0:0:
64,192,78389,1,8,0:0:0:0:
192,192,78389,1,0,0:0:0:0:
320,192,78389,1,0,0:0:0:0:
64,192,78561,1,8,0:0:0:0:
192,192,78561,1,0,0:0:0:0:
448,192,78561,1,0,0:0:0:0:
192,192,78732,1,2,0:0:0:0:
320,192,78732,1,0,0:0:0:0:
64,192,78903,1,8,0:0:0:0:
320,192,78903,1,0,0:0:0:60:Crash 2.wav
448,192,78903,1,0,0:0:0:0:
64,192,79246,1,2,0:0:0:0:
192,192,79246,1,0,0:0:0:0:
320,192,79332,1,2,0:0:0:0:
64,192,79418,1,8,0:0:0:0:
192,192,79418,1,0,0:0:0:0:
448,192,79418,1,0,0:0:0:0:
448,192,79589,1,0,0:0:0:40:Tom1.wav
320,192,79761,1,0,0:0:0:50:Tom2.wav
192,192,79932,1,0,0:0:0:50:Tom3.wav
64,192,80103,1,2,0:0:0:0:
320,192,80103,1,4,0:0:0:0:
448,192,80103,1,0,0:0:0:0:
64,192,80446,1,2,0:0:0:0:
192,192,80446,1,0,0:0:0:0:
64,192,80618,1,2,0:0:0:0:
192,192,80618,1,0,0:0:0:0:
64,192,80789,1,8,0:0:0:0:
320,192,80789,1,0,0:0:0:0:
448,192,80789,128,0,81132:0:0:0:0:
64,192,81132,1,2,0:0:0:0:
192,192,81132,1,0,0:0:0:0:
320,192,81303,1,2,0:0:0:0:
448,192,81303,1,0,0:0:0:0:
64,192,81475,1,0,0:0:0:0:
192,192,81475,1,0,0:0:0:0:
64,192,81646,1,8,0:0:0:0:
320,192,81646,1,0,0:0:0:0:
448,192,81646,1,0,0:0:0:0:
192,192,81818,1,2,0:0:0:0:
320,192,81818,1,0,0:0:0:0:
64,192,81989,1,2,0:0:0:0:
448,192,81989,1,0,0:0:0:0:
64,192,82161,128,8,82503:0:0:0:0:
320,192,82161,1,0,0:0:0:0:
448,192,82161,1,0,0:0:0:0:
192,192,82503,1,2,0:0:0:0:
448,192,82503,1,0,0:0:0:0:
64,192,82675,1,8,0:0:0:0:
320,192,82675,1,0,0:0:0:0:
448,192,82675,1,0,0:0:0:0:
192,192,82846,128,2,83189:0:0:0:0:
320,192,82846,1,0,0:0:0:0:
64,192,83189,1,2,0:0:0:0:
448,192,83189,128,0,83532:0:0:0:0:
192,192,83361,1,2,0:0:0:0:
320,192,83361,1,0,0:0:0:0:
64,192,83532,1,8,0:0:0:0:
192,192,83532,1,0,0:0:0:0:
320,192,83532,128,0,83875:0:0:0:0:
64,192,83703,1,2,0:0:0:0:
448,192,83703,1,0,0:0:0:0:
64,192,83875,128,8,84218:0:0:0:0:
192,192,83875,1,0,0:0:0:0:
448,192,83875,1,0,0:0:0:0:
320,192,84046,1,0,0:0:0:0:
192,192,84218,128,2,84561:0:0:0:0:
448,192,84218,1,0,0:0:0:0:
64,192,84389,1,8,0:0:0:0:
320,192,84389,1,0,0:0:0:0:
448,192,84389,1,0,0:0:0:0:
320,192,84561,1,2,0:0:0:0:
448,192,84561,1,0,0:0:0:0:
64,192,84732,1,2,0:0:0:0:
192,192,84732,1,0,0:0:0:0:
192,192,84903,1,8,0:0:0:0:
320,192,84903,1,0,0:0:0:60:Hat open.wav
448,192,84903,128,0,85246:0:0:0:0:
64,192,85075,1,2,0:0:0:0:
192,192,85161,1,2,0:0:0:0:
320,192,85246,1,0,0:0:0:40:Tom1.wav
448,192,85332,1,0,0:0:0:50:Tom2.wav
64,192,85418,1,0,0:0:0:50:Tom3.wav
192,192,85503,1,0,0:0:0:50:Tom3.wav
64,192,85589,128,2,85932:0:0:0:0:
320,192,85589,128,4,85932:0:0:0:0:
448,192,85589,128,0,85932:0:0:0:0:
