osu file format v14

[General]
AudioFilename: audio.mp3
AudioLeadIn: 0
PreviewTime: 51936
Countdown: 0
SampleSet: Soft
StackLeniency: 0.7
Mode: 0
LetterboxInBreaks: 0
WidescreenStoryboard: 1

[Editor]
DistanceSpacing: 0.7
BeatDivisor: 4
GridSize: 32
TimelineZoom: 2

[Metadata]
Title:Daylight (TV Size)
TitleUnicode:Daylight (TV Size)
Artist:MindaRyn
ArtistUnicode:MindaRyn
Creator:Poclam
Version:hs
Source:ありふれた職業で世界最強
Tags:anime english arifureta from commonplace to world's strongest anime op opening season 2 shokugyou de sekai saikyou
BeatmapID:4574186
BeatmapSetID:2167569

[Difficulty]
HPDrainRate:6.5
CircleSize:3.8
OverallDifficulty:7.5
ApproachRate:9
SliderMultiplier:1.8
SliderTickRate:1

[Events]
//Background and Video events
0,0,"daylightbg.PNG",0,0
//Break Periods
//Storyboard Layer 0 (Background)
//Storyboard Layer 1 (Fail)
//Storyboard Layer 2 (Pass)
//Storyboard Layer 3 (Foreground)
//Storyboard Layer 4 (Overlay)
//Storyboard Sound Samples

[TimingPoints]
611,361.44578313253,4,2,1,60,1,0
6936,-133.333333333333,4,2,1,70,0,0
8020,-100,4,2,1,60,0,0
9285,-100,4,2,1,60,0,0
9827,-133.333333333333,4,2,1,70,0,0
10912,-100,4,2,1,75,0,0
13261,-133.333333333333,4,2,1,75,0,0
13984,-100,4,2,1,75,0,0
16333,-166.666666666667,4,2,1,70,0,0
18321,-100,4,2,1,55,0,0
41092,-125,4,2,1,55,0,0
48321,-125,4,2,1,65,0,0
48864,-100,4,2,1,75,0,0
49586,-100,4,2,1,70,0,0
51213,-80,4,2,1,80,0,0
51936,-166.666666666667,4,2,1,75,0,0
52659,-80,4,2,1,75,0,1
58623,-100,4,2,1,75,0,1
59526,-80,4,2,1,75,0,1
62779,-80,4,2,1,75,0,0
63502,-80,4,2,1,80,0,0
63592,-80,4,2,1,5,0,0
63683,-166.666666666667,4,2,1,80,0,0
64225,-71.4285714285714,4,2,1,75,0,1
75068,-80,4,2,1,80,0,0
75520,-133.333333333333,4,2,1,80,0,0
75791,-80,4,2,1,70,0,0
81574,-100,4,2,1,70,0,0
82659,-117.647058823529,4,2,1,60,0,0
83743,-117.647058823529,4,2,1,65,0,0
83924,-117.647058823529,4,2,1,60,0,0
84285,-117.647058823529,4,2,1,60,0,0
84376,-117.647058823529,4,2,1,40,0,0
84466,-133.333333333333,4,2,1,40,0,0

[Colours]
Combo1 : 128,0,0
Combo2 : 192,192,192
Combo3 : 255,0,51

[HitObjects]
255,191,4767,5,0,1:2:0:0:
255,191,4857,1,0,1:2:0:0:
255,191,4948,1,8,0:0:0:0:
255,191,5129,1,0,1:2:0:0:
255,191,5219,1,0,1:2:0:0:
255,191,5309,1,0,1:2:0:0:
255,191,5400,1,0,1:2:0:0:
255,191,5490,1,0,1:2:0:0:
255,191,5580,1,0,1:2:0:0:
255,191,5671,1,8,0:0:0:0:
255,191,5851,1,0,1:2:0:0:
255,191,5942,1,0,1:2:0:0:
255,191,6032,1,0,1:2:0:0:
255,191,6123,1,0,1:2:0:0:
255,191,6213,1,0,1:2:0:0:
255,191,6303,1,0,1:2:0:0:
255,191,6394,1,14,0:0:0:0:
255,191,6574,1,2,1:2:0:0:
255,191,6755,1,2,1:2:0:0:
255,191,6936,1,14,0:0:0:0:
255,191,7297,1,2,1:2:0:0:
255,191,7478,1,14,0:0:0:0:
255,191,8020,1,2,1:2:0:0:
255,191,8201,1,14,0:0:0:0:
255,191,8382,1,2,0:0:0:0:
255,191,8562,1,2,0:0:0:0:
255,191,8743,1,0,1:2:0:0:
255,191,8833,1,0,1:2:0:0:
255,191,8924,1,8,0:0:0:0:
255,191,9285,1,2,1:2:0:0:
255,191,9466,1,2,0:0:0:0:
255,191,9647,1,2,1:2:0:0:
255,191,9827,1,14,0:0:0:0:
255,191,10189,1,2,1:2:0:0:
255,191,10370,1,14,0:0:0:0:
255,191,10912,1,0,1:2:0:0:
255,191,11092,1,8,0:0:0:0:
255,191,11273,1,0,1:2:0:0:
255,191,11454,1,10,0:0:0:0:
255,191,11635,1,0,1:2:0:0:
255,191,11725,1,0,1:2:0:0:
255,191,11815,1,8,0:0:0:0:
255,191,11906,1,0,1:2:0:0:
255,191,11996,1,0,1:2:0:0:
255,191,12086,1,0,1:2:0:0:
255,191,12177,1,14,0:0:0:0:
255,191,12357,1,2,1:2:0:0:
255,191,12538,1,10,0:0:0:0:
255,191,12719,1,2,1:2:0:0:
255,191,12900,1,2,0:0:0:0:
255,191,13080,1,2,1:2:0:0:
255,191,13261,1,14,0:0:0:0:
255,191,13803,1,0,1:2:0:0:
255,191,13984,1,12,0:0:0:0:
255,191,14165,1,0,1:2:0:0:
255,191,14345,1,8,0:0:0:0:
255,191,14526,1,0,1:2:0:0:
255,191,14617,1,0,1:2:0:0:
255,191,14707,1,0,1:2:0:0:
255,191,14797,1,0,1:2:0:0:
255,191,14888,1,0,1:2:0:0:
255,191,14978,1,0,1:2:0:0:
255,191,15068,1,10,0:0:0:0:
255,191,15249,1,0,1:2:0:0:
255,191,15339,1,0,1:2:0:0:
255,191,15430,1,0,1:2:0:0:
255,191,15610,1,0,1:2:0:0:
255,191,15701,1,0,1:2:0:0:
255,191,15791,1,8,1:2:0:0:
255,191,15972,1,0,1:2:0:0:
255,191,16153,1,0,1:2:0:0:
255,191,16333,1,14,0:0:0:0:
255,191,17056,1,8,1:3:0:0:
255,191,17147,1,8,1:3:0:0:
255,191,17237,1,8,1:3:0:0:
255,191,17418,1,0,1:2:0:0:
255,191,17508,1,0,1:2:0:0:
255,191,17598,1,0,1:2:0:0:
255,191,17689,1,0,1:2:0:0:
255,191,17779,1,0,1:2:0:0:
255,191,17870,1,0,1:2:0:0:
255,191,17960,1,12,0:0:0:0:
255,191,18321,1,2,1:2:0:0:
255,191,18683,1,2,1:2:0:0:
255,191,19044,1,2,1:2:0:0:
255,191,19225,1,8,0:0:0:0:
255,191,19406,1,2,1:2:0:0:
255,191,19767,1,0,1:2:0:0:
255,191,20129,1,8,0:0:0:0:
255,191,20490,1,0,1:2:0:0:
255,191,20671,1,0,1:2:0:0:
255,191,20761,1,0,1:2:0:0:
255,191,20852,1,0,1:2:0:0:
255,191,21213,1,2,1:2:0:0:
255,191,21574,1,2,1:2:0:0:
255,191,21936,1,2,1:2:0:0:
255,191,22117,1,10,0:0:0:0:
255,191,22297,1,0,1:2:0:0:
255,191,22659,1,0,1:2:0:0:
255,191,23020,1,10,0:0:0:0:
255,191,23201,1,2,1:2:0:0:
255,191,23382,1,0,1:2:0:0:
255,191,23562,1,0,1:2:0:0:
255,191,23653,1,0,1:2:0:0:
255,191,23743,1,0,1:2:0:0:
255,191,23924,1,2,0:0:0:0:
255,191,24104,1,0,1:2:0:0:
255,191,24285,1,2,0:0:0:0:
255,191,24466,1,8,0:0:0:0:
255,191,24647,1,2,0:0:0:0:
255,191,24827,1,0,1:2:0:0:
255,191,25008,1,2,0:0:0:0:
255,191,25189,1,0,1:2:0:0:
255,191,25370,1,8,0:0:0:0:
255,191,25550,1,0,1:2:0:0:
255,191,25912,1,8,0:0:0:0:
255,191,26273,1,0,1:2:0:0:
255,191,26454,1,0,1:2:0:0:
255,191,26545,1,0,1:2:0:0:
255,191,26635,1,0,1:2:0:0:
255,191,26815,1,2,0:0:0:0:
255,191,26996,1,0,1:2:0:0:
255,191,27177,1,10,0:0:0:0:
255,191,27357,1,0,1:2:0:0:
255,191,27538,1,2,0:0:0:0:
255,191,27719,1,8,0:0:0:0:
255,191,27900,1,2,0:0:0:0:
255,191,28080,1,0,1:2:0:0:
255,191,28442,1,0,1:2:0:0:
255,191,28623,1,8,0:0:0:0:
255,191,28803,1,0,1:2:0:0:
255,191,29165,1,8,0:0:0:0:
255,191,29345,1,0,1:2:0:0:
255,191,29436,1,0,1:2:0:0:
255,191,29526,1,0,1:2:0:0:
255,191,29707,1,2,0:0:0:0:
255,191,29888,1,2,1:2:0:0:
255,191,30068,1,8,0:0:0:0:
255,191,30249,1,2,1:2:0:0:
255,191,30430,1,0,1:2:0:0:
255,191,30610,1,10,0:0:0:0:
255,191,30972,1,2,0:0:0:0:
255,191,31333,1,0,1:2:0:0:
255,191,31514,1,8,0:0:0:0:
255,191,31876,1,0,1:2:0:0:
255,191,32056,1,8,0:0:0:0:
255,191,32418,1,0,1:2:0:0:
255,191,32779,1,2,1:2:0:0:
255,191,32960,1,8,0:0:0:0:
255,191,33141,1,2,1:2:0:0:
255,191,33321,1,0,1:2:0:0:
255,191,33502,1,10,0:0:0:0:
255,191,33683,1,2,0:0:0:0:
255,191,34044,1,0,1:2:0:0:
255,191,34225,1,0,1:2:0:0:
255,191,34406,1,8,0:0:0:0:
255,191,34586,1,2,0:0:0:0:
255,191,34767,1,2,1:2:0:0:
255,191,34948,1,8,0:0:0:0:
255,191,35129,1,2,1:2:0:0:
255,191,35219,1,0,1:2:0:0:
255,191,35309,1,0,1:2:0:0:
255,191,35490,1,2,0:0:0:0:
255,191,35671,1,0,1:2:0:0:
255,191,35851,1,10,0:0:0:0:
255,191,36213,1,2,1:2:0:0:
255,191,36393,1,8,0:0:0:0:
255,191,36574,1,2,0:0:0:0:
255,191,36936,1,2,0:0:0:0:
255,191,37117,1,0,1:2:0:0:
255,191,37297,1,8,0:0:0:0:
255,191,37659,1,0,1:2:0:0:
255,191,37839,1,8,0:0:0:0:
255,191,38020,1,2,0:0:0:0:
255,191,38201,1,2,1:2:0:0:
255,191,38382,1,2,0:0:0:0:
255,191,38562,1,0,1:2:0:0:
255,191,38743,1,10,0:0:0:0:
255,191,39104,1,2,1:2:0:0:
255,191,39285,1,8,0:0:0:0:
255,191,39466,1,2,0:0:0:0:
255,191,39647,1,0,1:2:0:0:
255,191,39827,1,0,1:2:0:0:
255,191,40008,1,8,0:0:0:0:
255,191,40189,1,2,0:0:0:0:
255,191,40370,1,0,1:2:0:0:
255,191,40641,1,8,1:2:0:0:
255,191,40731,1,8,0:0:0:0:
255,191,40912,1,0,1:2:0:0:
255,191,41002,1,0,1:2:0:0:
255,191,41092,1,2,1:2:0:0:
255,191,41454,1,0,1:2:0:0:
255,191,41815,1,2,1:2:0:0:
255,191,42177,1,0,1:2:0:0:
255,191,42357,1,8,0:0:0:0:
255,191,42538,1,2,1:2:0:0:
255,191,42900,1,0,1:2:0:0:
255,191,43080,1,10,0:3:0:0:
255,191,43261,1,0,1:2:0:0:
255,191,43442,1,8,0:3:0:0:
255,191,43623,1,2,1:2:0:0:
255,191,43803,1,0,1:2:0:0:
255,191,43894,1,0,1:2:0:0:
255,191,43984,1,0,1:2:0:0:
255,191,44345,1,2,1:2:0:0:
255,191,44707,1,2,1:2:0:0:
255,191,45068,1,2,1:2:0:0:
255,191,45249,1,2,1:2:0:0:
255,191,45339,1,0,1:2:0:0:
255,191,45430,1,0,1:2:0:0:
255,191,45791,1,0,1:2:0:0:
255,191,45972,1,8,0:0:0:0:
255,191,46153,1,0,1:2:0:0:
255,191,46333,1,8,0:3:0:0:
255,191,46514,1,8,0:3:0:0:
255,191,46695,1,2,0:0:0:0:
255,191,46876,1,2,1:2:0:0:
255,191,47237,1,0,1:2:0:0:
255,191,47598,1,2,1:2:0:0:
255,191,47960,1,0,1:2:0:0:
255,191,48321,1,10,0:0:0:0:
255,191,48683,1,0,1:2:0:0:
255,191,48864,1,10,0:0:0:0:
255,191,49044,1,8,0:0:0:0:
255,191,49225,1,10,0:0:0:0:
255,191,49406,1,8,0:0:0:0:
255,191,49586,1,14,0:0:0:0:
255,191,50129,1,2,0:0:0:0:
255,191,50490,1,2,0:0:0:0:
255,191,50851,1,2,0:0:0:0:
255,191,51032,1,2,0:0:0:0:
255,191,51213,1,0,1:2:0:0:
255,191,51303,1,0,1:2:0:0:
255,191,51394,1,8,0:0:0:0:
255,191,51484,1,8,0:0:0:0:
255,191,51574,1,8,0:3:0:0:
255,191,51665,1,8,0:3:0:0:
255,191,51755,1,8,0:3:0:0:
255,191,51845,1,8,0:3:0:0:
255,191,51936,1,14,1:2:0:0:
255,191,52297,1,2,0:0:0:0:
255,191,52659,1,10,0:0:0:0:
255,191,53020,1,0,1:2:0:0:
255,191,53201,1,8,0:0:0:0:
255,191,53382,1,2,0:0:0:0:
255,191,53562,1,0,1:2:0:0:
255,191,53743,1,10,0:0:0:0:
255,191,53924,1,2,0:0:0:0:
255,191,54104,1,0,1:2:0:0:
255,191,54285,1,0,1:2:0:0:
255,191,54466,1,0,1:2:0:0:
255,191,54647,1,8,0:0:0:0:
255,191,55008,1,0,1:2:0:0:
255,191,55189,1,8,0:0:0:0:
255,191,55370,1,2,0:0:0:0:
255,191,55550,1,2,1:2:0:0:
255,191,55731,1,2,0:0:0:0:
255,191,55912,1,0,1:2:0:0:
255,191,56092,1,10,0:0:0:0:
255,191,56454,1,2,1:2:0:0:
255,191,56634,1,8,0:0:0:0:
255,191,56815,1,2,0:0:0:0:
255,191,56996,1,0,1:2:0:0:
255,191,57177,1,0,1:2:0:0:
255,191,57357,1,0,1:2:0:0:
255,191,57538,1,8,0:0:0:0:
255,191,57719,1,2,0:0:0:0:
255,191,57900,1,0,1:2:0:0:
255,191,58080,1,8,0:0:0:0:
255,191,58261,1,0,1:2:0:0:
255,191,58351,1,0,1:2:0:0:
255,191,58442,1,10,1:2:0:0:
255,191,58623,1,2,0:0:0:0:
255,191,58803,1,0,1:2:0:0:
255,191,58984,1,10,0:0:0:0:
255,191,59345,1,2,1:2:0:0:
255,191,59526,1,8,0:0:0:0:
255,191,59707,1,2,0:0:0:0:
255,191,59888,1,0,1:2:0:0:
255,191,60068,1,0,1:2:0:0:
255,191,60249,1,0,1:2:0:0:
255,191,60430,1,12,0:0:0:0:
255,191,60791,1,0,1:2:0:0:
255,191,60972,1,12,0:0:0:0:
255,191,61333,1,2,1:2:0:0:
255,191,61514,1,2,0:0:0:0:
255,191,61695,1,0,1:2:0:0:
255,191,61876,1,14,0:0:0:0:
255,191,62237,1,2,1:2:0:0:
255,191,62418,1,8,0:0:0:0:
255,191,62598,1,10,3:2:0:0:
255,191,62689,1,8,3:2:0:0:
255,191,62779,1,8,1:2:0:0:
255,191,63502,1,2,0:0:0:0:
255,191,63683,1,2,0:0:0:0:
255,191,64044,1,2,0:0:0:0:
255,191,64225,1,8,0:0:0:0:
255,191,64406,1,0,1:2:0:0:
255,191,64586,1,2,1:2:0:0:
255,191,64767,1,8,0:0:0:0:
255,191,64948,1,2,0:0:0:0:
255,191,65129,1,2,1:2:0:0:
255,191,65309,1,8,0:0:0:0:
255,191,65490,1,2,1:2:0:0:
255,191,65671,1,12,0:0:0:0:
255,191,66032,1,0,1:2:0:0:
255,191,66213,1,12,0:0:0:0:
255,191,66574,1,0,1:2:0:0:
255,191,66755,1,10,0:0:0:0:
255,191,66936,1,2,1:2:0:0:
255,191,67117,1,4,1:2:0:0:
255,191,67478,1,2,1:2:0:0:
255,191,67659,1,12,0:0:0:0:
255,191,67839,1,2,0:0:0:0:
255,191,68020,1,0,1:2:0:0:
255,191,68201,1,10,0:0:0:0:
255,191,68382,1,2,1:2:0:0:
255,191,68562,1,0,1:2:0:0:
255,191,68743,1,12,0:0:0:0:
255,191,68924,1,12,0:0:0:0:
255,191,69104,1,0,1:2:0:0:
255,191,69285,1,10,0:0:0:0:
255,191,69466,1,0,1:2:0:0:
255,191,69647,1,10,0:0:0:0:
255,191,69827,1,10,3:2:0:0:
255,191,69918,1,8,3:2:0:0:
255,191,70008,1,14,1:2:0:0:
255,191,70370,1,2,1:2:0:0:
255,191,70550,1,14,0:0:0:0:
255,191,70731,1,2,0:0:0:0:
255,191,70912,1,0,1:2:0:0:
255,191,71092,1,10,0:0:0:0:
255,191,71273,1,2,1:2:0:0:
255,191,71454,1,12,0:0:0:0:
255,191,71635,1,0,1:2:0:0:
255,191,71815,1,0,1:2:0:0:
255,191,71996,1,12,0:0:0:0:
255,191,72357,1,0,1:2:0:0:
255,191,72538,1,10,0:0:0:0:
255,191,72719,1,2,1:2:0:0:
255,191,72900,1,6,1:2:0:0:
255,191,73261,1,2,1:2:0:0:
255,191,73442,1,12,0:0:0:0:
255,191,73623,1,2,0:0:0:0:
255,191,73803,1,0,1:2:0:0:
255,191,73984,1,10,0:0:0:0:
255,191,74165,1,2,1:2:0:0:
255,191,74345,1,8,0:0:0:0:
255,191,74526,1,8,1:2:0:0:
255,191,74617,1,8,1:2:0:0:
255,191,74707,1,8,1:2:0:0:
255,191,74797,1,8,1:2:0:0:
255,191,74888,1,8,1:2:0:0:
255,191,74978,1,8,1:2:0:0:
255,191,75068,1,10,0:0:0:0:
255,191,75159,1,8,0:0:0:0:
255,191,75249,1,8,1:3:0:0:
255,191,75339,1,8,1:3:0:0:
255,191,75430,1,8,1:3:0:0:
255,191,75520,1,8,1:3:0:0:
255,191,75610,1,8,1:3:0:0:
255,191,75701,1,8,1:3:0:0:
255,191,75791,1,14,0:0:0:0:
255,191,76153,1,4,1:2:0:0:
255,191,76514,1,14,0:0:0:0:
255,191,76876,1,4,1:2:0:0:
255,191,77056,1,10,3:2:0:0:
255,191,77147,1,8,3:2:0:0:
255,191,77237,1,8,1:2:0:0:
255,191,77418,1,0,1:2:0:0:
255,191,77598,1,0,1:2:0:0:
255,191,77960,1,12,0:0:0:0:
255,191,78321,1,4,1:2:0:0:
255,191,78502,1,8,3:2:0:0:
255,191,78593,1,8,3:2:0:0:
255,191,78683,1,14,1:2:0:0:
255,191,78864,1,2,0:0:0:0:
255,191,79044,1,4,1:2:0:0:
255,191,79225,1,2,1:2:0:0:
255,191,79586,1,2,1:2:0:0:
255,191,79767,1,8,0:0:0:0:
255,191,79948,1,10,3:2:0:0:
255,191,80039,1,8,3:2:0:0:
255,191,80129,1,8,1:2:0:0:
255,191,80309,1,8,0:0:0:0:
255,191,80400,1,8,0:0:0:0:
255,191,80490,1,0,1:2:0:0:
255,191,80580,1,0,1:2:0:0:
255,191,80671,1,0,1:2:0:0:
255,191,80761,1,0,1:2:0:0:
255,191,80851,1,10,3:2:0:0:
255,191,80942,1,8,3:0:0:0:
255,191,81032,1,8,3:0:0:0:
255,191,81123,1,8,3:0:0:0:
255,191,81213,1,10,1:2:0:0:
255,191,81303,1,8,1:2:0:0:
255,191,81394,1,8,1:2:0:0:
255,191,81484,1,8,1:2:0:0:
255,191,81574,1,14,0:0:0:0:
255,191,81936,1,0,1:2:0:0:
255,191,82117,1,12,0:0:0:0:
255,191,82478,1,0,1:2:0:0:
255,191,82659,1,8,0:0:0:0:
255,191,83020,1,0,1:2:0:0:
255,191,83201,1,8,0:0:0:0:
255,191,83291,1,8,0:0:0:0:
255,191,83382,1,8,3:0:0:0:
255,191,83472,1,8,3:0:0:0:
255,191,83562,1,8,3:0:0:0:
255,191,83653,1,8,3:0:0:0:
255,191,83743,1,14,0:0:0:0:
255,191,83924,1,0,1:2:0:0:
255,191,84466,1,14,0:0:0:0:
