osu file format v14

[General]
AudioFilename: audio.mp3
AudioLeadIn: 0
PreviewTime: 51936
Countdown: 0
SampleSet: Soft
StackLeniency: 0.7
Mode: 0
LetterboxInBreaks: 0
WidescreenStoryboard: 0

[Editor]
DistanceSpacing: 0.7
BeatDivisor: 4
GridSize: 32
TimelineZoom: 2

[Metadata]
Title:Daylight (TV Size)
TitleUnicode:Daylight (TV Size)
Artist:MindaRyn
ArtistUnicode:MindaRyn
Creator:Poclam
Version:Insane
Source:ありふれた職業で世界最強
Tags:anime english arifureta from commonplace to world's strongest anime op opening season 2 shokugyou de sekai saikyou
BeatmapID:4573103
BeatmapSetID:2167569

[Difficulty]
HPDrainRate:6.5
CircleSize:3.8
OverallDifficulty:7.5
ApproachRate:9
SliderMultiplier:1.8
SliderTickRate:1

[Events]
//Background and Video events
0,0,"tiobg.png",0,0
//Break Periods
//Storyboard Layer 0 (Background)
//Storyboard Layer 1 (Fail)
//Storyboard Layer 2 (Pass)
//Storyboard Layer 3 (Foreground)
//Storyboard Layer 4 (Overlay)
//Storyboard Sound Samples

[TimingPoints]
611,361.44578313253,4,2,1,60,1,0
4767,-100,4,2,1,60,0,0
6936,-133.333333333333,4,2,1,70,0,0
8020,-100,4,2,1,60,0,0
9285,-100,4,2,1,60,0,0
9827,-133.333333333333,4,2,1,70,0,0
10912,-100,4,2,1,75,0,0
13261,-133.333333333333,4,2,1,75,0,0
13984,-100,4,2,1,75,0,0
16333,-166.666666666667,4,2,1,70,0,0
18321,-100,4,2,1,55,0,0
41092,-125,4,2,1,55,0,0
48321,-125,4,2,1,65,0,0
48864,-100,4,2,1,75,0,0
49586,-100,4,2,1,70,0,0
49767,-100,4,2,1,70,0,0
51213,-80,4,2,1,80,0,0
51936,-166.666666666667,4,2,1,75,0,0
52659,-80,4,2,1,75,0,1
58623,-100,4,2,1,75,0,1
59526,-80,4,2,1,75,0,1
62779,-80,4,2,1,75,0,0
63502,-200,4,2,1,80,0,0
63592,-80,4,2,1,5,0,0
63683,-166.666666666667,4,2,1,80,0,0
64225,-71.4285714285714,4,2,1,75,0,1
75068,-80,4,2,1,80,0,0
75339,-133.333333333333,4,2,1,80,0,0
75791,-80,4,2,1,70,0,0
81574,-100,4,2,1,70,0,0
82659,-117.647058823529,4,2,1,60,0,0
83743,-166.666666666667,4,2,1,65,0,0
83924,-166.666666666667,4,2,1,60,0,0
84376,-166.666666666667,4,2,1,40,0,0
84466,-166.666666666667,4,2,1,40,0,0
87719,-166.666666666667,4,2,1,40,0,0

[Colours]
Combo1 : 128,0,0
Combo2 : 192,192,192
Combo3 : 255,0,51

[HitObjects]
272,118,4767,5,0,1:2:0:0:
272,118,4857,1,0,1:2:0:0:
272,118,4948,1,8,0:0:0:0:
136,192,5129,1,0,1:2:0:0:
136,192,5219,1,0,1:2:0:0:
136,192,5310,1,0,1:2:0:0:
136,192,5400,1,0,1:2:0:0:
136,192,5490,2,0,L|120:240,2,45,0|0|8,1:2|1:2|0:0,0:0:0:0:
267,264,5851,1,0,1:2:0:0:
267,264,5941,1,0,1:2:0:0:
267,264,6032,2,0,L|283:312,2,45,0|0|0,1:2|1:2|1:2,0:0:0:0:
458,107,6394,6,0,L|441:201,1,90,14|2,0:0|1:2,0:0:0:0:
365,271,6755,1,2,1:2:0:0:
319,174,6936,2,0,P|258:99|194:84,1,135,14|2,0:0|1:2,0:0:0:0:
148,196,7478,2,0,P|84:123|84:64,1,135,14|0,0:0|0:0,0:0:0:0:
111,343,8020,6,0,L|205:326,1,90,2|14,1:2|0:0,0:0:0:0:
301,260,8381,1,2,0:0:0:0:
201,202,8562,2,0,L|216:113,1,90,2|0,0:0|1:2,0:0:0:0:
250,103,8833,1,0,1:2:0:0:
250,103,8924,1,8,0:0:0:0:
374,337,9285,6,0,L|357:248,1,90,2|2,1:2|0:0,0:0:0:0:
406,123,9646,1,2,1:2:0:0:
508,118,9827,2,0,P|454:38|392:18,1,135,14|2,0:0|1:2,0:0:0:0:
312,176,10369,2,0,P|248:103|248:44,1,135,14|0,0:0|0:0,0:0:0:0:
354,75,10912,5,0,1:2:0:0:
457,239,11092,1,8,0:0:0:0:
266,240,11273,1,0,1:2:0:0:
454,104,11454,1,10,0:0:0:0:
373,244,11635,2,0,L|360:288,1,45,0|0,1:2|1:2,0:0:0:0:
281,104,11815,1,8,0:0:0:0:
267,79,11906,1,0,1:2:0:0:
238,65,11996,1,0,1:2:0:0:
200,65,12086,1,0,1:2:0:0:
177,85,12177,2,0,L|163:174,1,90,14|2,0:0|1:2,0:0:0:0:
243,312,12538,5,10,0:0:0:0:
274,209,12719,1,2,1:2:0:0:
170,214,12900,2,0,P|128:186|88:183,1,90,2|2,0:0|1:2,0:0:0:0:
96,286,13261,2,0,P|150:366|212:386,1,135,14|0,0:0|0:0,0:0:0:0:
297,312,13803,1,0,1:2:0:0:
415,297,13984,2,0,L|431:208,1,90,12|0,0:0|1:2,0:0:0:0:
380,119,14345,1,8,0:0:0:0:
161,267,14526,5,0,1:2:0:0:
145,248,14617,1,0,1:2:0:0:
136,211,14707,1,0,1:2:0:0:
139,178,14797,1,0,1:2:0:0:
157,146,14888,1,0,1:2:0:0:
145,118,14978,1,0,1:2:0:0:
125,98,15068,1,10,0:0:0:0:
306,64,15249,5,0,1:2:0:0:
312,73,15339,1,0,1:2:0:0:
318,82,15430,1,0,1:2:0:0:
261,194,15610,1,0,1:2:0:0:
256,203,15700,1,0,1:2:0:0:
252,213,15791,1,8,1:2:0:0:
365,208,15972,5,0,1:2:0:0:
217,88,16153,1,0,1:2:0:0:
108,207,16333,2,0,P|117:262|178:366,1,161.999995056153,14|0,0:0|0:0,0:0:0:0:
296,296,17057,5,8,1:3:0:0:
290,305,17147,1,8,1:3:0:0:
284,314,17237,1,8,1:3:0:0:
231,210,17418,5,0,1:2:0:0:
239,186,17509,1,0,1:2:0:0:
234,148,17599,1,0,1:2:0:0:
220,117,17689,1,0,1:2:0:0:
198,96,17780,1,0,1:2:0:0:
194,65,17870,1,0,1:2:0:0:
206,38,17960,1,12,0:0:0:0:
487,171,18321,6,0,P|444:192|414:227,1,90,2|0,1:2|0:0,0:0:0:0:
495,305,18683,2,0,P|455:331|410:340,1,90,2|0,1:2|0:0,0:0:0:0:
323,194,19044,1,2,1:2:0:0:
269,299,19225,1,8,0:0:0:0:
163,228,19406,2,0,P|136:188|127:143,1,90,2|0,1:2|0:0,0:0:0:0:
53,23,19767,2,0,P|26:62|17:107,1,90,0|0,1:2|0:0,0:0:0:0:
27,226,20129,2,0,P|35:272|60:310,1,90,8|0,0:0|0:0,0:0:0:0:
182,323,20490,1,0,1:2:0:0:
230,164,20671,5,0,1:2:0:0:
236,173,20761,1,0,1:2:0:0:
242,182,20852,1,0,1:2:0:0:
478,40,21213,6,0,P|481:87|466:131,1,90,2|0,1:2|0:0,0:0:0:0:
357,100,21575,2,0,P|354:147|369:191,1,90,2|0,1:2|0:0,0:0:0:0:
433,325,21936,1,2,1:2:0:0:
487,220,22117,1,10,0:0:0:0:
325,273,22298,2,0,P|277:280|232:269,1,90,0|0,1:2|0:0,0:0:0:0:
149,348,22659,2,0,P|122:309|113:264,1,90,0|0,1:2|0:0,0:0:0:0:
277,197,23020,1,10,0:0:0:0:
130,154,23201,1,2,1:2:0:0:
277,111,23382,1,0,1:2:0:0:
201,250,23562,5,0,1:2:0:0:
196,259,23652,1,0,1:2:0:0:
192,269,23743,1,0,1:2:0:0:
288,343,23924,1,2,0:0:0:0:
366,287,24104,2,0,P|393:248|402:203,1,90,0|2,1:2|0:0,0:0:0:0:
262,201,24466,2,0,P|225:170|204:129,1,90,8|2,0:0|0:0,0:0:0:0:
223,9,24827,2,0,P|268:26|301:58,1,90,0|2,1:2|0:0,0:0:0:0:
334,168,25189,5,0,1:2:0:0:
431,101,25370,1,8,0:0:0:0:
478,209,25550,2,0,P|481:256|467:299,1,90,0|0,1:2|0:0,0:0:0:0:
375,346,25912,2,0,P|303:294|208:276,1,180,8|0,0:0|1:2,0:0:0:0:
110,347,26454,5,0,1:2:0:0:
110,347,26544,1,0,1:2:0:0:
110,347,26635,2,0,P|87:305|81:260,1,90,0|2,1:2|0:0,0:0:0:0:
89,98,26996,1,0,1:2:0:0:
195,206,27177,1,10,0:0:0:0:
168,18,27357,2,0,P|190:59|196:104,1,90,0|2,1:2|0:0,0:0:0:0:
287,161,27719,2,0,P|328:183|373:189,1,90,8|2,0:0|0:0,0:0:0:0:
494,113,28080,6,0,P|422:61|327:43,1,180,0|0,1:2|1:2,0:0:0:0:
231,95,28623,1,8,0:0:0:0:
145,41,28803,2,0,P|98:42|56:59,1,90,0|0,1:2|0:0,0:0:0:0:
122,148,29165,1,8,0:0:0:0:
197,238,29345,5,0,1:2:0:0:
191,247,29435,1,0,1:2:0:0:
185,256,29526,1,0,1:2:0:0:
288,343,29707,5,2,0:0:0:0:
171,351,29888,1,2,1:2:0:0:
366,287,30068,2,0,P|393:248|402:203,1,90,8|2,0:0|1:2,0:0:0:0:
301,204,30430,1,0,1:2:0:0:
240,114,30610,2,0,P|195:97|149:100,1,90,10|0,0:0|0:0,0:0:0:0:
112,201,30972,2,0,P|157:218|203:215,1,90,2|0,0:0|0:0,0:0:0:0:
385,127,31333,1,0,1:2:0:0:
286,287,31514,1,8,0:0:0:0:
286,287,31876,5,0,1:2:0:0:
105,331,32057,1,8,0:0:0:0:
13,25,32418,6,0,P|3:113|35:204,1,180,0|2,1:2|1:2,0:0:0:0:
127,111,32960,2,0,L|143:22,1,90,8|2,0:0|1:2,0:0:0:0:
238,110,33321,1,0,1:2:0:0:
144,197,33502,2,0,P|232:206|323:174,1,180,10|0,0:0|0:0,0:0:0:0:
411,89,34044,1,0,1:2:0:0:
414,217,34225,1,0,1:2:0:0:
325,309,34406,2,0,P|285:335|241:345,1,90,8|2,0:0|0:0,0:0:0:0:
126,291,34767,1,2,1:2:0:0:
247,245,34948,1,8,0:0:0:0:
126,199,35129,5,2,1:2:0:0:
126,199,35219,1,0,1:2:0:0:
126,199,35310,2,0,P|103:157|97:112,1,90,0|2,1:2|0:0,0:0:0:0:
177,14,35671,1,0,1:2:0:0:
224,135,35851,2,0,P|271:129|311:108,1,90,10|0,0:0|0:0,0:0:0:0:
388,9,36214,1,2,1:2:0:0:
260,26,36394,1,8,0:0:0:0:
377,83,36574,2,0,P|388:129|383:173,1,90,2|0,0:0|0:0,0:0:0:0:
264,219,36936,1,2,0:0:0:0:
280,346,37117,5,0,1:2:0:0:
398,297,37297,2,0,P|430:262|447:220,1,90,8|0,0:0|0:0,0:0:0:0:
462,96,37658,1,0,1:2:0:0:
462,96,37839,2,0,P|452:49|428:10,1,90,8|2,0:0|0:0,0:0:0:0:
348,130,38201,5,2,1:2:0:0:
298,10,38382,1,2,0:0:0:0:
250,131,38562,1,0,1:2:0:0:
197,30,38743,2,0,P|108:39|17:7,1,180,10|2,0:0|1:2,0:0:0:0:
71,131,39285,6,0,L|87:220,1,90,8|2,0:0|0:0,0:0:0:0:
111,344,39647,1,0,1:2:0:0:
20,256,39827,1,0,1:2:0:0:
143,275,40008,2,0,L|232:291,1,90,8|2,0:0|0:0,0:0:0:0:
329,211,40370,2,0,L|346:123,1,90,0|0,1:2|0:0,0:0:0:0:
323,95,40641,1,8,1:2:0:0:
323,95,40731,1,8,0:0:0:0:
200,134,40912,1,0,1:2:0:0:
190,26,41092,6,0,P|120:69|87:140,1,144,2|0,1:2|1:2,0:0:0:0:
342,106,41815,2,0,P|398:165|411:242,1,144,2|0,1:2|1:2,0:0:0:0:
330,299,42357,1,8,0:0:0:0:
236,239,42538,2,0,P|179:179|166:102,1,144,2|0,1:2|1:2,0:0:0:0:
271,144,43080,1,8,0:3:0:0:
232,56,43261,1,0,1:2:0:0:
327,63,43442,1,8,0:3:0:0:
232,56,43623,2,0,L|157:48,1,72,2|0,1:2|1:2,0:0:0:0:
137,78,43894,1,0,1:2:0:0:
137,78,43984,1,0,1:2:0:0:
96,326,44345,6,0,P|173:302|223:242,1,144,2|2,1:2|1:2,0:0:0:0:
367,66,45068,1,2,1:2:0:0:
273,117,45249,1,2,1:2:0:0:
273,117,45339,1,0,1:2:0:0:
273,117,45430,1,0,1:2:0:0:
446,254,45791,1,0,1:2:0:0:
446,254,45972,2,0,P|470:215|478:180,1,72,8|0,0:0|1:2,0:0:0:0:
455,81,46333,2,0,P|416:57|381:49,1,72,8|8,0:3|0:3,0:0:0:0:
280,109,46695,5,2,0:0:0:0:
134,59,46876,2,0,P|190:118|203:195,1,144,2|0,1:2|1:2,0:0:0:0:
426,331,47598,2,0,P|407:251|434:178,1,144,2|0,1:2|1:2,0:0:0:0:
211,92,48321,6,0,L|203:177,1,72,10|0,0:0|0:0,0:0:0:0:
136,282,48683,1,0,1:2:0:0:
84,148,48864,1,10,0:0:0:0:
242,263,49044,1,8,0:0:0:0:
24,259,49225,1,10,0:0:0:0:
146,79,49406,1,8,0:0:0:0:
190,331,49586,1,14,0:0:0:0:
243,107,51213,6,0,L|184:94,1,56.25,0|0,1:2|1:2,0:0:0:0:
288,227,51394,2,0,L|347:214,1,56.25,8|8,0:0|0:0,0:0:0:0:
192,250,51574,1,8,0:3:0:0:
163,239,51665,1,8,0:3:0:0:
147,204,51755,1,8,0:3:0:0:
121,186,51845,1,8,0:3:0:0:
84,189,51936,2,0,P|48:244|48:337,1,161.999995056153,14|0,1:2|0:0,0:0:0:0:
140,342,52659,6,0,P|185:308|250:300,1,112.5,10|0,0:0|0:0,0:0:0:0:
385,352,53020,1,0,1:2:0:0:
316,186,53201,1,8,0:0:0:0:
395,109,53382,6,0,P|440:75|505:67,1,112.5,2|0,0:0|1:2,0:0:0:0:
459,222,53743,2,0,P|493:267|501:332,1,112.5,10|2,0:0|0:0,0:0:0:0:
307,355,54104,1,0,1:2:0:0:
376,189,54285,1,0,1:2:0:0:
197,212,54466,1,0,1:2:0:0:
332,89,54647,6,0,P|366:134|374:199,1,112.5,8|0,0:0|0:0,0:0:0:0:
212,103,55008,1,0,1:2:0:0:
250,281,55189,2,0,P|205:315|140:323,1,112.5,8|2,0:0|0:0,0:0:0:0:
54,261,55550,2,0,P|34:141|38:38,1,225,2|0,1:2|1:2,0:0:0:0:
188,17,56093,6,0,P|243:24|295:65,1,112.5,10|0,0:0|0:0,0:0:0:0:
113,111,56454,1,2,1:2:0:0:
265,210,56635,2,0,P|320:202|372:161,1,112.5,8|2,0:0|0:0,0:0:0:0:
489,347,56996,1,0,1:2:0:0:
465,168,57177,1,0,1:2:0:0:
322,278,57358,1,0,1:2:0:0:
401,328,57538,6,0,P|356:362|291:370,1,112.5,8|2,0:0|0:0,0:0:0:0:
298,99,57900,1,0,1:2:0:0:
120,379,58080,1,8,0:0:0:0:
205,274,58261,1,0,1:2:0:0:
209,284,58351,1,0,1:2:0:0:
212,294,58442,1,10,1:2:0:0:
68,188,58623,6,0,L|58:282,1,90,2|0,0:0|1:2,0:0:0:0:
186,172,58984,2,0,L|195:82,1,90,10|0,0:0|0:0,0:0:0:0:
380,53,59345,1,2,1:2:0:0:
259,214,59526,2,0,P|368:199|465:124,1,225,8|0,0:0|1:2,0:0:0:0:
292,95,60068,1,0,1:2:0:0:
471,253,60249,1,0,1:2:0:0:
339,318,60430,6,0,P|289:343|233:345,1,112.5,12|0,0:0|0:0,0:0:0:0:
69,330,60791,1,0,1:2:0:0:
58,154,60972,2,0,P|53:97|23:50,1,112.5,12|0,0:0|0:0,0:0:0:0:
188,17,61333,6,0,P|243:24|295:65,1,112.5,2|2,1:2|0:0,0:0:0:0:
113,111,61694,1,0,1:2:0:0:
265,210,61875,2,0,P|320:202|372:161,1,112.5,14|0,0:0|0:0,0:0:0:0:
373,17,62237,1,2,1:2:0:0:
432,237,62417,1,8,0:0:0:0:
484,105,62598,1,10,3:2:0:0:
480,115,62688,1,8,3:2:0:0:
477,125,62779,1,8,1:2:0:0:
55,175,63502,6,0,L|52:151,1,22.5,2|0,0:0|0:0,0:0:0:0:
140,215,63683,2,0,P|138:270|149:322,1,107.999996704102,2|2,0:0|0:0,0:0:0:0:
259,129,64225,5,8,0:0:0:0:
260,332,64406,1,0,1:2:0:0:
298,105,64586,1,2,1:2:0:0:
334,359,64767,2,0,P|389:304|403:254,1,125.999996154785,8|2,0:0|0:0,0:0:0:0:
277,206,65129,1,2,1:2:0:0:
237,56,65309,2,0,P|161:35|111:47,1,125.999996154785,8|2,0:0|1:2,0:0:0:0:
68,244,65671,1,12,0:0:0:0:
301,245,65851,1,0,0:0:0:0:
91,273,66032,1,0,1:2:0:0:
302,131,66213,2,0,P|350:92|389:42,2,125.999996154785,12|0|0,0:0|0:0|1:2,0:0:0:0:
257,319,66755,5,2,1:2:0:0:
402,201,66936,1,2,1:2:0:0:
284,56,67117,2,0,P|206:66|165:97,1,125.999996154785,4|0,1:2|0:0,0:0:0:0:
65,185,67478,1,2,1:2:0:0:
156,284,67659,2,0,P|101:339|51:353,1,125.999996154785,12|2,0:0|0:0,0:0:0:0:
262,327,68020,1,0,1:2:0:0:
229,196,68201,2,0,P|304:175|354:188,1,125.999996154785,10|2,0:0|1:2,0:0:0:0:
444,343,68562,5,0,1:2:0:0:
275,272,68743,1,12,0:0:0:0:
453,231,68924,1,12,0:0:0:0:
334,369,69104,1,0,1:2:0:0:
349,186,69285,2,0,P|369:110|405:73,2,125.999996154785,10|0|10,0:0|1:2|0:0,0:0:0:0:
512,293,69827,5,10,3:2:0:0:
512,293,69918,1,8,3:2:0:0:
512,293,70008,2,0,P|444:332|393:333,1,125.999996154785,14|0,1:2|0:0,0:0:0:0:
286,248,70370,1,2,1:2:0:0:
248,377,70551,2,0,P|172:357|135:321,1,125.999996154785,14|2,0:0|0:0,0:0:0:0:
44,210,70912,1,0,1:2:0:0:
139,74,71092,2,0,P|172:144|168:195,1,125.999996154785,10|2,0:0|1:2,0:0:0:0:
311,41,71454,5,12,0:0:0:0:
247,277,71635,1,0,1:2:0:0:
400,65,71815,5,0,1:2:0:0:
328,329,71996,1,12,0:0:0:0:
498,141,72177,5,0,0:0:0:0:
222,161,72357,1,0,1:2:0:0:
380,254,72538,2,0,P|452:281|503:272,1,125.999996154785,10|2,0:0|1:2,0:0:0:0:
444,82,72900,2,0,P|385:32|334:23,1,125.999996154785,6|0,1:2|0:0,0:0:0:0:
234,236,73261,1,2,1:2:0:0:
130,22,73442,2,0,P|85:84|80:136,1,125.999996154785,12|2,0:0|0:0,0:0:0:0:
315,206,73803,5,0,1:2:0:0:
51,278,73984,1,10,0:0:0:0:
232,64,74165,5,2,1:2:0:0:
212,340,74345,1,8,0:0:0:0:
401,255,74527,5,8,1:2:0:0:
410,233,74617,1,8,1:2:0:0:
412,213,74707,2,0,L|420:147,1,62.9999980773926,8|8,1:2|1:2,0:0:0:0:
285,60,74888,2,0,L|222:52,1,62.9999980773926,8|8,1:2|1:2,0:0:0:0:
284,196,75068,5,10,0:0:0:0:
284,196,75159,1,8,0:0:0:0:
284,196,75249,1,8,1:3:0:0:
284,196,75339,2,0,L|274:248,4,33.7500012874604,8|8|8|8|8,1:3|1:3|1:3|1:3|1:3,0:0:0:0:
111,311,75791,2,0,P|63:205|47:98,1,225,14|4,0:0|1:2,0:0:0:0:
245,144,76514,6,0,P|256:259|296:360,1,225,14|4,0:0|1:2,0:0:0:0:
392,246,77056,1,10,3:2:0:0:
396,256,77146,1,8,3:2:0:0:
399,266,77237,1,8,1:2:0:0:
485,349,77418,1,0,1:2:0:0:
499,213,77598,2,0,P|490:152|464:108,1,112.5,0|0,1:2|0:0,0:0:0:0:
329,211,77960,2,0,P|268:202|224:176,1,112.5,12|0,0:0|0:0,0:0:0:0:
346,100,78321,1,4,1:2:0:0:
248,44,78502,5,8,3:2:0:0:
248,44,78592,1,8,3:2:0:0:
248,44,78683,2,0,P|186:36|137:50,1,112.5,14|2,1:2|0:0,0:0:0:0:
77,134,79044,1,4,1:2:0:0:
138,228,79225,2,0,P|146:290|132:339,2,112.5,2|0|2,1:2|0:0|1:2,0:0:0:0:
199,134,79767,1,8,0:0:0:0:
304,218,79948,1,10,3:2:0:0:
308,208,80038,1,8,3:2:0:0:
311,198,80129,1,8,1:2:0:0:
400,293,80309,6,0,L|390:348,1,56.25,8|8,0:0|0:0,0:0:0:0:
398,144,80490,2,0,L|421:92,1,56.25,0|0,1:2|1:2,0:0:0:0:
288,314,80671,1,0,1:2:0:0:
263,329,80762,1,0,1:2:0:0:
237,332,80852,1,10,3:2:0:0:
208,323,80942,1,8,3:0:0:0:
184,304,81032,1,8,3:0:0:0:
168,282,81123,1,8,3:0:0:0:
149,258,81213,6,0,L|118:209,1,56.25,10|8,1:2|1:2,0:0:0:0:
270,203,81394,2,0,L|322:222,1,56.25,8|8,1:2|1:2,0:0:0:0:
233,25,81574,6,0,L|135:46,1,90,14|0,0:0|0:0,0:0:0:0:
162,147,81936,1,0,1:2:0:0:
13,225,82117,2,0,P|54:304|144:348,1,180,12|0,0:0|1:2,0:0:0:0:
306,337,82659,6,0,L|322:257,2,76.5000014591217,8|0|0,0:0|0:0|1:2,0:0:0:0:
272,182,83201,2,0,L|234:191,1,38.2500007295609,8|8,0:0|0:0,0:0:0:0:
381,140,83382,1,8,3:0:0:0:
409,129,83472,1,8,3:0:0:0:
429,103,83562,1,8,3:0:0:0:
440,75,83653,1,8,3:0:0:0:
441,41,83743,1,14,0:0:0:0:
248,82,83924,2,0,P|193:96|117:71,1,134.999995880127,0|0,1:2|0:0,0:0:0:0:
256,192,84466,12,0,87719,0:0:0:0:
