osu file format v14

[General]
AudioFilename: audio.mp3
AudioLeadIn: 0
PreviewTime: 51644
Countdown: 0
SampleSet: Normal
StackLeniency: 0.7
Mode: 1
LetterboxInBreaks: 0
WidescreenStoryboard: 1

[Editor]
DistanceSpacing: 1
BeatDivisor: 4
GridSize: 32
TimelineZoom: 1.4

[Metadata]
Title:Daylight (TV Size)
TitleUnicode:Daylight (TV Size)
Artist:MindaRyn
ArtistUnicode:MindaRyn
Creator:LilacCos
Version:Muzukashii
Source:ありふれた職業で世界最強 2nd season
Tags:anime pop english Arifureta: From Commonplace to World’s Worlds Strongest Arifureta Shokugyō de Sekai Saikyō shokugyou saikyou Sekaikyou op opening season two 2 s2
BeatmapID:3957048
BeatmapSetID:1653940

[Difficulty]
HPDrainRate:6
CircleSize:2
OverallDifficulty:5
ApproachRate:5
SliderMultiplier:1.4
SliderTickRate:1

[Events]
//Background and Video events
0,0,"Muzu_Tio_BG.jpg",0,-20
Video,175,"Arifureta 2nd Season Opening Background.mp4"
//Break Periods
//Storyboard Layer 0 (Background)
//Storyboard Layer 1 (Fail)
//Storyboard Layer 2 (Pass)
//Storyboard Layer 3 (Foreground)
//Storyboard Layer 4 (Overlay)
//Storyboard Sound Samples

[TimingPoints]
496,361.44578313253,4,1,0,40,1,0
4652,-100,4,1,0,50,0,0
5736,-99.009900990099,4,1,0,50,0,0
5827,-98.0392156862745,4,1,0,50,0,0
5917,-97.0873786407767,4,1,0,50,0,0
6279,-94.8421068604986,4,1,0,60,0,0
40255,-95.2380952380952,4,1,0,60,0,0
40435,-96.3855421686747,4,1,0,60,0,0
40526,-96.969696969697,4,1,0,60,0,0
40616,-97.5609756097561,4,1,0,60,0,0
40797,-98.7654320987654,4,1,0,60,0,0
40977,-100,4,1,0,60,0,0
51098,-100,4,1,0,60,0,0
51279,-98.7780171498393,4,1,0,60,0,0
51459,-97.5855386038632,4,1,0,60,0,0
51550,-96.9999844800025,4,1,0,60,0,0
51640,-96.4215085530699,4,1,0,60,0,0
51821,-95.2848301786114,4,1,0,70,0,0
52544,-90.9090909090909,4,1,0,70,0,1
74411,-90.9090909090909,4,1,0,70,0,1
74592,-92.1052873961283,4,1,0,70,0,1
74773,-93.3332960000149,4,1,0,70,0,1
74863,-93.9597063195419,4,1,0,70,0,1
74953,-94.594581811543,4,1,0,70,0,1
75134,-95.8904240945786,4,1,0,70,0,1
75224,-96.5517507728968,4,1,0,70,0,1
75315,-97.2222627314984,4,1,0,70,0,1
75495,-98.5915215235151,4,1,0,70,0,1
75676,-100,4,1,0,60,0,0
85797,-100,4,1,0,50,0,0
86520,-100,4,1,0,40,0,0
87242,-100,4,1,0,30,0,0
87965,-100,4,1,0,20,0,0
88146,-100,4,1,0,10,0,0

[HitObjects]
256,192,496,5,0,1:1:0:0:
256,192,676,1,8,1:1:0:0:
256,192,1038,1,8,1:1:0:0:
256,192,1399,1,8,1:1:0:0:
256,192,1941,1,8,1:1:0:0:
256,192,2122,1,0,1:1:0:0:
256,192,2483,1,8,1:1:0:0:
256,192,2845,1,8,1:1:0:0:
256,192,3387,1,0,1:1:0:0:
256,192,3568,1,8,1:1:0:0:
256,192,3929,1,8,1:1:0:0:
256,192,4291,1,8,1:1:0:0:
256,192,4652,5,0,1:1:0:0:
256,192,4833,1,8,1:1:0:0:
256,192,5014,1,8,1:1:0:0:
256,192,5104,1,8,1:1:0:0:
256,192,5194,1,8,1:1:0:0:
256,192,5375,1,0,1:1:0:0:
256,192,5556,1,8,1:1:0:0:
256,192,5736,1,8,1:1:0:0:
256,192,5827,1,8,1:1:0:0:
256,192,5917,1,8,1:1:0:0:
256,192,6279,1,4,1:1:0:0:
256,192,6640,1,0,1:1:0:0:
256,192,6821,1,12,1:1:0:0:
256,192,7182,1,0,1:1:0:0:
256,192,7363,1,12,1:1:0:0:
256,192,7905,1,0,1:1:0:0:
256,192,8086,1,8,1:1:0:0:
256,192,8447,1,8,1:1:0:0:
256,192,8628,1,0,1:1:0:0:
256,192,8809,1,8,1:1:0:0:
256,192,9170,1,4,1:1:0:0:
256,192,9532,1,8,1:1:0:0:
256,192,9712,1,12,1:1:0:0:
256,192,10074,1,8,1:1:0:0:
256,192,10255,1,4,1:1:0:0:
256,192,10797,1,0,1:1:0:0:
256,192,10977,1,8,1:1:0:0:
256,192,11339,1,8,1:1:0:0:
256,192,11520,1,0,1:1:0:0:
256,192,11700,1,8,1:1:0:0:
256,192,12062,1,4,1:1:0:0:
256,192,12423,1,12,1:1:0:0:
256,192,12785,1,8,1:1:0:0:
256,192,12965,1,8,1:1:0:0:
256,192,13146,1,4,1:1:0:0:
256,192,13688,1,0,1:1:0:0:
256,192,13869,1,8,1:1:0:0:
256,192,14230,1,8,1:1:0:0:
256,192,14411,1,8,1:1:0:0:
256,192,14502,1,8,1:1:0:0:
256,192,14592,1,8,1:1:0:0:
256,192,14953,1,0,1:1:0:0:
256,192,15134,1,0,1:1:0:0:
256,192,15315,1,8,1:1:0:0:
256,192,15676,1,8,1:1:0:0:
256,192,15857,1,0,1:1:0:0:
256,192,16038,1,0,1:1:0:0:
256,192,16218,1,12,1:1:0:0:
256,192,16941,1,0,1:1:0:0:
256,192,17032,1,0,1:1:0:0:
256,192,17122,1,0,1:1:0:0:
256,192,17303,1,8,1:1:0:0:
256,192,17393,1,8,1:1:0:0:
256,192,17483,1,8,1:1:0:0:
256,192,17664,1,8,1:1:0:0:
256,192,17845,1,4,1:1:0:0:
256,192,18206,1,8,1:1:0:0:
256,192,18568,1,8,1:1:0:0:
256,192,18929,1,0,1:1:0:0:
256,192,19110,1,0,1:1:0:0:
256,192,19291,1,8,1:1:0:0:
256,192,20014,1,8,1:1:0:0:
256,192,20375,1,0,1:1:0:0:
256,192,20556,1,8,1:1:0:0:
256,192,20736,1,0,1:1:0:0:
256,192,21098,1,8,1:1:0:0:
256,192,21279,1,0,1:1:0:0:
256,192,21459,1,8,1:1:0:0:
256,192,21821,1,0,1:1:0:0:
256,192,22002,1,8,1:1:0:0:
256,192,22544,1,0,1:1:0:0:
256,192,22905,1,0,1:1:0:0:
256,192,23086,1,8,1:1:0:0:
256,192,23447,1,0,1:1:0:0:
256,192,23809,1,8,1:1:0:0:
256,192,24170,1,8,1:1:0:0:
256,192,24532,1,0,1:1:0:0:
256,192,24893,1,0,1:1:0:0:
256,192,25074,1,8,1:1:0:0:
256,192,25255,1,8,1:1:0:0:
256,192,25616,1,0,1:1:0:0:
256,192,25797,1,8,1:1:0:0:
256,192,26158,1,0,1:1:0:0:
256,192,26339,1,8,1:1:0:0:
256,192,26520,1,0,1:1:0:0:
256,192,27062,1,8,1:1:0:0:
256,192,27423,1,8,1:1:0:0:
256,192,27785,1,8,1:1:0:0:
256,192,27965,1,0,1:1:0:0:
256,192,28327,1,0,1:1:0:0:
256,192,28508,1,8,1:1:0:0:
256,192,28869,1,0,1:1:0:0:
256,192,29050,1,8,1:1:0:0:
256,192,29230,1,8,1:1:0:0:
256,192,29411,1,0,1:1:0:0:
256,192,29592,1,8,1:1:0:0:
256,192,29773,1,0,1:1:0:0:
256,192,30134,1,8,1:1:0:0:
256,192,30495,1,8,1:1:0:0:
256,192,30857,1,0,1:1:0:0:
256,192,31038,1,8,1:1:0:0:
256,192,31218,1,0,1:1:0:0:
256,192,31399,1,8,1:1:0:0:
256,192,31761,1,0,1:1:0:0:
256,192,31941,1,8,1:1:0:0:
256,192,32303,1,0,1:1:0:0:
256,192,32664,1,0,1:1:0:0:
256,192,32845,1,8,1:1:0:0:
256,192,33026,1,0,1:1:0:0:
256,192,33387,1,8,1:1:0:0:
256,192,33568,1,0,1:1:0:0:
256,192,33749,1,0,1:1:0:0:
256,192,34291,1,8,1:1:0:0:
256,192,34471,1,0,1:1:0:0:
256,192,34652,1,8,1:1:0:0:
256,192,35014,1,8,1:1:0:0:
256,192,35194,1,8,1:1:0:0:
256,192,35375,1,0,1:1:0:0:
256,192,35736,1,8,1:1:0:0:
256,192,36098,1,0,1:1:0:0:
256,192,36459,1,8,1:1:0:0:
256,192,36821,1,0,1:1:0:0:
256,192,37002,1,0,1:1:0:0:
256,192,37182,1,8,1:1:0:0:
256,192,37905,1,0,1:1:0:0:
256,192,38086,1,8,1:1:0:0:
256,192,38267,1,0,1:1:0:0:
256,192,38628,1,8,1:1:0:0:
256,192,38989,1,0,1:1:0:0:
256,192,39170,1,8,1:1:0:0:
256,192,39351,1,0,1:1:0:0:
256,192,39712,1,0,1:1:0:0:
256,192,39893,1,8,1:1:0:0:
256,192,40255,1,0,1:1:0:0:
256,192,40435,1,8,1:1:0:0:
256,192,40526,1,8,1:1:0:0:
256,192,40616,1,8,1:1:0:0:
256,192,40797,1,8,1:1:0:0:
256,192,40977,1,4,1:1:0:0:
256,192,41339,1,8,1:1:0:0:
256,192,41700,1,0,1:1:0:0:
256,192,42242,1,8,1:1:0:0:
256,192,42423,1,0,1:1:0:0:
256,192,42785,1,0,1:1:0:0:
256,192,42965,1,8,1:1:0:0:
256,192,43146,1,0,1:1:0:0:
256,192,43327,1,0,1:1:0:0:
256,192,43508,1,8,1:1:0:0:
256,192,43869,1,4,1:1:0:0:
256,192,44230,1,8,1:1:0:0:
256,192,44592,1,0,1:1:0:0:
256,192,44953,1,0,1:1:0:0:
256,192,45134,1,8,1:1:0:0:
256,192,45676,1,0,1:1:0:0:
256,192,45857,1,8,1:1:0:0:
256,192,46218,1,0,1:1:0:0:
256,192,46399,1,8,1:1:0:0:
256,192,46580,1,0,1:1:0:0:
256,192,46761,1,8,1:1:0:0:
256,192,47122,1,8,1:1:0:0:
256,192,47483,1,0,1:1:0:0:
256,192,48206,1,8,1:1:0:0:
256,192,48749,1,8,1:1:0:0:
256,192,48929,1,8,1:1:0:0:
256,192,49110,1,0,1:1:0:0:
256,192,49291,1,8,1:1:0:0:
256,192,49471,1,8,1:1:0:0:
256,192,51098,1,0,1:1:0:0:
256,192,51279,1,8,1:1:0:0:
256,192,51459,1,0,1:1:0:0:
256,192,51550,1,0,1:1:0:0:
256,192,51640,1,0,1:1:0:0:
256,192,51821,1,8,1:1:0:0:
256,192,52544,1,4,1:1:0:0:
256,192,52905,1,0,1:1:0:0:
256,192,53086,1,8,1:1:0:0:
256,192,53267,1,0,1:1:0:0:
256,192,53357,1,0,1:1:0:0:
256,192,53447,1,0,1:1:0:0:
256,192,53628,1,0,1:1:0:0:
256,192,53809,1,8,1:1:0:0:
256,192,53989,1,8,1:1:0:0:
256,192,54170,1,0,1:1:0:0:
256,192,54351,1,0,1:1:0:0:
256,192,54532,1,8,1:1:0:0:
256,192,55074,1,8,1:1:0:0:
256,192,55255,1,0,1:1:0:0:
256,192,55435,1,8,1:1:0:0:
256,192,55616,1,8,1:1:0:0:
256,192,55977,1,8,1:1:0:0:
256,192,56068,1,8,1:1:0:0:
256,192,56158,1,8,1:1:0:0:
256,192,56339,1,0,1:1:0:0:
256,192,56520,1,8,1:1:0:0:
256,192,56700,1,0,1:1:0:0:
256,192,56791,1,0,1:1:0:0:
256,192,56881,1,0,1:1:0:0:
256,192,57423,1,8,1:1:0:0:
256,192,57604,1,0,1:1:0:0:
256,192,57785,1,8,1:1:0:0:
256,192,57965,1,8,1:1:0:0:
256,192,58056,1,8,1:1:0:0:
256,192,58146,1,8,1:1:0:0:
256,192,58327,1,0,1:1:0:0:
256,192,58508,1,8,1:1:0:0:
256,192,58688,1,0,1:1:0:0:
256,192,58869,1,8,1:1:0:0:
256,192,59230,1,0,1:1:0:0:
256,192,59411,1,8,1:1:0:0:
256,192,59773,1,8,1:1:0:0:
256,192,59953,1,0,1:1:0:0:
256,192,60134,1,0,1:1:0:0:
256,192,60315,1,8,1:1:0:0:
256,192,60676,1,0,1:1:0:0:
256,192,60857,1,8,1:1:0:0:
256,192,61218,1,8,1:1:0:0:
256,192,61399,1,0,1:1:0:0:
256,192,61761,1,8,1:1:0:0:
256,192,62122,1,0,1:1:0:0:
256,192,62303,1,8,1:1:0:0:
256,192,62483,1,0,1:1:0:0:
256,192,62574,1,0,1:1:0:0:
256,192,62664,1,0,1:1:0:0:
256,192,64110,1,4,1:1:0:0:
256,192,64471,1,8,1:1:0:0:
256,192,64833,1,0,1:1:0:0:
256,192,65014,1,0,1:1:0:0:
256,192,65194,1,8,1:1:0:0:
256,192,65375,1,0,1:1:0:0:
256,192,65465,1,0,1:1:0:0:
256,192,65556,1,0,1:1:0:0:
256,192,65917,1,0,1:1:0:0:
256,192,66098,1,8,1:1:0:0:
256,192,66459,1,8,1:1:0:0:
256,192,66640,1,0,1:1:0:0:
256,192,66821,1,8,1:1:0:0:
256,192,66911,1,8,1:1:0:0:
256,192,67002,1,8,1:1:0:0:
256,192,67363,1,8,1:1:0:0:
256,192,67724,1,0,1:1:0:0:
256,192,67815,1,0,1:1:0:0:
256,192,67905,1,0,1:1:0:0:
256,192,68086,1,0,1:1:0:0:
256,192,68267,1,8,1:1:0:0:
256,192,68357,1,8,1:1:0:0:
256,192,68447,1,8,1:1:0:0:
256,192,68628,1,8,1:1:0:0:
256,192,68809,1,0,1:1:0:0:
256,192,69170,1,8,1:1:0:0:
256,192,69532,1,8,1:1:0:0:
256,192,69893,1,0,1:1:0:0:
256,192,70255,1,0,1:1:0:0:
256,192,70435,1,0,1:1:0:0:
256,192,70616,1,8,1:1:0:0:
256,192,70977,1,8,1:1:0:0:
256,192,71158,1,0,1:1:0:0:
256,192,71339,1,8,1:1:0:0:
256,192,71881,1,8,1:1:0:0:
256,192,72242,1,8,1:1:0:0:
256,192,72423,1,0,1:1:0:0:
256,192,72604,1,8,1:1:0:0:
256,192,72694,1,8,1:1:0:0:
256,192,72785,1,8,1:1:0:0:
256,192,73146,1,8,1:1:0:0:
256,192,73327,1,0,1:1:0:0:
256,192,73508,1,8,1:1:0:0:
256,192,73869,1,8,1:1:0:0:
256,192,74050,1,0,1:1:0:0:
256,192,74411,1,8,1:1:0:0:
256,192,74592,1,8,1:1:0:0:
256,192,74773,1,0,1:1:0:0:
256,192,74863,1,0,1:1:0:0:
256,192,74953,1,0,1:1:0:0:
256,192,75134,1,8,1:1:0:0:
256,192,75224,1,8,1:1:0:0:
256,192,75315,1,8,1:1:0:0:
256,192,75495,1,8,1:1:0:0:
256,192,75676,1,4,1:1:0:0:
256,192,76038,1,0,1:1:0:0:
256,192,76399,1,8,1:1:0:0:
256,192,76761,1,0,1:1:0:0:
256,192,76941,1,8,1:1:0:0:
256,192,77032,1,8,1:1:0:0:
256,192,77122,1,8,1:1:0:0:
256,192,77303,1,8,1:1:0:0:
256,192,77483,1,0,1:1:0:0:
256,192,77845,1,8,1:1:0:0:
256,192,78387,1,0,1:1:0:0:
256,192,78477,1,0,1:1:0:0:
256,192,78568,1,0,1:1:0:0:
256,192,78749,1,0,1:1:0:0:
256,192,79110,1,8,1:1:0:0:
256,192,79471,1,0,1:1:0:0:
256,192,79652,1,8,1:1:0:0:
256,192,79833,1,8,1:1:0:0:
256,192,79923,1,8,1:1:0:0:
256,192,80014,1,8,1:1:0:0:
256,192,80194,1,0,1:1:0:0:
256,192,80375,1,8,1:1:0:0:
256,192,80465,1,8,1:1:0:0:
256,192,80556,1,8,1:1:0:0:
256,192,80736,1,0,1:1:0:0:
256,192,81098,1,8,1:1:0:0:
256,192,81459,1,12,1:1:0:0:
256,192,81821,1,0,1:1:0:0:
256,192,82002,1,12,1:1:0:0:
256,192,82363,1,0,1:1:0:0:
256,192,82544,1,12,1:1:0:0:
256,192,82905,1,0,1:1:0:0:
256,192,83086,1,8,1:1:0:0:
256,192,83176,1,8,1:1:0:0:
256,192,83267,1,8,1:1:0:0:
256,192,83447,1,0,1:1:0:0:
256,192,83628,1,8,1:1:0:0:
256,192,83809,1,0,1:1:0:0:
256,192,84351,1,12,1:1:0:0:
256,192,84532,12,0,88327,0:0:0:0:
