osu file format v14

[General]
AudioFilename: audio.mp3
AudioLeadIn: 0
PreviewTime: 52482
Countdown: 0
SampleSet: Normal
StackLeniency: 0.3
Mode: 0
LetterboxInBreaks: 0
WidescreenStoryboard: 1

[Editor]
Bookmarks: 22248,22406,22564,22721,22879,23037,23195,23353,23511,23669,23827,23985,24143,24300,24458,24616,24774,24932,25090,25248,25406,25564,25721,25879,26037,26195,26353,26511,26669,26827,26985,27143,27300,27458,27616,27774,27932,28090,28248,28406,28564,28721,28879,29037,29195,29353,29511,29669,29827,29985,30143,30300,30458,30616,30774,30932,31090,31248,31406,31564,31721,31879,32037,32195,32353
DistanceSpacing: 1.5
BeatDivisor: 4
GridSize: 8
TimelineZoom: 1.2

[Metadata]
Title:Daisuki, Evolution
TitleUnicode:大男子き、エヴォリューション
Artist:Minazuki Airi with Atsushi
ArtistUnicode:湊月あいり with Atsushi
Creator:Syph
Version:Xexxar's Easy
Source:女装学園(孕)
Tags:Kan詰め 斬戯 visual novel dating simulator game opening song josou gakuen eroge traps xexxar xr karen akitoshi corinn jogaku no strike
BeatmapID:1296085
BeatmapSetID:611004

[Difficulty]
HPDrainRate:2
CircleSize:2.5
OverallDifficulty:2
ApproachRate:3
SliderMultiplier:0.799999999999999
SliderTickRate:1

[Events]
//Background and Video events
0,0,"wryyyyyyyyyyyyyyyyyyyy.png",0,0
//Break Periods
2,8870,10703
2,22448,30913
//Storyboard Layer 0 (Background)
//Storyboard Layer 1 (Fail)
//Storyboard Layer 2 (Pass)
//Storyboard Layer 3 (Foreground)
//Storyboard Sound Samples

[TimingPoints]
990,240,4,1,1,75,1,0
8670,315.789473684211,4,1,1,75,1,0
12143,315.789473684211,4,1,1,80,1,0
12143,-92.5925925925926,4,1,1,80,0,0
22248,-92.5925925925926,4,1,1,70,0,0
39932,-92.5925925925926,4,1,1,80,0,0
47827,-92.5925925925926,4,1,1,45,0,0
48143,-92.5925925925926,4,1,1,52,0,0
48458,-92.5925925925926,4,1,1,59,0,0
48774,-92.5925925925926,4,1,1,66,0,0
49090,-92.5925925925926,4,1,1,73,0,0
49406,-92.5925925925926,4,1,1,80,0,0
49721,-92.5925925925926,4,1,1,87,0,0
50037,-92.5925925925926,4,1,1,90,0,0
52564,-92.5925925925926,4,1,1,80,0,1
68985,-92.5925925925926,4,1,1,80,0,0
70248,-92.5925925925926,4,1,1,80,0,1
80274,-92.5925925925926,4,1,1,80,0,0
80353,-92.5925925925926,4,1,1,80,0,1
80432,-92.5925925925926,4,1,1,80,0,0
82879,-92.5925925925926,4,1,1,80,0,1
82958,-92.5925925925926,4,1,1,80,0,0
85406,-92.5925925925926,4,1,1,80,0,1
85485,-92.5925925925926,4,1,1,80,0,0
87932,-92.5925925925926,4,1,1,80,0,1
88011,-92.5925925925926,4,1,1,80,0,0
90537,-92.5925925925926,4,1,1,80,0,0
91564,-92.5925925925926,4,1,1,80,0,1
91643,-92.5925925925926,4,1,1,80,0,0
94564,-92.5925925925926,4,1,1,5,0,0
100248,-92.5925925925926,4,1,1,5,0,0

[Colours]
Combo1 : 255,108,108
Combo2 : 238,125,146
Combo3 : 234,224,102
Combo4 : 206,200,198

[HitObjects]
28,314,990,6,0,L|202:320,1,160,4|4,0:3|0:3,0:0:0:0:
347,245,1950,2,0,B|376:192|376:192|378:120,2,120,8|12|12,0:3|0:1|0:0,0:0:0:0:
259,235,2910,6,0,L|85:229,1,160,4|4,0:3|0:3,0:0:0:0:
245,326,3870,2,0,B|298:355|298:355|369:357,2,120,8|12|12,0:3|0:1|0:0,0:0:0:0:
180,265,4830,6,0,B|152:186|152:186|177:106,1,160,6|6,0:3|0:3,0:0:0:0:
325,21,5790,2,0,B|382:34|382:34|459:18,2,120,12|12|8,0:3|0:0|0:0,0:0:0:0:
303,106,6750,6,0,B|285:186|285:186|311:272,1,160,12|8,0:0|0:3,0:0:0:0:
149,339,7710,2,0,B|107:182|107:182|145:20,1,320,12|8,0:0|0:0,0:0:0:0:
0,236,12143,6,0,L|186:248,1,172.80000421875,4|2,0:0|0:1,0:0:0:0:
267,252,13090,1,0,0:0:0:0:
223,167,13406,2,0,B|213:121|213:121|225:73,1,86.4000021093749,2|0,0:0|0:3,0:0:0:0:
299,26,14037,2,0,L|402:29,1,86.400002109375,2|0,0:0|0:0,0:0:0:0:
439,108,14669,6,0,B|458:194|458:194|437:277,1,172.80000421875,2|2,0:0|0:0,0:0:0:0:
409,366,15616,1,0,0:0:0:0:
343,296,15932,2,0,B|260:277|260:277|175:296|175:296|88:279|88:279,1,259.200006328125,2|2,1:0|1:0,0:0:0:0:
39,198,17195,6,0,B|22:112|22:112|50:13,1,172.80000421875,4|2,0:0|0:2,0:0:0:0:
135,61,18143,1,0,0:0:0:0:
223,95,18458,2,0,B|232:137|232:137|224:206,1,86.4000021093749,2|0,0:0|0:0,0:0:0:0:
302,238,19090,2,0,B|344:248|344:248|437:236,1,86.4000021093749,2|0,0:0|0:0,0:0:0:0:
465,189,19721,6,0,B|493:97|493:97|467:17,1,172.80000421875,2|2,0:0|0:2,0:0:0:0:
375,37,20669,1,0,0:0:0:0:
280,50,20985,2,0,B|195:62|195:62|105:45|105:45|-5:57,1,259.200006328125,2|2,1:0|1:2,0:0:0:0:
36,148,22248,5,4,0:0:0:0:
54,54,32353,6,0,L|56:160,1,86.4000021093749,4|8,0:0|0:0,0:0:0:0:
29,232,32985,2,0,B|18:298|18:298|35:376,2,129.600003164062,0|2|8,0:0|0:0|0:0,0:0:0:0:
122,213,34248,2,0,L|213:210,1,86.4000021093749,2|10,0:0|0:0,0:0:0:0:
298,241,34879,6,0,L|389:238,1,86.4000021093749,0|8,0:0|0:0,0:0:0:0:
452,170,35511,2,0,B|474:112|474:112|462:27,2,129.600003164062,0|2|8,0:0|0:0|0:0,0:0:0:0:
476,261,36774,2,0,L|481:365,1,86.4000021093749,2|10,0:0|0:0,0:0:0:0:
386,329,37406,5,4,0:0:0:0:
291,317,37721,2,0,B|204:306|204:306|109:323,1,172.80000421875,8|8,0:0|0:0,0:0:0:0:
30,289,38669,2,0,B|11:229|11:229|24:158,2,129.600003164062,2|2|8,0:0|0:0|0:0,0:0:0:0:
106,233,39932,6,0,L|251:209,2,129.600003164062,2|6|6,0:0|0:0|0:0,0:0:0:0:
119,138,41195,2,0,L|264:114,2,129.600003164062,14|14|14,0:0|0:0|0:0,0:0:0:0:
31,174,42458,6,0,B|6:256|6:256|29:346,1,172.80000421875,4|2,0:0|0:0,0:0:0:0:
121,354,43406,1,10,0:0:0:0:
215,365,43721,2,0,L|390:361,1,172.80000421875,4|8,0:0|0:0,0:0:0:0:
471,314,44669,1,10,0:0:0:0:
387,267,44985,6,0,L|288:269,1,86.4000021093749,4|8,0:0|0:0,0:0:0:0:
231,203,45616,2,0,B|213:142|213:142|227:68,2,129.600003164062,8|0|8,0:0|0:0|0:0,0:0:0:0:
211,296,46879,2,0,L|105:300,1,86.4000021093749,8|8,0:0|0:0,0:0:0:0:
59,369,47511,5,12,0:0:0:0:
256,192,47827,12,12,50037,0:0:0:0:
185,0,52564,6,0,L|188:98,1,86.4000021093749,12|8,0:0|0:0,0:0:0:0:
213,178,53195,2,0,L|216:276,1,86.4000021093749,8|8,0:0|0:0,0:0:0:0:
149,333,53827,2,0,B|88:350|88:350|8:345,2,129.600003164062,8|2|10,0:0|0:2|0:0,0:0:0:0:
240,357,55090,6,0,L|341:352,1,86.4000021093749,10|10,0:0|0:0,0:0:0:0:
385,278,55721,2,0,B|396:237|396:237|383:185,1,86.4000021093749,10|8,0:0|0:0,0:0:0:0:
306,140,56353,2,0,B|218:154|218:154|138:134|138:134|37:147,1,259.200006328125,14|8,0:3|0:0,0:0:0:0:
73,52,57616,6,0,L|165:41,1,86.4000021093749,12|8,0:0|0:0,0:0:0:0:
252,56,58248,2,0,L|344:45,1,86.4000021093749,8|8,0:0|0:0,0:0:0:0:
425,83,58879,2,0,B|453:145|453:145|439:210,2,129.600003164062,8|2|10,0:0|0:2|0:0,0:0:0:0:
346,136,60143,6,0,L|247:149,1,86.4000021093749,10|10,0:0|0:0,0:0:0:0:
165,135,60774,2,0,L|66:148,1,86.4000021093749,10|8,0:0|0:0,0:0:0:0:
31,228,61406,2,0,B|25:272|25:272|43:326,2,86.4000021093749,14|10|14,0:0|0:0|0:0,0:0:0:0:
125,240,62353,1,10,0:0:0:0:
214,206,62669,5,6,0:0:0:0:
304,240,62985,2,0,B|366:254|366:254|438:245,1,129.600003164062,8|2,0:0|0:0,0:0:0:0:
496,176,63774,6,0,B|510:109|510:109|497:35,2,129.600003164062,4|8|0,0:0|0:0|0:0,0:0:0:0:
403,155,65037,6,0,L|262:150,2,129.600003164062,4|10|2,0:0|0:0|0:0,0:0:0:0:
431,245,66300,6,0,B|445:313|445:313|428:375,1,129.600003164062,4|8,0:0|0:0,0:0:0:0:
337,345,67090,2,0,L|238:342,1,86.4000021093749,10|8,0:0|0:0,0:0:0:0:
165,299,67721,6,0,L|64:295,2,86.4000021093749,12|10|10,0:0|0:0|0:0,0:0:0:0:
245,248,68669,1,10,0:0:0:0:
249,152,68985,1,10,0:0:0:0:
512,288,70248,6,0,L|326:279,1,172.80000421875,4|2,0:0|0:1,0:0:0:0:
250,314,71195,1,0,0:0:0:0:
164,271,71511,2,0,L|59:268,1,86.4000021093749,2|0,0:0|0:0,0:0:0:0:
20,192,72142,2,0,B|13:149|13:149|24:94,1,86.4000021093749,2|0,0:0|0:0,0:0:0:0:
84,35,72774,6,0,B|167:16|167:16|252:38,1,172.80000421875,2|2,0:0|0:0,0:0:0:0:
346,28,73721,1,0,0:0:0:0:
307,115,74037,2,0,B|288:198|288:198|307:283|307:283|290:370|290:368,1,259.200006328125,2|2,1:0|1:0,0:0:0:0:
199,339,75300,6,0,B|113:322|113:322|14:350,1,172.80000421875,4|2,0:0|0:2,0:0:0:0:
7,252,76248,1,0,0:0:0:0:
46,165,76564,2,0,L|41:55,1,86.4000021093749,2|0,0:0|0:0,0:0:0:0:
110,13,77195,2,0,B|211:8,1,86.4000021093749,2|0,0:0|0:0,0:0:0:0:
160,96,77826,6,0,B|138:179|138:179|169:267,1,172.80000421875,2|2,0:0|0:2,0:0:0:0:
217,341,78774,1,0,0:0:0:0:
259,255,79090,6,0,B|331:303|331:303|416:289|416:289|474:201,1,259.200006328125,2|2,1:0|0:0,0:0:0:0:
432,126,80353,6,0,B|396:46|396:46|313:180|313:180|412:265|326:369|273:393|188:353|182:323|145:293|153:246|167:197|200:185|206:176,3,691.200016875,14|14|14|14,1:1|1:1|1:1|1:1,0:0:0:0:
245,109,88248,6,0,L|243:8,1,86.4000021093749,10|10,1:1|1:1,0:0:0:0:
148,18,88879,1,10,1:1:0:0:
53,13,89195,2,0,B|22:141|22:141|55:273,1,259.200006328125,8|10,1:1|1:1,0:0:0:0:
134,314,90458,6,0,L|303:317,2,129.600003164062,12|12|12,1:0|0:0|0:0,0:0:0:0:
256,192,91564,12,0,94564,2:0:0:0:
