osu file format v14

[General]
AudioFilename: audio.mp3
AudioLeadIn: 0
PreviewTime: 52482
Countdown: 0
SampleSet: Normal
StackLeniency: 0.3
Mode: 0
LetterboxInBreaks: 0
WidescreenStoryboard: 1

[Editor]
DistanceSpacing: 1.5
BeatDivisor: 4
GridSize: 8
TimelineZoom: 1.2

[Metadata]
Title:Daisuki, Evolution
TitleUnicode:大男子き、エヴォリューション
Artist:Minazuki Airi with Atsushi
ArtistUnicode:湊月あいり with Atsushi
Creator:Syph
Version:Normal
Source:女装学園(孕)
Tags:Kan詰め 斬戯 visual novel dating simulator game opening song josou gakuen eroge traps xexxar xr karen akitoshi corinn jogaku no strike
BeatmapID:1307319
BeatmapSetID:611004

[Difficulty]
HPDrainRate:3.5
CircleSize:3
OverallDifficulty:4
ApproachRate:5
SliderMultiplier:0.999999999999999
SliderTickRate:1

[Events]
//Background and Video events
0,0,"wryyyyyyyyyyyyyyyyyyyy.png",0,0
//Break Periods
2,8870,10943
//Storyboard Layer 0 (Background)
//Storyboard Layer 1 (Fail)
//Storyboard Layer 2 (Pass)
//Storyboard Layer 3 (Foreground)
//Storyboard Sound Samples

[TimingPoints]
990,240,4,1,1,75,1,0
8670,315.789473684211,4,1,1,75,1,0
12064,-100,4,1,1,5,0,0
12143,315.789473684211,4,1,1,80,1,0
12143,-92.5925925925926,4,1,1,80,0,0
22248,-92.5925925925926,4,1,1,70,0,0
39932,-92.5925925925926,4,1,1,80,0,0
47827,-92.5925925925926,4,1,1,45,0,0
48143,-92.5925925925926,4,1,1,52,0,0
48458,-92.5925925925926,4,1,1,59,0,0
48774,-92.5925925925926,4,1,1,66,0,0
49090,-92.5925925925926,4,1,1,73,0,0
49406,-92.5925925925926,4,1,1,80,0,0
49721,-92.5925925925926,4,1,1,87,0,0
50037,-92.5925925925926,4,1,1,90,0,0
52564,-92.5925925925926,4,1,1,80,0,1
68985,-92.5925925925926,4,1,1,80,0,0
70248,-92.5925925925926,4,1,1,80,0,1
80274,-92.5925925925926,4,1,1,80,0,0
80353,-92.5925925925926,4,1,1,80,0,1
80432,-92.5925925925926,4,1,1,80,0,0
82879,-92.5925925925926,4,1,1,80,0,1
82958,-92.5925925925926,4,1,1,80,0,0
85406,-92.5925925925926,4,1,1,80,0,1
85485,-92.5925925925926,4,1,1,80,0,0
87932,-92.5925925925926,4,1,1,80,0,1
88011,-92.5925925925926,4,1,1,80,0,0
90537,-92.5925925925926,4,1,1,80,0,0
91564,-92.5925925925926,4,1,1,30,0,1
91643,-92.5925925925926,4,1,1,30,0,0
94564,-92.5925925925926,4,1,1,5,0,0
100248,-92.5925925925926,4,1,1,5,0,0

[Colours]
Combo1 : 255,108,108
Combo2 : 238,125,146
Combo3 : 234,224,102
Combo4 : 206,200,198

[HitObjects]
132,206,990,6,0,B|179:189|179:189|240:197,1,99.9999999999999,4|4,0:3|0:3,0:0:0:0:
323,312,1470,2,0,B|372:318|372:318|419:301,1,99.9999999999999,4|4,0:3|0:3,0:0:0:0:
494,170,1950,2,0,B|511:123|511:123|508:22,2,150,8|12|12,0:3|0:1|0:0,0:0:0:0:
353,224,2910,6,0,B|336:177|336:177|344:116,1,99.9999999999999,4|4,0:3|0:3,0:0:0:0:
218,41,3390,2,0,B|225:91|225:91|208:138,1,99.9999999999999,4|4,0:3|0:3,0:0:0:0:
145,274,3870,2,0,B|98:291|98:291|-3:288,2,150,8|12|12,0:3|0:1|0:0,0:0:0:0:
234,152,4830,6,0,B|281:135|281:135|342:143,1,99.9999999999999,6|6,0:3|0:3,0:0:0:0:
297,288,5310,2,0,B|346:297|346:297|394:282,1,99.9999999999999,6|6,0:3|0:3,0:0:0:0:
456,146,5790,2,0,B|473:99|473:99|470:-2,2,150,12|12|8,0:3|0:0|0:0,0:0:0:0:
310,105,6750,6,0,L|208:98,1,99.9999999999999,12|8,0:0|0:0,0:0:0:0:
101,201,7230,2,0,L|203:194,1,99.9999999999999,8|10,0:3|0:0,0:0:0:0:
334,262,7710,2,0,L|329:382,2,99.9999999999999,12|8|8,0:0|0:0|0:0,0:0:0:0:
345,112,8430,1,8,0:0:0:0:
345,112,8670,1,8,0:0:0:0:
87,224,12143,6,0,P|70:181|89:116,1,108.000002636719,4|8,0:0|0:3,0:0:0:0:
152,78,12616,1,8,0:0:0:0:
152,78,12774,2,0,L|281:78,1,108.000002636719,2|0,0:1|0:0,0:0:0:0:
422,78,13406,2,0,B|444:123|444:123|437:238,1,162.000003955078,2|8,0:0|0:0,0:0:0:0:
376,288,14037,2,0,B|331:310|331:310|216:303,1,162.000003955078,2|8,0:0|0:0,0:0:0:0:
156,250,14669,6,0,P|173:293|154:358,1,108.000002636719,2|8,0:0|0:3,0:0:0:0:
93,303,15143,1,8,0:0:0:0:
93,303,15300,2,0,L|98:196,1,108.000002636719,2|0,0:0|0:0,0:0:0:0:
192,62,15932,2,0,B|182:200|182:200|207:234|207:234|204:379,1,324.000007910156,2|2,1:0|1:0,0:0:0:0:
330,275,17195,6,0,P|348:224|330:166,1,108.000002636719,4|8,0:0|0:3,0:0:0:0:
270,122,17669,1,8,0:0:0:0:
270,122,17827,2,0,L|155:120,1,108.000002636719,2|0,0:2|0:0,0:0:0:0:
50,237,18458,2,0,B|22:188|22:188|25:66,1,162.000003955078,2|8,0:0|0:0,0:0:0:0:
89,33,19090,2,0,B|138:5|138:5|260:8,1,162.000003955078,2|8,0:0|0:0,0:0:0:0:
324,9,19721,6,0,P|316:49|260:90,1,108.000002636719,2|8,0:0|0:3,0:0:0:0:
183,90,20195,1,8,0:0:0:0:
183,90,20353,2,0,L|187:205,1,108.000002636719,2|0,0:2|0:0,0:0:0:0:
308,305,20985,2,0,L|304:190,2,108.000002636719,2|2|2,1:0|1:0|1:0,0:0:0:0:
409,179,21932,1,2,1:2:0:0:
260,113,22248,6,0,P|222:144|211:204,1,108.000002636719,4|8,0:0|0:0,0:0:0:0:
175,357,22879,2,0,L|52:345,1,108.000002636719,0|8,0:0|0:0,0:0:0:0:
13,192,23511,1,0,0:0:0:0:
165,136,23827,2,0,L|155:251,1,108.000002636719,8|0,0:0|0:0,0:0:0:0:
196,313,24300,2,0,B|248:326|248:326|318:310,1,108.000002636719,2|2,2:0|2:0,0:0:0:0:
379,290,24774,5,0,0:0:0:0:
474,158,25090,2,0,P|485:108|467:48,2,108.000002636719,10|0|8,0:0|0:0|0:0,0:0:0:0:
411,209,25879,2,0,L|298:206,1,108.000002636719,2|2,2:0|2:0,0:0:0:0:
159,129,26511,2,0,L|51:126,2,108.000002636719,2|2|0,0:0|2:0|0:2,0:0:0:0:
221,180,27300,6,0,P|239:135|221:75,1,108.000002636719,0|8,0:0|0:0,0:0:0:0:
69,19,27932,2,0,L|49:135,1,108.000002636719,2|8,0:2|0:0,0:0:0:0:
111,276,28564,2,0,L|131:160,2,108.000002636719,0|8|0,0:0|0:0|0:0,0:0:0:0:
157,342,29353,2,0,B|210:355|210:355|273:341,1,108.000002636719,8|8,0:0|0:0,0:0:0:0:
317,283,29827,5,4,0:0:0:0:
232,144,30143,2,0,L|224:259,1,108.000002636719,10|10,0:0|0:0,0:0:0:0:
341,364,30774,2,0,L|406:362,1,54.0000013183594,10|2,0:0|0:2,0:0:0:0:
458,310,31090,2,0,B|476:261|476:261|461:194,1,108.000002636719,12|10,0:0|0:0,0:0:0:0:
429,132,31564,1,2,0:0:0:0:
429,132,31721,2,0,B|380:114|380:114|313:129,1,108.000002636719,10|10,0:0|0:0,0:0:0:0:
176,192,32353,5,4,0:0:0:0:
288,308,32669,2,0,P|304:262|282:202,1,108.000002636719,8|0,0:0|0:0,0:0:0:0:
174,91,33300,2,0,P|158:137|180:197,1,108.000002636719,8|0,0:0|0:0,0:0:0:0:
326,130,33932,2,0,L|439:140,1,108.000002636719,8|2,0:0|0:0,0:0:0:0:
493,195,34406,1,4,0:3:0:0:
493,195,34564,6,0,P|507:246|492:297,1,108.000002636719,10|0,0:0|0:0,0:0:0:0:
345,367,35195,2,0,P|293:381|242:366,1,108.000002636719,8|0,0:0|0:0,0:0:0:0:
91,297,35827,2,0,P|76:246|90:195,1,108.000002636719,8|0,0:0|0:0,0:0:0:0:
235,122,36458,2,0,P|286:107|337:121,1,108.000002636719,8|2,0:0|0:0,0:0:0:0:
405,170,36932,1,4,0:3:0:0:
405,170,37090,6,0,P|421:125|401:69,1,108.000002636719,10|4,0:0|0:0,0:0:0:0:
288,187,37721,2,0,L|282:307,1,108.000002636719,8|0,0:0|0:0,0:0:0:0:
423,376,38353,2,0,L|429:256,1,108.000002636719,8|2,0:0|0:0,0:0:0:0:
344,128,38985,2,0,P|296:105|238:122,1,108.000002636719,8|0,0:0|0:0,0:0:0:0:
193,180,39458,2,0,L|199:235,2,54.0000013183594,8|8|8,0:0|0:0|0:0,0:0:0:0:
153,110,39932,6,0,B|101:100|101:100|27:120,1,108.000002636719,2|10,0:0|0:0,0:0:0:0:
7,185,40406,2,0,B|-3:237|-3:237|17:311,1,108.000002636719,6|0,0:0|0:0,0:0:0:0:
66,349,40879,1,6,0:0:0:0:
187,241,41195,2,0,B|243:228|243:228|312:247,1,108.000002636719,14|2,0:0|0:0,0:0:0:0:
346,302,41669,2,0,B|402:315|402:315|450:301,1,108.000002636719,14|0,0:0|0:0,0:0:0:0:
510,245,42143,1,14,0:0:0:0:
425,107,42458,6,0,L|418:214,1,108.000002636719,4|8,0:0|0:0,0:0:0:0:
291,316,43090,2,0,L|297:208,1,108.000002636719,2|10,0:0|0:0,0:0:0:0:
330,49,43721,2,0,L|397:33,2,54.0000013183594,4|2|8,0:0|0:0|0:0,0:0:0:0:
251,27,44195,1,2,0:0:0:0:
273,104,44353,2,0,P|221:103|179:68,1,108.000002636719,8|10,0:0|0:0,0:0:0:0:
28,7,44985,6,0,L|19:125,1,108.000002636719,4|8,0:0|0:0,0:0:0:0:
16,195,45458,1,2,0:0:0:0:
109,327,45774,2,0,L|222:320,1,108.000002636719,0|0,0:0|0:0,0:0:0:0:
293,291,46248,2,0,B|305:242|305:242|294:181,1,108.000002636719,12|8,0:0|0:0,0:0:0:0:
189,62,46879,2,0,L|318:50,1,108.000002636719,8|8,0:0|0:0,0:0:0:0:
458,41,47511,5,12,0:0:0:0:
391,188,47827,2,0,L|377:79,1,108.000002636719,8|8,0:0|0:0,0:0:0:0:
254,186,48458,2,0,L|268:295,1,108.000002636719,8|8,0:0|0:0,0:0:0:0:
418,355,49090,1,8,0:0:0:0:
395,194,49406,1,8,0:0:0:0:
267,293,49721,1,8,0:0:0:0:
139,192,50037,5,12,0:0:0:0:
387,118,50669,1,2,2:2:0:0:
135,55,51300,1,2,2:2:0:0:
288,264,51932,1,12,3:3:0:0:
447,59,52564,6,0,L|387:67,1,54.0000013183594,12|2,0:0|0:2,0:0:0:0:
336,123,52879,2,0,L|282:115,1,54.0000013183594,8|2,0:0|0:2,0:0:0:0:
227,55,53195,2,0,L|167:63,1,54.0000013183594,8|2,0:0|0:2,0:0:0:0:
134,133,53511,2,0,L|80:125,1,54.0000013183594,8|2,0:0|0:2,0:0:0:0:
23,67,53827,2,0,L|15:186,1,108.000002636719,8|8,0:0|0:0,0:0:0:0:
120,297,54458,2,0,L|128:178,1,108.000002636719,8|10,0:0|0:0,0:0:0:0:
219,55,55090,6,0,B|272:44|272:44|329:56,1,108.000002636719,10|10,0:0|0:0,0:0:0:0:
441,168,55721,2,0,B|388:179|388:179|331:167,1,108.000002636719,10|8,0:0|0:0,0:0:0:0:
177,127,56353,1,14,0:3:0:0:
246,273,56669,1,6,0:3:0:0:
266,112,56985,2,0,L|279:-8,1,108.000002636719,6|8,1:0|0:0,0:0:0:0:
431,56,57616,6,0,L|371:64,1,54.0000013183594,12|2,0:0|0:2,0:0:0:0:
320,120,57932,2,0,L|266:112,1,54.0000013183594,8|2,0:0|0:2,0:0:0:0:
211,52,58248,2,0,L|151:60,1,54.0000013183594,8|2,0:0|0:2,0:0:0:0:
118,130,58564,2,0,L|64:122,1,54.0000013183594,8|2,0:0|0:2,0:0:0:0:
8,63,58879,2,0,L|0:182,1,108.000002636719,8|8,0:0|0:0,0:0:0:0:
116,285,59511,2,0,L|124:166,1,108.000002636719,8|10,0:0|0:0,0:0:0:0:
259,265,60143,6,0,B|317:278|317:278|375:266,1,108.000002636719,10|10,0:0|0:0,0:0:0:0:
466,142,60774,2,0,B|408:129|408:129|350:141,1,108.000002636719,10|8,0:0|0:0,0:0:0:0:
205,189,61406,2,0,L|199:65,2,108.000002636719,14|10|14,0:0|0:0|0:0,0:0:0:0:
263,340,62353,2,0,L|260:282,1,54.0000013183594,10|8,0:0|0:0,0:0:0:0:
300,215,62669,6,0,L|407:205,1,108.000002636719,6|8,0:0|0:0,0:0:0:0:
473,56,63300,2,0,L|366:46,1,108.000002636719,8|8,0:3|0:0,0:0:0:0:
349,125,63774,2,0,B|290:128|290:128|252:114|252:114|187:118,1,162.000003955078,4|8,0:0|0:0,0:0:0:0:
182,199,64406,2,0,B|241:196|241:196|279:210|279:210|344:206,1,162.000003955078,2|8,0:0|0:0,0:0:0:0:
421,215,65037,6,0,B|433:255|433:255|424:329,1,108.000002636719,4|0,0:0|0:0,0:0:0:0:
352,359,65511,2,0,B|312:371|312:371|238:362,1,108.000002636719,10|8,0:0|0:3,0:0:0:0:
174,322,65985,1,2,0:0:0:0:
77,192,66300,2,0,B|62:140|62:140|79:80,1,108.000002636719,4|0,0:0|0:0,0:0:0:0:
141,38,66774,2,0,B|193:23|193:23|253:40,1,108.000002636719,8|10,0:0|0:0,0:0:0:0:
318,182,67406,6,0,L|334:67,1,108.000002636719,8|12,0:0|0:0,0:0:0:0:
422,210,68037,1,10,0:0:0:0:
292,307,68353,1,10,0:0:0:0:
235,155,68669,1,10,0:0:0:0:
115,264,68985,1,10,0:0:0:0:
446,158,70248,6,0,B|394:143|394:143|340:156,1,108.000002636719,4|8,0:0|0:3,0:0:0:0:
281,209,70721,1,0,0:0:0:0:
281,209,70879,2,0,B|229:224|229:224|175:211,1,108.000002636719,2|0,0:1|0:0,0:0:0:0:
36,129,71511,2,0,B|13:175|13:175|24:298,1,162.000003955078,2|8,0:0|0:0,0:0:0:0:
78,344,72143,2,0,B|124:367|124:367|247:356,1,162.000003955078,2|8,0:0|0:0,0:0:0:0:
296,305,72774,6,0,L|297:194,1,108.000002636719,2|8,0:0|0:3,0:0:0:0:
363,150,73248,1,0,0:0:0:0:
363,150,73405,2,0,B|410:137|410:137|472:153,1,108.000002636719,2|0,0:0|0:0,0:0:0:0:
465,314,74037,2,0,B|475:176|475:176|450:142|450:142|458:-2,1,324.000007910156,2|2,1:0|1:0,0:0:0:0:
320,88,75300,6,0,L|208:80,1,108.000002636719,4|8,0:0|0:3,0:0:0:0:
128,72,75774,1,0,0:0:0:0:
128,72,75932,2,0,B|112:120|112:120|120:184,1,108.000002636719,2|0,0:2|0:0,0:0:0:0:
186,324,76563,2,0,L|202:156,1,162.000003955078,2|8,0:0|0:0,0:0:0:0:
212,80,77195,2,0,L|375:77,1,162.000003955078,2|8,0:0|0:0,0:0:0:0:
434,130,77827,6,0,L|431:242,1,108.000002636719,2|8,0:0|0:3,0:0:0:0:
366,288,78300,1,0,0:0:0:0:
366,288,78458,2,0,L|253:286,1,108.000002636719,2|0,0:2|0:0,0:0:0:0:
122,196,79090,2,0,B|106:246|106:246|123:317,2,108.000002636719,2|2|2,1:0|1:0|1:0,0:0:0:0:
237,82,80037,1,2,0:0:0:0:
353,194,80353,6,0,B|408:213|408:213|515:205,2,162.000003955078,14|4|12,1:1|1:1|1:1,0:0:0:0:
167,36,81774,1,4,1:1:0:0:
214,274,82248,2,0,L|225:166,1,108.000002636719,12|12,1:1|1:1,0:0:0:0:
328,45,82879,6,0,L|164:35,2,162.000003955078,14|4|12,1:1|1:1|1:1,0:0:0:0:
458,249,84300,1,4,1:1:0:0:
235,347,84774,2,0,L|246:239,1,108.000002636719,12|12,1:1|1:1,0:0:0:0:
360,123,85406,6,0,L|523:111,2,162.000003955078,14|4|12,1:1|1:1|1:1,0:0:0:0:
136,218,86827,1,4,1:1:0:0:
287,28,87300,2,0,L|275:135,1,108.000002636719,12|12,1:1|1:1,0:0:0:0:
399,240,87932,6,0,L|389:351,2,108.000002636719,14|10|10,1:1|1:1|1:1,0:0:0:0:
411,78,88879,1,10,1:1:0:0:
272,162,89195,2,0,L|154:148,2,108.000002636719,8|10|10,1:1|1:1|1:1,0:0:0:0:
326,315,90143,1,10,1:1:0:0:
466,234,90458,6,0,B|482:181|482:181|466:118,1,108.000002636719,12|8,1:0|0:0,0:0:0:0:
420,64,90932,2,0,L|290:49,1,108.000002636719,12|0,0:0|0:0,0:0:0:0:
232,36,91406,1,12,0:0:0:0:
232,36,91564,1,4,0:0:0:0:
256,192,91721,12,0,94564,2:0:0:0:
