osu file format v14

[General]
AudioFilename: audio.mp3
AudioLeadIn: 0
PreviewTime: 52482
Countdown: 0
SampleSet: Normal
StackLeniency: 0.7
Mode: 0
LetterboxInBreaks: 0
WidescreenStoryboard: 1

[Editor]
DistanceSpacing: 1.5
BeatDivisor: 4
GridSize: 4
TimelineZoom: 2.5

[Metadata]
Title:Daisuki, Evolution
TitleUnicode:大男子き、エヴォリューション
Artist:Minazuki Airi with Atsushi
ArtistUnicode:湊月あいり with Atsushi
Creator:Syph
Version:Karen's Extra
Source:女装学園(孕)
Tags:Kan詰め 斬戯 visual novel dating simulator game opening song josou gakuen eroge traps xexxar xr karen akitoshi corinn jogaku no strike
BeatmapID:1318245
BeatmapSetID:611004

[Difficulty]
HPDrainRate:6
CircleSize:3
OverallDifficulty:8
ApproachRate:9.3
SliderMultiplier:2
SliderTickRate:1

[Events]
//Background and Video events
0,0,"wryyyyyyyyyyyyyyyyyyyy.png",0,0
//Break Periods
2,8870,11589
//Storyboard Layer 0 (Background)
//Storyboard Layer 1 (Fail)
//Storyboard Layer 2 (Pass)
//Storyboard Layer 3 (Foreground)
//Storyboard Sound Samples

[TimingPoints]
990,240,4,1,1,75,1,0
8670,315.789473684211,4,1,1,75,1,0
12064,-100,4,1,1,5,0,0
12143,315.789473684211,4,1,1,80,1,0
22248,-100,4,1,1,70,0,0
39932,-100,4,1,1,80,0,0
42458,-133.333333333333,4,1,1,80,0,0
47827,-133.333333333333,4,1,1,45,0,0
48143,-133.333333333333,4,1,1,52,0,0
48458,-133.333333333333,4,1,1,59,0,0
48774,-133.333333333333,4,1,1,66,0,0
49090,-133.333333333333,4,1,1,73,0,0
49406,-133.333333333333,4,1,1,80,0,0
49721,-133.333333333333,4,1,1,87,0,0
50037,-133.333333333333,4,1,1,90,0,0
52564,-83.3333333333333,4,1,1,80,0,1
68985,-100,4,1,1,80,0,0
70248,-80,4,1,1,80,0,1
80274,-80,4,1,1,80,0,0
80353,-100,4,1,1,80,0,1
80432,-100,4,1,1,80,0,0
82879,-100,4,1,1,80,0,1
82958,-100,4,1,1,80,0,0
85406,-100,4,1,1,80,0,1
85485,-100,4,1,1,80,0,0
87932,-100,4,1,1,80,0,1
88011,-100,4,1,1,80,0,0
90458,-100,4,1,1,80,0,1
90537,-100,4,1,1,80,0,0
91643,-100,4,1,1,30,0,0
94564,-100,4,1,1,5,0,0

[Colours]
Combo1 : 255,128,128
Combo2 : 255,255,128
Combo3 : 255,128,0
Combo4 : 128,0,255

[HitObjects]
227,151,990,6,0,B|174:130|174:130|194:180,1,100,4|0,0:3|1:0,0:0:0:0:
434,152,1230,2,0,B|487:131|487:131|467:181,1,100,4|0,0:3|0:0,0:0:0:0:
230,18,1470,2,0,B|177:-3|177:-3|197:47,1,100,4|0,0:3|0:0,0:0:0:0:
437,19,1710,2,0,B|490:-2|490:-2|470:48,1,100,4|0,0:3|0:0,0:0:0:0:
340,104,1950,5,8,0:3:0:0:
341,118,2010,1,8,0:3:0:0:
342,132,2070,1,8,0:3:0:0:
343,146,2130,1,8,0:3:0:0:
344,160,2190,1,8,0:3:0:0:
345,174,2250,1,8,0:3:0:0:
347,188,2310,2,0,P|403:245|379:376,1,200,12|0,0:1|0:0,0:0:0:0:
247,375,2670,1,12,0:0:0:0:
247,375,2910,6,0,P|196:362|144:373,1,100,4|0,0:3|1:0,0:0:0:0:
0,270,3150,2,0,P|51:283|103:272,1,100,4|0,0:3|0:0,0:0:0:0:
255,193,3390,2,0,P|204:180|152:191,1,100,4|0,0:3|0:0,0:0:0:0:
8,88,3630,2,0,P|59:101|111:90,1,100,4|0,0:3|0:0,0:0:0:0:
292,35,3870,5,8,0:3:0:0:
306,36,3930,1,8,0:3:0:0:
321,36,3990,1,8,0:3:0:0:
336,36,4050,1,8,0:3:0:0:
350,37,4110,1,8,0:3:0:0:
364,38,4170,1,8,0:3:0:0:
378,38,4230,2,0,B|437:57|486:33|486:33|443:66|426:113,1,200,12|0,0:1|0:0,0:0:0:0:
475,211,4590,1,12,0:0:0:0:
475,211,4830,6,0,L|471:314,1,100,6|0,0:3|0:0,0:0:0:0:
252,384,5070,2,0,L|255:284,1,100,6|0,0:3|0:0,0:0:0:0:
368,179,5310,2,0,L|364:282,1,100,6|0,0:3|0:0,0:0:0:0:
145,352,5550,2,0,L|148:252,1,100,6|0,0:3|0:0,0:0:0:0:
41,144,5790,5,12,0:3:0:0:
255,187,5910,1,0,0:0:0:0:
41,144,6030,1,8,0:3:0:0:
189,31,6150,2,0,B|137:5|137:5|149:165,1,200,12|0,0:0|0:0,0:0:0:0:
147,252,6510,1,8,0:0:0:0:
147,252,6750,6,0,B|217:248|217:248|270:281|270:281|359:277,1,200,12|8,0:0|0:0,0:0:0:0:
478,130,7110,1,0,0:0:0:0:
478,130,7230,2,0,P|470:74|484:25,1,100,8|0,0:3|0:0,0:0:0:0:
313,37,7470,2,0,P|321:93|307:142,1,100,10|0,0:0|0:0,0:0:0:0:
68,294,7710,5,12,0:0:0:0:
166,277,7830,1,0,0:3:0:0:
448,259,7950,5,8,0:0:0:0:
350,242,8070,1,0,0:3:0:0:
106,187,8190,5,8,0:0:0:0:
204,170,8310,1,0,0:3:0:0:
389,349,8430,5,8,0:0:0:0:
291,332,8550,1,0,0:3:0:0:
135,380,8670,5,8,0:0:0:0:
135,380,12143,5,4,0:0:0:0:
249,245,12300,1,10,0:0:0:0:
249,245,12379,1,2,0:0:0:0:
249,245,12458,2,0,L|246:121,1,100,8|8,0:3|0:0,0:0:0:0:
124,42,12774,1,2,0:1:0:0:
86,27,12853,1,2,0:0:0:0:
46,33,12932,1,10,0:0:0:0:
30,220,13090,1,0,0:0:0:0:
30,220,13169,1,0,0:0:0:0:
30,220,13248,5,8,0:0:0:0:
78,131,13406,1,2,0:0:0:0:
101,303,13564,1,10,0:0:0:0:
104,336,13721,1,0,0:3:0:0:
174,145,13879,5,8,0:0:0:0:
46,33,14037,1,2,0:0:0:0:
191,248,14195,1,10,0:0:0:0:
222,247,14353,1,0,0:0:0:0:
314,55,14511,1,8,0:0:0:0:
174,145,14669,5,2,0:0:0:0:
214,358,14827,1,10,0:0:0:0:
214,358,14906,1,2,0:0:0:0:
214,358,14985,2,0,L|327:349,1,100,8|8,0:3|0:0,0:0:0:0:
387,187,15300,1,2,0:0:0:0:
371,150,15379,1,2,0:0:0:0:
383,111,15458,1,10,0:0:0:0:
485,249,15616,2,0,P|487:304|479:355,1,100,0|8,0:0|0:0,0:0:0:0:
240,239,15932,5,2,1:0:0:0:
240,239,16011,1,0,1:0:0:0:
240,239,16090,2,0,L|175:228,1,50,8|0,1:1|1:0,0:0:0:0:
44,142,16248,1,2,1:0:0:0:
44,142,16327,1,0,1:0:0:0:
44,142,16406,2,0,L|105:129,1,50,8|0,1:1|1:0,0:0:0:0:
112,292,16564,5,2,1:0:0:0:
105,310,16643,1,0,1:0:0:0:
99,328,16721,2,0,L|88:272,1,50,8|0,1:1|1:0,0:0:0:0:
200,116,16879,1,2,1:0:0:0:
207,98,16958,1,0,1:0:0:0:
213,80,17037,2,0,L|224:136,1,50,8|0,1:1|1:0,0:0:0:0:
324,196,17195,5,4,0:0:0:0:
424,96,17353,1,10,0:0:0:0:
424,96,17432,1,2,0:0:0:0:
424,96,17511,2,0,L|315:86,1,100,8|8,0:3|0:0,0:0:0:0:
122,202,17827,1,2,0:2:0:0:
161,210,17906,1,2,0:2:0:0:
182,243,17985,1,10,0:0:0:0:
324,196,18143,1,0,0:0:0:0:
324,196,18221,1,0,0:0:0:0:
324,196,18300,1,8,0:0:0:0:
150,93,18458,5,2,0:0:0:0:
276,297,18616,1,10,0:0:0:0:
274,338,18774,1,0,0:0:0:0:
425,137,18932,5,8,0:0:0:0:
210,189,19090,1,2,0:0:0:0:
390,291,19248,1,10,0:0:0:0:
430,287,19406,1,0,0:0:0:0:
303,115,19564,1,8,0:0:0:0:
321,371,19721,5,2,0:0:0:0:
241,298,19879,1,10,1:0:0:0:
241,298,19958,1,2,1:0:0:0:
241,298,20037,2,0,L|137:291,1,100,8|8,0:3|0:0,0:0:0:0:
26,133,20353,1,2,0:2:0:0:
62,149,20432,1,2,0:2:0:0:
75,186,20511,1,10,0:1:0:0:
206,119,20669,2,0,P|207:71|235:9,1,100,0|8,0:0|0:0,0:0:0:0:
330,234,20985,5,2,1:0:0:0:
330,234,21064,1,0,1:0:0:0:
330,234,21143,2,0,L|324:298,1,50,8|0,1:1|1:0,0:0:0:0:
467,334,21300,1,2,1:0:0:0:
467,334,21379,1,0,1:0:0:0:
467,334,21458,2,0,L|473:270,1,50,8|0,1:1|1:0,0:0:0:0:
350,110,21616,5,2,1:0:0:0:
340,86,21695,1,0,1:0:0:0:
340,60,21774,1,8,1:1:0:0:
348,36,21853,1,0,1:0:0:0:
364,16,21932,1,2,1:2:0:0:
388,12,22011,1,2,1:2:0:0:
412,17,22090,1,10,1:1:0:0:
433,30,22169,1,2,1:2:0:0:
448,49,22248,5,4,0:0:0:0:
359,217,22406,1,0,2:2:0:0:
449,48,22564,2,0,L|444:155,1,100,8|0,0:0|2:2,0:0:0:0:
400,329,22879,2,0,P|352:312|289:317,1,100,0|2,0:0|2:0,0:0:0:0:
114,351,23195,2,0,P|162:368|225:363,1,100,8|0,0:0|2:0,0:0:0:0:
302,146,23511,5,0,0:0:0:0:
169,95,23669,1,0,2:2:0:0:
305,126,23827,1,8,0:0:0:0:
88,159,23985,1,2,2:0:0:0:
91,178,24300,2,0,P|102:239|97:280,1,100,2|8,2:0|0:0,0:0:0:0:
219,376,24616,1,2,2:0:0:0:
357,276,24774,6,0,L|234:268,1,100,0|0,0:0|2:0,0:0:0:0:
2,239,25090,2,0,P|61:181|177:207,1,200,10|0,0:0|0:0,0:0:0:0:
219,376,25564,1,2,2:0:0:0:
271,155,25721,2,0,P|267:91|285:41,1,100,8|2,0:0|2:0,0:0:0:0:
479,206,26037,6,0,L|474:322,1,100,0|2,0:0|2:0,0:0:0:0:
219,376,26353,1,8,0:0:0:0:
370,215,26511,1,2,0:0:0:0:
370,215,26827,1,2,2:0:0:0:
290,135,26985,2,0,P|234:124|185:133,1,100,8|0,0:0|0:2,0:0:0:0:
97,279,27300,6,0,B|105:211|105:211|76:152|76:152|85:70,1,200,0|8,0:0|0:0,0:0:0:0:
239,232,27774,1,2,2:0:0:0:
239,232,27932,2,0,L|237:334,1,100,2|0,0:2|2:0,0:0:0:0:
415,364,28248,1,8,0:0:0:0:
415,364,28406,1,2,2:0:0:0:
437,138,28564,5,0,0:0:0:0:
356,248,28721,2,0,L|479:244,1,100,2|8,2:0|0:0,0:0:0:0:
313,146,29037,1,2,0:2:0:0:
313,146,29353,5,8,0:0:0:0:
306,349,29511,1,8,0:0:0:0:
313,146,29669,1,8,0:0:0:0:
207,321,29827,6,0,P|309:290|417:303,1,200,4|10,0:0|0:0,0:0:0:0:
400,298,30300,1,0,0:0:0:0:
219,198,30458,2,0,P|119:205|25:175,1,200,10|10,0:0|0:0,0:0:0:0:
25,175,30932,1,2,0:2:0:0:
180,39,31090,5,12,0:0:0:0:
349,64,31248,1,2,0:0:0:0:
132,216,31406,1,10,0:0:0:0:
391,174,31564,1,2,0:0:0:0:
235,281,31721,5,10,0:0:0:0:
258,262,31800,1,0,0:0:0:0:
287,254,31879,1,0,0:0:0:0:
315,262,31958,1,0,0:0:0:0:
338,281,32037,1,10,0:0:0:0:
364,297,32116,1,0,0:0:0:0:
393,298,32195,1,0,0:0:0:0:
421,289,32274,1,0,0:0:0:0:
445,271,32353,6,0,P|443:208|457:165,1,100,4|0,0:0|2:0,0:0:0:0:
237,54,32669,2,0,P|249:102|245:151,1,100,8|0,0:0|2:0,0:0:0:0:
287,375,32985,1,0,0:0:0:0:
360,119,33143,1,0,0:0:0:0:
282,266,33300,2,0,L|172:256,1,100,8|2,0:0|0:0,0:0:0:0:
92,152,33616,5,0,0:0:0:0:
224,59,33774,1,0,0:0:0:0:
92,152,33932,1,8,0:0:0:0:
171,363,34090,1,0,0:0:0:0:
171,363,34406,5,4,0:3:0:0:
268,286,34564,2,0,L|264:184,1,100,10|0,0:0|0:0,0:0:0:0:
108,30,34879,5,0,0:0:0:0:
165,239,35037,1,0,2:0:0:0:
272,76,35195,2,0,P|325:76|386:62,1,100,8|0,0:0|2:2,0:0:0:0:
467,220,35511,2,0,P|417:210|368:210,1,100,0|0,0:0|0:0,0:0:0:0:
176,122,35827,1,8,0:0:0:0:
268,300,35985,1,2,0:0:0:0:
57,257,36143,5,0,0:0:0:0:
268,300,36300,1,0,0:0:0:0:
57,257,36458,1,8,0:0:0:0:
267,182,36616,1,0,0:0:0:0:
267,182,36932,5,4,0:3:0:0:
165,239,37090,2,0,L|173:345,1,100,10|0,0:0|0:0,0:0:0:0:
400,356,37406,6,0,P|413:303|408:255,1,100,4|0,0:0|2:0,0:0:0:0:
383,53,37721,2,0,P|370:106|375:154,1,100,8|0,0:0|2:0,0:0:0:0:
304,253,38037,1,0,0:0:0:0:
481,114,38195,1,0,0:0:0:0:
304,253,38353,2,0,L|190:239,1,100,8|0,0:0|0:0,0:0:0:0:
62,131,38669,5,2,0:0:0:0:
230,32,38827,1,0,0:0:0:0:
31,19,38985,1,8,0:0:0:0:
263,144,39143,1,2,0:0:0:0:
263,144,39458,5,8,0:0:0:0:
7,228,39616,1,8,0:0:0:0:
263,144,39774,1,8,0:0:0:0:
141,327,39932,6,0,B|131:175|131:175|168:223,1,200,2|10,0:0|0:0,0:0:0:0:
366,193,40406,2,0,P|376:138|357:73,1,100,6|0,0:0|0:0,0:0:0:0:
183,63,40721,1,0,0:0:0:0:
317,300,40879,2,0,P|361:289|440:294,1,100,6|0,0:0|0:0,0:0:0:0:
472,109,41195,6,0,P|409:131|267:121,1,200,14|2,0:0|0:0,0:0:0:0:
99,139,41669,1,14,0:0:0:0:
363,31,41827,1,0,0:0:0:0:
201,214,41985,1,0,0:0:0:0:
92,5,42143,1,14,0:0:0:0:
201,214,42300,1,8,0:0:0:0:
265,100,42458,6,0,P|178:111|96:91,1,150.000005722046,4|8,0:0|0:0,0:0:0:0:
47,266,42932,1,0,0:0:0:0:
175,323,43090,2,0,P|229:312|274:316,1,75.0000028610231,2|0,0:0|0:0,0:0:0:0:
344,360,43327,1,0,0:0:0:0:
344,360,43406,2,0,P|398:371|443:367,1,75.0000028610231,10|0,0:0|0:0,0:0:0:0:
498,143,43721,5,4,0:0:0:0:
498,143,43879,1,2,0:0:0:0:
392,258,44037,2,0,L|389:155,1,75.0000028610231,8|2,0:0|0:0,0:0:0:0:
320,113,44274,1,0,0:0:0:0:
320,113,44353,2,0,P|263:102|231:111,1,75.0000028610231,8|0,0:0|0:0,0:0:0:0:
146,237,44669,1,10,0:0:0:0:
306,322,44827,1,0,0:0:0:0:
306,322,44906,1,0,0:0:0:0:
306,322,44985,6,0,P|379:297|458:304,1,150.000005722046,4|8,0:0|0:0,0:0:0:0:
420,74,45458,1,2,0:0:0:0:
420,74,45537,1,0,0:0:0:0:
420,74,45616,2,0,P|367:68|332:50,1,75.0000028610231,8|0,0:0|0:0,0:0:0:0:
259,9,45853,1,0,0:0:0:0:
259,9,45932,2,0,P|214:7|162:21,1,75.0000028610231,8|0,0:0|0:0,0:0:0:0:
43,96,46248,6,0,L|57:271,1,150.000005722046,12|8,0:0|0:0,0:0:0:0:
231,124,46721,1,0,0:0:0:0:
231,124,46800,1,0,0:0:0:0:
231,124,46879,2,0,L|224:219,1,75.0000028610231,8|0,0:0|0:0,0:0:0:0:
152,278,47116,1,0,0:0:0:0:
152,278,47195,2,0,L|159:373,1,75.0000028610231,8|0,0:0|0:0,0:0:0:0:
344,353,47511,6,0,P|410:318|498:318,1,150.000005722046,12|8,0:0|0:0,0:0:0:0:
316,188,47985,1,8,0:0:0:0:
484,116,48143,1,8,0:0:0:0:
272,88,48300,1,8,0:0:0:0:
512,215,48458,1,8,0:0:0:0:
265,284,48616,1,8,0:0:0:0:
392,44,48774,5,8,0:0:0:0:
390,310,48932,1,8,0:0:0:0:
244,81,49090,1,8,0:0:0:0:
279,265,49248,1,8,0:0:0:0:
71,39,49406,1,8,0:0:0:0:
101,324,49564,1,8,0:0:0:0:
268,49,49721,1,8,0:0:0:0:
260,291,49879,1,8,0:0:0:0:
163,118,50037,5,12,0:0:0:0:
163,118,50669,1,2,2:2:0:0:
163,118,51300,5,2,2:2:0:0:
225,218,51774,1,0,3:3:0:0:
225,218,51853,1,0,3:3:0:0:
225,218,51932,1,12,3:3:0:0:
232,44,52090,1,12,0:3:0:0:
232,44,52564,5,12,0:0:0:0:
420,146,52721,2,0,L|408:205,1,59.9999981689454,2|0,0:2|0:0,0:0:0:0:
296,298,52879,1,8,0:0:0:0:
296,298,53037,2,0,L|284:239,1,59.9999981689454,2|0,0:2|1:0,0:0:0:0:
172,146,53195,1,8,0:0:0:0:
172,146,53353,2,0,L|160:205,1,59.9999981689454,2|0,0:2|1:0,0:0:0:0:
48,298,53511,1,8,0:0:0:0:
48,298,53669,2,0,L|36:239,1,59.9999981689454,2|0,0:2|1:0,0:0:0:0:
86,61,53827,5,8,0:0:0:0:
203,37,53985,1,2,0:2:0:0:
283,126,54143,1,8,0:0:0:0:
172,265,54300,2,0,L|171:142,1,119.999996337891,2|8,0:2|0:0,0:0:0:0:
356,44,54616,1,0,0:0:0:0:
398,238,54774,2,0,P|333:223|281:243,1,119.999996337891,10|0,0:0|0:0,0:0:0:0:
117,370,55090,6,0,L|247:355,1,119.999996337891,10|0,0:0|0:0,0:0:0:0:
92,124,55406,2,0,L|39:244,1,119.999996337891,10|0,0:0|0:0,0:0:0:0:
315,217,55721,2,0,L|237:111,1,119.999996337891,10|0,0:0|0:0,0:0:0:0:
133,268,56037,1,8,0:0:0:0:
154,246,56116,1,0,0:0:0:0:
183,242,56195,1,0,0:0:0:0:
211,251,56274,1,0,0:0:0:0:
231,273,56353,5,14,0:3:0:0:
163,54,56511,1,6,0:3:0:0:
176,365,56669,1,6,0:3:0:0:
243,120,56827,1,6,0:3:0:0:
133,268,56985,2,0,L|6:258,1,119.999996337891,6|0,1:0|0:0,0:0:0:0:
0,117,57300,1,8,0:0:0:0:
28,108,57379,1,8,0:0:0:0:
50,88,57458,1,8,0:0:0:0:
56,58,57537,1,8,0:0:0:0:
48,28,57616,5,12,0:0:0:0:
130,175,57774,2,0,L|197:159,1,59.9999981689454,2|0,0:2|1:0,0:0:0:0:
272,81,57932,1,8,0:0:0:0:
272,81,58090,2,0,L|205:65,1,59.9999981689454,2|0,0:2|1:0,0:0:0:0:
307,183,58248,1,8,0:0:0:0:
307,183,58406,2,0,L|374:167,1,59.9999981689454,2|0,0:2|1:0,0:0:0:0:
449,89,58564,1,8,0:0:0:0:
449,89,58722,2,0,L|382:73,1,59.9999981689454,2|0,0:2|1:0,0:0:0:0:
379,265,58879,5,8,0:0:0:0:
445,364,59037,1,2,0:2:0:0:
494,254,59195,1,8,0:0:0:0:
330,366,59353,2,0,L|203:366,1,119.999996337891,2|8,0:2|0:0,0:0:0:0:
37,284,59669,1,0,0:0:0:0:
165,156,59827,2,0,P|143:214|151:281,1,119.999996337891,10|0,0:0|0:0,0:0:0:0:
23,150,60143,6,0,L|14:26,1,119.999996337891,10|0,0:0|0:0,0:0:0:0:
286,82,60458,2,0,L|277:201,1,119.999996337891,10|0,0:0|0:0,0:0:0:0:
139,366,60774,2,0,L|130:242,1,119.999996337891,10|0,0:0|0:0,0:0:0:0:
420,215,61090,1,8,0:0:0:0:
415,244,61169,1,0,0:0:0:0:
410,273,61248,1,0,0:0:0:0:
404,302,61327,1,0,0:0:0:0:
398,331,61406,6,0,P|323:317|271:338,1,119.999996337891,14|0,0:0|0:0,0:0:0:0:
70,149,61721,2,0,P|145:163|197:142,1,119.999996337891,10|0,0:0|0:0,0:0:0:0:
344,24,62037,2,0,L|331:169,1,119.999996337891,14|0,0:0|0:0,0:0:0:0:
179,284,62353,1,10,0:0:0:0:
152,270,62432,1,8,0:0:0:0:
122,265,62511,1,8,0:0:0:0:
93,273,62590,1,8,0:0:0:0:
69,291,62669,6,0,B|43:129|43:129|100:51,1,239.999992675781,6|8,0:0|0:0,0:0:0:0:
272,176,63143,1,0,0:0:0:0:
272,176,63300,2,0,L|134:159,1,119.999996337891,8|2,0:3|0:0,0:0:0:0:
152,369,63616,1,8,0:0:0:0:
348,260,63774,6,0,P|389:178|302:59,1,239.999992675781,4|0,0:0|0:0,0:0:0:0:
236,282,64248,1,8,0:0:0:0:
384,372,64406,2,0,L|502:356,1,119.999996337891,2|8,0:0|0:3,0:0:0:0:
504,136,64721,1,0,0:0:0:0:
504,136,64879,1,8,0:0:0:0:
236,282,65037,6,0,L|503:248,1,239.999992675781,4|0,0:0|0:0,0:0:0:0:
441,37,65511,2,0,P|392:91|392:151,1,119.999996337891,10|0,0:0|0:0,0:0:0:0:
394,355,65827,1,8,0:3:0:0:
276,168,65985,1,2,0:0:0:0:
474,251,66143,1,10,0:0:0:0:
236,282,66300,6,0,L|223:37,1,239.999992675781,4|0,0:0|0:0,0:0:0:0:
87,234,66774,2,0,P|116:296|110:353,1,119.999996337891,8|0,0:0|0:0,0:0:0:0:
311,370,67090,5,10,0:0:0:0:
356,135,67248,1,0,0:0:0:0:
236,282,67406,1,8,0:0:0:0:
234,252,67485,1,8,0:0:0:0:
231,222,67564,1,8,0:0:0:0:
228,192,67643,1,8,0:0:0:0:
224,162,67721,6,0,P|215:97|244:39,1,119.999996337891,12|0,0:0|0:0,0:0:0:0:
461,181,68037,2,0,P|470:246|441:304,1,119.999996337891,10|0,0:0|0:0,0:0:0:0:
236,282,68353,1,10,0:0:0:0:
425,70,68511,1,0,0:0:0:0:
338,345,68669,1,10,0:0:0:0:
281,47,68827,1,0,0:0:0:0:
356,233,68985,1,10,0:0:0:0:
296,136,70248,5,4,0:0:0:0:
374,229,70406,1,10,0:0:0:0:
374,229,70485,1,2,0:0:0:0:
374,229,70564,2,0,L|509:218,1,125,8|0,0:3|0:0,0:0:0:0:
310,28,70879,1,2,0:1:0:0:
272,24,70958,1,2,0:0:0:0:
238,41,71037,1,10,0:0:0:0:
411,136,71195,1,0,0:0:0:0:
411,136,71274,1,0,0:0:0:0:
411,136,71353,5,8,0:0:0:0:
261,242,71511,1,2,0:0:0:0:
151,120,71669,1,10,0:0:0:0:
141,78,71826,1,0,0:0:0:0:
296,136,71984,5,8,0:0:0:0:
237,358,72142,1,2,0:0:0:0:
149,233,72300,1,10,0:0:0:0:
118,234,72458,1,0,0:0:0:0:
344,330,72616,1,8,0:0:0:0:
189,127,72774,5,2,0:0:0:0:
251,41,72932,1,10,0:0:0:0:
251,41,73011,1,2,0:0:0:0:
251,41,73090,2,0,L|378:30,1,125,8|0,0:3|0:0,0:0:0:0:
459,166,73405,1,2,0:0:0:0:
471,205,73484,1,2,0:0:0:0:
455,242,73563,1,10,0:0:0:0:
316,384,73721,2,0,P|309:306|318:246,1,125,0|8,0:0|0:0,0:0:0:0:
201,85,74037,5,2,1:0:0:0:
201,85,74116,1,0,1:0:0:0:
201,85,74195,2,0,L|192:152,1,62.5,8|0,1:1|1:0,0:0:0:0:
83,172,74353,1,2,1:0:0:0:
83,172,74432,1,0,1:0:0:0:
83,172,74511,2,0,L|92:239,1,62.5,8|0,1:1|1:0,0:0:0:0:
262,222,74669,5,2,1:0:0:0:
269,239,74748,1,0,1:0:0:0:
275,256,74827,2,0,L|203:250,1,62.5,8|0,1:1|1:0,0:0:0:0:
14,301,74985,1,2,1:0:0:0:
7,318,75064,1,0,1:0:0:0:
1,335,75143,2,0,L|73:329,1,62.5,8|0,1:1|1:0,0:0:0:0:
168,381,75300,5,4,0:0:0:0:
379,315,75458,1,10,0:0:0:0:
379,315,75537,1,2,0:0:0:0:
379,315,75616,2,0,P|389:244|367:182,1,125,8|0,0:3|0:0,0:0:0:0:
263,40,75932,1,2,0:2:0:0:
294,60,76011,1,2,0:2:0:0:
331,65,76090,1,10,0:0:0:0:
474,18,76248,1,0,0:0:0:0:
474,18,76326,1,0,0:0:0:0:
474,18,76405,1,8,0:0:0:0:
275,165,76563,5,2,0:0:0:0:
477,148,76721,1,10,0:0:0:0:
512,140,76879,1,0,0:0:0:0:
400,297,77037,5,8,0:0:0:0:
331,65,77195,1,2,0:0:0:0:
283,282,77353,1,10,0:0:0:0:
287,319,77511,1,0,0:0:0:0:
381,189,77669,1,8,0:0:0:0:
176,315,77826,5,2,0:0:0:0:
81,263,77984,1,10,1:0:0:0:
81,263,78063,1,2,1:0:0:0:
81,263,78142,2,0,L|68:131,1,125,8|0,0:3|0:0,0:0:0:0:
281,113,78458,1,2,0:2:0:0:
280,150,78537,1,2,0:2:0:0:
277,187,78616,1,10,0:1:0:0:
325,11,78774,2,0,P|264:0|208:26,1,125,0|8,0:0|0:0,0:0:0:0:
229,295,79090,5,2,1:0:0:0:
229,295,79169,1,0,1:0:0:0:
229,295,79248,2,0,L|299:292,1,62.5,8|0,1:1|1:0,0:0:0:0:
436,346,79405,1,2,1:0:0:0:
436,346,79484,1,0,1:0:0:0:
436,346,79564,2,0,L|446:271,1,62.5,8|0,1:1|1:0,0:0:0:0:
445,115,79721,5,2,1:0:0:0:
422,136,79800,1,0,1:0:0:0:
391,140,79879,1,8,1:1:0:0:
359,136,79958,1,0,1:0:0:0:
331,121,80037,1,2,0:0:0:0:
315,93,80116,1,2,0:0:0:0:
310,61,80195,2,0,L|320:-5,1,62.5,10|2,0:0|0:0,0:0:0:0:
175,78,80353,5,14,1:1:0:0:
189,98,80432,1,0,1:1:0:0:
196,121,80511,1,0,1:1:0:0:
195,146,80590,1,0,1:1:0:0:
186,169,80669,1,8,1:1:0:0:
165,184,80748,1,0,1:1:0:0:
140,191,80827,1,4,1:1:0:0:
115,187,80906,1,0,1:1:0:0:
102,165,80985,5,0,1:1:0:0:
122,150,81064,1,0,1:1:0:0:
145,157,81143,1,0,1:1:0:0:
158,177,81221,1,0,1:1:0:0:
165,200,81300,1,12,1:1:0:0:
161,224,81379,1,0,1:1:0:0:
147,245,81458,1,0,1:1:0:0:
124,256,81537,1,0,1:1:0:0:
99,254,81616,6,0,L|26:245,3,50,8|0|4|0,1:1|1:1|1:1|1:1,0:0:0:0:
136,363,81932,1,0,1:1:0:0:
160,356,82011,1,0,1:1:0:0:
184,351,82090,1,0,1:1:0:0:
208,346,82169,1,0,1:1:0:0:
232,340,82248,6,0,L|247:283,1,50,12|0,1:1|1:1,0:0:0:0:
352,357,82406,1,0,1:1:0:0:
376,352,82485,1,0,1:1:0:0:
400,346,82564,2,0,L|415:289,3,50,12|0|0|0,1:1|1:1|1:1|1:1,0:0:0:0:
332,214,82879,5,14,1:1:0:0:
319,181,82958,1,0,1:1:0:0:
319,145,83037,1,0,1:1:0:0:
339,116,83116,1,0,1:1:0:0:
371,103,83195,1,8,1:1:0:0:
405,109,83274,1,0,1:1:0:0:
429,133,83353,1,4,1:1:0:0:
444,101,83432,1,0,1:1:0:0:
430,68,83511,5,0,1:1:0:0:
403,45,83590,1,0,1:1:0:0:
368,39,83669,1,0,1:1:0:0:
334,48,83748,1,0,1:1:0:0:
313,76,83827,1,12,1:1:0:0:
308,110,83906,1,0,1:1:0:0:
319,145,83985,1,0,1:1:0:0:
348,163,84064,1,0,1:1:0:0:
382,170,84143,6,0,L|375:233,3,50,8|0|4|0,1:1|1:1|1:1|1:1,0:0:0:0:
273,304,84458,1,0,1:1:0:0:
243,285,84537,1,0,1:1:0:0:
208,279,84616,1,0,1:1:0:0:
174,287,84695,1,0,1:1:0:0:
149,312,84774,2,0,L|157:377,1,50,12|0,1:1|1:1,0:0:0:0:
34,349,84932,1,0,1:1:0:0:
30,314,85011,1,0,1:1:0:0:
30,278,85090,2,0,L|-34:297,3,50,12|0|0|0,1:1|1:1|1:1|1:1,0:0:0:0:
41,139,85406,5,14,1:1:0:0:
74,109,85485,1,0,1:1:0:0:
119,107,85564,1,0,1:1:0:0:
156,131,85643,1,0,1:1:0:0:
180,167,85721,1,8,1:1:0:0:
220,186,85800,1,0,1:1:0:0:
264,177,85879,1,4,1:1:0:0:
297,147,85958,1,0,1:1:0:0:
298,102,86037,5,0,1:1:0:0:
276,62,86116,1,0,1:1:0:0:
233,48,86195,1,0,1:1:0:0:
188,54,86274,1,0,1:1:0:0:
160,89,86353,1,12,1:1:0:0:
124,117,86432,1,0,1:1:0:0:
74,109,86511,1,0,1:1:0:0:
45,74,86590,1,0,1:1:0:0:
42,29,86669,6,0,L|-19:23,3,50,8|0|4|0,1:1|1:1|1:1|1:1,0:0:0:0:
33,196,86985,1,0,1:1:0:0:
59,232,87064,1,0,1:1:0:0:
63,276,87143,1,0,1:1:0:0:
46,317,87221,1,0,1:1:0:0:
17,351,87300,6,0,L|86:351,1,50,12|0,1:1|1:1,0:0:0:0:
214,379,87458,1,0,1:1:0:0:
212,334,87537,1,0,1:1:0:0:
210,291,87616,2,0,L|260:291,3,50,12|0|0|0,1:1|1:1|1:1|1:1,0:0:0:0:
406,204,87932,5,14,1:1:0:0:
380,161,88010,1,2,1:1:0:0:
385,112,88089,1,2,1:1:0:0:
392,63,88168,1,2,1:1:0:0:
368,21,88247,1,10,1:1:0:0:
321,7,88326,1,2,1:1:0:0:
280,34,88405,1,2,1:1:0:0:
260,71,88484,1,2,1:1:0:0:
214,85,88564,5,10,1:1:0:0:
193,129,88642,1,2,1:1:0:0:
207,176,88721,1,2,1:1:0:0:
249,201,88800,1,2,1:1:0:0:
298,198,88879,1,10,1:1:0:0:
348,194,88958,1,2,1:1:0:0:
392,216,89037,1,2,1:1:0:0:
423,256,89116,1,2,1:1:0:0:
427,305,89195,6,0,L|416:362,3,50,8|2|2|2,1:1|1:1|1:1|1:1,0:0:0:0:
264,349,89511,1,10,1:1:0:0:
223,318,89590,1,2,1:1:0:0:
173,310,89669,1,2,1:1:0:0:
131,337,89748,1,2,1:1:0:0:
115,384,89827,5,10,1:1:0:0:
120,334,89906,1,2,1:1:0:0:
124,284,89985,1,2,1:1:0:0:
127,234,90064,1,2,1:1:0:0:
131,184,90143,1,10,1:1:0:0:
133,134,90221,1,2,1:1:0:0:
137,84,90300,1,2,1:1:0:0:
143,34,90379,1,2,1:1:0:0:
186,9,90458,5,12,1:0:0:0:
176,158,90616,1,8,0:0:0:0:
162,307,90774,1,8,0:0:0:0:
224,30,90932,5,12,0:0:0:0:
214,179,91090,1,0,0:0:0:0:
200,328,91248,1,0,0:0:0:0:
109,70,91406,5,12,0:0:0:0:
108,103,91564,1,4,0:0:0:0:
256,192,91643,12,0,94564,2:0:0:0:
