osu file format v14

[General]
AudioFilename: audio.mp3
AudioLeadIn: 0
PreviewTime: 52482
Countdown: 0
SampleSet: Normal
StackLeniency: 0.2
Mode: 0
LetterboxInBreaks: 0
WidescreenStoryboard: 0

[Editor]
DistanceSpacing: 0.7
BeatDivisor: 4
GridSize: 4
TimelineZoom: 1.2

[Metadata]
Title:Daisuki, Evolution
TitleUnicode:大男子き、エヴォリューション
Artist:Minazuki Airi with Atsushi
ArtistUnicode:湊月あいり with Atsushi
Creator:Syph
Version:Extreme
Source:女装学園(孕)
Tags:Kan詰め 斬戯 visual novel dating simulator game opening song josou gakuen eroge traps xexxar xr karen akitoshi corinn jogaku no strike
BeatmapID:1289926
BeatmapSetID:611004

[Difficulty]
HPDrainRate:6
CircleSize:4
OverallDifficulty:9
ApproachRate:9.4
SliderMultiplier:1.8
SliderTickRate:1

[Events]
//Background and Video events
0,0,"wryyyyyyyyyyyyyyyyyyyy.png",0,0
//Break Periods
2,8870,11603
//Storyboard Layer 0 (Background)
//Storyboard Layer 1 (Fail)
//Storyboard Layer 2 (Pass)
//Storyboard Layer 3 (Foreground)
//Storyboard Sound Samples

[TimingPoints]
990,240,4,1,1,75,1,0
8670,315.789473684211,4,1,1,75,1,0
12143,315.789473684211,4,1,1,80,1,0
22248,-100,4,1,1,70,0,0
39932,-100,4,1,1,80,0,0
46485,-100,4,1,1,80,0,0
46564,-100,4,1,1,80,0,0
47748,-100,4,1,1,80,0,0
47827,-100,4,1,1,45,0,0
48143,-100,4,1,1,52,0,0
48458,-100,4,1,1,59,0,0
48774,-100,4,1,1,66,0,0
49090,-100,4,1,1,73,0,0
49406,-100,4,1,1,80,0,0
49721,-100,4,1,1,87,0,0
50037,-100,4,1,1,90,0,0
52564,-83.3333333333333,4,1,1,80,0,1
61643,-83.3333333333333,4,1,1,80,0,1
61721,-80,4,1,1,80,0,1
61958,-80,4,1,1,80,0,1
62037,-80,4,1,1,80,0,1
62274,-80,4,1,1,80,0,1
62353,-80,4,1,1,80,0,1
68985,-100,4,1,1,80,0,0
70248,-80,4,1,1,80,0,1
80274,-80,4,1,1,80,0,0
80353,-100,4,1,1,80,0,1
80432,-100,4,1,1,80,0,0
81616,-83.3333333333333,4,1,1,80,0,0
82879,-83.3333333333333,4,1,1,80,0,1
82958,-83.3333333333333,4,1,1,80,0,0
85406,-83.3333333333333,4,1,1,80,0,1
85485,-83.3333333333333,4,1,1,80,0,0
87932,-83.3333333333333,4,1,1,80,0,1
88011,-100,4,1,1,80,0,0
90458,-100,4,1,1,80,0,1
90537,-100,4,1,1,80,0,0
91564,-100,4,1,1,70,0,0
94564,-100,4,1,1,5,0,0

[Colours]
Combo1 : 255,108,108
Combo2 : 238,125,146
Combo3 : 234,224,102
Combo4 : 206,200,198

[HitObjects]
217,188,990,6,0,L|226:89,1,90,4|0,0:3|1:0,0:0:0:0:
111,22,1230,2,0,L|102:121,1,90,4|0,0:3|0:0,0:0:0:0:
227,200,1470,2,0,L|237:88,1,90,4|0,0:3|0:0,0:0:0:0:
100,9,1710,2,0,L|90:121,1,90,4|0,0:3|0:0,0:0:0:0:
239,284,1950,5,8,0:3:0:0:
256,282,2010,1,8,0:3:0:0:
274,277,2070,1,8,0:3:0:0:
288,268,2130,1,8,0:3:0:0:
301,255,2190,1,8,0:3:0:0:
309,239,2250,1,8,0:3:0:0:
313,221,2310,2,0,P|291:134|207:114,1,180,12|0,0:1|0:0,0:0:0:0:
227,200,2670,2,0,L|237:88,1,90,12|0,0:0|0:0,0:0:0:0:
166,273,2910,6,0,L|265:282,1,90,4|0,0:3|1:0,0:0:0:0:
332,167,3150,2,0,L|233:158,1,90,4|0,0:3|0:0,0:0:0:0:
154,283,3390,2,0,L|266:293,1,90,4|0,0:3|0:0,0:0:0:0:
345,156,3630,2,0,L|233:146,1,90,4|0,0:3|0:0,0:0:0:0:
70,295,3870,5,8,0:3:0:0:
72,312,3930,1,8,0:3:0:0:
77,330,3990,1,8,0:3:0:0:
86,344,4050,1,8,0:3:0:0:
99,357,4110,1,8,0:3:0:0:
115,365,4170,1,8,0:3:0:0:
133,368,4230,2,0,P|220:346|240:262,1,180,12|0,0:1|0:0,0:0:0:0:
154,283,4590,2,0,L|266:293,1,90,12|0,0:0|0:0,0:0:0:0:
95,126,4830,6,0,B|84:173|84:173|94:219,1,90,6|0,0:3|0:0,0:0:0:0:
241,95,5070,2,0,B|252:48|252:48|242:2,1,90,6|0,0:3|0:0,0:0:0:0:
84,128,5310,2,0,B|71:182|71:182|83:236,1,90,6|0,0:3|0:0,0:0:0:0:
253,92,5550,2,0,B|266:38|266:38|254:-16,1,90,6|0,0:3|0:0,0:0:0:0:
168,204,5790,5,12,0:3:0:0:
338,178,5910,1,0,0:0:0:0:
253,92,6030,1,8,0:3:0:0:
233,281,6150,2,0,L|441:266,1,180,12|0,0:0|0:0,0:0:0:0:
133,221,6510,2,0,L|29:228,1,90,8|0,0:0|0:0,0:0:0:0:
213,353,6750,6,0,L|209:162,1,180,12|8,0:0|0:0,0:0:0:0:
41,137,7110,1,0,0:0:0:0:
41,137,7230,2,0,L|43:232,1,90,8|0,0:3|0:0,0:0:0:0:
209,173,7470,2,0,L|207:77,1,90,10|0,0:0|0:0,0:0:0:0:
33,15,7710,6,0,B|76:6|76:6|120:19,1,90,12|0,0:0|0:3,0:0:0:0:
294,87,7950,2,0,B|250:95|250:95|206:82,1,90,8|0,0:0|0:3,0:0:0:0:
294,197,8190,5,8,0:0:0:0:
124,141,8310,1,0,0:3:0:0:
294,87,8430,1,8,0:0:0:0:
188,231,8550,1,0,0:3:0:0:
188,53,8670,5,8,0:0:0:0:
96,155,12143,6,0,L|203:144,1,90,4|10,0:0|0:0,0:0:0:0:
30,98,12458,1,8,0:3:0:0:
254,173,12616,1,8,0:0:0:0:
258,161,12695,1,0,0:0:0:0:
258,151,12774,1,2,0:1:0:0:
154,54,12932,1,10,0:0:0:0:
221,251,13090,1,0,0:0:0:0:
234,257,13169,1,0,0:0:0:0:
244,258,13248,1,8,0:0:0:0:
401,164,13406,5,2,0:0:0:0:
226,98,13564,1,10,0:0:0:0:
261,260,13721,1,0,0:3:0:0:
429,147,13879,1,8,0:0:0:0:
199,195,14037,1,2,0:0:0:0:
357,344,14195,1,10,0:0:0:0:
326,76,14353,1,0,0:0:0:0:
324,107,14431,1,0,0:0:0:0:
322,138,14510,1,8,0:0:0:0:
320,170,14589,1,0,0:0:0:0:
319,201,14668,5,2,0:0:0:0:
139,275,14827,1,10,0:0:0:0:
137,260,14906,1,2,0:0:0:0:
135,245,14985,1,8,0:3:0:0:
225,66,15143,1,8,0:0:0:0:
214,58,15221,1,0,0:0:0:0:
202,52,15300,1,2,0:0:0:0:
184,47,15379,1,2,0:0:0:0:
161,46,15458,1,10,0:0:0:0:
38,171,15616,1,0,0:0:0:0:
36,186,15695,1,0,0:0:0:0:
34,201,15774,1,8,0:0:0:0:
224,331,15932,5,2,1:0:0:0:
226,316,16011,1,0,1:0:0:0:
228,301,16090,1,8,1:1:0:0:
230,286,16169,1,0,1:0:0:0:
232,271,16248,5,2,1:0:0:0:
264,301,16326,1,0,1:0:0:0:
307,313,16405,1,8,1:1:0:0:
350,303,16484,1,0,1:0:0:0:
379,275,16563,5,2,1:0:0:0:
394,237,16642,1,0,1:0:0:0:
394,196,16721,1,8,1:1:0:0:
372,161,16800,1,0,1:0:0:0:
340,135,16879,5,2,1:0:0:0:
341,153,16957,1,0,1:0:0:0:
342,171,17036,1,8,1:1:0:0:
343,189,17115,1,0,1:0:0:0:
344,207,17195,6,0,B|302:217|302:217|254:208,1,90,4|10,0:0|0:0,0:0:0:0:
168,179,17432,1,2,0:0:0:0:
154,171,17511,1,8,0:3:0:0:
306,74,17669,1,8,0:0:0:0:
237,281,17827,1,2,0:2:0:0:
234,295,17906,1,2,0:2:0:0:
231,309,17985,1,10,0:0:0:0:
418,172,18143,1,0,0:0:0:0:
421,158,18222,1,0,0:0:0:0:
424,144,18301,1,8,0:0:0:0:
237,182,18458,5,2,0:0:0:0:
368,301,18616,1,10,0:0:0:0:
427,132,18774,1,0,0:0:0:0:
237,182,18932,1,8,0:0:0:0:
461,276,19090,1,2,0:0:0:0:
407,51,19248,1,10,0:0:0:0:
255,278,19406,1,0,0:0:0:0:
240,272,19485,1,0,0:0:0:0:
225,266,19564,1,8,0:0:0:0:
41,139,19721,5,2,0:0:0:0:
227,33,19879,1,10,1:0:0:0:
223,49,19958,1,2,1:0:0:0:
219,65,20037,1,8,0:3:0:0:
362,158,20195,1,8,0:0:0:0:
373,166,20273,1,0,0:0:0:0:
385,172,20352,1,2,0:2:0:0:
403,177,20431,1,2,0:2:0:0:
426,178,20510,1,10,0:1:0:0:
371,362,20669,1,0,0:0:0:0:
375,346,20748,1,0,0:0:0:0:
379,330,20828,1,8,0:0:0:0:
426,178,20985,5,2,1:0:0:0:
410,136,21063,1,0,1:0:0:0:
375,109,21142,1,8,1:1:0:0:
331,106,21221,1,0,1:0:0:0:
292,128,21300,1,2,1:0:0:0:
271,167,21379,1,0,1:0:0:0:
276,212,21458,1,8,1:1:0:0:
304,246,21537,1,0,1:0:0:0:
347,255,21616,5,2,1:0:0:0:
322,208,21694,1,0,1:0:0:0:
273,187,21773,1,8,1:1:0:0:
222,200,21852,1,0,1:0:0:0:
190,242,21931,1,2,1:2:0:0:
191,295,22010,1,2,1:2:0:0:
225,336,22089,1,10,1:1:0:0:
330,130,22248,5,4,0:0:0:0:
99,142,22406,1,0,2:2:0:0:
225,336,22564,1,8,0:0:0:0:
319,157,22721,1,0,2:2:0:0:
150,376,22879,2,0,P|139:331|161:279,1,90,0|2,0:0|2:0,0:0:0:0:
392,116,23195,2,0,P|403:161|381:213,1,90,8|0,0:0|2:0,0:0:0:0:
317,322,23511,5,0,0:0:0:0:
319,157,23669,1,0,2:2:0:0:
460,241,23827,1,8,0:0:0:0:
240,304,23985,1,2,2:0:0:0:
264,282,24300,6,0,L|259:383,1,90,2|8,2:0|0:0,0:0:0:0:
146,369,24616,1,2,2:0:0:0:
313,219,24774,6,0,P|269:201|215:221,1,90,0|0,0:0|2:0,0:0:0:0:
68,275,25090,2,0,L|66:166,1,90,10|0,0:0|2:2,0:0:0:0:
252,142,25406,1,0,0:0:0:0:
66,185,25564,1,2,2:0:0:0:
138,71,25721,1,8,0:0:0:0:
182,258,25879,1,2,2:0:0:0:
12,125,26037,6,0,P|51:106|96:111,1,90,0|2,0:0|2:0,0:0:0:0:
267,229,26353,2,0,B|313:240|313:240|354:232,1,90,8|2,0:0|0:0,0:0:0:0:
194,168,26669,1,0,0:0:0:0:
263,309,26827,1,2,2:0:0:0:
401,171,26985,2,0,P|360:156|314:169,1,90,8|0,0:0|0:2,0:0:0:0:
192,252,27300,5,0,0:0:0:0:
256,100,27458,1,0,2:0:0:0:
354,232,27616,1,8,0:0:0:0:
192,252,27774,1,2,2:0:0:0:
235,27,27932,2,0,P|279:26|316:52,1,90,2|0,0:2|2:0,0:0:0:0:
152,104,28248,1,8,0:0:0:0:
315,51,28406,1,2,2:0:0:0:
244,216,28564,5,0,0:0:0:0:
152,104,28721,1,2,2:0:0:0:
383,7,28879,2,0,P|397:49|384:92,1,90,8|2,0:0|0:2,0:0:0:0:
244,216,29195,1,0,0:0:0:0:
456,168,29353,1,8,0:0:0:0:
212,48,29511,1,8,0:0:0:0:
274,359,29669,1,8,0:0:0:0:
472,144,29827,6,0,B|368:120|392:208|288:184,1,180,4|10,0:0|0:0,0:0:0:0:
192,148,30300,1,0,0:0:0:0:
408,24,30458,2,0,L|384:232,1,180,10|10,0:0|0:0,0:0:0:0:
376,304,30932,1,2,0:2:0:0:
213,115,31090,5,12,0:0:0:0:
368,328,31248,1,2,0:0:0:0:
368,65,31406,1,10,0:0:0:0:
213,277,31564,1,2,0:0:0:0:
463,196,31721,5,10,0:0:0:0:
445,181,31799,1,0,0:0:0:0:
424,174,31878,1,0,0:0:0:0:
402,175,31957,1,0,0:0:0:0:
382,185,32037,5,10,0:0:0:0:
348,215,32115,1,0,0:0:0:0:
306,230,32194,1,0,0:0:0:0:
262,228,32273,1,0,0:0:0:0:
221,209,32353,6,0,B|212:164|212:164|220:120,1,90,4|0,0:0|2:0,0:0:0:0:
164,296,32669,2,0,P|120:308|72:296,1,90,8|0,0:0|2:0,0:0:0:0:
221,209,32985,1,0,0:0:0:0:
164,296,33143,1,0,0:0:0:0:
80,120,33300,1,8,0:0:0:0:
200,192,33458,1,2,0:0:0:0:
15,260,33616,5,0,0:0:0:0:
117,207,33774,1,0,0:0:0:0:
68,376,33932,1,8,0:0:0:0:
129,182,34090,1,0,0:0:0:0:
264,320,34248,2,0,P|216:332|164:312,1,90,2|4,0:0|0:3,0:0:0:0:
328,164,34564,2,0,P|376:152|428:172,1,90,10|0,0:0|0:0,0:0:0:0:
272,240,34879,5,0,0:0:0:0:
464,232,35037,1,0,2:0:0:0:
360,320,35195,2,0,L|372:224,1,90,8|0,0:0|2:2,0:0:0:0:
444,72,35511,1,0,0:0:0:0:
336,128,35669,1,0,0:0:0:0:
464,272,35827,1,8,0:0:0:0:
508,168,35985,1,2,0:0:0:0:
336,240,36143,5,0,0:0:0:0:
480,356,36300,1,0,0:0:0:0:
508,88,36458,2,0,P|464:100|436:136,1,90,8|0,0:0|0:0,0:0:0:0:
304,272,36774,2,0,L|302:180,1,90,2|4,0:0|0:3,0:0:0:0:
144,49,37090,2,0,L|146:141,1,90,10|0,0:0|0:0,0:0:0:0:
404,36,37406,5,4,0:0:0:0:
248,0,37564,1,0,2:0:0:0:
302,182,37721,2,0,P|348:195|393:182,1,90,8|0,0:0|2:0,0:0:0:0:
224,129,38037,1,0,0:0:0:0:
274,255,38195,1,0,0:0:0:0:
353,91,38353,1,8,0:0:0:0:
224,129,38511,1,0,0:0:0:0:
462,182,38669,5,2,0:0:0:0:
170,228,38827,1,0,0:0:0:0:
353,91,38985,1,8,0:0:0:0:
294,348,39143,1,2,0:0:0:0:
274,332,39458,5,8,0:0:0:0:
304,28,39616,1,8,0:0:0:0:
112,167,39774,1,8,0:0:0:0:
452,186,39932,5,2,0:0:0:0:
257,108,40090,1,0,0:0:0:0:
287,316,40248,1,10,0:0:0:0:
379,75,40406,1,6,0:0:0:0:
112,167,40564,1,0,0:0:0:0:
287,316,40721,1,0,0:0:0:0:
327,13,40879,1,6,0:0:0:0:
40,138,41037,1,0,0:0:0:0:
364,275,41195,5,14,0:0:0:0:
208,129,41353,1,0,0:0:0:0:
160,338,41511,1,2,0:0:0:0:
420,212,41669,2,0,P|366:192|280:265,1,180,14|0,0:0|0:0,0:0:0:0:
429,124,42143,2,0,B|414:169|414:169|420:219,1,90,14|8,0:0|0:0,0:0:0:0:
160,338,42458,6,0,B|187:254|187:254|176:162,1,180,4|8,0:0|0:0,0:0:0:0:
0,24,42932,1,0,0:0:0:0:
2,41,43011,1,0,0:0:0:0:
4,58,43090,2,0,L|17:155,1,90,2|0,0:0|0:0,0:0:0:0:
176,162,43327,1,0,0:0:0:0:
191,144,43406,2,0,B|146:138|146:138|95:151,1,90,10|0,0:0|0:0,0:0:0:0:
290,308,43721,5,4,0:0:0:0:
399,148,43879,1,2,0:0:0:0:
148,240,44037,1,8,0:0:0:0:
356,358,44195,1,2,0:0:0:0:
365,342,44274,1,0,0:0:0:0:
369,324,44353,2,0,P|368:277|343:242,1,90,8|0,0:0|0:0,0:0:0:0:
188,317,44590,1,0,0:0:0:0:
200,300,44669,2,0,L|290:308,1,90,10|0,0:0|0:0,0:0:0:0:
446,252,44906,1,0,0:0:0:0:
433,235,44985,6,0,L|343:242,1,90,4|0,0:0|0:0,0:0:0:0:
188,317,45300,1,8,0:0:0:0:
290,143,45458,1,2,0:0:0:0:
93,208,45616,2,0,L|183:215,1,90,8|0,0:0|0:0,0:0:0:0:
257,222,45853,1,0,0:0:0:0:
272,224,45932,1,8,0:0:0:0:
66,123,46090,1,0,0:0:0:0:
214,4,46248,6,0,B|226:44|226:44|214:136,1,135,12|0,0:0|0:0,0:0:0:0:
213,136,46564,2,0,B|259:145|259:145|308:137,1,90,8|0,0:0|0:0,0:0:0:0:
375,114,46800,1,0,0:0:0:0:
394,105,46879,1,8,0:0:0:0:
295,8,47037,1,0,0:0:0:0:
302,33,47116,1,0,0:0:0:0:
309,58,47195,1,8,0:0:0:0:
307,166,47353,1,0,0:0:0:0:
304,152,47432,1,0,0:0:0:0:
301,138,47511,6,0,L|307:279,1,135,12|0,0:0|0:0,0:0:0:0:
312,349,47827,1,8,0:0:0:0:
360,224,47985,1,8,0:0:0:0:
228,245,48143,1,8,0:0:0:0:
316,375,48300,5,8,0:0:0:0:
202,235,48458,1,8,0:0:0:0:
380,207,48616,1,8,0:0:0:0:
170,328,48774,5,8,0:0:0:0:
170,84,48932,1,8,0:0:0:0:
380,207,49090,1,8,0:0:0:0:
93,302,49248,1,8,0:0:0:0:
405,201,49406,5,8,0:0:0:0:
93,99,49564,1,8,0:0:0:0:
287,365,49721,1,8,0:0:0:0:
287,37,49879,1,8,0:0:0:0:
93,302,50037,5,12,0:0:0:0:
405,201,50669,1,2,2:2:0:0:
93,99,51300,1,2,2:2:0:0:
287,365,51774,5,0,3:3:0:0:
287,365,51853,1,0,3:3:0:0:
287,365,51932,1,12,3:3:0:0:
287,37,52090,1,12,0:3:0:0:
64,200,52564,5,12,0:0:0:0:
248,300,52721,2,0,L|252:236,1,53.9999983520508,2|0,0:2|0:0,0:0:0:0:
140,168,52879,5,8,0:0:0:0:
324,268,53037,2,0,L|328:204,1,53.9999983520508,2|0,0:2|1:0,0:0:0:0:
216,136,53195,5,8,0:0:0:0:
400,236,53353,2,0,L|404:172,1,53.9999983520508,2|0,0:2|1:0,0:0:0:0:
292,104,53511,5,8,0:0:0:0:
476,204,53669,2,0,L|480:140,1,53.9999983520508,2|0,0:2|1:0,0:0:0:0:
216,136,53827,5,8,0:0:0:0:
397,289,53985,2,0,L|403:181,1,107.999996704102,2|8,0:2|0:0,0:0:0:0:
128,44,54300,2,0,L|122:152,1,107.999996704102,2|8,0:2|0:0,0:0:0:0:
197,265,54616,1,0,0:0:0:0:
320,28,54774,1,10,0:0:0:0:
122,151,54932,1,0,0:0:0:0:
432,108,55090,6,0,P|388:104|336:140,1,107.999996704102,10|0,0:0|0:0,0:0:0:0:
169,343,55406,2,0,P|213:347|265:311,1,107.999996704102,10|0,0:0|0:0,0:0:0:0:
128,198,55721,1,10,0:0:0:0:
286,81,55879,1,0,0:0:0:0:
169,343,56037,2,0,L|175:277,1,53.9999983520508,8|0,0:0|0:0,0:0:0:0:
12,60,56195,2,0,L|6:126,1,53.9999983520508,0|0,0:0|0:0,0:0:0:0:
309,66,56353,5,14,0:3:0:0:
16,246,56511,1,6,0:3:0:0:
328,261,56669,1,6,0:3:0:0:
85,63,56827,1,6,0:3:0:0:
165,369,56985,2,0,B|147:316|147:316|158:262,1,107.999996704102,6|0,1:0|0:0,0:0:0:0:
310,164,57300,1,8,0:0:0:0:
256,160,57378,1,8,0:0:0:0:
202,157,57457,1,8,0:0:0:0:
148,153,57536,1,8,0:0:0:0:
94,150,57617,5,12,0:0:0:0:
278,50,57774,2,0,L|282:114,1,53.9999983520508,2|0,0:2|1:0,0:0:0:0:
170,182,57932,5,8,0:0:0:0:
354,82,58090,2,0,L|358:146,1,53.9999983520508,2|0,0:2|1:0,0:0:0:0:
246,214,58248,5,8,0:0:0:0:
430,114,58406,2,0,L|434:178,1,53.9999983520508,2|0,0:2|1:0,0:0:0:0:
322,246,58564,5,8,0:0:0:0:
506,146,58721,2,0,L|510:210,1,53.9999983520508,2|0,0:2|1:0,0:0:0:0:
246,214,58880,5,8,0:0:0:0:
427,61,59038,2,0,L|433:169,1,107.999996704102,2|8,0:2|0:0,0:0:0:0:
158,306,59353,2,0,L|152:198,1,107.999996704102,2|8,0:2|0:0,0:0:0:0:
309,281,59669,1,0,0:0:0:0:
156,177,59827,1,10,0:0:0:0:
322,96,59985,1,0,0:0:0:0:
55,165,60143,6,0,L|166:159,1,107.999996704102,10|0,0:0|0:0,0:0:0:0:
437,83,60458,2,0,L|326:77,1,107.999996704102,10|0,0:0|0:0,0:0:0:0:
503,144,60774,2,0,B|523:89|523:89|512:37,1,107.999996704102,10|0,0:0|0:0,0:0:0:0:
248,141,61090,1,8,0:0:0:0:
244,184,61168,1,0,0:0:0:0:
240,227,61247,1,0,0:0:0:0:
236,270,61326,1,0,0:0:0:0:
232,313,61406,6,0,B|326:289|297:371|399:340,1,161.999995056153,14|0,0:0|2:0,0:0:0:0:
495,232,61721,6,0,P|456:210|362:277,1,168.75,10|0,0:0|2:0,0:0:0:0:
451,119,62037,6,0,L|438:294,1,168.75,14|0,0:0|2:0,0:0:0:0:
384,343,62353,5,10,0:0:0:0:
329,338,62431,1,8,0:0:0:0:
291,298,62510,1,8,0:0:0:0:
290,243,62589,1,8,0:0:0:0:
325,202,62669,6,0,P|361:128|289:14,1,225,6|8,0:0|0:0,0:0:0:0:
254,120,63143,1,0,0:0:0:0:
494,34,63300,1,8,0:3:0:0:
401,188,63458,1,2,0:0:0:0:
510,9,63616,1,8,0:0:0:0:
361,257,63774,6,0,B|315:231|266:257|266:257|239:241|239:241|197:264|139:247,1,225,4|0,0:0|0:0,0:0:0:0:
310,163,64248,1,8,0:0:0:0:
196,336,64406,1,2,0:0:0:0:
343,94,64564,1,8,0:3:0:0:
59,200,64721,1,0,0:0:0:0:
263,375,64879,1,8,0:0:0:0:
194,80,65037,6,0,B|202:127|180:156|180:156|188:184|188:184|180:206|180:206|187:228|187:228|167:254|176:297,1,225,4|0,0:0|0:0,0:0:0:0:
263,45,65511,2,0,P|214:5|153:13,1,112.5,10|0,0:0|0:0,0:0:0:0:
26,160,65827,1,8,0:3:0:0:
263,45,65985,1,2,0:0:0:0:
1,5,66143,1,10,0:0:0:0:
151,242,66300,6,0,B|189:258|198:278|198:278|244:264|244:264|302:290|361:270,1,225,4|0,0:0|0:0,0:0:0:0:
478,184,66774,1,8,0:0:0:0:
268,151,66932,1,0,0:0:0:0:
345,350,67090,1,10,0:0:0:0:
390,190,67248,1,0,0:0:0:0:
134,278,67406,1,8,0:0:0:0:
190,276,67484,1,8,0:0:0:0:
246,275,67563,1,8,0:0:0:0:
302,273,67642,1,8,0:0:0:0:
358,272,67721,6,0,B|381:220|381:220|359:158,1,112.5,12|0,0:0|0:0,0:0:0:0:
140,39,68037,2,0,B|117:91|117:91|139:153,1,112.5,10|0,0:0|0:0,0:0:0:0:
358,272,68353,1,10,0:0:0:0:
433,104,68511,1,0,0:0:0:0:
190,197,68669,1,10,0:0:0:0:
343,347,68827,1,0,0:0:0:0:
416,2,68985,5,10,0:0:0:0:
366,155,70248,6,0,B|310:167|310:167|246:149,1,112.5,4|10,0:0|0:0,0:0:0:0:
85,58,70563,1,8,0:3:0:0:
184,219,70721,1,0,0:0:0:0:
188,231,70800,1,0,0:0:0:0:
188,241,70879,1,2,0:1:0:0:
308,54,71037,1,10,0:0:0:0:
216,310,71195,1,0,0:0:0:0:
203,316,71274,1,0,0:0:0:0:
193,317,71353,1,8,0:0:0:0:
32,137,71511,5,2,0:0:0:0:
224,50,71669,1,10,0:0:0:0:
188,241,71826,1,0,0:0:0:0:
2,122,71984,1,8,0:0:0:0:
259,173,72142,1,2,0:0:0:0:
86,343,72300,1,10,0:0:0:0:
136,76,72458,1,0,0:0:0:0:
138,107,72536,1,0,0:0:0:0:
140,138,72615,1,8,0:0:0:0:
142,170,72694,1,0,0:0:0:0:
143,201,72773,5,2,0:0:0:0:
389,75,72932,1,10,0:0:0:0:
374,73,73011,1,2,0:0:0:0:
359,71,73090,1,8,0:3:0:0:
411,331,73248,1,0,0:0:0:0:
422,339,73326,1,0,0:0:0:0:
434,345,73405,1,2,0:0:0:0:
452,350,73484,1,2,0:0:0:0:
475,351,73563,1,10,0:0:0:0:
424,171,73721,1,0,0:0:0:0:
426,186,73800,1,0,0:0:0:0:
428,201,73879,1,8,0:0:0:0:
216,350,74037,5,2,1:0:0:0:
214,334,74116,1,0,1:0:0:0:
212,317,74195,1,8,1:1:0:0:
210,301,74274,1,0,1:0:0:0:
208,284,74353,5,2,1:0:0:0:
173,317,74431,1,0,1:0:0:0:
126,330,74510,1,8,1:1:0:0:
78,319,74589,1,0,1:0:0:0:
45,288,74668,5,2,1:0:0:0:
29,245,74747,1,0,1:0:0:0:
33,200,74826,1,8,1:1:0:0:
57,162,74905,1,0,1:0:0:0:
95,138,74984,5,2,1:0:0:0:
94,158,75064,1,0,1:0:0:0:
93,178,75143,1,8,1:1:0:0:
92,197,75220,1,0,1:0:0:0:
91,217,75300,6,0,B|150:236|150:236|206:222,1,112.5,4|10,0:0|0:0,0:0:0:0:
283,189,75537,1,2,0:0:0:0:
297,181,75616,1,8,0:3:0:0:
156,74,75774,1,0,0:0:0:0:
229,290,75932,1,2,0:2:0:0:
232,304,76011,1,2,0:2:0:0:
235,318,76090,1,10,0:0:0:0:
44,172,76248,1,0,0:0:0:0:
41,158,76327,1,0,0:0:0:0:
38,144,76406,1,8,0:0:0:0:
225,182,76563,5,2,0:0:0:0:
94,301,76721,1,10,0:0:0:0:
35,132,76879,1,0,0:0:0:0:
225,182,77037,1,8,0:0:0:0:
1,276,77195,1,2,0:0:0:0:
55,51,77353,1,10,0:0:0:0:
207,278,77511,1,0,0:0:0:0:
222,272,77590,1,0,0:0:0:0:
237,266,77669,1,8,0:0:0:0:
453,129,77826,5,2,0:0:0:0:
235,33,77984,1,10,1:0:0:0:
239,49,78063,1,2,1:0:0:0:
243,65,78142,1,8,0:3:0:0:
100,158,78300,1,0,0:0:0:0:
89,166,78378,1,0,0:0:0:0:
77,172,78457,1,2,0:2:0:0:
59,177,78536,1,2,0:2:0:0:
36,178,78615,1,10,0:1:0:0:
91,362,78774,1,0,0:0:0:0:
87,346,78853,1,0,0:0:0:0:
83,330,78933,1,8,0:0:0:0:
36,178,79090,5,2,1:0:0:0:
52,136,79168,1,0,1:0:0:0:
87,109,79247,1,8,1:1:0:0:
131,106,79326,1,0,1:0:0:0:
170,128,79405,1,2,1:0:0:0:
191,167,79484,1,0,1:0:0:0:
186,212,79563,1,8,1:1:0:0:
158,246,79642,1,0,1:0:0:0:
115,255,79721,5,2,1:0:0:0:
140,208,79799,1,0,1:0:0:0:
189,187,79878,1,8,1:1:0:0:
240,200,79957,1,0,1:0:0:0:
272,242,80036,1,2,0:0:0:0:
271,295,80115,1,2,0:0:0:0:
237,336,80195,2,0,B|209:341|209:341|181:335,1,56.25,10|2,0:0|0:0,0:0:0:0:
144,100,80353,5,14,1:1:0:0:
160,73,80431,1,0,1:1:0:0:
186,55,80510,1,0,1:1:0:0:
216,46,80589,1,0,1:1:0:0:
247,50,80668,1,8,1:1:0:0:
275,64,80747,1,0,1:1:0:0:
296,87,80826,1,4,1:1:0:0:
307,116,80905,1,0,1:1:0:0:
311,148,80984,5,0,1:1:0:0:
340,160,81063,1,0,1:1:0:0:
371,163,81142,1,0,1:1:0:0:
400,152,81221,1,0,1:1:0:0:
420,128,81300,1,12,1:1:0:0:
426,97,81379,1,0,1:1:0:0:
417,68,81458,1,0,1:1:0:0:
395,46,81537,1,0,1:1:0:0:
364,23,81616,6,0,B|337:20|337:20|299:26,3,53.9999983520508,8|0|4|0,1:1|1:1|1:1|1:1,0:0:0:0:
144,177,81932,5,0,1:1:0:0:
132,146,82010,1,0,1:1:0:0:
132,114,82089,1,0,1:1:0:0:
142,83,82168,1,0,1:1:0:0:
161,58,82248,6,0,P|189:49|221:50,1,53.9999983520508,12|0,1:1|1:1,0:0:0:0:
296,159,82406,1,0,1:1:0:0:
292,178,82485,1,0,1:1:0:0:
286,197,82564,2,0,P|258:206|225:204,1,53.9999983520508,12|0,1:1|1:1,0:0:0:0:
378,99,82721,2,0,P|406:90|439:92,1,53.9999983520508,0|0,1:1|1:1,0:0:0:0:
186,267,82879,5,14,1:1:0:0:
165,243,82957,1,0,1:1:0:0:
155,213,83036,1,0,1:1:0:0:
157,182,83115,1,0,1:1:0:0:
172,155,83194,1,8,1:1:0:0:
196,135,83273,1,0,1:1:0:0:
226,126,83352,1,4,1:1:0:0:
257,129,83431,1,0,1:1:0:0:
284,145,83511,5,0,1:1:0:0:
265,170,83589,1,0,1:1:0:0:
237,184,83668,1,0,1:1:0:0:
206,184,83747,1,0,1:1:0:0:
178,171,83826,1,12,1:1:0:0:
159,146,83905,1,0,1:1:0:0:
153,115,83984,1,0,1:1:0:0:
161,85,84063,1,0,1:1:0:0:
181,62,84143,6,0,B|186:34|186:34|180:6,3,53.9999983520508,8|0|4|0,1:1|1:1|1:1|1:1,0:0:0:0:
237,184,84458,5,0,1:1:0:0:
264,200,84536,1,0,0:0:0:0:
296,201,84615,1,0,0:0:0:0:
326,188,84694,1,0,0:0:0:0:
346,164,84773,1,12,1:1:0:0:
354,133,84852,1,0,1:1:0:0:
347,102,84931,1,0,1:1:0:0:
327,76,85010,1,0,1:1:0:0:
301,55,85090,6,0,B|296:27|296:27|302:-1,3,53.9999983520508,12|0|0|0,1:1|1:1|1:1|1:1,0:0:0:0:
237,184,85406,5,14,1:1:0:0:
212,203,85484,1,0,1:1:0:0:
199,231,85563,1,0,1:1:0:0:
200,262,85642,1,0,1:1:0:0:
215,290,85721,1,8,1:1:0:0:
240,307,85800,1,0,1:1:0:0:
271,312,85879,1,4,1:1:0:0:
301,302,85958,1,0,1:1:0:0:
323,279,86037,5,0,1:1:0:0:
303,255,86115,1,0,1:1:0:0:
276,238,86194,1,0,1:1:0:0:
246,230,86273,1,0,1:1:0:0:
215,231,86352,1,12,1:1:0:0:
185,241,86431,1,0,1:1:0:0:
160,260,86510,1,0,1:1:0:0:
141,285,86589,1,0,1:1:0:0:
131,315,86669,6,0,B|105:322|105:322|75:318,3,53.9999983520508,8|0|4|0,1:1|1:1|1:1|1:1,0:0:0:0:
180,161,86985,5,0,1:1:0:0:
192,118,87063,1,0,1:1:0:0:
175,77,87142,1,0,1:1:0:0:
137,55,87221,1,0,1:1:0:0:
93,61,87300,6,0,P|68:66|38:58,1,53.9999983520508,12|0,1:1|1:1,0:0:0:0:
274,145,87458,1,0,1:1:0:0:
302,160,87537,1,0,1:1:0:0:
333,168,87616,6,0,P|358:172|388:164,3,53.9999983520508,12|0|0|0,1:1|1:1|1:1|1:1,0:0:0:0:
136,313,87932,5,14,1:1:0:0:
117,280,88010,1,2,1:1:0:0:
117,243,88089,1,2,1:1:0:0:
134,210,88168,1,2,1:1:0:0:
166,189,88247,1,10,1:1:0:0:
203,187,88326,1,2,1:1:0:0:
237,203,88405,1,2,1:1:0:0:
259,233,88484,1,2,1:1:0:0:
264,270,88564,5,10,1:1:0:0:
240,242,88642,1,2,1:1:0:0:
228,209,88721,1,2,1:1:0:0:
227,173,88800,1,2,1:1:0:0:
239,139,88879,1,10,1:1:0:0:
262,111,88958,1,2,1:1:0:0:
292,93,89037,1,2,1:1:0:0:
327,86,89116,1,2,1:1:0:0:
363,89,89195,5,8,1:1:0:0:
332,63,89273,1,2,1:1:0:0:
294,47,89352,1,2,1:1:0:0:
254,44,89431,1,2,1:1:0:0:
215,53,89510,1,10,1:1:0:0:
180,74,89589,1,2,1:1:0:0:
153,104,89668,1,2,1:1:0:0:
137,141,89747,1,2,1:1:0:0:
133,181,89827,5,10,1:1:0:0:
107,145,89905,1,2,1:1:0:0:
105,101,89984,1,2,1:1:0:0:
128,63,90063,1,2,1:1:0:0:
169,45,90142,1,10,1:1:0:0:
215,53,90221,1,2,1:1:0:0:
244,83,90300,1,2,1:1:0:0:
254,126,90379,1,2,1:1:0:0:
238,167,90458,5,12,1:0:0:0:
19,80,90616,1,8,0:0:0:0:
141,301,90774,1,8,0:0:0:0:
361,126,90932,5,12,0:0:0:0:
14,209,91090,1,0,0:0:0:0:
248,383,91248,1,0,0:0:0:0:
287,15,91406,5,12,0:0:0:0:
106,370,91564,1,4,0:0:0:0:
256,192,91643,12,0,94564,2:0:0:0:
