osu file format v14

[General]
AudioFilename: audio.mp3
AudioLeadIn: 0
PreviewTime: 52482
Countdown: 0
SampleSet: Normal
StackLeniency: 0.3
Mode: 0
LetterboxInBreaks: 0
WidescreenStoryboard: 1

[Editor]
DistanceSpacing: 1.5
BeatDivisor: 4
GridSize: 8
TimelineZoom: 1.2

[Metadata]
Title:Daisuki, Evolution
TitleUnicode:大男子き、エヴォリューション
Artist:Minazuki Airi with Atsushi
ArtistUnicode:湊月あいり with Atsushi
Creator:Syph
Version:Akitoshi's Hard
Source:女装学園(孕)
Tags:Kan詰め 斬戯 visual novel dating simulator game opening song josou gakuen eroge traps xexxar xr karen akitoshi corinn jogaku no strike
BeatmapID:1318243
BeatmapSetID:611004

[Difficulty]
HPDrainRate:5
CircleSize:3.8
OverallDifficulty:6
ApproachRate:8
SliderMultiplier:1.5
SliderTickRate:1

[Events]
//Background and Video events
0,0,"wryyyyyyyyyyyyyyyyyyyy.png",0,0
//Break Periods
2,8870,11393
//Storyboard Layer 0 (Background)
//Storyboard Layer 1 (Fail)
//Storyboard Layer 2 (Pass)
//Storyboard Layer 3 (Foreground)
//Storyboard Sound Samples

[TimingPoints]
990,240,4,1,1,75,1,0
8670,315.789473684211,4,1,1,75,1,0
12064,-100,4,1,1,5,0,0
12143,315.789473684211,4,1,1,80,1,0
12143,-100,4,1,1,80,0,0
22248,-111.111111111111,4,1,1,70,0,0
39932,-100,4,1,1,80,0,0
42458,-111.111111111111,4,1,1,80,0,0
47827,-111.111111111111,4,1,1,45,0,0
48143,-111.111111111111,4,1,1,52,0,0
48458,-111.111111111111,4,1,1,59,0,0
48774,-111.111111111111,4,1,1,66,0,0
49090,-111.111111111111,4,1,1,73,0,0
49406,-111.111111111111,4,1,1,80,0,0
49721,-111.111111111111,4,1,1,87,0,0
50037,-142.857142857143,4,1,1,90,0,0
51932,-100,4,1,1,90,0,0
52564,-90.9090909090909,4,1,1,80,0,1
68985,-100,4,1,1,80,0,0
70248,-90.9090909090909,4,1,1,80,0,1
80274,-90.9090909090909,4,1,1,80,0,0
80353,-100,4,1,1,80,0,1
80432,-100,4,1,1,80,0,0
82879,-100,4,1,1,80,0,1
82958,-100,4,1,1,80,0,0
85406,-100,4,1,1,80,0,1
85485,-100,4,1,1,80,0,0
87932,-100,4,1,1,80,0,1
88011,-100,4,1,1,80,0,0
91564,-100,4,1,1,30,0,1
91643,-100,4,1,1,30,0,0
94564,-100,4,1,1,5,0,0

[Colours]
Combo1 : 255,108,108
Combo2 : 238,125,146
Combo3 : 234,224,102
Combo4 : 206,200,198

[HitObjects]
5,350,990,6,0,L|164:338,1,150,4|4,0:3|0:3,0:0:0:0:
248,332,1350,1,0,0:0:0:0:
248,332,1470,2,0,L|256:246,1,75,4|0,0:3|0:0,0:0:0:0:
326,201,1710,2,0,L|318:115,1,75,4|0,0:3|0:0,0:0:0:0:
232,99,1950,6,0,B|196:106|196:106|139:102,2,75,8|8|8,0:3|0:3|0:3,0:0:0:0:
304,43,2310,2,0,L|461:31,1,150,12|0,0:1|0:0,0:0:0:0:
500,108,2670,2,0,B|508:145|508:145|498:185,1,75,12|0,0:0|0:0,0:0:0:0:
437,246,2910,6,0,B|390:237|390:237|345:252|345:252|284:242,1,150,4|4,0:3|0:3,0:0:0:0:
205,237,3270,1,0,0:0:0:0:
205,237,3390,2,0,L|194:319,1,75,4|0,0:3|0:0,0:0:0:0:
105,311,3630,2,0,L|95:236,1,75,4|0,0:3|0:0,0:0:0:0:
77,148,3870,6,0,B|38:145|38:145|1:152,2,75,8|8|8,0:3|0:3|0:3,0:0:0:0:
167,156,4230,2,0,L|315:137,1,150,12|0,0:1|0:0,0:0:0:0:
394,182,4590,2,0,B|403:222|403:222|396:264,1,75,12|0,0:0|0:0,0:0:0:0:
316,296,4830,6,0,L|160:277,1,150,6|6,0:3|0:3,0:0:0:0:
83,264,5190,1,0,0:0:0:0:
83,264,5310,2,0,B|77:229|77:229|84:182,1,75,6|0,0:3|0:0,0:0:0:0:
167,156,5550,2,0,B|173:121|173:121|166:74,1,75,6|0,0:3|0:0,0:0:0:0:
87,39,5790,6,0,L|10:45,2,75,12|0|8,0:3|0:0|0:3,0:0:0:0:
168,82,6150,2,0,L|321:95,1,150,12|0,0:0|0:0,0:0:0:0:
407,104,6510,2,0,B|415:68|415:68|405:21,1,75,8|0,0:0|0:0,0:0:0:0:
317,94,6750,6,0,L|334:262,1,150,12|8,0:0|0:0,0:0:0:0:
342,336,7110,1,0,0:0:0:0:
342,336,7230,2,0,L|262:343,1,75,8|0,0:3|0:0,0:0:0:0:
207,275,7470,2,0,L|127:268,1,75,10|0,0:0|0:0,0:0:0:0:
71,202,7710,6,0,B|36:216|36:216|-6:222,2,75,12|0|8,0:0|0:3|0:0,0:0:0:0:
145,150,8070,1,0,0:3:0:0:
145,150,8190,2,0,B|180:164|180:164|222:170,2,75,8|0|8,0:0|0:3|0:0,0:0:0:0:
70,98,8550,1,0,0:3:0:0:
149,52,8670,5,8,0:0:0:0:
149,52,12143,6,0,L|245:44,2,75,4|10|8,0:0|0:0|0:3,0:0:0:0:
78,108,12616,1,8,0:0:0:0:
103,194,12774,2,0,L|97:242,2,37.5,2|2|10,0:1|0:0|0:0,0:0:0:0:
181,149,13090,1,0,0:0:0:0:
267,174,13248,1,8,0:0:0:0:
296,264,13406,5,2,0:0:0:0:
296,264,13564,2,0,L|455:255,1,150,10|8,0:0|0:0,0:0:0:0:
499,183,14037,1,2,0:0:0:0:
499,183,14195,2,0,B|512:141|512:141|509:79|509:79|468:30,1,150,10|8,0:0|0:0,0:0:0:0:
390,49,14669,6,0,L|396:136,2,75,2|10|8,0:0|0:0|0:3,0:0:0:0:
304,18,15143,1,8,0:0:0:0:
237,77,15300,2,0,L|240:120,2,37.5,2|2|10,0:0|0:0|0:0,0:0:0:0:
158,31,15616,1,0,0:0:0:0:
72,58,15774,1,8,0:0:0:0:
36,140,15932,6,0,L|47:197,3,37.5,2|0|8|0,1:0|1:0|1:1|1:0,0:0:0:0:
73,193,16248,2,0,L|84:250,3,37.5,2|0|8|0,1:0|1:0|1:1|1:0,0:0:0:0:
111,243,16564,2,0,L|122:300,3,37.5,2|0|8|0,1:0|1:0|1:1|1:0,0:0:0:0:
148,294,16879,2,0,L|159:351,3,37.5,2|0|8|0,1:0|1:0|1:1|1:0,0:0:0:0:
179,355,17195,6,0,B|217:357|217:357|265:344,1,75,4|10,0:0|0:0,0:0:0:0:
302,271,17511,2,0,B|340:269|340:269|388:282,1,75,8|8,0:3|0:0,0:0:0:0:
458,315,17827,2,0,L|453:358,2,37.5,2|2|10,0:2|0:2|0:0,0:0:0:0:
509,240,18143,1,0,0:0:0:0:
488,152,18300,1,8,0:0:0:0:
416,110,18458,5,2,0:0:0:0:
416,110,18616,2,0,B|367:124|367:124|265:110,1,150,10|8,0:0|0:0,0:0:0:0:
201,49,19090,1,2,0:0:0:0:
201,49,19248,2,0,B|152:35|152:35|50:49,1,150,10|8,0:0|0:0,0:0:0:0:
14,129,19721,6,0,L|24:207,1,75,2|10,0:0|1:0,0:0:0:0:
114,206,20037,2,0,L|104:284,1,75,8|8,0:3|0:0,0:0:0:0:
180,329,20353,2,0,L|185:366,2,37.5,2|2|10,0:2|0:2|0:1,0:0:0:0:
231,254,20669,1,0,0:0:0:0:
317,229,20827,1,8,0:0:0:0:
392,278,20985,6,0,L|436:273,3,37.5,2|0|8|0,1:0|1:0|1:1|1:0,0:0:0:0:
460,261,21300,2,0,L|487:226,3,37.5,2|0|8|0,1:0|1:0|1:1|1:0,0:0:0:0:
499,201,21616,2,0,L|494:157,3,37.5,2|0|8|0,1:0|1:0|1:1|1:0,0:0:0:0:
480,132,21932,2,0,L|445:104,3,37.5,2|2|10|2,1:2|1:2|1:1|1:2,0:0:0:0:
420,105,22248,6,0,B|358:119|358:119|277:94,1,134.999995880127,4|8,0:0|0:0,0:0:0:0:
219,70,22721,1,0,2:2:0:0:
219,70,22879,2,0,L|135:77,1,67.4999979400635,0|2,0:0|2:0,0:0:0:0:
121,151,23195,2,0,L|205:158,1,67.4999979400635,8|0,0:0|2:0,0:0:0:0:
253,205,23511,6,0,B|261:237|261:237|251:286,2,67.4999979400635,0|0|8,0:0|2:2|0:0,0:0:0:0:
179,240,23985,2,0,L|32:226,1,134.999995880127,2|2,2:0|2:0,0:0:0:0:
9,153,24458,1,8,0:0:0:0:
9,153,24616,6,0,B|4:64|4:64|49:0,1,134.999995880127,2|0,2:0|2:0,0:0:0:0:
103,61,25090,2,0,B|185:53,1,67.4999979400635,10|0,0:0|2:2,0:0:0:0:
244,21,25406,2,0,B|326:29,2,67.4999979400635,0|2|8,0:0|2:0|0:0,0:0:0:0:
198,133,25879,6,0,B|184:177|184:177|198:274,1,134.999995880127,2|2,2:0|2:0,0:0:0:0:
254,332,26353,1,8,0:0:0:0:
254,332,26511,2,0,B|315:314|315:314|391:335,2,134.999995880127,2|2|0,0:0|2:0|0:2,0:0:0:0:
174,347,27300,6,0,L|102:337,1,67.4999979400635,0|0,0:0|2:0,0:0:0:0:
37,295,27616,1,8,0:0:0:0:
37,295,27774,1,2,2:0:0:0:
87,231,27932,2,0,B|110:192|110:192|105:95,1,134.999995880127,2|8,0:2|0:0,0:0:0:0:
162,44,28406,1,2,2:0:0:0:
234,79,28564,6,0,B|267:71|267:71|315:70,2,67.4999979400635,0|2|8,0:0|2:0|0:0,0:0:0:0:
234,160,29037,2,0,B|267:168|267:168|315:169,1,67.4999979400635,2|0,0:2|0:0,0:0:0:0:
381,162,29353,1,8,0:0:0:0:
457,188,29511,1,8,0:0:0:0:
486,263,29669,1,8,0:0:0:0:
453,337,29827,6,0,B|407:341|407:341|369:328|369:328|310:333,1,134.999995880127,4|10,0:0|0:0,0:0:0:0:
240,341,30300,1,0,0:0:0:0:
240,341,30458,2,0,B|233:307|233:307|241:269,1,67.4999979400635,10|0,0:0|0:0,0:0:0:0:
284,206,30774,2,0,B|291:172|291:172|283:134,1,67.4999979400635,10|2,0:0|0:2,0:0:0:0:
194,78,31090,6,0,B|187:112|187:112|195:150,2,67.4999979400635,12|2|10,0:0|0:0|0:0,0:0:0:0:
227,3,31564,1,2,0:0:0:0:
300,36,31721,2,0,L|351:32,3,33.7499989700318,10|0|0|0,0:0|0:0|0:0|0:0,0:0:0:0:
358,51,32037,2,0,L|409:47,3,33.7499989700318,10|0|0|0,0:0|0:0|0:0|0:0,0:0:0:0:
417,65,32353,6,0,B|438:156|438:156|414:216,1,134.999995880127,4|8,0:0|0:0,0:0:0:0:
372,259,32827,1,0,2:0:0:0:
372,259,32985,2,0,L|295:252,1,67.4999979400635,0|0,0:0|0:0,0:0:0:0:
224,242,33300,1,8,0:0:0:0:
179,174,33458,6,0,L|20:188,1,134.999995880127,2|0,0:0|0:0,0:0:0:0:
8,113,33932,2,0,B|9:78|9:78|23:45,1,67.4999979400635,8|0,0:0|0:0,0:0:0:0:
98,19,34248,2,0,B|133:20|133:20|166:34,1,67.4999979400635,2|4,0:0|0:3,0:0:0:0:
192,109,34564,2,0,B|191:144|191:144|177:177,1,67.4999979400635,10|0,0:0|0:0,0:0:0:0:
127,236,34879,6,0,B|120:324|120:324|163:369,2,134.999995880127,0|8|0,0:0|0:0|0:0,0:0:0:0:
182,177,35669,1,0,0:0:0:0:
182,177,35827,1,8,0:0:0:0:
249,221,35985,6,0,B|317:237|317:237|391:219,1,134.999995880127,2|0,0:0|0:0,0:0:0:0:
448,178,36458,2,0,L|460:106,1,67.4999979400635,8|0,0:0|0:0,0:0:0:0:
402,52,36774,2,0,L|371:118,1,67.4999979400635,2|4,0:0|0:3,0:0:0:0:
301,150,37090,2,0,L|293:77,1,67.4999979400635,10|0,0:0|0:0,0:0:0:0:
236,24,37406,5,4,0:0:0:0:
236,24,37564,1,0,2:0:0:0:
180,82,37721,2,0,B|133:92|133:92|90:88|90:88|36:104,1,134.999995880127,8|0,0:0|0:0,0:0:0:0:
12,174,38195,1,0,0:0:0:0:
73,226,38353,2,0,L|80:294,1,67.4999979400635,8|0,0:0|0:0,0:0:0:0:
161,293,38669,6,0,L|154:225,2,67.4999979400635,2|0|8,0:0|0:0|0:0,0:0:0:0:
219,350,39143,2,0,B|256:356|256:356|315:350,1,67.4999979400635,2|0,0:0|0:0,0:0:0:0:
364,335,39458,1,8,0:0:0:0:
432,292,39616,1,8,0:0:0:0:
451,213,39774,1,8,0:0:0:0:
402,146,39932,6,0,B|400:107|400:107|413:63,2,75,2|0|10,0:0|0:0|0:0,0:0:0:0:
328,232,40406,2,0,B|306:199|306:199|296:154,2,75,6|0|0,0:0|0:0|0:0,0:0:0:0:
289,337,40879,2,0,B|254:319|254:319|222:285,1,75,6|0,0:0|0:0,0:0:0:0:
168,197,41195,6,0,B|124:191|124:191|74:200|74:200|15:188,1,150,14|2,0:0|0:0,0:0:0:0:
20,75,41669,2,0,B|64:69|64:69|114:78|114:78|173:66,1,150,14|0,0:0|0:0,0:0:0:0:
267,12,42143,2,0,L|354:28,1,75,14|8,0:0|0:0,0:0:0:0:
404,75,42458,6,0,B|398:120|398:120|411:161|411:161|395:229,1,134.999995880127,4|8,0:0|0:0,0:0:0:0:
341,263,42932,1,0,0:0:0:0:
341,263,43090,2,0,L|264:269,1,67.4999979400635,2|0,0:0|0:0,0:0:0:0:
206,314,43406,2,0,L|129:308,1,67.4999979400635,10|0,0:0|0:0,0:0:0:0:
75,230,43721,6,0,L|-2:236,2,67.4999979400635,4|2|8,0:0|0:0|0:0,0:0:0:0:
137,177,44195,1,2,0:0:0:0:
137,177,44353,2,0,B|197:153|197:153|279:160,1,134.999995880127,8|10,0:0|0:0,0:0:0:0:
346,177,44827,1,0,0:0:0:0:
440,141,44985,6,0,B|456:97|456:97|445:9,1,134.999995880127,4|8,0:0|0:0,0:0:0:0:
368,33,45458,2,0,B|335:41|335:41|293:40,1,67.4999979400635,2|8,0:0|0:0,0:0:0:0:
221,26,45774,2,0,B|188:18|188:18|146:19,1,67.4999979400635,0|8,0:0|0:0,0:0:0:0:
73,26,46090,1,0,0:0:0:0:
101,123,46248,6,0,B|118:166|118:166|108:280,2,134.999995880127,12|8|8,0:0|0:0|0:0,0:0:0:0:
26,91,47037,1,0,0:0:0:0:
73,24,47195,2,0,L|147:17,1,67.4999979400635,8|0,0:0|0:0,0:0:0:0:
208,93,47511,6,0,B|295:103|295:103|347:83,1,134.999995880127,12|8,0:0|0:0,0:0:0:0:
403,35,47985,1,8,0:0:0:0:
468,82,48143,2,0,L|473:163,1,67.4999979400635,8|8,0:0|0:0,0:0:0:0:
504,223,48458,2,0,L|499:304,1,67.4999979400635,8|8,0:0|0:0,0:0:0:0:
424,336,48774,6,0,B|391:345|391:345|341:343,2,67.4999979400635,8|8|8,0:0|0:0|0:0,0:0:0:0:
380,258,49248,1,8,0:0:0:0:
422,181,49406,2,0,B|389:172|389:172|339:174,2,67.4999979400635,8|8|8,0:0|0:0|0:0,0:0:0:0:
380,258,49879,1,8,0:0:0:0:
277,236,50037,6,0,B|204:230|204:230|145:259|145:259|52:253,2,209.999993591309,12|2|2,0:0|2:2|2:2,0:0:0:0:
459,184,51774,5,0,3:3:0:0:
459,184,51853,1,0,3:3:0:0:
459,184,51932,1,12,3:3:0:0:
417,296,52090,1,12,0:3:0:0:
417,296,52564,6,0,L|302:279,1,82.5000025177003,12|2,0:0|0:2,0:0:0:0:
280,201,52879,2,0,L|165:218,1,82.5000025177003,8|2,0:0|0:2,0:0:0:0:
99,221,53195,2,0,B|87:176|87:176|97:133,1,82.5000025177003,8|2,0:0|0:2,0:0:0:0:
194,133,53511,2,0,B|206:178|206:178|196:221,1,82.5000025177003,8|2,0:0|0:2,0:0:0:0:
166,307,53827,5,8,0:0:0:0:
166,307,53985,2,0,B|201:321|201:321|259:323,1,82.5000025177003,2|8,0:2|0:0,0:0:0:0:
341,296,54300,2,0,B|352:240|352:240|340:201|340:201|357:123,1,165.000005035401,2|0,0:2|0:0,0:0:0:0:
374,37,54774,1,10,0:0:0:0:
374,37,54932,1,0,0:0:0:0:
280,69,55090,6,0,B|202:85|202:85|104:61,2,165.000005035401,10|10|10,0:0|0:0|0:0,0:0:0:0:
374,37,55879,1,0,0:0:0:0:
449,100,56037,2,0,L|456:154,3,41.2500012588501,8|0|0|0,0:0|0:0|0:0|0:0,0:0:0:0:
454,178,56353,6,0,B|412:192|412:192|368:190,1,82.5000025177003,14|6,0:3|0:3,0:0:0:0:
287,254,56669,2,0,B|245:240|245:240|201:242,1,82.5000025177003,6|6,0:3|0:3,0:0:0:0:
125,170,56985,1,6,1:0:0:0:
277,44,57300,2,0,L|327:41,3,41.2500012588501,8|8|8|8,0:0|0:0|0:0|0:0,0:0:0:0:
353,54,57616,6,0,B|364:93|364:93|356:140,1,82.5000025177003,12|2,0:0|0:2,0:0:0:0:
302,218,57932,2,0,B|291:257|291:257|299:304,1,82.5000025177003,8|2,0:0|0:2,0:0:0:0:
214,352,58248,2,0,L|117:357,1,82.5000025177003,8|2,0:0|0:2,0:0:0:0:
82,269,58564,2,0,L|179:264,1,82.5000025177003,8|2,0:0|0:2,0:0:0:0:
226,187,58879,5,8,0:0:0:0:
226,187,59037,2,0,B|234:146|234:146|226:101,1,82.5000025177003,2|8,0:2|0:0,0:0:0:0:
152,39,59353,2,0,B|225:72|225:72|303:39,1,165.000005035401,2|0,0:2|0:0,0:0:0:0:
383,98,59827,1,10,0:0:0:0:
383,98,59985,1,0,0:0:0:0:
461,158,60143,6,0,L|478:335,2,165.000005035401,10|10|10,0:0|0:0|0:0,0:0:0:0:
383,98,60932,1,0,0:0:0:0:
301,153,61090,2,0,L|239:159,3,41.2500012588501,8|0|0|0,0:0|0:0|0:0|0:0,0:0:0:0:
240,190,61406,6,0,L|132:178,1,82.5000025177003,14|0,0:0|0:0,0:0:0:0:
142,287,61721,2,0,L|250:299,1,82.5000025177003,10|0,0:0|0:0,0:0:0:0:
331,310,62037,1,14,0:0:0:0:
441,145,62353,2,0,L|438:99,3,41.2500012588501,10|8|8|8,0:0|0:0|0:0|0:0,0:0:0:0:
438,66,62669,6,0,B|395:56|395:56|333:74|333:74|269:60,1,165.000005035401,6|8,0:0|0:0,0:0:0:0:
183,31,63143,1,0,0:0:0:0:
102,87,63300,2,0,B|89:126|89:126|98:172,1,82.5000025177003,8|2,0:3|0:0,0:0:0:0:
122,263,63616,1,8,0:0:0:0:
221,204,63774,6,0,B|271:190|271:190|412:211,1,165.000005035401,4|0,0:0|0:0,0:0:0:0:
447,282,64248,2,0,L|350:296,1,82.5000025177003,8|2,0:0|0:0,0:0:0:0:
299,369,64564,2,0,L|202:354,1,82.5000025177003,8|0,0:3|0:0,0:0:0:0:
119,339,64879,1,8,0:0:0:0:
174,237,65037,6,0,B|192:187|192:187|178:131|178:131|201:63,1,165.000005035401,4|0,0:0|0:0,0:0:0:0:
266,10,65511,2,0,B|289:48|289:48|293:100,1,82.5000025177003,10|0,0:0|0:0,0:0:0:0:
311,183,65827,2,0,B|349:206|349:206|401:210,1,82.5000025177003,8|2,0:3|0:0,0:0:0:0:
485,195,66143,1,10,0:0:0:0:
504,308,66300,6,0,B|430:346|430:346|321:322,1,165.000005035401,4|0,0:0|0:0,0:0:0:0:
255,296,66774,2,0,L|149:303,1,82.5000025177003,8|0,0:0|0:0,0:0:0:0:
73,306,67090,1,10,0:0:0:0:
73,306,67248,1,0,0:0:0:0:
24,219,67406,2,0,L|14:167,2,41.2500012588501,8|8|8,0:0|0:0|0:0,0:0:0:0:
136,193,67721,6,0,L|155:85,1,82.5000025177003,12|0,0:0|0:0,0:0:0:0:
236,33,68037,2,0,L|255:141,1,82.5000025177003,10|0,0:0|0:0,0:0:0:0:
335,193,68353,2,0,L|354:85,1,82.5000025177003,10|0,0:0|0:0,0:0:0:0:
435,33,68669,2,0,L|454:141,1,82.5000025177003,10|0,0:0|0:0,0:0:0:0:
473,224,68985,5,10,0:0:0:0:
473,224,70248,6,0,B|489:261|489:261|485:327,2,82.5000025177003,4|10|8,0:0|0:0|0:3,0:0:0:0:
407,150,70721,1,0,0:0:0:0:
317,191,70879,2,0,L|322:240,2,41.2500012588501,2|2|10,0:1|0:0|0:0,0:0:0:0:
290,94,71195,1,0,0:0:0:0:
198,54,71353,1,8,0:0:0:0:
113,103,71511,5,2,0:0:0:0:
113,103,71669,2,0,B|95:157|95:157|119:277,1,165.000005035401,10|8,0:0|0:0,0:0:0:0:
140,365,72143,1,2,0:0:0:0:
140,365,72300,2,0,B|215:342|215:342|307:358,1,165.000005035401,10|8,0:0|0:0,0:0:0:0:
380,296,72774,6,0,B|423:295|423:295|478:279,2,82.5000025177003,2|10|8,0:0|0:0|0:3,0:0:0:0:
290,251,73248,1,0,0:0:0:0:
248,160,73406,2,0,L|257:116,2,41.2500012588501,2|2|10,0:0|0:0|0:0,0:0:0:0:
164,213,73721,1,0,0:0:0:0:
65,207,73879,1,8,0:0:0:0:
21,117,74037,6,0,L|30:73,3,41.2500012588501,2|0|8|0,1:0|1:0|1:1|1:0,0:0:0:0:
53,48,74353,2,0,L|90:23,3,41.2500012588501,2|0|8|0,1:0|1:0|1:1|1:0,0:0:0:0:
124,20,74669,2,0,L|168:29,3,41.2500012588501,2|0|8|0,1:0|1:0|1:1|1:0,0:0:0:0:
198,45,74985,2,0,L|222:82,3,41.2500012588501,2|0|8|0,1:0|1:0|1:1|1:0,0:0:0:0:
237,112,75300,6,0,B|276:119|276:119|338:106,1,82.5000025177003,4|10,0:0|0:0,0:0:0:0:
409,70,75616,2,0,B|416:109|416:109|403:171,1,82.5000025177003,8|0,0:3|0:0,0:0:0:0:
385,248,75932,2,0,L|394:288,2,41.2500012588501,2|2|10,0:2|0:2|0:0,0:0:0:0:
297,200,76248,1,0,0:0:0:0:
209,245,76406,1,8,0:0:0:0:
179,339,76564,5,2,0:0:0:0:
179,339,76721,2,0,B|129:356|129:356|60:333|60:333|33:286,1,165.000005035401,10|8,0:0|0:0,0:0:0:0:
6,210,77195,1,2,0:0:0:0:
6,210,77353,2,0,B|42:176|42:176|64:60,1,165.000005035401,10|8,0:0|0:0,0:0:0:0:
158,32,77827,6,0,B|200:23|200:23|245:30,1,82.5000025177003,2|10,0:0|1:0,0:0:0:0:
308,100,78143,2,0,B|317:142|317:142|310:187,1,82.5000025177003,8|0,0:3|0:0,0:0:0:0:
266,269,78458,2,0,L|207:263,2,41.2500012588501,2|2|10,0:2|0:2|0:1,0:0:0:0:
331,344,78774,1,0,0:0:0:0:
428,359,78932,1,8,0:0:0:0:
500,291,79090,6,0,L|496:249,3,41.2500012588501,2|0|8|0,1:0|1:0|1:1|1:0,0:0:0:0:
476,217,79406,2,0,L|472:175,3,41.2500012588501,2|0|8|0,1:0|1:0|1:1|1:0,0:0:0:0:
443,152,79721,2,0,L|439:110,3,41.2500012588501,2|0|8|0,1:0|1:0|1:1|1:0,0:0:0:0:
411,85,80037,2,0,L|407:43,3,41.2500012588501,2|2|10|2,0:0|0:0|0:0|0:0,0:0:0:0:
378,25,80353,6,0,B|329:48|329:48|229:37,1,150,14|8,1:1|1:1,0:0:0:0:
144,23,80827,2,0,B|130:67|130:67|142:124|142:124|123:183,1,150,4|0,1:1|1:1,0:0:0:0:
110,255,81300,2,0,B|177:290|177:290|261:270,1,150,12|8,1:1|1:1,0:0:0:0:
326,225,81774,2,0,B|339:181|339:181|327:124|327:124|341:80,1,150,4|0,1:1|1:1,0:0:0:0:
427,50,82248,6,0,L|443:142,1,75,12|0,1:1|1:1,0:0:0:0:
500,191,82564,2,0,L|484:283,1,75,12|0,1:1|1:1,0:0:0:0:
421,337,82879,6,0,B|322:345|322:345|253:312,1,150,14|8,1:1|1:1,0:0:0:0:
201,260,83353,2,0,B|163:250|163:250|129:259|129:259|97:248|97:248|52:259,1,150,4|0,1:1|1:1,0:0:0:0:
3,175,83827,2,0,B|7:72|7:72|41:32,1,150,12|8,1:1|1:1,0:0:0:0:
127,73,84300,2,0,B|165:83|165:83|199:74|199:74|231:85|231:85|276:74,1,150,4|0,1:1|1:1,0:0:0:0:
365,48,84774,6,0,L|357:136,1,75,12|0,1:1|1:1,0:0:0:0:
287,191,85090,2,0,L|295:279,1,75,12|0,1:1|1:1,0:0:0:0:
363,345,85406,6,0,B|441:354|441:354|481:275,1,150,14|8,1:1|1:1,0:0:0:0:
492,186,85879,2,0,L|467:17,1,150,4|0,1:1|1:1,0:0:0:0:
364,37,86353,2,0,B|310:40|310:40|270:26|270:26|195:29,1,150,12|8,1:1|1:1,0:0:0:0:
175,125,86827,2,0,B|121:122|121:122|81:136|81:136|6:133,1,150,4|0,1:1|1:1,0:0:0:0:
3,236,87300,6,0,L|16:333,1,75,12|0,1:1|1:1,0:0:0:0:
104,363,87616,2,0,L|201:349,1,75,12|0,1:1|1:1,0:0:0:0:
265,280,87932,6,0,B|306:286|306:286|359:274,2,75,14|2|10,1:1|1:1|1:1,0:0:0:0:
154,257,88406,1,2,1:1:0:0:
83,169,88564,2,0,L|95:69,1,75,10|2,1:1|1:1,0:0:0:0:
174,17,88879,1,10,1:1:0:0:
278,58,89037,1,2,1:1:0:0:
315,163,89195,6,0,L|357:158,3,37.5,8|2|2|2,1:1|1:1|1:1|1:1,0:0:0:0:
383,172,89511,2,0,L|416:198,3,37.5,10|2|2|2,1:1|1:1|1:1|1:1,0:0:0:0:
433,222,89827,2,0,L|438:264,3,37.5,10|2|2|2,1:1|1:1|1:1|1:1,0:0:0:0:
438,293,90143,2,0,L|411:326,3,37.5,10|2|2|2,1:1|1:1|1:1|1:1,0:0:0:0:
385,339,90458,6,0,L|228:322,1,150,12|8,1:0|0:0,0:0:0:0:
190,218,90932,2,0,L|33:235,1,150,12|0,0:0|0:0,0:0:0:0:
102,139,91406,1,12,0:0:0:0:
117,312,91564,5,4,0:0:0:0:
256,192,91643,12,0,94564,2:0:0:0:
