osu file format v14

[General]
AudioFilename: audio.mp3
AudioLeadIn: 0
PreviewTime: 52482
Countdown: 0
SampleSet: Normal
StackLeniency: 0.4
Mode: 0
LetterboxInBreaks: 0
WidescreenStoryboard: 1

[Editor]
DistanceSpacing: 0.7
BeatDivisor: 4
GridSize: 4
TimelineZoom: 1.2

[Metadata]
Title:Daisuki, Evolution
TitleUnicode:大男子き、エヴォリューション
Artist:Minazuki Airi with Atsushi
ArtistUnicode:湊月あいり with Atsushi
Creator:Syph
Version:Insane
Source:女装学園(孕)
Tags:Kan詰め 斬戯 visual novel dating simulator game opening song josou gakuen eroge traps xexxar xr karen akitoshi corinn jogaku no strike
BeatmapID:1318244
BeatmapSetID:611004

[Difficulty]
HPDrainRate:5
CircleSize:3.5
OverallDifficulty:7.3
ApproachRate:9
SliderMultiplier:1.6
SliderTickRate:1

[Events]
//Background and Video events
0,0,"wryyyyyyyyyyyyyyyyyyyy.png",0,0
//Break Periods
2,8870,10912
//Storyboard Layer 0 (Background)
//Storyboard Layer 1 (Fail)
//Storyboard Layer 2 (Pass)
//Storyboard Layer 3 (Foreground)
//Storyboard Sound Samples

[TimingPoints]
990,240,4,1,1,75,1,0
8670,315.789473684211,4,1,1,75,1,0
11512,-200,4,1,1,75,0,0
12064,-100,4,1,1,5,0,0
12143,315.789473684211,4,1,1,80,1,0
22248,-117.647058823529,4,1,1,70,0,0
31090,-100,4,1,1,70,0,0
39932,-100,4,1,1,80,0,0
46485,-100,4,1,1,80,0,0
46564,-100,4,1,1,80,0,0
47748,-100,4,1,1,80,0,0
47827,-100,4,1,1,45,0,0
48143,-100,4,1,1,52,0,0
48458,-100,4,1,1,59,0,0
48774,-100,4,1,1,66,0,0
49090,-100,4,1,1,73,0,0
49406,-100,4,1,1,80,0,0
49721,-100,4,1,1,87,0,0
50037,-100,4,1,1,90,0,0
52564,-83.3333333333333,4,1,1,80,0,1
61406,-125,4,1,1,80,0,1
62353,-83.3333333333333,4,1,1,80,0,1
68985,-100,4,1,1,80,0,0
70248,-100,4,1,1,80,0,1
80274,-100,4,1,1,80,0,0
80353,-86.9565217391304,4,1,1,80,0,1
80432,-86.9565217391304,4,1,1,80,0,0
82879,-86.9565217391304,4,1,1,80,0,1
82958,-86.9565217391304,4,1,1,80,0,0
85406,-86.9565217391304,4,1,1,80,0,1
85485,-86.9565217391304,4,1,1,80,0,0
87932,-80,4,1,1,80,0,1
88011,-80,4,1,1,80,0,0
90458,-80,4,1,1,80,0,1
90537,-80,4,1,1,80,0,0
91564,-100,4,1,1,30,0,0
94564,-100,4,1,1,5,0,0

[Colours]
Combo1 : 255,108,108
Combo2 : 238,125,146
Combo3 : 234,224,102
Combo4 : 206,200,198

[HitObjects]
248,144,990,6,0,L|76:152,2,160,4|4|4,0:3|0:3|0:3,0:0:0:0:
112,228,1710,2,0,L|16:232,1,80,4|0,0:3|0:0,0:0:0:0:
168,292,1950,6,0,L|156:336,2,40,8|8|8,0:3|0:3|0:3,0:0:0:0:
204,208,2190,1,8,0:3:0:0:
204,208,2310,2,0,B|248:188|248:188|368:204,1,160,12|0,0:1|0:0,0:0:0:0:
419,254,2670,2,0,P|435:218|427:166,1,80,12|0,0:0|0:0,0:0:0:0:
296,94,2910,6,0,L|468:102,2,160,4|4|4,0:3|0:3|0:3,0:0:0:0:
432,178,3630,2,0,L|528:182,1,80,4|0,0:3|0:0,0:0:0:0:
376,242,3870,6,0,L|388:286,2,40,8|8|8,0:3|0:3|0:3,0:0:0:0:
340,158,4110,1,8,0:3:0:0:
340,158,4230,2,0,B|296:138|296:138|176:154,1,160,12|0,0:1|0:0,0:0:0:0:
122,204,4590,2,0,P|106:168|114:116,1,80,12|0,0:0|0:0,0:0:0:0:
198,294,4830,6,0,L|370:286,2,160,6|6|6,0:3|0:3|0:3,0:0:0:0:
334,210,5550,2,0,L|430:206,1,80,6|0,0:3|0:0,0:0:0:0:
278,146,5790,6,0,L|290:102,2,40,12|0|0,0:3|0:0|0:0,0:0:0:0:
242,230,6030,1,8,0:3:0:0:
242,230,6150,2,0,B|198:250|198:250|78:234,1,160,12|0,0:0|0:0,0:0:0:0:
24,184,6510,2,0,P|8:220|16:272,1,80,8|0,0:0|0:0,0:0:0:0:
137,362,6750,6,0,L|165:89,1,240,12|0,0:0|0:0,0:0:0:0:
274,57,7230,2,0,B|281:98|281:98|270:142,1,80,8|0,0:3|0:0,0:0:0:0:
374,276,7470,2,0,B|367:235|367:235|378:191,1,80,10|0,0:0|0:0,0:0:0:0:
479,96,7710,6,0,L|381:105,1,80,12|0,0:0|0:3,0:0:0:0:
271,135,7950,2,0,L|173:126,1,80,8|0,0:0|0:3,0:0:0:0:
495,80,8190,6,0,L|397:89,1,80,8|0,0:0|0:3,0:0:0:0:
287,119,8430,2,0,L|189:110,1,80,8|0,0:0|0:3,0:0:0:0:
51,94,8670,5,8,0:0:0:0:
271,302,11512,6,0,B|267:258|267:258|276:229|276:229|273:202|273:202|286:153,1,140,2|0,2:0|2:0,0:0:0:0:
294,140,12143,6,0,P|248:128|196:140,1,80,4|10,0:0|0:0,0:0:0:0:
116,197,12458,1,8,0:3:0:0:
148,65,12616,1,8,0:0:0:0:
47,118,12774,2,0,L|-10:126,2,40,2|2|10,0:1|0:0|0:0,0:0:0:0:
114,222,13090,1,0,0:0:0:0:
114,222,13169,1,0,0:0:0:0:
114,222,13248,1,8,0:0:0:0:
226,122,13406,5,2,0:0:0:0:
289,49,13564,2,0,P|215:26|148:65,1,160,10|8,0:0|0:0,0:0:0:0:
95,181,14037,1,2,0:0:0:0:
209,281,14195,2,0,L|227:112,1,160,10|8,0:0|0:0,0:0:0:0:
328,240,14669,6,0,P|368:248|406:238,1,80,2|10,0:0|0:0,0:0:0:0:
405,238,14906,1,2,0:0:0:0:
405,238,14985,1,8,0:3:0:0:
475,161,15143,1,8,0:0:0:0:
373,122,15300,2,0,L|363:161,2,40,2|2|10,0:0|0:0|0:0,0:0:0:0:
263,162,15616,2,0,L|252:200,2,40,0|0|8,0:0|0:0|0:0,0:0:0:0:
210,66,15932,5,2,1:0:0:0:
182,64,16010,1,0,1:0:0:0:
155,72,16089,1,8,1:1:0:0:
134,90,16168,1,0,1:0:0:0:
120,114,16248,2,0,L|67:109,3,40,2|0|8|0,1:0|1:0|1:1|1:0,0:0:0:0:
17,200,16564,2,0,L|57:205,3,40,2|0|8|0,1:0|1:0|1:1|1:0,0:0:0:0:
131,311,16879,2,0,P|144:275|134:224,1,80,2|8,1:0|1:1,0:0:0:0:
138,234,17116,1,0,1:0:0:0:
138,234,17195,6,0,L|237:229,1,80,4|10,0:0|0:0,0:0:0:0:
217,229,17432,1,2,0:0:0:0:
217,229,17511,1,8,0:3:0:0:
210,330,17669,1,8,0:0:0:0:
303,288,17827,2,0,L|346:277,2,40,2|2|10,0:2|0:2|0:0,0:0:0:0:
401,350,18143,1,0,0:0:0:0:
401,350,18221,1,0,0:0:0:0:
401,350,18300,1,8,0:0:0:0:
438,224,18458,5,2,0:0:0:0:
502,152,18616,2,0,P|428:129|361:168,1,160,10|8,0:0|0:0,0:0:0:0:
303,288,19089,1,2,0:0:0:0:
422,384,19248,2,0,L|440:215,1,160,10|8,0:0|0:0,0:0:0:0:
303,288,19721,6,0,P|257:293|221:280,1,80,2|10,0:0|1:0,0:0:0:0:
225,282,19958,1,2,1:0:0:0:
225,282,20037,1,8,0:3:0:0:
274,203,20195,1,8,0:0:0:0:
143,225,20353,2,0,L|192:210,2,40,2|2|10,0:2|0:2|0:1,0:0:0:0:
187,128,20669,2,0,L|236:113,2,40,0|0|8,0:0|0:0|0:0,0:0:0:0:
296,182,20985,6,0,P|318:173|346:172,3,40,2|0|8|0,1:0|1:0|1:1|1:0,0:0:0:0:
275,192,21300,1,2,1:0:0:0:
263,207,21378,1,0,1:0:0:0:
255,226,21457,1,8,1:1:0:0:
254,246,21536,1,0,1:0:0:0:
257,265,21616,2,0,L|208:250,3,40,2|0|8|0,1:0|1:0|1:1|1:0,0:0:0:0:
285,343,21932,2,0,L|334:328,3,40,2|2|10|2,1:2|1:2|1:1|1:2,0:0:0:0:
396,373,22248,6,0,P|406:324|394:292,1,68.0000012969971,4|0,0:0|2:2,0:0:0:0:
341,187,22564,2,0,P|331:236|343:268,1,68.0000012969971,8|0,0:0|2:2,0:0:0:0:
382,114,22879,2,0,P|333:104|301:116,1,68.0000012969971,0|2,0:0|2:0,0:0:0:0:
421,226,23195,2,0,P|454:230|486:220,1,68.0000012969971,8|0,0:0|2:0,0:0:0:0:
341,187,23511,5,0,0:0:0:0:
393,307,23669,1,0,2:2:0:0:
325,161,23827,1,8,0:0:0:0:
481,103,23985,1,2,2:0:0:0:
364,12,24300,5,2,2:0:0:0:
364,12,24458,2,0,L|360:105,1,68.0000012969971,8|2,0:0|2:0,0:0:0:0:
263,185,24774,6,0,B|227:193|227:193|185:182,1,68.0000012969971,0|0,0:0|2:0,0:0:0:0:
95,89,25090,2,0,B|131:81|131:81|173:92,1,68.0000012969971,10|0,0:0|2:2,0:0:0:0:
196,185,25406,1,0,0:0:0:0:
121,287,25564,1,2,2:0:0:0:
241,248,25721,1,8,0:0:0:0:
121,209,25879,1,2,2:0:0:0:
196,312,26037,5,0,0:0:0:0:
196,312,26195,2,0,P|203:347|196:382,1,68.0000012969971,2|8,2:0|0:0,0:0:0:0:
241,248,26511,5,2,0:0:0:0:
45,176,26827,1,2,2:0:0:0:
121,287,27143,1,0,0:2:0:0:
121,287,27300,6,0,P|86:294|51:287,1,68.0000012969971,0|0,0:0|2:0,0:0:0:0:
196,312,27616,1,8,0:0:0:0:
99,373,27774,1,2,2:0:0:0:
121,209,27932,2,0,P|156:202|191:209,1,68.0000012969971,2|0,0:2|2:0,0:0:0:0:
330,264,28248,1,8,0:0:0:0:
273,178,28406,1,2,2:0:0:0:
255,332,28564,5,0,0:0:0:0:
407,287,28721,2,0,P|410:243|393:213,1,68.0000012969971,2|8,2:0|0:0,0:0:0:0:
334,113,29037,1,2,0:2:0:0:
350,90,29353,5,8,0:0:0:0:
173,151,29511,1,8,0:0:0:0:
246,33,29669,1,8,0:0:0:0:
239,231,29827,6,0,P|190:254|97:217,1,136.000002593994,4|10,0:0|0:0,0:0:0:0:
35,102,30300,1,0,0:0:0:0:
182,15,30458,2,0,L|171:170,1,136.000002593994,10|10,0:0|0:0,0:0:0:0:
159,319,30932,1,2,0:2:0:0:
323,231,31090,6,0,B|283:221|283:221|230:232,1,80,12|2,0:0|0:0,0:0:0:0:
81,316,31406,2,0,B|121:326|121:326|174:315,1,80,10|2,0:0|0:0,0:0:0:0:
323,231,31721,1,10,0:0:0:0:
335,205,31799,1,0,0:0:0:0:
340,178,31878,1,0,0:0:0:0:
336,150,31957,1,0,0:0:0:0:
325,125,32037,2,0,P|286:113|235:127,1,80,10|0,0:0|0:0,0:0:0:0:
409,227,32353,6,0,B|449:237|449:237|502:226,1,80,4|0,0:0|2:0,0:0:0:0:
322,276,32669,2,0,P|312:318|322:360,1,80,8|0,0:0|2:0,0:0:0:0:
413,231,32985,1,0,0:0:0:0:
413,231,33143,1,0,0:0:0:0:
235,198,33300,1,8,0:0:0:0:
330,115,33458,6,0,L|326:195,1,80,2|0,0:0|0:0,0:0:0:0:
189,278,33774,1,0,0:0:0:0:
158,190,33932,2,0,P|197:185|235:198,1,80,8|0,0:0|0:0,0:0:0:0:
324,298,34248,1,2,0:0:0:0:
197,368,34406,1,4,0:3:0:0:
349,290,34564,2,0,P|359:249|351:208,1,80,10|0,0:0|0:0,0:0:0:0:
268,113,34879,5,0,0:0:0:0:
216,226,35037,1,0,2:0:0:0:
144,124,35195,2,0,P|104:120|61:129,1,80,8|0,0:0|2:2,0:0:0:0:
216,226,35511,1,0,0:0:0:0:
280,88,35669,1,0,0:0:0:0:
384,196,35827,1,8,0:0:0:0:
206,243,35985,6,0,L|210:149,1,80,2|0,0:0|0:0,0:0:0:0:
298,262,36300,1,0,0:0:0:0:
384,357,36458,2,0,L|388:263,1,80,8|0,0:0|0:0,0:0:0:0:
390,131,36774,1,2,0:0:0:0:
390,131,36932,2,0,P|340:124|306:135,1,80,4|10,0:3|0:0,0:0:0:0:
463,183,37248,1,0,0:0:0:0:
397,52,37406,6,0,B|386:94|386:94|390:135,1,80,4|0,0:0|2:0,0:0:0:0:
420,300,37721,2,0,P|464:312|504:304,1,80,8|0,0:0|2:0,0:0:0:0:
332,248,38037,1,0,0:0:0:0:
332,248,38195,1,0,0:0:0:0:
256,336,38353,2,0,P|212:348|172:340,1,80,8|0,0:0|0:0,0:0:0:0:
92,292,38669,5,2,0:0:0:0:
12,182,38827,1,0,0:0:0:0:
12,266,38985,1,8,0:0:0:0:
92,156,39143,1,2,0:0:0:0:
141,224,39458,5,8,0:0:0:0:
12,266,39616,1,8,0:0:0:0:
92,292,39774,1,8,0:0:0:0:
92,156,39932,6,0,P|137:139|223:200,1,160,2|10,0:0|0:0,0:0:0:0:
131,383,40406,2,0,L|141:216,1,160,6|0,0:0|0:0,0:0:0:0:
226,117,40879,2,0,L|220:204,1,80,6|0,0:0|0:0,0:0:0:0:
131,383,41195,6,0,L|141:216,1,160,14|2,0:0|0:0,0:0:0:0:
226,117,41669,2,0,B|307:93|292:166|389:140,1,160,14|0,0:0|0:0,0:0:0:0:
497,114,42143,1,14,0:0:0:0:
351,64,42300,1,8,0:0:0:0:
414,295,42458,6,0,B|428:224|428:224|412:138,1,160,4|8,0:0|0:0,0:0:0:0:
242,147,42932,1,0,0:0:0:0:
236,165,43011,1,0,0:0:0:0:
231,183,43090,2,0,B|223:219|223:219|231:263,1,80,2|0,0:0|0:0,0:0:0:0:
239,279,43327,1,0,0:0:0:0:
248,296,43406,2,0,L|332:289,1,80,10|0,0:0|0:0,0:0:0:0:
468,202,43721,5,4,0:0:0:0:
340,171,43879,1,2,0:0:0:0:
427,299,44037,1,8,0:0:0:0:
484,120,44195,1,2,0:0:0:0:
484,120,44274,1,0,0:0:0:0:
484,120,44353,2,0,P|440:123|405:150,1,80,8|0,0:0|0:0,0:0:0:0:
278,225,44669,2,0,L|232:209,2,40,10|0|0,0:0|0:0|0:0,0:0:0:0:
355,257,44906,1,0,0:0:0:0:
368,239,44985,6,0,B|381:206|381:206|378:69,1,160,4|8,0:0|0:0,0:0:0:0:
233,21,45458,2,0,L|236:103,1,80,2|8,0:0|0:0,0:0:0:0:
240,211,45774,1,0,0:0:0:0:
240,211,45853,1,0,0:0:0:0:
240,211,45932,1,8,0:0:0:0:
138,142,46090,1,0,0:0:0:0:
156,322,46248,6,0,B|162:284|162:284|153:240,1,80,12|0,0:0|0:0,0:0:0:0:
47,90,46564,2,0,B|41:128|41:128|50:171,1,80,8|0,0:0|0:0,0:0:0:0:
49,168,46800,1,0,0:0:0:0:
49,168,46879,2,0,P|100:176|131:167,1,80,8|0,0:0|0:0,0:0:0:0:
145,163,47116,1,0,0:0:0:0:
162,155,47195,2,0,P|201:147|239:156,1,80,8|0,0:0|0:0,0:0:0:0:
317,234,47432,1,0,0:0:0:0:
331,248,47511,6,0,B|362:263|362:263|452:262,1,120,12|0,0:0|0:0,0:0:0:0:
468,251,47827,6,0,L|470:155,1,80,8|8,0:0|0:0,0:0:0:0:
370,85,48143,2,0,L|368:181,1,80,8|8,0:0|0:0,0:0:0:0:
490,241,48458,6,0,L|492:145,1,80,8|8,0:0|0:0,0:0:0:0:
342,69,48774,2,0,L|340:165,1,80,8|8,0:0|0:0,0:0:0:0:
343,258,49090,5,8,0:0:0:0:
419,162,49248,1,8,0:0:0:0:
257,136,49406,5,8,0:0:0:0:
341,289,49564,1,8,0:0:0:0:
434,137,49721,1,8,0:0:0:0:
197,196,49879,1,8,0:0:0:0:
340,368,50037,5,12,0:0:0:0:
415,40,50669,1,2,2:2:0:0:
94,140,51300,1,2,2:2:0:0:
241,274,51774,5,0,3:3:0:0:
241,274,51853,1,0,3:3:0:0:
241,274,51932,1,12,3:3:0:0:
241,44,52090,1,12,0:3:0:0:
376,168,52564,6,0,B|340:184|340:184|252:180,1,95.9999970703126,12|2,0:0|0:2,0:0:0:0:
212,216,52800,1,0,0:0:0:0:
212,216,52879,2,0,L|108:212,1,95.9999970703126,8|2,0:0|0:2,0:0:0:0:
12,288,53116,1,0,1:0:0:0:
12,288,53195,2,0,L|116:292,1,95.9999970703126,8|2,0:0|0:2,0:0:0:0:
198,308,53432,1,0,1:0:0:0:
198,308,53511,2,0,B|214:272|214:272|211:215,1,95.9999970703126,8|2,0:0|0:2,0:0:0:0:
164,136,53748,1,0,1:0:0:0:
164,136,53827,5,8,0:0:0:0:
296,208,53985,2,0,P|344:220|392:208,1,95.9999970703126,2|8,0:2|0:0,0:0:0:0:
480,108,54300,2,0,B|500:160|500:160|480:308,1,191.999994140625,2|0,0:2|0:0,0:0:0:0:
340,186,54774,1,10,0:0:0:0:
482,82,54932,1,0,0:0:0:0:
320,6,55090,6,0,B|309:48|309:48|321:112,1,95.9999970703126,10|0,0:0|0:0,0:0:0:0:
478,201,55406,2,0,B|489:159|489:159|477:95,1,95.9999970703126,10|0,0:0|0:0,0:0:0:0:
342,278,55721,2,0,B|384:289|384:289|448:277,1,95.9999970703126,10|0,0:0|0:0,0:0:0:0:
253,177,56037,2,0,B|211:166|211:166|147:178,1,95.9999970703126,8|0,0:0|0:0,0:0:0:0:
96,225,56274,1,0,0:0:0:0:
96,225,56353,5,14,0:3:0:0:
219,93,56511,1,6,0:3:0:0:
32,160,56669,1,6,0:3:0:0:
175,292,56827,1,6,0:3:0:0:
267,26,56985,2,0,P|199:12|144:55,1,143.999995605469,6|0,1:0|0:0,0:0:0:0:
132,82,57300,1,8,0:0:0:0:
122,109,57378,1,8,0:0:0:0:
117,137,57457,1,8,0:0:0:0:
117,166,57536,1,8,0:0:0:0:
123,194,57617,6,0,B|159:210|159:210|247:206,1,95.9999970703126,12|2,0:0|0:2,0:0:0:0:
287,242,57853,1,0,1:0:0:0:
287,242,57932,2,0,L|391:238,1,95.9999970703126,8|2,0:0|0:2,0:0:0:0:
487,314,58169,1,0,1:0:0:0:
487,314,58248,2,0,L|383:318,1,95.9999970703126,8|2,0:0|0:2,0:0:0:0:
301,334,58485,1,0,1:0:0:0:
301,334,58564,2,0,B|285:298|285:298|287:241,1,95.9999970703126,8|2,0:0|0:2,0:0:0:0:
335,162,58801,1,0,1:0:0:0:
335,162,58880,5,8,0:0:0:0:
203,234,59038,2,0,P|155:246|107:234,1,95.9999970703126,2|8,0:2|0:0,0:0:0:0:
19,134,59353,2,0,B|-1:186|-1:186|19:334,1,191.999994140625,2|0,0:2|0:0,0:0:0:0:
159,212,59827,1,10,0:0:0:0:
17,108,59985,1,0,0:0:0:0:
212,27,60143,6,0,B|167:17|167:17|101:32,1,95.9999970703126,10|0,0:0|0:0,0:0:0:0:
279,179,60458,2,0,B|324:189|324:189|390:174,1,95.9999970703126,10|0,0:0|0:0,0:0:0:0:
186,134,60774,2,0,B|176:179|176:179|191:245,1,95.9999970703126,10|0,0:0|0:0,0:0:0:0:
272,80,61090,1,8,0:0:0:0:
272,80,61169,1,0,0:0:0:0:
272,80,61248,1,0,0:0:0:0:
122,137,61406,6,0,L|203:132,1,64,14|0,0:0|0:0,0:0:0:0:
336,207,61721,2,0,L|255:202,1,64,10|0,0:0|0:0,0:0:0:0:
125,288,62037,2,0,L|206:283,1,64,14|0,0:0|0:0,0:0:0:0:
404,251,62353,1,10,0:0:0:0:
416,218,62431,1,8,0:0:0:0:
413,183,62510,1,8,0:0:0:0:
397,153,62589,1,8,0:0:0:0:
369,132,62669,6,0,P|358:88|373:34,1,95.9999970703126,6|0,0:0|0:0,0:0:0:0:
188,191,62985,2,0,P|199:235|184:289,1,95.9999970703126,8|0,0:0|0:0,0:0:0:0:
106,109,63300,1,8,0:3:0:0:
297,215,63458,1,2,0:0:0:0:
92,326,63616,1,8,0:0:0:0:
337,142,63774,6,0,P|282:132|219:236,1,191.999994140625,4|0,0:0|0:0,0:0:0:0:
292,328,64248,1,8,0:0:0:0:
292,328,64406,1,2,0:0:0:0:
337,142,64564,1,8,0:3:0:0:
195,224,64721,1,0,0:0:0:0:
426,310,64879,1,8,0:0:0:0:
256,142,65037,6,0,P|303:64|392:79,1,191.999994140625,4|0,0:0|0:0,0:0:0:0:
286,237,65511,2,0,P|238:240|194:223,1,95.9999970703126,10|0,0:0|0:0,0:0:0:0:
63,144,65827,1,8,0:3:0:0:
222,117,65985,1,2,0:0:0:0:
8,68,66143,1,10,0:0:0:0:
116,248,66300,6,0,L|133:46,1,191.999994140625,4|0,0:0|0:0,0:0:0:0:
13,170,66774,1,8,0:0:0:0:
13,170,66932,1,0,0:0:0:0:
205,214,67090,1,10,0:0:0:0:
132,56,67248,1,0,0:0:0:0:
176,291,67406,1,8,0:0:0:0:
208,297,67484,1,8,0:0:0:0:
241,289,67563,1,8,0:0:0:0:
267,268,67642,1,8,0:0:0:0:
283,239,67721,6,0,P|285:191|261:151,1,95.9999970703126,12|0,0:0|0:0,0:0:0:0:
98,265,68037,2,0,P|96:313|120:353,1,95.9999970703126,10|0,0:0|0:0,0:0:0:0:
116,181,68353,2,0,P|73:183|18:237,1,95.9999970703126,10|0,0:0|0:0,0:0:0:0:
203,282,68669,1,10,0:0:0:0:
246,93,68827,1,0,0:0:0:0:
30,212,68985,5,10,0:0:0:0:
212,248,70248,6,0,P|258:260|310:248,1,80,4|10,0:0|0:0,0:0:0:0:
390,191,70563,1,8,0:3:0:0:
358,323,70721,1,0,0:0:0:0:
459,270,70879,2,0,L|516:262,2,40,2|2|10,0:1|0:0|0:0,0:0:0:0:
392,166,71195,1,0,0:0:0:0:
392,166,71274,1,0,0:0:0:0:
392,166,71353,1,8,0:0:0:0:
280,266,71511,5,2,0:0:0:0:
217,339,71669,2,0,P|291:362|358:323,1,160,10|8,0:0|0:0,0:0:0:0:
411,207,72142,1,2,0:0:0:0:
297,107,72300,2,0,L|279:276,1,160,10|8,0:0|0:0,0:0:0:0:
178,148,72774,6,0,P|138:140|100:150,1,80,2|10,0:0|0:0,0:0:0:0:
101,150,73011,1,2,0:0:0:0:
101,150,73090,1,8,0:3:0:0:
31,227,73248,1,0,0:0:0:0:
133,266,73406,2,0,L|143:227,2,40,2|2|10,0:0|0:0|0:0,0:0:0:0:
243,226,73721,2,0,L|254:188,2,40,0|0|8,0:0|0:0|0:0,0:0:0:0:
296,322,74037,5,2,1:0:0:0:
324,324,74115,1,0,1:0:0:0:
351,316,74194,1,8,1:1:0:0:
372,298,74273,1,0,1:0:0:0:
386,274,74353,2,0,L|439:279,3,40,2|0|8|0,1:0|1:0|1:1|1:0,0:0:0:0:
489,188,74669,2,0,L|449:183,3,40,2|0|8|0,1:0|1:0|1:1|1:0,0:0:0:0:
375,77,74985,2,0,P|362:113|372:164,1,80,2|8,1:0|1:1,0:0:0:0:
368,154,75221,1,0,1:0:0:0:
368,154,75300,6,0,L|269:159,1,80,4|10,0:0|0:0,0:0:0:0:
289,159,75537,1,2,0:0:0:0:
289,159,75616,1,8,0:3:0:0:
296,58,75774,1,0,0:0:0:0:
203,100,75932,2,0,L|160:111,2,40,2|2|10,0:2|0:2|0:0,0:0:0:0:
105,38,76248,1,0,0:0:0:0:
105,38,76326,1,0,0:0:0:0:
105,38,76405,1,8,0:0:0:0:
68,164,76563,5,2,0:0:0:0:
4,236,76721,2,0,P|78:259|145:220,1,160,10|8,0:0|0:0,0:0:0:0:
203,100,77194,1,2,0:0:0:0:
84,4,77353,2,0,L|66:173,1,160,10|8,0:0|0:0,0:0:0:0:
203,100,77827,6,0,P|249:95|285:108,1,80,2|10,0:0|1:0,0:0:0:0:
281,106,78063,1,2,1:0:0:0:
281,106,78142,1,8,0:3:0:0:
232,185,78300,1,0,0:0:0:0:
363,163,78458,2,0,L|314:178,2,40,2|2|10,0:2|0:2|0:1,0:0:0:0:
319,260,78774,2,0,L|270:275,2,40,0|0|8,0:0|0:0|0:0,0:0:0:0:
210,206,79090,6,0,P|193:214|161:216,3,40,2|0|8|0,1:0|1:0|1:1|1:0,0:0:0:0:
231,196,79405,1,2,1:0:0:0:
243,181,79485,1,0,0:0:0:0:
251,162,79564,1,0,0:0:0:0:
252,142,79643,1,0,0:0:0:0:
249,123,79721,2,0,L|298:138,3,40,2|0|8|0,1:0|1:0|1:1|1:0,0:0:0:0:
221,45,80037,2,0,L|172:60,3,40,2|2|10|2,0:0|0:0|0:0|0:0,0:0:0:0:
367,87,80353,6,0,B|391:91|391:91|424:86,5,46.0000008773804,14|0|0|0|8|0,1:1|1:1|1:1|1:1|1:1|1:1,0:0:0:0:
260,210,80827,6,0,B|236:206|236:206|203:211,5,46.0000008773804,4|0|0|0|0|0,1:1|1:1|1:1|1:1|1:1|1:1,0:0:0:0:
367,333,81300,5,12,1:1:0:0:
368,310,81378,1,0,1:1:0:0:
370,287,81457,1,0,1:1:0:0:
371,264,81536,1,0,1:1:0:0:
373,241,81615,1,8,1:1:0:0:
375,218,81694,1,0,1:1:0:0:
376,195,81774,6,0,B|400:191|400:191|433:196,5,46.0000008773804,4|0|0|0|0|0,1:1|1:1|1:1|1:1|1:1|1:1,0:0:0:0:
289,136,82248,6,0,L|276:77,3,46.0000008773804,12|0|0|0,1:1|1:1|1:1|1:1,0:0:0:0:
210,192,82564,6,0,L|197:133,3,46.0000008773804,12|0|0|0,1:1|1:1|1:1|1:1,0:0:0:0:
146,272,82879,6,0,B|121:276|121:276|93:271,5,46.0000008773804,14|0|0|0|8|0,1:1|1:1|1:1|1:1|1:1|1:1,0:0:0:0:
34,320,83353,5,4,1:1:0:0:
23,294,83431,1,0,1:1:0:0:
21,267,83510,1,0,1:1:0:0:
27,240,83589,1,0,1:1:0:0:
42,217,83668,1,0,1:1:0:0:
63,200,83747,1,0,1:1:0:0:
89,190,83827,6,0,B|94:166|94:166|86:131,5,46.0000008773804,12|0|0|0|8|0,1:1|1:1|1:1|1:1|1:1|1:1,0:0:0:0:
190,260,84300,6,0,B|185:284|185:284|193:319,5,46.0000008773804,4|0|0|0|0|0,1:1|1:1|1:1|1:1|1:1|1:1,0:0:0:0:
304,330,84774,6,0,L|317:389,3,46.0000008773804,12|0|0|0,1:1|1:1|1:1|1:1,0:0:0:0:
383,274,85090,6,0,L|396:333,3,46.0000008773804,12|0|0|0,1:1|1:1|1:1|1:1,0:0:0:0:
447,194,85405,6,0,B|472:190|472:190|500:195,5,46.0000008773804,14|0|0|0|8|0,1:1|1:1|1:1|1:1|1:1|1:1,0:0:0:0:
306,253,85879,6,0,B|281:257|281:257|253:252,5,46.0000008773804,4|0|0|0|0|0,1:1|1:1|1:1|1:1|1:1|1:1,0:0:0:0:
351,150,86353,6,0,B|354:129|354:129|350:104,5,46.0000008773804,12|0|0|0|8|0,1:1|1:1|1:1|1:1|1:1|1:1,0:0:0:0:
302,36,86827,5,4,1:1:0:0:
327,25,86905,1,0,1:1:0:0:
354,23,86984,1,0,1:1:0:0:
381,29,87063,1,0,1:1:0:0:
404,44,87142,1,0,1:1:0:0:
421,65,87221,1,0,1:1:0:0:
431,91,87301,6,0,B|490:87,3,46.0000008773804,12|0|0|0,1:1|1:1|1:1|1:1,0:0:0:0:
351,150,87616,6,0,B|291:146,3,46.0000008773804,12|0|0|0,1:1|1:1|1:1|1:1,0:0:0:0:
435,262,87932,5,14,1:1:0:0:
435,262,88011,1,8,0:0:0:0:
435,262,88090,2,0,B|441:287|441:287|436:322,3,50,8|2|2|2,1:1|1:1|1:1|1:1,0:0:0:0:
343,372,88406,5,2,1:1:0:0:
344,344,88484,1,2,1:1:0:0:
345,316,88563,1,10,1:1:0:0:
346,288,88642,1,2,1:1:0:0:
347,260,88721,1,2,1:1:0:0:
348,233,88800,1,2,1:1:0:0:
349,205,88879,1,10,1:1:0:0:
350,178,88958,1,2,1:1:0:0:
351,150,89037,1,2,1:1:0:0:
352,122,89116,1,2,1:1:0:0:
353,94,89195,6,0,B|324:91|324:91|288:98,3,50,8|2|2|2,1:1|1:1|1:1|1:1,0:0:0:0:
246,154,89511,5,10,1:1:0:0:
228,126,89589,1,2,1:1:0:0:
222,95,89668,1,2,1:1:0:0:
228,64,89747,1,2,1:1:0:0:
245,36,89827,6,0,B|220:31|220:31|187:37,6,50,10|2|2|2|10|2|2,1:1|1:1|1:1|1:1|1:1|1:1|1:1,0:0:0:0:
322,79,90379,1,2,1:1:0:0:
322,79,90458,6,0,B|365:87|365:87|428:76,1,100,12|8,1:0|0:0,0:0:0:0:
249,156,90774,1,8,0:0:0:0:
249,156,90932,2,0,B|241:199|241:199|252:262,1,100,12|0,0:0|0:0,0:0:0:0:
326,356,91248,1,0,0:0:0:0:
391,149,91406,1,12,0:0:0:0:
182,215,91564,1,4,0:0:0:0:
256,192,91643,12,0,94564,2:0:0:0:
