osu file format v14

[General]
AudioFilename: audio.mp3
AudioLeadIn: 0
PreviewTime: 76467
Countdown: 0
SampleSet: Soft
StackLeniency: 0.7
Mode: 3
LetterboxInBreaks: 0
SpecialStyle: 0
WidescreenStoryboard: 1

[Editor]
Bookmarks: 216766
DistanceSpacing: 1.7
BeatDivisor: 4
GridSize: 8
TimelineZoom: 1.6

[Metadata]
Title:Youkoso! Sweet Carnival!
TitleUnicode:ヨーコソ!Sweet Carnival!
Artist:Minato Aqua
ArtistUnicode:湊あくあ
Creator:DenYi
Version:Normal
Source:よこすか海のアニメカーニバル
Tags:ML-ysg SuzumeAyase ArtZone pop jpop j-pop japanese hololive ホロライブ virtual youtuber vtuber バーチャル 横須賀フェステーマソング yokosuka festival theme song 2nd Original Female Vocal Yokoso
BeatmapID:3630265
BeatmapSetID:1773082

[Difficulty]
HPDrainRate:7.5
CircleSize:4
OverallDifficulty:7.5
ApproachRate:5
SliderMultiplier:1.4
SliderTickRate:1

[Events]
//Background and Video events
0,0,"20220528_143100.jpg",0,0
//Break Periods
//Storyboard Layer 0 (Background)
//Storyboard Layer 1 (Fail)
//Storyboard Layer 2 (Pass)
//Storyboard Layer 3 (Foreground)
//Storyboard Layer 4 (Overlay)
//Storyboard Sound Samples
Sample,30906,0,"Hat Open.wav",40
Sample,31559,0,"Hat Open.wav",40
Sample,32211,0,"Hat Open.wav",40
Sample,33515,0,"Hat Open.wav",40
Sample,34330,0,"Tom2.wav",50
Sample,34819,0,"Hat Open.wav",40
Sample,34983,0,"Hat Open.wav",40
Sample,46559,0,"Hat Close.wav",40
Sample,47211,0,"Hat Close.wav",40
Sample,47863,0,"Hat Close.wav",40
Sample,48515,0,"Hat Close.wav",40
Sample,49167,0,"Hat Close.wav",40
Sample,49819,0,"Hat Close.wav",40
Sample,50472,0,"Hat Close.wav",40
Sample,51776,0,"Hat Close.wav",40
Sample,52428,0,"Hat Close.wav",40
Sample,53080,0,"Hat Close.wav",40
Sample,66939,0,"Tom3.wav",50
Sample,67428,0,"Tom3.wav",50
Sample,67591,0,"Tom3.wav",50
Sample,68080,0,"Tom3.wav",50
Sample,68243,0,"Tom3.wav",50
Sample,68733,0,"Tom3.wav",50
Sample,68896,0,"Tom3.wav",50
Sample,69548,0,"Tom3.wav",50
Sample,70037,0,"Tom3.wav",50
Sample,70200,0,"Tom3.wav",50
Sample,70689,0,"Tom3.wav",50
Sample,70852,0,"Tom3.wav",50
Sample,71341,0,"Tom3.wav",50
Sample,71504,0,"Tom3.wav",50
Sample,73624,0,"Hat Open.wav",40
Sample,77863,0,"Hat Open.wav",40
Sample,78515,0,"Hat Open.wav",40
Sample,79167,0,"Hat Open.wav",40
Sample,79819,0,"Hat Open.wav",40
Sample,80146,0,"Hat Open.wav",40
Sample,80472,0,"Hat Open.wav",40
Sample,81776,0,"Hat Open.wav",40
Sample,83080,0,"Hat Open.wav",40
Sample,84059,0,"Hat Open.wav",40
Sample,85037,0,"Hat Open.wav",40
Sample,85526,0,"Hat Open.wav",40
Sample,85852,0,"Hat Open.wav",40
Sample,88298,0,"Hat Open.wav",40
Sample,88950,0,"Hat Open.wav",40
Sample,89602,0,"Hat Open.wav",40
Sample,90254,0,"Hat Open.wav",40
Sample,90580,0,"Hat Open.wav",40
Sample,90906,0,"Hat Open.wav",40
Sample,92211,0,"Hat Open.wav",40
Sample,93515,0,"Hat Open.wav",40
Sample,94819,0,"Hat Open.wav",40
Sample,106396,0,"Hat Open.wav",40
Sample,106722,0,"Hat Open.wav",40
Sample,108841,0,"Hat Open.wav",40
Sample,109167,0,"Hat Open.wav",40
Sample,110472,0,"Hat Open.wav",40
Sample,111450,0,"Hat Open.wav",40
Sample,111776,0,"Hat Open.wav",40
Sample,113080,0,"Hat Open.wav",40
Sample,114385,0,"Hat Open.wav",40
Sample,115689,0,"Hat Open.wav",40
Sample,116993,0,"Hat Open.wav",40
Sample,124819,0,"Hat Close.wav",40
Sample,124983,0,"Hat Close.wav",40
Sample,125472,0,"Hat Close.wav",40
Sample,126124,0,"Hat Close.wav",40
Sample,126287,0,"Hat Close.wav",40
Sample,130037,0,"Hat Close.wav",40
Sample,130689,0,"Hat Close.wav",40
Sample,131341,0,"Hat Close.wav",40
Sample,131993,0,"Hat Close.wav",40
Sample,132646,0,"Hat Close.wav",40
Sample,133298,0,"Hat Close.wav",40
Sample,133950,0,"Hat Close.wav",40
Sample,134928,0,"Hat Close.wav",40
Sample,135254,0,"Hat Close.wav",40
Sample,135906,0,"Hat Close.wav",40
Sample,136559,0,"Hat Close.wav",40
Sample,158733,0,"Hat Open.wav",40
Sample,159385,0,"Hat Open.wav",40
Sample,160037,0,"Hat Open.wav",40
Sample,160689,0,"Hat Open.wav",40
Sample,161015,0,"Hat Open.wav",40
Sample,161341,0,"Hat Open.wav",40
Sample,162646,0,"Hat Open.wav",40
Sample,163950,0,"Hat Open.wav",40
Sample,164928,0,"Hat Open.wav",40
Sample,165906,0,"Hat Open.wav",40
Sample,166396,0,"Hat Open.wav",40
Sample,166722,0,"Hat Open.wav",40
Sample,169167,0,"Hat Open.wav",40
Sample,169819,0,"Hat Open.wav",40
Sample,170472,0,"Hat Open.wav",40
Sample,171124,0,"Hat Open.wav",40
Sample,171450,0,"Hat Open.wav",40
Sample,171776,0,"Hat Open.wav",40
Sample,173080,0,"Hat Open.wav",40
Sample,174385,0,"Hat Open.wav",40
Sample,175689,0,"Hat Open.wav",40
Sample,200472,0,"Hat Open.wav",40
Sample,200798,0,"Hat Open.wav",40
Sample,201776,0,"Hat Open.wav",40
Sample,203080,0,"Hat Open.wav",40
Sample,204385,0,"Hat Open.wav",40
Sample,206993,0,"Hat Open.wav",40
Sample,208298,0,"Hat Open.wav",40
Sample,210091,0,"Tom3.wav",50
Sample,222156,0,"Tom3.wav",50
Sample,222646,0,"Tom3.wav",50
Sample,222809,0,"Tom3.wav",50
Sample,223298,0,"Tom3.wav",50
Sample,223461,0,"Tom3.wav",50
Sample,223950,0,"Tom3.wav",50
Sample,224113,0,"Tom3.wav",50
Sample,224765,0,"Tom3.wav",50
Sample,225254,0,"Tom3.wav",50
Sample,225417,0,"Tom3.wav",50
Sample,225906,0,"Tom3.wav",50
Sample,226069,0,"Tom3.wav",50
Sample,226559,0,"Tom3.wav",50
Sample,226722,0,"Tom3.wav",50
Sample,228189,0,"Hat Open.wav",40
Sample,228841,0,"Hat Open.wav",40
Sample,235689,0,"Hat Open.wav",40
Sample,236341,0,"Hat Open.wav",40
Sample,236993,0,"Hat Open.wav",40
Sample,237646,0,"Hat Open.wav",40
Sample,237972,0,"Hat Open.wav",40
Sample,238298,0,"Hat Open.wav",40
Sample,239602,0,"Hat Open.wav",40
Sample,240906,0,"Hat Open.wav",40
Sample,241885,0,"Hat Open.wav",40
Sample,242863,0,"Hat Open.wav",40
Sample,243352,0,"Hat Open.wav",40
Sample,243678,0,"Hat Open.wav",40
Sample,246124,0,"Hat Open.wav",40
Sample,246776,0,"Hat Open.wav",40
Sample,247428,0,"Hat Open.wav",40
Sample,248080,0,"Hat Open.wav",40
Sample,248406,0,"Hat Open.wav",40
Sample,248733,0,"Hat Open.wav",40
Sample,250037,0,"Hat Open.wav",40
Sample,251341,0,"Hat Open.wav",40
Sample,252646,0,"Hat Open.wav",40
Sample,264222,0,"Hat Open.wav",40
Sample,264548,0,"Hat Open.wav",40

[TimingPoints]
19820,326.086956521739,4,2,1,50,1,0
77211,-100,4,2,1,50,0,1
97754,-100,4,2,1,50,0,0
97917,-100,4,2,1,50,0,1
108515,-100,4,2,1,50,0,0
158080,-100,4,2,1,50,0,1
177972,-100,4,2,1,50,0,0
235037,-100,4,2,1,50,0,1
255580,-100,4,2,1,50,0,0
255743,-100,4,2,1,50,0,1
264874,-100,4,2,1,50,0,0

[HitObjects]
64,192,19167,5,0,0:0:0:0:
192,192,19493,1,0,0:0:0:0:
320,192,19819,1,0,0:0:0:0:
448,192,19819,128,0,20472:0:0:0:0:
64,192,20472,128,0,21124:0:0:0:0:
192,192,21124,128,0,21776:0:0:0:0:
320,192,21124,1,0,0:0:0:0:
448,192,21776,128,0,22428:0:0:0:0:
64,192,22428,128,0,23243:0:0:0:0:
192,192,22428,1,0,0:0:0:0:
320,192,23243,128,0,23569:0:0:0:0:
192,192,23569,128,0,24548:0:0:0:0:
448,192,24548,1,0,0:0:0:0:
320,192,24711,1,0,0:0:0:0:
64,192,24874,128,2,26015:0:0:0:0:
192,192,24874,1,4,0:0:0:0:
192,192,26015,1,2,0:0:0:0:
320,192,26015,1,4,0:0:0:0:
64,192,26178,1,2,0:0:0:0:
448,192,26178,128,4,27156:0:0:0:0:
320,192,27156,1,0,0:0:0:0:
64,192,27319,1,4,0:0:0:0:
192,192,27319,1,2,0:0:0:0:
320,192,27483,128,4,27972:0:0:0:0:
448,192,27483,1,2,0:0:0:0:
64,192,27972,128,0,28135:0:0:0:0:
192,192,28135,128,0,28298:0:0:0:0:
448,192,28298,128,0,28461:0:0:0:0:
320,192,28461,128,0,28624:0:0:0:0:
64,192,28624,1,2,0:0:0:0:
448,192,28624,1,4,0:0:0:0:
192,192,28787,128,4,29113:0:0:0:0:
320,192,28787,1,2,0:0:0:0:
448,192,29113,128,0,29276:0:0:0:0:
64,192,29276,128,0,29439:0:0:0:0:
320,192,29439,128,0,29602:0:0:0:0:
64,192,29602,1,8,0:0:0:0:
192,192,29684,1,8,0:0:0:0:
320,192,29765,1,8,0:0:0:0:
448,192,29928,1,8,0:0:0:0:
320,192,30010,1,8,0:0:0:0:
192,192,30091,1,8,0:0:0:0:
64,192,30254,128,4,30580:0:0:0:0:
448,192,30254,1,2,0:0:0:0:
192,192,30580,1,8,0:0:0:0:
320,192,30580,1,0,0:0:0:40:Hat Open.wav
448,192,30906,1,2,0:0:0:0:
448,192,31069,1,2,0:0:0:0:
64,192,31233,1,8,0:0:0:0:
192,192,31233,1,0,0:0:0:40:Hat Open.wav
320,192,31559,128,2,31885:0:0:0:0:
64,192,31885,1,8,0:0:0:0:
448,192,31885,1,0,0:0:0:40:Hat Open.wav
192,192,32211,1,2,0:0:0:0:
192,192,32374,1,2,0:0:0:0:
320,192,32537,1,8,0:0:0:0:
448,192,32537,1,0,0:0:0:40:Hat Open.wav
64,192,32863,1,4,0:0:0:0:
192,192,32863,128,2,33189:0:0:0:0:
320,192,33189,1,8,0:0:0:0:
448,192,33189,1,0,0:0:0:40:Hat Open.wav
64,192,33515,1,2,0:0:0:0:
64,192,33678,1,2,0:0:0:0:
192,192,33841,1,8,0:0:0:0:
448,192,33841,1,0,0:0:0:40:Hat Open.wav
320,192,34004,128,2,34167:0:0:0:0:
192,192,34330,128,2,34493:0:0:0:0:
64,192,34493,1,8,0:0:0:0:
448,192,34493,1,0,0:0:0:50:Tom1.wav
320,192,34656,128,0,34819:0:0:0:50:Tom3.wav
192,192,34819,1,2,0:0:0:0:
192,192,34983,1,2,0:0:0:0:
64,192,35146,128,8,35309:0:0:0:0:
448,192,35146,128,0,35309:0:0:0:0:
192,192,35472,1,4,0:0:0:0:
320,192,35472,128,2,35798:0:0:0:0:
64,192,35798,1,2,0:0:0:0:
448,192,35798,1,0,0:0:0:40:Hat Close.wav
64,192,36124,1,2,0:0:0:0:
192,192,36124,1,0,0:0:0:40:Hat Close.wav
320,192,36450,1,2,0:0:0:0:
448,192,36450,1,0,0:0:0:40:Hat Close.wav
192,192,36776,128,2,37102:0:0:0:0:
320,192,36776,1,0,0:0:0:40:Hat Close.wav
64,192,37102,1,2,0:0:0:0:
448,192,37102,1,0,0:0:0:40:Hat Close.wav
192,192,37428,1,2,0:0:0:0:
320,192,37428,1,0,0:0:0:40:Hat Close.wav
192,192,37754,128,2,37917:0:0:0:0:
320,192,37754,128,8,37917:0:0:0:0:
64,192,38080,1,2,0:0:0:0:
448,192,38080,128,0,38406:0:0:0:40:Hat Close.wav
192,192,38406,1,2,0:0:0:0:
320,192,38406,1,0,0:0:0:40:Hat Close.wav
64,192,38733,1,2,0:0:0:0:
320,192,38733,1,0,0:0:0:40:Hat Close.wav
192,192,39059,1,2,0:0:0:0:
448,192,39059,1,0,0:0:0:40:Hat Close.wav
64,192,39385,128,2,39711:0:0:0:0:
448,192,39385,1,0,0:0:0:40:Hat Close.wav
192,192,39711,1,2,0:0:0:0:
320,192,39711,1,0,0:0:0:40:Hat Close.wav
64,192,40037,1,2,0:0:0:0:
448,192,40037,1,0,0:0:0:40:Hat Close.wav
64,192,40363,1,2,0:0:0:0:
448,192,40363,1,8,0:0:0:0:
192,192,40526,1,8,0:0:0:0:
320,192,40689,1,4,0:0:0:0:
448,192,40689,128,2,41015:0:0:0:0:
64,192,41015,1,2,0:0:0:0:
192,192,41015,1,0,0:0:0:40:Hat Close.wav
64,192,41341,1,2,0:0:0:0:
448,192,41341,1,0,0:0:0:40:Hat Close.wav
192,192,41667,1,2,0:0:0:0:
320,192,41667,1,0,0:0:0:40:Hat Close.wav
64,192,41993,128,2,42319:0:0:0:0:
192,192,41993,1,0,0:0:0:40:Hat Close.wav
320,192,42319,1,2,0:0:0:0:
448,192,42319,1,0,0:0:0:40:Hat Close.wav
192,192,42646,1,2,0:0:0:0:
320,192,42646,1,0,0:0:0:40:Hat Close.wav
192,192,42972,128,2,43135:0:0:0:0:
320,192,42972,128,8,43135:0:0:0:0:
64,192,43298,1,2,0:0:0:0:
64,192,43461,1,2,0:0:0:0:
192,192,43624,128,8,43787:0:0:0:0:
448,192,43624,128,4,43787:0:0:0:0:
320,192,43950,1,2,0:0:0:0:
320,192,44113,1,2,0:0:0:0:
64,192,44276,128,8,44439:0:0:0:0:
192,192,44276,128,4,44439:0:0:0:0:
320,192,44602,1,8,0:0:0:0:
448,192,44602,1,4,0:0:0:0:
320,192,44765,1,2,0:0:0:0:
64,192,44928,1,8,0:0:0:0:
192,192,44928,1,0,0:0:0:0:
192,192,45091,1,6,0:0:0:0:
64,192,45417,1,8,0:0:0:0:
448,192,45417,1,0,0:0:0:0:
320,192,45580,1,8,0:0:0:0:
64,192,45743,1,8,0:0:0:0:
192,192,45825,1,8,0:0:0:0:
320,192,45906,1,4,0:0:0:0:
448,192,45906,128,2,46233:0:0:0:0:
64,192,46233,1,10,0:0:0:0:
192,192,46233,1,0,0:0:0:40:Hat Close.wav
320,192,46396,128,0,46559:0:0:0:40:Hat Close.wav
64,192,46559,128,2,46885:0:0:0:0:
320,192,46885,128,2,47211:0:0:0:0:
448,192,46885,1,8,0:0:0:0:
192,192,47211,128,2,47537:0:0:0:0:
64,192,47537,1,2,0:0:0:0:
448,192,47537,1,8,0:0:0:0:
192,192,47700,128,0,48189:0:0:0:40:Hat Close.wav
320,192,47863,1,2,0:0:0:0:
64,192,48189,1,2,0:0:0:0:
448,192,48189,1,8,0:0:0:0:
320,192,48352,1,0,0:0:0:40:Hat Close.wav
320,192,48515,128,2,48841:0:0:0:0:
64,192,48841,1,2,0:0:0:0:
448,192,48841,1,8,0:0:0:0:
64,192,49004,128,0,49167:0:0:0:40:Hat Close.wav
320,192,49167,1,2,0:0:0:0:
192,192,49330,128,0,49493:0:0:0:0:
64,192,49493,1,2,0:0:0:0:
448,192,49493,1,8,0:0:0:0:
320,192,49656,128,0,50146:0:0:0:40:Hat Close.wav
192,192,49819,1,2,0:0:0:0:
64,192,50146,1,2,0:0:0:0:
448,192,50146,1,8,0:0:0:0:
192,192,50309,128,0,50472:0:0:0:40:Hat Close.wav
448,192,50472,128,2,50716:0:0:0:0:
320,192,50716,1,0,0:0:0:0:
64,192,50798,1,2,0:0:0:0:
192,192,50798,1,8,0:0:0:0:
64,192,50961,128,0,51124:0:0:0:40:Hat Open.wav
192,192,51124,128,2,51776:0:0:0:0:
448,192,51124,1,4,0:0:0:0:
320,192,51450,1,10,0:0:0:0:
64,192,51776,1,2,0:0:0:0:
320,192,52102,128,2,52428:0:0:0:0:
448,192,52102,1,8,0:0:0:0:
64,192,52428,128,2,52754:0:0:0:0:
192,192,52754,1,2,0:0:0:0:
448,192,52754,1,8,0:0:0:0:
448,192,52917,128,0,53406:0:0:0:40:Hat Close.wav
64,192,53080,1,2,0:0:0:0:
192,192,53406,1,2,0:0:0:0:
320,192,53406,1,8,0:0:0:0:
64,192,53569,1,0,0:0:0:40:Hat Close.wav
64,192,53733,1,2,0:0:0:0:
448,192,53733,1,4,0:0:0:0:
192,192,53896,1,8,0:0:0:0:
320,192,54059,1,8,0:0:0:0:
448,192,54059,1,2,0:0:0:0:
64,192,54222,1,2,0:0:0:0:
192,192,54222,1,0,0:0:0:40:Hat Open.wav
192,192,54548,1,2,0:0:0:0:
320,192,54548,1,0,0:0:0:40:Hat Open.wav
64,192,54874,128,2,55200:0:0:0:0:
448,192,54874,1,4,0:0:0:0:
320,192,55200,1,2,0:0:0:0:
192,192,55363,1,8,0:0:0:0:
320,192,55363,1,2,0:0:0:0:
64,192,55689,1,2,0:0:0:0:
448,192,55689,1,8,0:0:0:0:
320,192,55852,1,0,0:0:0:50:Tom1.wav
64,192,56015,1,0,0:0:0:50:Tom3.wav
192,192,56178,1,0,0:0:0:50:Tom3.wav
320,192,56341,1,0,0:0:0:50:Kick.wav
448,192,56341,1,0,0:0:0:0:
64,192,56504,1,0,0:0:0:0:
320,192,56667,1,0,0:0:0:0:
192,192,56830,1,0,0:0:0:0:
64,192,56993,1,0,0:0:0:40:Clap.wav
448,192,56993,128,0,57646:0:0:0:0:
64,192,57483,1,0,0:0:0:50:Kick.wav
64,192,57646,128,0,58298:0:0:0:50:Kick.wav
192,192,57972,128,0,58298:0:0:0:50:Kick.wav
320,192,58298,1,0,0:0:0:50:Snare.wav
448,192,58298,1,0,0:0:0:40:Clap.wav
320,192,58624,1,0,0:0:0:0:
64,192,58950,1,0,0:0:0:50:Kick.wav
192,192,58950,1,0,0:0:0:0:
448,192,59113,1,0,0:0:0:0:
192,192,59276,1,0,0:0:0:0:
320,192,59439,1,0,0:0:0:0:
64,192,59602,128,0,60254:0:0:0:40:Clap.wav
448,192,59602,1,0,0:0:0:0:
448,192,60091,1,0,0:0:0:50:Kick.wav
448,192,60254,128,0,60906:0:0:0:50:Kick.wav
320,192,60580,128,0,60906:0:0:0:50:Snare.wav
64,192,60906,1,0,0:0:0:50:Clap.wav
192,192,60906,1,0,0:0:0:0:
320,192,61069,1,0,0:0:0:50:Clap.wav
192,192,61233,1,0,0:0:0:0:
320,192,61396,1,0,0:0:0:50:Kick.wav
64,192,61559,1,0,0:0:0:50:Kick.wav
448,192,61559,1,0,0:0:0:0:
192,192,61722,1,0,0:0:0:0:
320,192,61885,1,0,0:0:0:0:
192,192,62048,1,0,0:0:0:0:
64,192,62211,1,0,0:0:0:40:Clap.wav
448,192,62211,128,0,62863:0:0:0:0:
64,192,62700,1,0,0:0:0:50:Kick.wav
64,192,62863,128,0,63515:0:0:0:50:Kick.wav
192,192,63189,128,0,63515:0:0:0:50:Kick.wav
320,192,63515,1,0,0:0:0:50:Snare.wav
448,192,63515,128,0,63841:0:0:0:40:Clap.wav
320,192,63841,128,0,64167:0:0:0:0:
64,192,64167,1,2,0:0:0:0:
192,192,64167,1,0,0:0:0:40:Short Finish.wav
192,192,64656,1,2,0:0:0:0:
320,192,64656,1,0,0:0:0:40:Short Finish.wav
64,192,65146,128,2,65635:0:0:0:0:
448,192,65146,1,0,0:0:0:40:Short Finish.wav
320,192,65635,1,2,0:0:0:0:
320,192,65798,1,8,0:0:0:0:
448,192,65798,1,2,0:0:0:0:
64,192,65961,1,8,0:0:0:0:
192,192,66042,1,8,0:0:0:0:
320,192,66124,1,10,0:0:0:0:
448,192,66287,1,8,0:0:0:0:
320,192,66368,1,8,0:0:0:0:
192,192,66450,1,10,0:0:0:0:
64,192,66613,1,8,0:0:0:0:
192,192,66694,1,8,0:0:0:0:
320,192,66776,1,4,0:0:0:0:
448,192,66776,1,2,0:0:0:0:
320,192,66939,1,2,0:0:0:0:
64,192,67102,1,8,0:0:0:0:
192,192,67102,1,0,0:0:0:50:Tom3.wav
448,192,67265,1,0,0:0:0:50:Tom3.wav
192,192,67428,1,2,0:0:0:0:
192,192,67591,1,2,0:0:0:0:
320,192,67754,1,8,0:0:0:0:
448,192,67754,1,0,0:0:0:50:Tom3.wav
64,192,67917,1,0,0:0:0:50:Tom3.wav
320,192,68080,1,2,0:0:0:0:
320,192,68243,1,2,0:0:0:0:
64,192,68406,128,8,68569:0:0:0:0:
192,192,68406,1,0,0:0:0:50:Tom3.wav
320,192,68569,128,0,68733:0:0:0:50:Tom3.wav
192,192,68733,128,2,69059:0:0:0:0:
320,192,68896,1,2,0:0:0:0:
64,192,69059,1,8,0:0:0:0:
448,192,69059,128,0,69385:0:0:0:50:Tom3.wav
320,192,69222,1,0,0:0:0:50:Tom3.wav
64,192,69385,1,2,0:0:0:0:
192,192,69385,1,4,0:0:0:0:
192,192,69548,1,2,0:0:0:0:
320,192,69711,1,8,0:0:0:0:
448,192,69711,1,0,0:0:0:50:Tom3.wav
64,192,69874,1,0,0:0:0:50:Tom3.wav
320,192,70037,1,2,0:0:0:0:
320,192,70200,1,2,0:0:0:0:
64,192,70363,1,8,0:0:0:0:
192,192,70363,1,0,0:0:0:50:Tom3.wav
448,192,70526,1,0,0:0:0:50:Tom3.wav
192,192,70689,1,2,0:0:0:0:
192,192,70852,1,2,0:0:0:0:
320,192,71015,1,8,0:0:0:0:
448,192,71015,128,0,71178:0:0:0:50:Tom3.wav
64,192,71178,128,0,71341:0:0:0:50:Tom3.wav
320,192,71341,128,2,71667:0:0:0:0:
192,192,71504,1,2,0:0:0:0:
64,192,71667,1,8,0:0:0:0:
448,192,71667,1,0,0:0:0:0:
320,192,71830,1,8,0:0:0:0:
64,192,71993,128,4,72483:0:0:0:0:
192,192,71993,1,2,0:0:0:0:
320,192,72483,1,2,0:0:0:0:
192,192,72646,1,8,0:0:0:0:
320,192,72646,128,0,72972:0:0:0:40:Hat Open.wav
64,192,72972,1,0,0:0:0:40:Hat Open.wav
448,192,73135,128,2,73461:0:0:0:0:
64,192,73461,128,2,73624:0:0:0:0:
192,192,73624,128,2,73787:0:0:0:0:
320,192,73787,128,0,73950:0:0:0:0:
64,192,73950,1,8,0:0:0:0:
448,192,73950,1,0,0:0:0:40:Hat Open.wav
64,192,74113,1,0,0:0:0:50:Tom1.wav
320,192,74276,1,0,0:0:0:50:Tom2.wav
320,192,74439,1,0,0:0:0:50:Tom3.wav
64,192,74602,128,8,75091:0:0:0:0:
448,192,74602,1,4,0:0:0:0:
192,192,75091,1,8,0:0:0:0:
448,192,75091,128,4,75580:0:0:0:0:
64,192,75580,1,4,0:0:0:0:
192,192,75580,128,8,75906:0:0:0:0:
320,192,75906,128,8,76233:0:0:0:0:
448,192,75906,1,4,0:0:0:0:
64,192,76233,1,2,0:0:0:0:
448,192,76396,1,0,0:0:0:50:Tom1.wav
64,192,76559,1,8,0:0:0:0:
192,192,76640,1,8,0:0:0:0:
320,192,76722,1,8,0:0:0:0:
448,192,76885,1,8,0:0:0:0:
320,192,76966,1,8,0:0:0:0:
192,192,77048,1,8,0:0:0:0:
64,192,77211,128,4,77537:0:0:0:0:
448,192,77211,1,2,0:0:0:0:
192,192,77537,1,8,0:0:0:0:
320,192,77537,1,0,0:0:0:40:Hat Open.wav
192,192,77863,128,2,78189:0:0:0:0:
448,192,78026,1,2,0:0:0:0:
64,192,78189,1,8,0:0:0:0:
320,192,78189,1,0,0:0:0:40:Hat Open.wav
320,192,78515,128,2,78841:0:0:0:0:
192,192,78841,1,8,0:0:0:0:
448,192,78841,1,0,0:0:0:40:Hat Open.wav
448,192,79167,128,2,79493:0:0:0:0:
64,192,79330,1,2,0:0:0:0:
192,192,79493,1,8,0:0:0:0:
320,192,79493,1,0,0:0:0:40:Hat Open.wav
64,192,79819,128,2,80472:0:0:0:0:
192,192,80146,1,8,0:0:0:0:
448,192,80472,128,2,80798:0:0:0:0:
320,192,80635,1,2,0:0:0:0:
64,192,80798,1,8,0:0:0:0:
192,192,80798,1,0,0:0:0:40:Hat Open.wav
192,192,80961,128,2,81287:0:0:0:0:
64,192,81287,1,2,0:0:0:0:
320,192,81450,1,8,0:0:0:0:
448,192,81450,1,0,0:0:0:40:Hat Open.wav
64,192,81613,1,0,0:0:0:0:
64,192,81776,128,2,82102:0:0:0:0:
448,192,81939,1,2,0:0:0:0:
192,192,82102,1,8,0:0:0:0:
320,192,82102,1,0,0:0:0:40:Hat Open.wav
64,192,82265,1,4,0:0:0:0:
320,192,82265,128,2,82591:0:0:0:0:
192,192,82591,1,2,0:0:0:0:
64,192,82754,1,8,0:0:0:0:
448,192,82754,1,0,0:0:0:40:Hat Open.wav
320,192,82917,1,0,0:0:0:0:
192,192,83080,1,2,0:0:0:0:
448,192,83243,1,2,0:0:0:0:
64,192,83406,1,8,0:0:0:0:
320,192,83406,1,0,0:0:0:40:Hat Open.wav
192,192,83569,1,0,0:0:0:0:
320,192,83733,1,2,0:0:0:0:
448,192,83733,128,0,84059:0:0:0:40:Hat Open.wav
192,192,84059,1,8,0:0:0:0:
64,192,84222,128,2,84548:0:0:0:0:
320,192,84222,1,0,0:0:0:0:
192,192,84548,1,2,0:0:0:0:
320,192,84711,1,8,0:0:0:0:
448,192,84711,1,0,0:0:0:40:Hat Open.wav
192,192,84874,1,0,0:0:0:0:
192,192,85037,128,2,85363:0:0:0:0:
64,192,85363,1,8,0:0:0:0:
448,192,85363,1,0,0:0:0:40:Hat Open.wav
320,192,85526,128,2,85689:0:0:0:0:
64,192,85689,1,0,0:0:0:0:
192,192,85852,128,2,86015:0:0:0:0:
320,192,86015,1,8,0:0:0:0:
448,192,86015,1,0,0:0:0:0:
64,192,86178,128,2,86504:0:0:0:0:
192,192,86178,1,4,0:0:0:0:
320,192,86504,1,2,0:0:0:0:
448,192,86504,1,0,0:0:0:0:
64,192,86667,1,8,0:0:0:0:
192,192,86667,1,0,0:0:0:40:Hat Open.wav
448,192,86830,1,8,0:0:0:0:
320,192,86912,1,8,0:0:0:0:
192,192,86993,1,2,0:0:0:0:
64,192,87156,1,10,0:0:0:0:
192,192,87238,1,0,0:0:0:0:
320,192,87319,1,8,0:0:0:0:
192,192,87483,1,8,0:0:0:0:
320,192,87564,1,8,0:0:0:0:
64,192,87646,1,4,0:0:0:0:
448,192,87646,128,2,87972:0:0:0:0:
192,192,87972,1,8,0:0:0:0:
320,192,87972,1,0,0:0:0:40:Hat Open.wav
320,192,88298,128,2,88624:0:0:0:0:
64,192,88461,1,2,0:0:0:0:
192,192,88624,1,8,0:0:0:0:
448,192,88624,1,0,0:0:0:40:Hat Open.wav
192,192,88950,128,2,89276:0:0:0:0:
64,192,89276,1,8,0:0:0:0:
320,192,89276,1,0,0:0:0:40:Hat Open.wav
64,192,89602,128,2,89928:0:0:0:0:
448,192,89765,1,2,0:0:0:0:
192,192,89928,1,8,0:0:0:0:
320,192,89928,1,0,0:0:0:40:Hat Open.wav
448,192,90254,128,2,90906:0:0:0:0:
192,192,90580,1,8,0:0:0:0:
64,192,90906,1,2,0:0:0:0:
192,192,91069,128,2,91233:0:0:0:0:
320,192,91233,1,8,0:0:0:0:
448,192,91233,1,0,0:0:0:40:Hat Open.wav
64,192,91396,128,6,91885:0:0:0:0:
320,192,91722,1,2,0:0:0:0:
192,192,91885,1,8,0:0:0:0:
448,192,91885,1,0,0:0:0:40:Hat Open.wav
320,192,92211,1,2,0:0:0:0:
64,192,92374,128,2,92537:0:0:0:0:
192,192,92537,1,8,0:0:0:0:
448,192,92537,128,0,92700:0:0:0:40:Hat Open.wav
64,192,92700,1,2,0:0:0:0:
320,192,92700,128,4,93026:0:0:0:0:
192,192,93026,1,2,0:0:0:0:
320,192,93189,1,8,0:0:0:0:
448,192,93189,1,0,0:0:0:40:Hat Open.wav
64,192,93352,1,0,0:0:0:0:
64,192,93515,128,2,93841:0:0:0:0:
320,192,93678,1,2,0:0:0:0:
192,192,93841,1,8,0:0:0:0:
448,192,93841,1,0,0:0:0:40:Hat Open.wav
320,192,94004,128,2,94330:0:0:0:0:
64,192,94330,128,2,94493:0:0:0:0:
320,192,94493,1,8,0:0:0:0:
448,192,94493,128,0,94656:0:0:0:40:Hat Open.wav
192,192,94656,128,0,94983:0:0:0:0:
64,192,94819,1,2,0:0:0:0:
448,192,94983,1,2,0:0:0:0:
192,192,95146,1,8,0:0:0:0:
320,192,95146,1,0,0:0:0:40:Hat Open.wav
64,192,95309,128,2,95635:0:0:0:0:
448,192,95309,1,4,0:0:0:0:
192,192,95635,1,2,0:0:0:0:
64,192,95798,1,8,0:0:0:0:
448,192,95798,1,0,0:0:0:40:Hat Open.wav
320,192,95961,1,2,0:0:0:0:
64,192,96124,1,8,0:0:0:0:
448,192,96124,1,0,0:0:0:40:Hat Open.wav
192,192,96287,1,8,0:0:0:0:
320,192,96368,1,8,0:0:0:0:
64,192,96450,1,8,0:0:0:0:
448,192,96450,1,0,0:0:0:0:
192,192,96613,1,8,0:0:0:0:
320,192,96613,1,0,0:0:0:50:Tom3.wav
64,192,96939,1,8,0:0:0:0:
448,192,96939,1,0,0:0:0:50:Tom3.wav
64,192,97102,1,8,0:0:0:0:
448,192,97102,1,0,0:0:0:50:Tom3.wav
64,192,97428,128,0,97591:0:0:0:0:
320,192,97591,128,0,97754:0:0:0:30:Kick.wav
192,192,97754,128,0,97917:0:0:0:30:Clap.wav
64,192,97917,1,2,0:0:0:0:
448,192,97917,128,4,98243:0:0:0:0:
192,192,98243,1,2,0:0:0:0:
320,192,98406,1,8,0:0:0:0:
448,192,98406,1,0,0:0:0:40:Hat Open.wav
64,192,98569,1,2,0:0:0:0:
320,192,98733,1,8,0:0:0:0:
448,192,98733,1,0,0:0:0:40:Hat Open.wav
192,192,98896,1,2,0:0:0:0:
64,192,99059,1,8,0:0:0:0:
448,192,99059,1,0,0:0:0:40:Hat Open.wav
320,192,99222,1,2,0:0:0:0:
64,192,99385,1,8,0:0:0:0:
192,192,99385,1,0,0:0:0:40:Hat Open.wav
448,192,99548,1,2,0:0:0:0:
192,192,99711,1,8,0:0:0:0:
320,192,99711,1,0,0:0:0:40:Hat Open.wav
64,192,99874,1,2,0:0:0:0:
320,192,100037,1,8,0:0:0:0:
448,192,100037,1,0,0:0:0:40:Hat Open.wav
320,192,100200,1,2,0:0:0:0:
64,192,100363,1,8,0:0:0:0:
192,192,100363,1,0,0:0:0:40:Hat Open.wav
192,192,100526,1,2,0:0:0:0:
320,192,100689,1,8,0:0:0:0:
448,192,100689,1,0,0:0:0:40:Hat Open.wav
64,192,101015,1,8,0:0:0:0:
192,192,101015,1,0,0:0:0:40:Hat Open.wav
448,192,101178,1,2,0:0:0:0:
64,192,101341,1,8,0:0:0:0:
192,192,101341,1,0,0:0:0:40:Hat Open.wav
320,192,101504,1,2,0:0:0:0:
64,192,101667,1,8,0:0:0:0:
448,192,101667,1,0,0:0:0:40:Hat Open.wav
192,192,101830,1,2,0:0:0:0:
320,192,101993,1,8,0:0:0:0:
448,192,101993,1,0,0:0:0:40:Hat Open.wav
64,192,102156,1,2,0:0:0:0:
192,192,102319,1,8,0:0:0:0:
320,192,102319,1,0,0:0:0:40:Hat Open.wav
448,192,102483,1,2,0:0:0:0:
64,192,102646,1,8,0:0:0:0:
192,192,102646,1,0,0:0:0:40:Hat Open.wav
192,192,102809,1,2,0:0:0:0:
320,192,102972,1,8,0:0:0:0:
448,192,102972,1,0,0:0:0:40:Hat Open.wav
320,192,103135,1,2,0:0:0:0:
64,192,103298,1,8,0:0:0:0:
192,192,103298,1,4,0:0:0:0:
320,192,103624,1,8,0:0:0:0:
448,192,103624,1,0,0:0:0:40:Hat Open.wav
64,192,103787,1,2,0:0:0:0:
320,192,103950,1,8,0:0:0:0:
448,192,103950,1,0,0:0:0:40:Hat Open.wav
192,192,104113,1,2,0:0:0:0:
64,192,104276,1,8,0:0:0:0:
448,192,104276,1,0,0:0:0:40:Hat Open.wav
320,192,104439,1,2,0:0:0:0:
64,192,104602,1,8,0:0:0:0:
192,192,104602,1,0,0:0:0:40:Hat Open.wav
448,192,104765,1,2,0:0:0:0:
192,192,104928,1,8,0:0:0:0:
320,192,104928,1,0,0:0:0:40:Hat Open.wav
64,192,105091,1,2,0:0:0:0:
320,192,105254,1,8,0:0:0:0:
448,192,105254,1,0,0:0:0:40:Hat Open.wav
320,192,105417,1,2,0:0:0:0:
64,192,105580,1,8,0:0:0:0:
192,192,105580,1,0,0:0:0:40:Hat Open.wav
192,192,105743,1,2,0:0:0:0:
64,192,105906,1,2,0:0:0:0:
448,192,105906,1,4,0:0:0:0:
320,192,106069,1,8,0:0:0:0:
192,192,106151,1,8,0:0:0:0:
64,192,106233,1,8,0:0:0:0:
448,192,106233,1,0,0:0:0:0:
320,192,106396,128,2,106559:0:0:0:0:
320,192,106722,128,2,106885:0:0:0:0:
64,192,106885,1,8,0:0:0:0:
448,192,106885,1,0,0:0:0:0:
192,192,107048,128,4,107537:0:0:0:0:
320,192,107048,1,2,0:0:0:0:
320,192,107374,1,2,0:0:0:0:
64,192,107537,1,8,0:0:0:0:
448,192,107537,1,0,0:0:0:40:Hat Open.wav
192,192,107700,1,2,0:0:0:0:
448,192,107863,1,10,0:0:0:0:
320,192,107944,1,8,0:0:0:0:
192,192,108026,1,8,0:0:0:0:
64,192,108189,1,10,0:0:0:0:
192,192,108271,1,8,0:0:0:0:
320,192,108352,1,8,0:0:0:0:
64,192,108515,1,4,0:0:0:0:
448,192,108515,128,2,109167:0:0:0:0:
192,192,108841,1,8,0:0:0:0:
64,192,109167,128,2,109493:0:0:0:0:
320,192,109330,1,2,0:0:0:0:
192,192,109493,1,8,0:0:0:0:
448,192,109493,1,0,0:0:0:40:Hat Open.wav
320,192,109656,128,2,109819:0:0:0:0:
320,192,109983,128,2,110146:0:0:0:0:
64,192,110146,1,8,0:0:0:0:
192,192,110146,128,0,110472:0:0:0:40:Hat Open.wav
448,192,110472,128,2,110798:0:0:0:0:
64,192,110635,1,2,0:0:0:0:
192,192,110798,1,8,0:0:0:0:
320,192,110798,128,0,111124:0:0:0:40:Hat Open.wav
64,192,111124,128,2,111776:0:0:0:0:
448,192,111124,1,4,0:0:0:0:
320,192,111450,1,8,0:0:0:0:
448,192,111776,128,2,112102:0:0:0:0:
192,192,111939,1,2,0:0:0:0:
64,192,112102,1,8,0:0:0:0:
320,192,112102,1,0,0:0:0:40:Hat Open.wav
192,192,112265,128,2,112428:0:0:0:0:
192,192,112591,128,2,112754:0:0:0:0:
320,192,112754,128,8,113080:0:0:0:0:
448,192,112754,1,0,0:0:0:40:Hat Open.wav
64,192,113080,128,2,113406:0:0:0:0:
320,192,113243,1,2,0:0:0:0:
192,192,113406,1,8,0:0:0:0:
448,192,113406,1,0,0:0:0:40:Hat Open.wav
320,192,113569,1,0,0:0:0:0:
64,192,113733,1,4,0:0:0:0:
448,192,113733,1,2,0:0:0:0:
192,192,114059,1,8,0:0:0:0:
320,192,114059,128,0,114222:0:0:0:40:Hat Open.wav
192,192,114385,1,2,0:0:0:0:
192,192,114548,128,2,114711:0:0:0:0:
64,192,114711,1,8,0:0:0:0:
448,192,114711,1,0,0:0:0:40:Hat Open.wav
320,192,114874,1,2,0:0:0:0:
320,192,115200,1,2,0:0:0:0:
64,192,115363,128,8,115526:0:0:0:0:
448,192,115363,1,0,0:0:0:40:Hat Open.wav
448,192,115689,1,2,0:0:0:0:
448,192,115852,128,2,116015:0:0:0:0:
192,192,116015,1,8,0:0:0:0:
320,192,116015,1,0,0:0:0:40:Hat Open.wav
64,192,116341,1,6,0:0:0:0:
64,192,116504,128,0,116667:0:0:0:0:
320,192,116667,1,8,0:0:0:0:
448,192,116667,1,0,0:0:0:40:Hat Open.wav
448,192,116830,128,0,116993:0:0:0:0:
192,192,116993,1,2,0:0:0:0:
192,192,117156,128,2,117319:0:0:0:0:
64,192,117319,1,8,0:0:0:0:
448,192,117319,1,0,0:0:0:40:Hat Open.wav
192,192,117483,1,2,0:0:0:0:
320,192,117483,1,0,0:0:0:40:Short Finish.wav
192,192,117809,1,2,0:0:0:0:
320,192,117809,1,0,0:0:0:40:Short Finish.wav
192,192,118135,1,2,0:0:0:0:
320,192,118135,1,0,0:0:0:40:Short Finish.wav
64,192,118298,1,8,0:0:0:0:
448,192,118298,1,4,0:0:0:0:
64,192,118461,1,0,0:0:0:50:Tom3.wav
320,192,118624,1,0,0:0:0:50:Tom2.wav
192,192,118787,1,0,0:0:0:50:Tom2.wav
320,192,118868,1,0,0:0:0:50:Tom3.wav
64,192,118950,1,2,0:0:0:0:
448,192,118950,1,0,0:0:0:50:Tom3.wav
192,192,119113,1,8,0:0:0:0:
320,192,119113,1,0,0:0:0:50:Tom3.wav
320,192,120254,1,8,0:0:0:0:
448,192,120254,1,0,0:0:0:50:Tom3.wav
64,192,120417,1,8,0:0:0:0:
192,192,120417,1,0,0:0:0:50:Tom3.wav
64,192,120906,1,8,0:0:0:0:
448,192,120906,1,0,0:0:0:0:
192,192,121069,1,0,0:0:0:50:Tom1.wav
320,192,121233,1,0,0:0:0:50:Tom2.wav
448,192,121396,1,0,0:0:0:50:Tom3.wav
64,192,121559,1,8,0:0:0:0:
192,192,121559,1,0,0:0:0:50:Tom3.wav
320,192,121722,1,8,0:0:0:0:
448,192,121722,1,0,0:0:0:50:Tom3.wav
64,192,122211,1,2,0:0:0:0:
448,192,122211,1,0,0:0:0:0:
320,192,122374,1,8,0:0:0:0:
192,192,122455,1,8,0:0:0:0:
320,192,122537,1,0,0:0:0:50:Tom1.wav
64,192,122700,128,4,123026:0:0:0:0:
448,192,122700,1,2,0:0:0:0:
192,192,123026,1,2,0:0:0:0:
320,192,123189,1,8,0:0:0:0:
448,192,123189,1,0,0:0:0:0:
192,192,123352,1,8,0:0:0:0:
320,192,123434,1,8,0:0:0:0:
64,192,123515,1,8,0:0:0:0:
448,192,123515,1,0,0:0:0:40:Short Finish.wav
64,192,123841,1,8,0:0:0:0:
448,192,123841,1,4,0:0:0:0:
64,192,124167,128,4,124493:0:0:0:0:
192,192,124167,1,2,0:0:0:0:
320,192,124493,1,8,0:0:0:0:
448,192,124493,1,0,0:0:0:40:Hat Close.wav
192,192,124819,1,2,0:0:0:0:
192,192,124983,1,2,0:0:0:0:
64,192,125146,1,8,0:0:0:0:
448,192,125146,1,0,0:0:0:40:Hat Close.wav
320,192,125472,128,2,125798:0:0:0:0:
64,192,125798,1,8,0:0:0:0:
448,192,125798,1,0,0:0:0:40:Hat Close.wav
192,192,126124,1,2,0:0:0:0:
192,192,126287,1,2,0:0:0:0:
320,192,126450,1,8,0:0:0:0:
448,192,126450,1,0,0:0:0:40:Hat Close.wav
192,192,126776,1,2,0:0:0:0:
448,192,126939,1,10,0:0:0:0:
320,192,127021,1,8,0:0:0:0:
64,192,127102,128,8,127265:0:0:0:0:
192,192,127102,128,4,127265:0:0:0:0:
448,192,127428,1,10,0:0:0:0:
320,192,127510,1,8,0:0:0:0:
64,192,127591,1,10,0:0:0:0:
192,192,127673,1,8,0:0:0:0:
320,192,127754,128,8,127917:0:0:0:0:
448,192,127754,128,4,127917:0:0:0:0:
64,192,128080,1,8,0:0:0:0:
192,192,128080,1,4,0:0:0:0:
192,192,128243,1,2,0:0:0:0:
320,192,128406,1,8,0:0:0:0:
448,192,128406,1,0,0:0:0:0:
320,192,128569,1,6,0:0:0:0:
64,192,128896,1,8,0:0:0:0:
448,192,128896,1,0,0:0:0:0:
192,192,129059,1,8,0:0:0:0:
448,192,129222,1,8,0:0:0:0:
320,192,129303,1,8,0:0:0:0:
64,192,129385,128,4,129711:0:0:0:0:
192,192,129385,1,2,0:0:0:0:
320,192,129711,1,10,0:0:0:0:
448,192,129711,1,0,0:0:0:40:Hat Close.wav
192,192,129874,128,0,130037:0:0:0:0:
448,192,130037,128,2,130363:0:0:0:0:
64,192,130363,1,2,0:0:0:0:
192,192,130363,128,8,130689:0:0:0:0:
320,192,130689,128,2,131015:0:0:0:0:
64,192,131015,1,2,0:0:0:0:
448,192,131015,1,8,0:0:0:0:
320,192,131178,128,0,131667:0:0:0:40:Hat Close.wav
192,192,131341,1,2,0:0:0:0:
64,192,131667,1,2,0:0:0:0:
448,192,131667,1,8,0:0:0:0:
192,192,131830,1,0,0:0:0:40:Hat Close.wav
192,192,131993,128,2,132319:0:0:0:0:
64,192,132319,1,2,0:0:0:0:
448,192,132319,1,8,0:0:0:0:
448,192,132483,128,0,132646:0:0:0:40:Hat Close.wav
192,192,132646,1,2,0:0:0:0:
320,192,132809,128,0,132972:0:0:0:40:Hat Close.wav
64,192,132972,1,2,0:0:0:0:
448,192,132972,1,8,0:0:0:0:
192,192,133135,128,0,133624:0:0:0:40:Hat Close.wav
320,192,133298,1,2,0:0:0:0:
64,192,133624,1,2,0:0:0:0:
448,192,133624,1,8,0:0:0:0:
320,192,133787,128,0,133950:0:0:0:40:Hat Close.wav
64,192,133950,128,2,134194:0:0:0:0:
192,192,134194,1,0,0:0:0:0:
320,192,134276,1,8,0:0:0:0:
448,192,134276,1,2,0:0:0:0:
448,192,134439,128,0,134602:0:0:0:40:Hat Open.wav
64,192,134602,1,2,0:0:0:0:
320,192,134602,128,4,135254:0:0:0:0:
192,192,134928,1,10,0:0:0:0:
448,192,135254,1,2,0:0:0:0:
64,192,135580,1,2,0:0:0:0:
192,192,135580,128,8,135906:0:0:0:0:
448,192,135906,128,2,136233:0:0:0:0:
64,192,136233,1,2,0:0:0:0:
320,192,136233,1,8,0:0:0:0:
64,192,136396,128,0,136885:0:0:0:40:Hat Close.wav
448,192,136559,1,2,0:0:0:0:
192,192,136885,1,2,0:0:0:0:
320,192,136885,1,8,0:0:0:0:
64,192,137211,1,2,0:0:0:0:
448,192,137211,1,4,0:0:0:0:
320,192,137374,1,8,0:0:0:0:
64,192,137537,1,8,0:0:0:0:
192,192,137537,1,2,0:0:0:0:
320,192,137700,1,2,0:0:0:0:
448,192,137700,1,0,0:0:0:40:Hat Open.wav
192,192,138026,1,2,0:0:0:0:
320,192,138026,1,0,0:0:0:40:Hat Open.wav
64,192,138352,1,4,0:0:0:0:
448,192,138352,128,2,138678:0:0:0:0:
192,192,138678,1,2,0:0:0:0:
192,192,138841,1,8,0:0:0:0:
320,192,138841,1,2,0:0:0:0:
64,192,139167,1,8,0:0:0:0:
448,192,139167,1,2,0:0:0:0:
192,192,139330,1,0,0:0:0:50:Tom1.wav
448,192,139493,1,0,0:0:0:50:Tom1.wav
320,192,139656,1,0,0:0:0:50:Tom2.wav
64,192,139819,1,0,0:0:0:50:Kick.wav
192,192,139819,1,0,0:0:0:0:
448,192,139983,1,0,0:0:0:0:
192,192,140146,1,0,0:0:0:0:
320,192,140309,1,0,0:0:0:0:
64,192,140472,128,0,141124:0:0:0:40:Clap.wav
448,192,140472,1,0,0:0:0:0:
448,192,140961,1,0,0:0:0:50:Kick.wav
448,192,141124,128,0,141776:0:0:0:50:Kick.wav
320,192,141450,128,0,141776:0:0:0:50:Kick.wav
64,192,141776,1,0,0:0:0:50:Snare.wav
192,192,141776,1,0,0:0:0:40:Clap.wav
192,192,142102,1,0,0:0:0:0:
320,192,142428,1,0,0:0:0:50:Kick.wav
448,192,142428,1,0,0:0:0:0:
64,192,142591,1,0,0:0:0:0:
320,192,142754,1,0,0:0:0:0:
192,192,142917,1,0,0:0:0:0:
64,192,143080,1,0,0:0:0:40:Clap.wav
448,192,143080,128,0,143733:0:0:0:0:
64,192,143569,1,0,0:0:0:50:Kick.wav
64,192,143733,128,0,144385:0:0:0:50:Kick.wav
192,192,144059,128,0,144385:0:0:0:50:Snare.wav
320,192,144385,1,0,0:0:0:40:Clap.wav
448,192,144385,1,0,0:0:0:0:
192,192,144548,1,0,0:0:0:40:Clap.wav
320,192,144711,1,0,0:0:0:0:
192,192,144874,1,0,0:0:0:50:Kick.wav
64,192,145037,1,0,0:0:0:50:Kick.wav
448,192,145037,1,0,0:0:0:0:
320,192,145200,1,0,0:0:0:0:
192,192,145363,1,0,0:0:0:0:
320,192,145526,1,0,0:0:0:0:
64,192,145689,128,0,146341:0:0:0:40:Clap.wav
448,192,145689,1,0,0:0:0:0:
448,192,146178,1,0,0:0:0:50:Kick.wav
448,192,146341,128,0,146993:0:0:0:50:Kick.wav
320,192,146667,128,0,146993:0:0:0:50:Kick.wav
64,192,146993,128,0,147319:0:0:0:50:Snare.wav
192,192,146993,1,0,0:0:0:40:Clap.wav
192,192,147319,128,0,147646:0:0:0:0:
320,192,147646,1,2,0:0:0:0:
448,192,147646,1,4,0:0:0:0:
192,192,148135,1,2,0:0:0:0:
320,192,148135,1,4,0:0:0:0:
64,192,148624,1,4,0:0:0:0:
448,192,148624,128,2,149113:0:0:0:0:
192,192,149113,1,2,0:0:0:0:
64,192,149276,1,8,0:0:0:0:
192,192,149276,1,2,0:0:0:0:
448,192,149439,1,8,0:0:0:0:
320,192,149521,1,8,0:0:0:0:
192,192,149602,1,10,0:0:0:0:
64,192,149765,1,8,0:0:0:0:
192,192,149847,1,8,0:0:0:0:
320,192,149928,1,10,0:0:0:0:
448,192,150091,1,8,0:0:0:0:
320,192,150173,1,8,0:0:0:0:
64,192,150254,1,8,0:0:0:0:
192,192,150254,1,4,0:0:0:0:
64,192,150580,1,8,0:0:0:0:
192,192,150580,1,0,0:0:0:40:Hat Open.wav
64,192,150906,1,8,0:0:0:0:
192,192,150906,1,0,0:0:0:40:Hat Open.wav
320,192,151069,1,2,0:0:0:0:
64,192,151233,1,8,0:0:0:0:
448,192,151233,1,0,0:0:0:40:Hat Open.wav
192,192,151396,1,2,0:0:0:0:
320,192,151559,1,8,0:0:0:0:
448,192,151559,1,0,0:0:0:40:Hat Open.wav
320,192,151885,1,8,0:0:0:0:
448,192,151885,1,0,0:0:0:40:Hat Open.wav
320,192,152211,1,8,0:0:0:0:
448,192,152211,1,0,0:0:0:40:Hat Open.wav
64,192,152374,1,2,0:0:0:0:
192,192,152537,1,8,0:0:0:0:
448,192,152537,1,0,0:0:0:0:
64,192,152700,1,2,0:0:0:0:
320,192,152700,128,4,153026:0:0:0:0:
192,192,153026,1,2,0:0:0:0:
64,192,153189,1,8,0:0:0:0:
448,192,153189,1,0,0:0:0:0:
320,192,153352,1,0,0:0:0:50:Tom2.wav
64,192,153515,1,8,0:0:0:0:
192,192,153515,1,0,0:0:0:0:
320,192,153597,1,8,0:0:0:0:
448,192,153678,1,0,0:0:0:50:Tom1.wav
64,192,153841,1,0,0:0:0:50:Tom1.wav
192,192,153923,1,0,0:0:0:0:
320,192,154004,1,0,0:0:0:50:Tom3.wav
448,192,154167,1,8,0:0:0:0:
64,192,154249,1,0,0:0:0:50:Tom1.wav
192,192,154330,1,2,0:0:0:0:
448,192,154493,1,2,0:0:0:0:
320,192,154575,1,0,0:0:0:0:
192,192,154656,1,8,0:0:0:0:
64,192,154819,1,2,0:0:0:0:
192,192,154901,1,0,0:0:0:0:
320,192,154983,1,2,0:0:0:0:
64,192,155146,1,8,0:0:0:0:
448,192,155146,1,0,0:0:0:0:
192,192,155309,1,2,0:0:0:0:
320,192,155472,1,8,0:0:0:0:
448,192,155472,1,4,0:0:0:0:
192,192,155635,1,2,0:0:0:0:
192,192,155798,1,2,0:0:0:0:
64,192,155961,1,8,0:0:0:0:
448,192,155961,1,4,0:0:0:0:
320,192,156124,1,2,0:0:0:0:
320,192,156287,1,2,0:0:0:0:
64,192,156450,1,4,0:0:0:0:
192,192,156450,1,8,0:0:0:0:
320,192,156613,1,2,0:0:0:0:
64,192,156776,1,8,0:0:0:0:
448,192,156776,1,4,0:0:0:0:
192,192,156939,1,0,0:0:0:50:Tom1.wav
320,192,157021,1,0,0:0:0:50:Tom1.wav
64,192,157102,1,2,0:0:0:0:
448,192,157265,1,0,0:0:0:50:Tom1.wav
192,192,157347,1,0,0:0:0:50:Tom1.wav
320,192,157428,1,0,0:0:0:50:Tom1.wav
64,192,157591,1,0,0:0:0:50:Tom2.wav
192,192,157673,1,0,0:0:0:50:Tom2.wav
448,192,157754,1,0,0:0:0:50:Tom3.wav
320,192,157917,1,0,0:0:0:50:Tom3.wav
192,192,157999,1,0,0:0:0:50:Tom3.wav
64,192,158080,1,4,0:0:0:0:
448,192,158080,128,2,158406:0:0:0:0:
192,192,158406,1,8,0:0:0:0:
320,192,158406,1,0,0:0:0:40:Hat Open.wav
320,192,158733,128,2,159059:0:0:0:0:
64,192,158896,1,2,0:0:0:0:
192,192,159059,1,8,0:0:0:0:
448,192,159059,1,0,0:0:0:40:Hat Open.wav
192,192,159385,128,2,159711:0:0:0:0:
64,192,159711,1,8,0:0:0:0:
320,192,159711,1,0,0:0:0:40:Hat Open.wav
64,192,160037,128,2,160363:0:0:0:0:
448,192,160200,1,2,0:0:0:0:
192,192,160363,1,8,0:0:0:0:
320,192,160363,1,0,0:0:0:40:Hat Open.wav
320,192,160689,128,2,161341:0:0:0:0:
192,192,161015,1,8,0:0:0:0:
64,192,161341,128,2,161667:0:0:0:0:
192,192,161504,1,2,0:0:0:0:
320,192,161667,1,8,0:0:0:0:
448,192,161667,1,0,0:0:0:40:Hat Open.wav
448,192,161830,128,2,162156:0:0:0:0:
320,192,162156,1,2,0:0:0:0:
64,192,162319,1,8,0:0:0:0:
192,192,162319,1,0,0:0:0:40:Hat Open.wav
320,192,162483,1,0,0:0:0:0:
320,192,162646,128,2,162972:0:0:0:0:
64,192,162809,1,2,0:0:0:0:
192,192,162972,1,8,0:0:0:0:
448,192,162972,1,0,0:0:0:40:Hat Open.wav
192,192,163135,128,4,163461:0:0:0:0:
320,192,163135,1,2,0:0:0:0:
320,192,163461,1,2,0:0:0:0:
64,192,163624,1,8,0:0:0:0:
448,192,163624,1,0,0:0:0:40:Hat Open.wav
192,192,163787,1,0,0:0:0:0:
320,192,163950,1,2,0:0:0:0:
64,192,164113,1,2,0:0:0:0:
192,192,164276,1,8,0:0:0:0:
448,192,164276,1,0,0:0:0:40:Hat Open.wav
320,192,164439,1,0,0:0:0:0:
64,192,164602,128,2,164928:0:0:0:0:
192,192,164602,1,0,0:0:0:40:Hat Open.wav
320,192,164928,1,8,0:0:0:0:
192,192,165091,1,2,0:0:0:0:
448,192,165091,128,0,165417:0:0:0:0:
320,192,165417,1,2,0:0:0:0:
64,192,165580,1,8,0:0:0:0:
192,192,165580,1,0,0:0:0:40:Hat Open.wav
448,192,165743,1,0,0:0:0:0:
320,192,165906,128,2,166233:0:0:0:0:
192,192,166233,1,8,0:0:0:0:
448,192,166233,1,0,0:0:0:40:Hat Open.wav
192,192,166396,128,2,166559:0:0:0:0:
448,192,166559,1,0,0:0:0:0:
320,192,166722,128,2,166885:0:0:0:0:
64,192,166885,1,8,0:0:0:0:
192,192,166885,1,0,0:0:0:0:
320,192,167048,1,10,0:0:0:0:
448,192,167048,128,4,167374:0:0:0:0:
192,192,167374,1,0,0:0:0:50:Tom1.wav
320,192,167537,1,0,0:0:0:50:Tom2.wav
64,192,167700,1,6,0:0:0:0:
192,192,167781,1,0,0:0:0:0:
320,192,167863,1,0,0:0:0:50:Tom1.wav
448,192,168026,1,0,0:0:0:50:Tom2.wav
320,192,168108,1,0,0:0:0:50:Tom3.wav
192,192,168189,1,8,0:0:0:0:
320,192,168352,1,8,0:0:0:0:
192,192,168434,1,8,0:0:0:0:
64,192,168515,128,4,168841:0:0:0:0:
448,192,168515,1,2,0:0:0:0:
192,192,168841,1,8,0:0:0:0:
320,192,168841,1,0,0:0:0:40:Hat Open.wav
192,192,169167,128,2,169493:0:0:0:0:
448,192,169330,1,2,0:0:0:0:
64,192,169493,1,8,0:0:0:0:
320,192,169493,1,0,0:0:0:40:Hat Open.wav
320,192,169819,128,2,170146:0:0:0:0:
192,192,170146,1,8,0:0:0:0:
448,192,170146,1,0,0:0:0:40:Hat Open.wav
448,192,170472,128,2,170798:0:0:0:0:
64,192,170635,1,2,0:0:0:0:
192,192,170798,1,8,0:0:0:0:
320,192,170798,1,0,0:0:0:40:Hat Open.wav
64,192,171124,128,2,171776:0:0:0:0:
320,192,171450,1,8,0:0:0:0:
448,192,171776,1,2,0:0:0:0:
320,192,171939,128,2,172102:0:0:0:0:
64,192,172102,1,8,0:0:0:0:
192,192,172102,1,0,0:0:0:40:Hat Open.wav
448,192,172265,128,6,172754:0:0:0:0:
192,192,172591,1,2,0:0:0:0:
64,192,172754,1,8,0:0:0:0:
320,192,172754,1,0,0:0:0:40:Hat Open.wav
192,192,173080,1,2,0:0:0:0:
448,192,173243,128,2,173406:0:0:0:0:
64,192,173406,128,8,173569:0:0:0:0:
320,192,173406,1,0,0:0:0:40:Hat Open.wav
192,192,173569,128,4,173896:0:0:0:0:
448,192,173569,1,2,0:0:0:0:
320,192,173896,1,2,0:0:0:0:
64,192,174059,1,8,0:0:0:0:
448,192,174059,1,0,0:0:0:40:Hat Open.wav
320,192,174222,1,0,0:0:0:0:
320,192,174385,128,2,174711:0:0:0:0:
192,192,174548,1,2,0:0:0:0:
64,192,174711,1,8,0:0:0:0:
448,192,174711,1,0,0:0:0:40:Hat Open.wav
192,192,174874,128,2,175200:0:0:0:0:
64,192,175200,128,2,175526:0:0:0:0:
192,192,175363,1,8,0:0:0:0:
448,192,175363,1,0,0:0:0:40:Hat Open.wav
320,192,175526,128,0,175852:0:0:0:0:
448,192,175689,1,2,0:0:0:0:
64,192,175852,1,2,0:0:0:0:
192,192,176015,1,8,0:0:0:0:
320,192,176015,1,0,0:0:0:40:Hat Open.wav
64,192,176178,1,2,0:0:0:0:
448,192,176178,128,4,176504:0:0:0:0:
320,192,176504,1,2,0:0:0:0:
64,192,176667,1,8,0:0:0:0:
448,192,176667,1,0,0:0:0:40:Hat Open.wav
192,192,176830,1,2,0:0:0:0:
64,192,176993,1,8,0:0:0:0:
448,192,176993,1,0,0:0:0:40:Hat Open.wav
320,192,177156,1,8,0:0:0:0:
192,192,177238,1,8,0:0:0:0:
64,192,177319,1,8,0:0:0:0:
448,192,177319,1,0,0:0:0:0:
192,192,177483,1,8,0:0:0:0:
320,192,177483,1,0,0:0:0:50:Tom3.wav
192,192,177809,1,8,0:0:0:0:
320,192,177809,1,0,0:0:0:50:Tom3.wav
192,192,177972,1,8,0:0:0:0:
320,192,177972,1,0,0:0:0:50:Tom3.wav
448,192,178624,1,0,0:0:0:0:
320,192,178733,1,0,0:0:0:0:
192,192,178841,1,0,0:0:0:0:
64,192,178950,1,0,0:0:0:0:
448,192,178950,128,0,181233:0:0:0:0:
64,192,181233,1,0,0:0:0:0:
192,192,181341,1,0,0:0:0:0:
320,192,181450,1,0,0:0:0:0:
64,192,181559,128,0,183841:0:0:0:0:
448,192,181559,1,0,0:0:0:0:
320,192,183841,1,0,0:0:0:0:
448,192,183950,1,0,0:0:0:0:
192,192,184059,1,0,0:0:0:0:
64,192,184167,1,2,0:0:0:0:
320,192,184167,128,4,185146:0:0:0:0:
64,192,185146,1,0,0:0:0:0:
64,192,185309,1,0,0:0:0:0:
448,192,185472,1,0,0:0:0:0:
320,192,185689,1,0,0:0:0:0:
192,192,185798,128,0,186450:0:0:0:0:
448,192,186450,1,0,0:0:0:0:
320,192,186559,1,0,0:0:0:0:
192,192,186667,1,0,0:0:0:0:
64,192,186776,128,4,187428:0:0:0:0:
448,192,186776,1,2,0:0:0:0:
448,192,187428,128,0,188080:0:0:0:0:
192,192,188080,128,0,188733:0:0:0:0:
320,192,188733,128,0,189059:0:0:0:0:
64,192,189059,1,0,0:0:0:0:
192,192,189167,1,0,0:0:0:0:
320,192,189276,1,0,0:0:0:0:
64,192,189385,128,4,191667:0:0:0:0:
448,192,189385,1,2,0:0:0:0:
448,192,191667,1,0,0:0:0:0:
320,192,191776,1,0,0:0:0:0:
192,192,191885,1,0,0:0:0:0:
64,192,191993,1,2,0:0:0:0:
448,192,191993,128,4,194276:0:0:0:0:
192,192,194276,1,0,0:0:0:0:
64,192,194385,1,0,0:0:0:0:
320,192,194493,1,0,0:0:0:0:
192,192,194602,128,4,195254:0:0:0:0:
448,192,194602,1,2,0:0:0:0:
448,192,195254,1,0,0:0:0:0:
64,192,195417,1,0,0:0:0:0:
320,192,195580,1,0,0:0:0:0:
192,192,195743,1,0,0:0:0:0:
64,192,195906,128,0,196233:0:0:0:0:
448,192,196233,128,0,196559:0:0:0:0:
320,192,196559,1,0,0:0:0:0:
64,192,196667,1,0,0:0:0:0:
192,192,196776,1,0,0:0:0:0:
320,192,196885,128,0,197211:0:0:0:0:
64,192,197211,128,4,197863:0:0:0:0:
448,192,197211,1,2,0:0:0:0:
192,192,197863,128,0,198515:0:0:0:0:
320,192,198515,128,0,198841:0:0:0:0:
64,192,199167,1,0,0:0:0:0:
192,192,199412,1,0,0:0:0:0:
320,192,199656,1,0,0:0:0:0:
64,192,199819,128,2,200146:0:0:0:0:
448,192,199819,1,4,0:0:0:0:
320,192,200146,1,8,0:0:0:0:
448,192,200146,1,0,0:0:0:40:Hat Open.wav
192,192,200472,1,2,0:0:0:0:
192,192,200635,1,2,0:0:0:0:
448,192,200798,1,8,0:0:0:0:
320,192,200961,1,2,0:0:0:0:
192,192,201287,1,2,0:0:0:0:
64,192,201450,1,8,0:0:0:0:
448,192,201450,1,0,0:0:0:40:Hat Open.wav
320,192,201776,1,2,0:0:0:0:
320,192,201939,1,2,0:0:0:0:
64,192,202102,1,8,0:0:0:0:
192,192,202102,1,0,0:0:0:40:Hat Open.wav
320,192,202428,1,2,0:0:0:0:
448,192,202428,128,0,202754:0:0:0:40:Hat Open.wav
64,192,202754,1,8,0:0:0:0:
192,192,202754,1,0,0:0:0:40:Hat Open.wav
320,192,203080,1,2,0:0:0:0:
320,192,203243,1,2,0:0:0:0:
64,192,203406,1,8,0:0:0:0:
448,192,203406,1,0,0:0:0:40:Hat Open.wav
192,192,203569,1,2,0:0:0:0:
320,192,203896,1,2,0:0:0:0:
64,192,204059,1,8,0:0:0:0:
448,192,204059,1,0,0:0:0:40:Hat Open.wav
192,192,204385,1,2,0:0:0:0:
192,192,204548,1,2,0:0:0:0:
320,192,204711,1,8,0:0:0:0:
448,192,204711,1,0,0:0:0:40:Hat Open.wav
64,192,205037,1,4,0:0:0:0:
192,192,205037,1,2,0:0:0:0:
320,192,205363,1,8,0:0:0:0:
448,192,205363,1,0,0:0:0:40:Hat Open.wav
448,192,205526,1,6,0:0:0:0:
64,192,205526,1,0,0:0:0:0:
192,192,205852,1,2,0:0:0:0:
320,192,205934,1,2,0:0:0:0:
64,192,206015,1,8,0:0:0:0:
448,192,206015,1,4,0:0:0:0:
64,192,206504,1,2,0:0:0:0:
64,192,206667,1,8,0:0:0:0:
448,192,206667,1,0,0:0:0:40:Hat Open.wav
320,192,206993,1,2,0:0:0:0:
320,192,207156,1,2,0:0:0:0:
64,192,207319,1,8,0:0:0:0:
192,192,207319,1,0,0:0:0:40:Hat Open.wav
192,192,207646,1,4,0:0:0:0:
320,192,207646,1,2,0:0:0:0:
64,192,207972,1,8,0:0:0:0:
448,192,207972,1,0,0:0:0:40:Hat Open.wav
192,192,208298,1,2,0:0:0:0:
192,192,208461,1,2,0:0:0:0:
64,192,208624,1,8,0:0:0:0:
448,192,208624,1,0,0:0:0:40:Hat Open.wav
192,192,208787,1,4,0:0:0:0:
320,192,208787,1,2,0:0:0:0:
320,192,209113,1,2,0:0:0:0:
64,192,209276,1,8,0:0:0:0:
448,192,209276,1,0,0:0:0:0:
64,192,209439,1,8,0:0:0:0:
192,192,209521,1,8,0:0:0:0:
320,192,209602,1,2,0:0:0:0:
448,192,209602,1,0,0:0:0:50:Tom2.wav
64,192,209765,1,2,0:0:0:0:
192,192,209765,1,0,0:0:0:50:Tom3.wav
320,192,209928,1,2,0:0:0:0:
448,192,209928,1,0,0:0:0:50:Tom3.wav
64,192,210091,1,10,0:0:0:0:
192,192,210091,1,0,0:0:0:40:Short Finish.wav
448,192,210906,1,0,0:0:0:0:
320,192,211233,1,0,0:0:0:0:
64,192,211559,128,0,212048:0:0:0:0:
320,192,212048,128,0,212211:0:0:0:0:
192,192,212211,128,0,212537:0:0:0:0:
448,192,212537,128,0,212700:0:0:0:0:
320,192,212700,128,0,213678:0:0:0:0:
64,192,214167,1,0,0:0:0:0:
192,192,214167,128,0,214493:0:0:0:0:
320,192,214656,128,0,214983:0:0:0:0:
448,192,214656,1,0,0:0:0:0:
64,192,215146,1,0,0:0:0:0:
192,192,215146,128,0,215798:0:0:0:0:
320,192,216124,1,0,0:0:0:0:
64,192,216450,1,0,0:0:0:0:
448,192,216776,128,0,217265:0:0:0:0:
192,192,217265,128,0,217428:0:0:0:0:
320,192,217428,128,0,217754:0:0:0:0:
64,192,217754,128,0,217917:0:0:0:0:
192,192,217917,128,0,219059:0:0:0:0:
320,192,219385,1,2,0:0:0:0:
448,192,219385,128,0,219711:0:0:0:0:
64,192,219874,128,2,220200:0:0:0:0:
192,192,219874,1,0,0:0:0:0:
320,192,220363,1,2,0:0:0:0:
448,192,220363,128,4,220689:0:0:0:0:
320,192,220852,1,0,0:0:0:50:Tom2.wav
192,192,220934,1,0,0:0:0:50:Tom2.wav
64,192,221015,1,4,0:0:0:0:
448,192,221015,1,0,0:0:0:50:Tom1.wav
64,192,221341,1,0,0:0:0:50:Tom2.wav
448,192,221341,1,0,0:0:0:0:
192,192,221504,1,0,0:0:0:50:Tom3.wav
320,192,221667,1,0,0:0:0:50:Tom3.wav
448,192,221830,1,0,0:0:0:50:Tom3.wav
64,192,221993,1,2,0:0:0:0:
192,192,221993,1,0,0:0:0:50:Tom3.wav
64,192,222156,1,2,0:0:0:0:
320,192,222319,1,8,0:0:0:0:
448,192,222319,1,0,0:0:0:50:Tom3.wav
192,192,222483,1,0,0:0:0:50:Tom1.wav
320,192,222646,1,2,0:0:0:0:
320,192,222809,1,2,0:0:0:0:
64,192,222972,1,8,0:0:0:0:
192,192,222972,1,0,0:0:0:50:Tom3.wav
448,192,223135,1,0,0:0:0:50:Tom3.wav
192,192,223298,1,2,0:0:0:0:
192,192,223461,1,2,0:0:0:0:
320,192,223624,1,8,0:0:0:0:
448,192,223624,128,0,223787:0:0:0:50:Tom3.wav
192,192,223787,128,0,223950:0:0:0:50:Tom3.wav
320,192,223950,128,2,224276:0:0:0:0:
192,192,224113,1,2,0:0:0:0:
64,192,224276,128,8,224602:0:0:0:0:
448,192,224276,1,0,0:0:0:50:Tom3.wav
192,192,224439,1,0,0:0:0:50:Tom3.wav
320,192,224602,1,4,0:0:0:0:
448,192,224602,1,2,0:0:0:0:
320,192,224765,1,2,0:0:0:0:
64,192,224928,1,8,0:0:0:0:
192,192,224928,1,0,0:0:0:50:Tom3.wav
448,192,225091,1,0,0:0:0:50:Tom3.wav
192,192,225254,1,2,0:0:0:0:
192,192,225417,1,2,0:0:0:0:
320,192,225580,1,8,0:0:0:0:
448,192,225580,1,0,0:0:0:50:Tom3.wav
64,192,225743,1,0,0:0:0:50:Tom3.wav
320,192,225906,1,2,0:0:0:0:
320,192,226069,1,2,0:0:0:0:
64,192,226233,128,8,226396:0:0:0:0:
192,192,226233,1,0,0:0:0:50:Tom3.wav
320,192,226396,128,0,226559:0:0:0:50:Tom3.wav
192,192,226559,128,2,226885:0:0:0:0:
448,192,226722,1,2,0:0:0:0:
320,192,226885,1,8,0:0:0:0:
64,192,226885,1,0,0:0:0:0:
192,192,227048,1,8,0:0:0:0:
64,192,227211,1,4,0:0:0:0:
448,192,227211,128,2,227700:0:0:0:0:
192,192,227700,1,2,0:0:0:0:
192,192,227863,128,8,228189:0:0:0:0:
320,192,227863,1,0,0:0:0:40:Hat Open.wav
448,192,228189,1,8,0:0:0:0:
64,192,228352,128,2,228678:0:0:0:0:
448,192,228678,128,2,228841:0:0:0:0:
320,192,228841,128,2,229004:0:0:0:0:
192,192,229004,128,0,229167:0:0:0:0:
64,192,229167,1,8,0:0:0:0:
448,192,229167,1,0,0:0:0:40:Hat Open.wav
448,192,229330,1,0,0:0:0:50:Tom1.wav
192,192,229493,1,0,0:0:0:50:Tom2.wav
192,192,229656,1,0,0:0:0:50:Tom3.wav
64,192,229819,1,8,0:0:0:0:
448,192,229819,128,0,230309:0:0:0:40:Short Finish.wav
64,192,230309,128,8,230798:0:0:0:0:
320,192,230309,1,0,0:0:0:40:Short Finish.wav
320,192,230798,128,8,231124:0:0:0:0:
448,192,230798,1,0,0:0:0:40:Short Finish.wav
64,192,231124,1,8,0:0:0:0:
192,192,231124,128,0,231450:0:0:0:40:Short Finish.wav
448,192,231450,1,0,0:0:0:0:
320,192,231613,1,0,0:0:0:0:
64,192,231776,128,0,231939:0:0:0:0:
192,192,231939,128,0,232102:0:0:0:0:
320,192,232102,128,0,232265:0:0:0:0:
448,192,232265,128,0,232428:0:0:0:0:
64,192,232428,128,8,232917:0:0:0:0:
192,192,232428,1,0,0:0:0:0:
320,192,232917,1,8,0:0:0:0:
448,192,232917,128,0,233406:0:0:0:0:
64,192,233406,1,8,0:0:0:0:
192,192,233406,128,0,233733:0:0:0:0:
320,192,233733,128,8,234059:0:0:0:0:
448,192,233733,1,0,0:0:0:0:
64,192,234059,1,2,0:0:0:0:
448,192,234059,1,0,0:0:0:0:
192,192,234222,1,0,0:0:0:50:Tom1.wav
320,192,234222,1,0,0:0:0:0:
64,192,234385,1,8,0:0:0:0:
192,192,234466,1,0,0:0:0:50:Tom1.wav
320,192,234548,1,0,0:0:0:50:Tom2.wav
448,192,234711,1,0,0:0:0:50:Tom3.wav
320,192,234792,1,0,0:0:0:50:Tom2.wav
192,192,234874,1,0,0:0:0:50:Tom3.wav
64,192,235037,128,4,235363:0:0:0:0:
448,192,235037,1,2,0:0:0:0:
192,192,235363,1,8,0:0:0:0:
320,192,235363,1,0,0:0:0:40:Hat Open.wav
192,192,235689,128,2,236015:0:0:0:0:
448,192,235852,1,2,0:0:0:0:
64,192,236015,1,8,0:0:0:0:
320,192,236015,1,0,0:0:0:40:Hat Open.wav
320,192,236341,128,2,236667:0:0:0:0:
192,192,236667,1,8,0:0:0:0:
448,192,236667,1,0,0:0:0:40:Hat Open.wav
448,192,236993,128,2,237319:0:0:0:0:
64,192,237156,1,2,0:0:0:0:
192,192,237319,1,8,0:0:0:0:
320,192,237319,1,0,0:0:0:40:Hat Open.wav
64,192,237646,128,2,238298:0:0:0:0:
192,192,237972,1,8,0:0:0:0:
448,192,238298,128,2,238624:0:0:0:0:
320,192,238461,1,2,0:0:0:0:
64,192,238624,1,8,0:0:0:0:
192,192,238624,1,0,0:0:0:40:Hat Open.wav
192,192,238787,128,2,239113:0:0:0:0:
64,192,239113,1,2,0:0:0:0:
320,192,239276,1,8,0:0:0:0:
448,192,239276,1,0,0:0:0:40:Hat Open.wav
64,192,239439,1,0,0:0:0:0:
64,192,239602,128,2,239928:0:0:0:0:
448,192,239765,1,2,0:0:0:0:
192,192,239928,1,8,0:0:0:0:
320,192,239928,1,0,0:0:0:40:Hat Open.wav
320,192,240091,128,2,240417:0:0:0:0:
192,192,240417,1,2,0:0:0:0:
64,192,240580,1,8,0:0:0:0:
448,192,240580,1,0,0:0:0:40:Hat Open.wav
320,192,240743,1,0,0:0:0:0:
192,192,240906,1,2,0:0:0:0:
448,192,241069,1,2,0:0:0:0:
64,192,241233,1,8,0:0:0:0:
320,192,241233,1,0,0:0:0:40:Hat Open.wav
192,192,241396,1,0,0:0:0:0:
320,192,241559,1,2,0:0:0:0:
448,192,241559,128,0,241885:0:0:0:40:Hat Open.wav
192,192,241885,1,8,0:0:0:0:
64,192,242048,128,2,242374:0:0:0:0:
320,192,242048,1,0,0:0:0:0:
192,192,242374,1,2,0:0:0:0:
320,192,242537,1,8,0:0:0:0:
448,192,242537,1,0,0:0:0:40:Hat Open.wav
192,192,242700,1,0,0:0:0:0:
192,192,242863,128,2,243189:0:0:0:0:
64,192,243189,1,8,0:0:0:0:
448,192,243189,1,0,0:0:0:40:Hat Open.wav
320,192,243352,128,2,243515:0:0:0:0:
64,192,243515,1,0,0:0:0:0:
192,192,243678,128,2,243841:0:0:0:0:
320,192,243841,1,8,0:0:0:0:
448,192,243841,1,0,0:0:0:0:
64,192,244004,128,2,244330:0:0:0:0:
192,192,244004,1,0,0:0:0:0:
320,192,244330,1,2,0:0:0:0:
448,192,244330,1,0,0:0:0:0:
64,192,244493,1,8,0:0:0:0:
192,192,244493,1,0,0:0:0:40:Hat Open.wav
448,192,244656,1,8,0:0:0:0:
320,192,244738,1,8,0:0:0:0:
192,192,244819,1,2,0:0:0:0:
64,192,244983,1,10,0:0:0:0:
192,192,245064,1,0,0:0:0:0:
320,192,245146,1,8,0:0:0:0:
192,192,245309,1,0,0:0:0:50:Tom2.wav
320,192,245390,1,0,0:0:0:50:Tom1.wav
64,192,245472,1,4,0:0:0:0:
448,192,245472,128,2,245798:0:0:0:0:
192,192,245798,1,8,0:0:0:0:
320,192,245798,1,0,0:0:0:40:Hat Open.wav
320,192,246124,128,2,246450:0:0:0:0:
64,192,246287,1,2,0:0:0:0:
192,192,246450,1,8,0:0:0:0:
448,192,246450,1,0,0:0:0:40:Hat Open.wav
192,192,246776,128,2,247102:0:0:0:0:
64,192,247102,1,8,0:0:0:0:
320,192,247102,1,0,0:0:0:40:Hat Open.wav
64,192,247428,128,2,247754:0:0:0:0:
448,192,247591,1,2,0:0:0:0:
192,192,247754,1,8,0:0:0:0:
320,192,247754,1,0,0:0:0:40:Hat Open.wav
448,192,248080,128,2,248733:0:0:0:0:
192,192,248406,1,8,0:0:0:0:
64,192,248733,1,2,0:0:0:0:
192,192,248896,128,2,249059:0:0:0:0:
320,192,249059,1,8,0:0:0:0:
448,192,249059,1,0,0:0:0:40:Hat Open.wav
64,192,249222,128,6,249711:0:0:0:0:
320,192,249548,1,2,0:0:0:0:
192,192,249711,1,8,0:0:0:0:
448,192,249711,1,0,0:0:0:40:Hat Open.wav
320,192,250037,1,2,0:0:0:0:
64,192,250200,128,2,250363:0:0:0:0:
192,192,250363,1,8,0:0:0:0:
448,192,250363,128,0,250526:0:0:0:40:Hat Open.wav
64,192,250526,1,2,0:0:0:0:
320,192,250526,128,0,250852:0:0:0:0:
192,192,250852,1,2,0:0:0:0:
320,192,251015,1,8,0:0:0:0:
448,192,251015,1,0,0:0:0:40:Hat Open.wav
64,192,251178,1,0,0:0:0:0:
64,192,251341,128,2,251667:0:0:0:0:
320,192,251504,1,2,0:0:0:0:
192,192,251667,1,8,0:0:0:0:
448,192,251667,1,0,0:0:0:40:Hat Open.wav
320,192,251830,128,2,252156:0:0:0:0:
64,192,252156,128,2,252319:0:0:0:0:
320,192,252319,1,8,0:0:0:0:
448,192,252319,128,0,252483:0:0:0:40:Hat Open.wav
192,192,252483,128,0,252809:0:0:0:0:
64,192,252646,1,2,0:0:0:0:
448,192,252809,1,2,0:0:0:0:
192,192,252972,1,8,0:0:0:0:
320,192,252972,1,0,0:0:0:40:Hat Open.wav
64,192,253135,128,2,253461:0:0:0:0:
448,192,253135,1,0,0:0:0:0:
192,192,253461,1,2,0:0:0:0:
64,192,253624,1,8,0:0:0:0:
448,192,253624,1,0,0:0:0:40:Hat Open.wav
320,192,253787,1,2,0:0:0:0:
64,192,253950,1,8,0:0:0:0:
448,192,253950,1,0,0:0:0:40:Hat Open.wav
192,192,254113,1,10,0:0:0:0:
320,192,254194,1,8,0:0:0:0:
64,192,254276,1,8,0:0:0:0:
448,192,254276,1,0,0:0:0:0:
192,192,254439,1,8,0:0:0:0:
320,192,254439,1,0,0:0:0:50:Tom3.wav
64,192,254765,1,8,0:0:0:0:
448,192,254765,1,0,0:0:0:50:Tom3.wav
64,192,254928,1,8,0:0:0:0:
448,192,254928,1,0,0:0:0:50:Tom3.wav
192,192,255254,128,0,255743:0:0:0:0:
64,192,255417,128,0,255743:0:0:0:30:Kick.wav
320,192,255743,128,2,256069:0:0:0:0:
448,192,255743,1,0,0:0:0:0:
192,192,256069,1,2,0:0:0:0:
320,192,256233,1,8,0:0:0:0:
448,192,256233,1,0,0:0:0:40:Hat Open.wav
64,192,256396,1,2,0:0:0:0:
320,192,256559,1,8,0:0:0:0:
448,192,256559,1,0,0:0:0:40:Hat Open.wav
192,192,256722,1,2,0:0:0:0:
64,192,256885,1,8,0:0:0:0:
448,192,256885,1,0,0:0:0:40:Hat Open.wav
320,192,257048,1,2,0:0:0:0:
64,192,257211,1,8,0:0:0:0:
192,192,257211,1,0,0:0:0:40:Hat Open.wav
448,192,257374,1,2,0:0:0:0:
192,192,257537,1,8,0:0:0:0:
320,192,257537,1,0,0:0:0:40:Hat Open.wav
64,192,257700,1,2,0:0:0:0:
320,192,257863,1,8,0:0:0:0:
448,192,257863,1,0,0:0:0:40:Hat Open.wav
320,192,258026,1,2,0:0:0:0:
64,192,258189,1,8,0:0:0:0:
192,192,258189,1,0,0:0:0:40:Hat Open.wav
192,192,258352,1,2,0:0:0:0:
320,192,258515,1,8,0:0:0:0:
448,192,258515,1,0,0:0:0:40:Hat Open.wav
64,192,258841,1,8,0:0:0:0:
192,192,258841,1,0,0:0:0:40:Hat Open.wav
448,192,259004,1,2,0:0:0:0:
64,192,259167,1,8,0:0:0:0:
192,192,259167,1,0,0:0:0:40:Hat Open.wav
320,192,259330,1,2,0:0:0:0:
64,192,259493,1,8,0:0:0:0:
448,192,259493,1,0,0:0:0:40:Hat Open.wav
192,192,259656,1,2,0:0:0:0:
320,192,259819,1,8,0:0:0:0:
448,192,259819,1,0,0:0:0:40:Hat Open.wav
64,192,259983,1,2,0:0:0:0:
192,192,260146,1,8,0:0:0:0:
320,192,260146,1,0,0:0:0:40:Hat Open.wav
448,192,260309,1,2,0:0:0:0:
64,192,260472,1,8,0:0:0:0:
192,192,260472,1,0,0:0:0:40:Hat Open.wav
192,192,260635,1,2,0:0:0:0:
320,192,260798,1,8,0:0:0:0:
448,192,260798,1,0,0:0:0:40:Hat Open.wav
320,192,260961,1,2,0:0:0:0:
64,192,261124,1,8,0:0:0:0:
192,192,261124,1,0,0:0:0:40:Hat Open.wav
320,192,261450,1,8,0:0:0:0:
448,192,261450,1,0,0:0:0:40:Hat Open.wav
64,192,261613,1,2,0:0:0:0:
320,192,261776,1,8,0:0:0:0:
448,192,261776,1,0,0:0:0:40:Hat Open.wav
192,192,261939,1,2,0:0:0:0:
64,192,262102,1,8,0:0:0:0:
448,192,262102,1,0,0:0:0:40:Hat Open.wav
320,192,262265,1,2,0:0:0:0:
64,192,262428,1,8,0:0:0:0:
192,192,262428,1,0,0:0:0:40:Hat Open.wav
448,192,262591,1,2,0:0:0:0:
192,192,262754,1,8,0:0:0:0:
320,192,262754,1,0,0:0:0:40:Hat Open.wav
64,192,262917,1,2,0:0:0:0:
320,192,263080,1,8,0:0:0:0:
448,192,263080,1,0,0:0:0:40:Hat Open.wav
320,192,263243,1,2,0:0:0:0:
64,192,263406,1,8,0:0:0:0:
192,192,263406,1,0,0:0:0:40:Hat Open.wav
192,192,263569,1,2,0:0:0:0:
64,192,263733,1,2,0:0:0:0:
448,192,263733,1,0,0:0:0:40:Hat Open.wav
320,192,263896,1,8,0:0:0:0:
192,192,263977,1,8,0:0:0:0:
64,192,264059,1,8,0:0:0:0:
448,192,264059,1,0,0:0:0:0:
320,192,264222,128,2,264385:0:0:0:0:
320,192,264548,128,2,264711:0:0:0:0:
64,192,264711,1,8,0:0:0:0:
448,192,264711,1,0,0:0:0:0:
192,192,264874,128,2,265689:0:0:0:0:
320,192,264874,1,4,0:0:0:0:
