osu file format v14

[General]
AudioFilename: audio.mp3
AudioLeadIn: 0
PreviewTime: 76467
Countdown: 0
SampleSet: Soft
StackLeniency: 0.7
Mode: 3
LetterboxInBreaks: 0
SpecialStyle: 0
WidescreenStoryboard: 1

[Editor]
Bookmarks: 221984
DistanceSpacing: 1.7
BeatDivisor: 4
GridSize: 8
TimelineZoom: 1.3

[Metadata]
Title:Youkoso! Sweet Carnival!
TitleUnicode:ヨーコソ!Sweet Carnival!
Artist:Minato Aqua
ArtistUnicode:湊あくあ
Creator:DenYi
Version:ArtZone's Easy
Source:よこすか海のアニメカーニバル
Tags:ML-ysg SuzumeAyase ArtZone pop jpop j-pop japanese hololive ホロライブ virtual youtuber vtuber バーチャル 横須賀フェステーマソング yokosuka festival theme song 2nd Original Female Vocal Yokoso
BeatmapID:3630263
BeatmapSetID:1773082

[Difficulty]
HPDrainRate:7
CircleSize:4
OverallDifficulty:7
ApproachRate:5
SliderMultiplier:1.4
SliderTickRate:1

[Events]
//Background and Video events
0,0,"20220528_142143.jpg",0,0
//Break Periods
//Storyboard Layer 0 (Background)
//Storyboard Layer 1 (Fail)
//Storyboard Layer 2 (Pass)
//Storyboard Layer 3 (Foreground)
//Storyboard Layer 4 (Overlay)
//Storyboard Sound Samples
Sample,30906,0,"Hat Open.wav",40
Sample,31233,0,"Hat Open.wav",40
Sample,31559,0,"Hat Open.wav",40
Sample,32211,0,"Hat Open.wav",40
Sample,32537,0,"Hat Open.wav",40
Sample,33515,0,"Hat Open.wav",40
Sample,33841,0,"Hat Open.wav",40
Sample,34330,0,"Tom2.wav",50
Sample,34819,0,"Hat Open.wav",40
Sample,34983,0,"Hat Open.wav",40
Sample,35798,0,"Hat Close.wav",40
Sample,36124,0,"Hat Close.wav",40
Sample,36450,0,"Hat Close.wav",40
Sample,36776,0,"Hat Close.wav",40
Sample,37102,0,"Hat Close.wav",40
Sample,37428,0,"Hat Close.wav",40
Sample,38080,0,"Hat Close.wav",40
Sample,38406,0,"Hat Close.wav",40
Sample,38733,0,"Hat Close.wav",40
Sample,39059,0,"Hat Close.wav",40
Sample,39385,0,"Hat Close.wav",40
Sample,39711,0,"Hat Close.wav",40
Sample,40037,0,"Hat Close.wav",40
Sample,41015,0,"Hat Close.wav",40
Sample,41341,0,"Hat Close.wav",40
Sample,41667,0,"Hat Close.wav",40
Sample,41993,0,"Hat Close.wav",40
Sample,42319,0,"Hat Close.wav",40
Sample,42646,0,"Hat Close.wav",40
Sample,46233,0,"Hat Close.wav",40
Sample,46559,0,"Hat Close.wav",40
Sample,47211,0,"Hat Close.wav",40
Sample,47863,0,"Hat Close.wav",40
Sample,48515,0,"Hat Close.wav",40
Sample,49167,0,"Hat Close.wav",40
Sample,49819,0,"Hat Close.wav",40
Sample,50472,0,"Hat Close.wav",40
Sample,51776,0,"Hat Close.wav",40
Sample,52428,0,"Hat Close.wav",40
Sample,53080,0,"Hat Close.wav",40
Sample,54222,0,"Hat Open.wav",40
Sample,54548,0,"Hat Open.wav",40
Sample,66939,0,"Tom3.wav",50
Sample,67102,0,"Tom3.wav",50
Sample,67428,0,"Tom3.wav",50
Sample,67591,0,"Tom3.wav",50
Sample,67754,0,"Tom3.wav",50
Sample,68080,0,"Tom3.wav",50
Sample,68243,0,"Tom3.wav",50
Sample,68406,0,"Tom3.wav",50
Sample,68733,0,"Tom3.wav",50
Sample,68896,0,"Tom3.wav",50
Sample,69059,0,"Tom3.wav",50
Sample,69548,0,"Tom3.wav",50
Sample,69711,0,"Tom3.wav",50
Sample,70037,0,"Tom3.wav",50
Sample,70200,0,"Tom3.wav",50
Sample,70363,0,"Tom3.wav",50
Sample,70689,0,"Tom3.wav",50
Sample,70852,0,"Tom3.wav",50
Sample,71015,0,"Tom3.wav",50
Sample,71341,0,"Tom3.wav",50
Sample,71504,0,"Tom3.wav",50
Sample,72646,0,"Hat Open.wav",40
Sample,73624,0,"Hat Open.wav",40
Sample,73950,0,"Hat Open.wav",40
Sample,77537,0,"Hat Open.wav",40
Sample,77863,0,"Hat Open.wav",40
Sample,78189,0,"Hat Open.wav",40
Sample,78515,0,"Hat Open.wav",40
Sample,78841,0,"Hat Open.wav",40
Sample,79167,0,"Hat Open.wav",40
Sample,79493,0,"Hat Open.wav",40
Sample,79819,0,"Hat Open.wav",40
Sample,80146,0,"Hat Open.wav",40
Sample,80472,0,"Hat Open.wav",40
Sample,80798,0,"Hat Open.wav",40
Sample,81450,0,"Hat Open.wav",40
Sample,81776,0,"Hat Open.wav",40
Sample,82102,0,"Hat Open.wav",40
Sample,82754,0,"Hat Open.wav",40
Sample,83080,0,"Hat Open.wav",40
Sample,83406,0,"Hat Open.wav",40
Sample,84059,0,"Hat Open.wav",40
Sample,85037,0,"Hat Open.wav",40
Sample,85363,0,"Hat Open.wav",40
Sample,85526,0,"Hat Open.wav",40
Sample,85852,0,"Hat Open.wav",40
Sample,87972,0,"Hat Open.wav",40
Sample,88298,0,"Hat Open.wav",40
Sample,88624,0,"Hat Open.wav",40
Sample,88950,0,"Hat Open.wav",40
Sample,89276,0,"Hat Open.wav",40
Sample,89602,0,"Hat Open.wav",40
Sample,89928,0,"Hat Open.wav",40
Sample,90254,0,"Hat Open.wav",40
Sample,90580,0,"Hat Open.wav",40
Sample,90906,0,"Hat Open.wav",40
Sample,91885,0,"Hat Open.wav",40
Sample,92211,0,"Hat Open.wav",40
Sample,92537,0,"Hat Open.wav",40
Sample,93189,0,"Hat Open.wav",40
Sample,93515,0,"Hat Open.wav",40
Sample,93841,0,"Hat Open.wav",40
Sample,94493,0,"Hat Open.wav",40
Sample,94819,0,"Hat Open.wav",40
Sample,95146,0,"Hat Open.wav",40
Sample,95798,0,"Hat Open.wav",40
Sample,96613,0,"Tom3.wav",50
Sample,96939,0,"Tom3.wav",50
Sample,97102,0,"Tom3.wav",50
Sample,99059,0,"Hat Open.wav",40
Sample,99385,0,"Hat Open.wav",40
Sample,99711,0,"Hat Open.wav",40
Sample,100037,0,"Hat Open.wav",40
Sample,100363,0,"Hat Open.wav",40
Sample,100689,0,"Hat Open.wav",40
Sample,101667,0,"Hat Open.wav",40
Sample,101993,0,"Hat Open.wav",40
Sample,102319,0,"Hat Open.wav",40
Sample,102646,0,"Hat Open.wav",40
Sample,102972,0,"Hat Open.wav",40
Sample,104276,0,"Hat Open.wav",40
Sample,104602,0,"Hat Open.wav",40
Sample,104928,0,"Hat Open.wav",40
Sample,105254,0,"Hat Open.wav",40
Sample,105580,0,"Hat Open.wav",40
Sample,108841,0,"Hat Open.wav",40
Sample,109167,0,"Hat Open.wav",40
Sample,109493,0,"Hat Open.wav",40
Sample,110146,0,"Hat Open.wav",40
Sample,110472,0,"Hat Open.wav",40
Sample,110798,0,"Hat Open.wav",40
Sample,111450,0,"Hat Open.wav",40
Sample,111776,0,"Hat Open.wav",40
Sample,112102,0,"Hat Open.wav",40
Sample,112754,0,"Hat Open.wav",40
Sample,113080,0,"Hat Open.wav",40
Sample,113406,0,"Hat Open.wav",40
Sample,114059,0,"Hat Open.wav",40
Sample,114385,0,"Hat Open.wav",40
Sample,114711,0,"Hat Open.wav",40
Sample,115363,0,"Hat Open.wav",40
Sample,115689,0,"Hat Open.wav",40
Sample,116015,0,"Hat Open.wav",40
Sample,116667,0,"Hat Open.wav",40
Sample,116993,0,"Hat Open.wav",40
Sample,117319,0,"Hat Open.wav",40
Sample,117483,0,"Short Finish.wav",40
Sample,117809,0,"Short Finish.wav",40
Sample,118135,0,"Short Finish.wav",40
Sample,118950,0,"Tom3.wav",50
Sample,119113,0,"Tom3.wav",50
Sample,120254,0,"Tom3.wav",50
Sample,120417,0,"Tom3.wav",50
Sample,121559,0,"Tom3.wav",50
Sample,121722,0,"Tom3.wav",50
Sample,124493,0,"Hat Close.wav",40
Sample,124819,0,"Hat Close.wav",40
Sample,124983,0,"Hat Close.wav",40
Sample,125146,0,"Hat Close.wav",40
Sample,125472,0,"Hat Close.wav",40
Sample,125798,0,"Hat Close.wav",40
Sample,126124,0,"Hat Close.wav",40
Sample,126287,0,"Hat Close.wav",40
Sample,126450,0,"Hat Close.wav",40
Sample,129711,0,"Hat Close.wav",40
Sample,130037,0,"Hat Close.wav",40
Sample,130689,0,"Hat Close.wav",40
Sample,131341,0,"Hat Close.wav",40
Sample,131993,0,"Hat Close.wav",40
Sample,132646,0,"Hat Close.wav",40
Sample,133298,0,"Hat Close.wav",40
Sample,133950,0,"Hat Close.wav",40
Sample,134928,0,"Hat Close.wav",40
Sample,135254,0,"Hat Close.wav",40
Sample,135906,0,"Hat Close.wav",40
Sample,136559,0,"Hat Close.wav",40
Sample,137700,0,"Hat Open.wav",40
Sample,138026,0,"Hat Open.wav",40
Sample,158406,0,"Hat Open.wav",40
Sample,158733,0,"Hat Open.wav",40
Sample,159059,0,"Hat Open.wav",40
Sample,159385,0,"Hat Open.wav",40
Sample,159711,0,"Hat Open.wav",40
Sample,160037,0,"Hat Open.wav",40
Sample,160363,0,"Hat Open.wav",40
Sample,160689,0,"Hat Open.wav",40
Sample,161015,0,"Hat Open.wav",40
Sample,161341,0,"Hat Open.wav",40
Sample,161667,0,"Hat Open.wav",40
Sample,162319,0,"Hat Open.wav",40
Sample,162646,0,"Hat Open.wav",40
Sample,162972,0,"Hat Open.wav",40
Sample,163624,0,"Hat Open.wav",40
Sample,163950,0,"Hat Open.wav",40
Sample,164276,0,"Hat Open.wav",40
Sample,165906,0,"Hat Open.wav",40
Sample,166233,0,"Hat Open.wav",40
Sample,166396,0,"Hat Open.wav",40
Sample,166722,0,"Hat Open.wav",40
Sample,168841,0,"Hat Open.wav",40
Sample,169167,0,"Hat Open.wav",40
Sample,169493,0,"Hat Open.wav",40
Sample,169819,0,"Hat Open.wav",40
Sample,170146,0,"Hat Open.wav",40
Sample,170472,0,"Hat Open.wav",40
Sample,170798,0,"Hat Open.wav",40
Sample,171124,0,"Hat Open.wav",40
Sample,171450,0,"Hat Open.wav",40
Sample,171776,0,"Hat Open.wav",40
Sample,172754,0,"Hat Open.wav",40
Sample,173080,0,"Hat Open.wav",40
Sample,173406,0,"Hat Open.wav",40
Sample,174059,0,"Hat Open.wav",40
Sample,174385,0,"Hat Open.wav",40
Sample,174711,0,"Hat Open.wav",40
Sample,175363,0,"Hat Open.wav",40
Sample,176667,0,"Hat Open.wav",40
Sample,177483,0,"Tom3.wav",50
Sample,177809,0,"Tom3.wav",50
Sample,177972,0,"Tom3.wav",50
Sample,200146,0,"Hat Open.wav",40
Sample,200472,0,"Hat Open.wav",40
Sample,200798,0,"Hat Open.wav",40
Sample,201450,0,"Hat Open.wav",40
Sample,201776,0,"Hat Open.wav",40
Sample,202102,0,"Hat Open.wav",40
Sample,202428,0,"Hat Open.wav",40
Sample,202754,0,"Hat Open.wav",40
Sample,203080,0,"Hat Open.wav",40
Sample,203406,0,"Hat Open.wav",40
Sample,204059,0,"Hat Open.wav",40
Sample,204385,0,"Hat Open.wav",40
Sample,204711,0,"Hat Open.wav",40
Sample,205363,0,"Hat Open.wav",40
Sample,206667,0,"Hat Open.wav",40
Sample,206993,0,"Hat Open.wav",40
Sample,207319,0,"Hat Open.wav",40
Sample,207972,0,"Hat Open.wav",40
Sample,208298,0,"Hat Open.wav",40
Sample,208624,0,"Hat Open.wav",40
Sample,209602,0,"Tom2.wav",50
Sample,209765,0,"Tom3.wav",50
Sample,209928,0,"Tom3.wav",50
Sample,210091,0,"Tom3.wav",50
Sample,210091,0,"Short Finish.wav",40
Sample,221993,0,"Tom3.wav",50
Sample,222156,0,"Tom3.wav",50
Sample,222319,0,"Tom3.wav",50
Sample,222646,0,"Tom3.wav",50
Sample,222809,0,"Tom3.wav",50
Sample,222972,0,"Tom3.wav",50
Sample,223298,0,"Tom3.wav",50
Sample,223461,0,"Tom3.wav",50
Sample,223624,0,"Tom3.wav",50
Sample,223950,0,"Tom3.wav",50
Sample,224113,0,"Tom3.wav",50
Sample,224276,0,"Tom3.wav",50
Sample,224765,0,"Tom3.wav",50
Sample,224928,0,"Tom3.wav",50
Sample,225254,0,"Tom3.wav",50
Sample,225417,0,"Tom3.wav",50
Sample,225580,0,"Tom3.wav",50
Sample,225906,0,"Tom3.wav",50
Sample,226069,0,"Tom3.wav",50
Sample,226233,0,"Tom3.wav",50
Sample,226559,0,"Tom3.wav",50
Sample,226722,0,"Tom3.wav",50
Sample,227863,0,"Hat Open.wav",40
Sample,228841,0,"Hat Open.wav",40
Sample,229167,0,"Hat Open.wav",40
Sample,235363,0,"Hat Open.wav",40
Sample,235689,0,"Hat Open.wav",40
Sample,236015,0,"Hat Open.wav",40
Sample,236341,0,"Hat Open.wav",40
Sample,236667,0,"Hat Open.wav",40
Sample,236993,0,"Hat Open.wav",40
Sample,237319,0,"Hat Open.wav",40
Sample,237646,0,"Hat Open.wav",40
Sample,237972,0,"Hat Open.wav",40
Sample,238298,0,"Hat Open.wav",40
Sample,238624,0,"Hat Open.wav",40
Sample,239276,0,"Hat Open.wav",40
Sample,239602,0,"Hat Open.wav",40
Sample,239928,0,"Hat Open.wav",40
Sample,240580,0,"Hat Open.wav",40
Sample,240906,0,"Hat Open.wav",40
Sample,241233,0,"Hat Open.wav",40
Sample,241885,0,"Hat Open.wav",40
Sample,242863,0,"Hat Open.wav",40
Sample,243189,0,"Hat Open.wav",40
Sample,243352,0,"Hat Open.wav",40
Sample,243678,0,"Hat Open.wav",40
Sample,244493,0,"Hat Open.wav",40
Sample,245798,0,"Hat Open.wav",40
Sample,246124,0,"Hat Open.wav",40
Sample,246450,0,"Hat Open.wav",40
Sample,246776,0,"Hat Open.wav",40
Sample,247102,0,"Hat Open.wav",40
Sample,247428,0,"Hat Open.wav",40
Sample,247754,0,"Hat Open.wav",40
Sample,248080,0,"Hat Open.wav",40
Sample,248406,0,"Hat Open.wav",40
Sample,248733,0,"Hat Open.wav",40
Sample,249711,0,"Hat Open.wav",40
Sample,250037,0,"Hat Open.wav",40
Sample,250363,0,"Hat Open.wav",40
Sample,251015,0,"Hat Open.wav",40
Sample,251341,0,"Hat Open.wav",40
Sample,251667,0,"Hat Open.wav",40
Sample,252319,0,"Hat Open.wav",40
Sample,252646,0,"Hat Open.wav",40
Sample,252972,0,"Hat Open.wav",40
Sample,253624,0,"Hat Open.wav",40
Sample,254439,0,"Tom3.wav",50
Sample,254765,0,"Tom3.wav",50
Sample,254928,0,"Tom3.wav",50
Sample,256885,0,"Hat Open.wav",40
Sample,257211,0,"Hat Open.wav",40
Sample,257537,0,"Hat Open.wav",40
Sample,257863,0,"Hat Open.wav",40
Sample,258189,0,"Hat Open.wav",40
Sample,258515,0,"Hat Open.wav",40
Sample,259493,0,"Hat Open.wav",40
Sample,259819,0,"Hat Open.wav",40
Sample,260146,0,"Hat Open.wav",40
Sample,260472,0,"Hat Open.wav",40
Sample,260798,0,"Hat Open.wav",40
Sample,261124,0,"Hat Open.wav",40
Sample,262102,0,"Hat Open.wav",40
Sample,262428,0,"Hat Open.wav",40
Sample,262754,0,"Hat Open.wav",40
Sample,263080,0,"Hat Open.wav",40
Sample,263406,0,"Hat Open.wav",40

[TimingPoints]
19820,326.086956521739,4,2,1,50,1,0
77211,-100,4,2,1,50,0,1
97754,-100,4,2,1,50,0,0
97917,-100,4,2,1,50,0,1
108515,-100,4,2,1,50,0,0
158080,-100,4,2,1,50,0,1
177972,-100,4,2,1,50,0,0
235037,-100,4,2,1,50,0,1
255580,-100,4,2,1,50,0,0
255743,-100,4,2,1,50,0,1
264874,-100,4,2,1,50,0,0

[HitObjects]
320,192,19167,128,0,19819:0:0:0:0:
64,192,19819,128,0,20472:0:0:0:0:
192,192,20472,128,0,21124:0:0:0:0:
320,192,21124,128,0,21776:0:0:0:0:
448,192,21776,128,0,22428:0:0:0:0:
64,192,22428,128,0,23243:0:0:0:0:
320,192,23243,128,0,23569:0:0:0:0:
192,192,23569,128,0,24874:0:0:0:0:
64,192,24874,1,2,0:0:0:0:
448,192,24874,1,4,0:0:0:0:
320,192,26015,1,6,0:0:0:0:
64,192,26178,1,2,0:0:0:0:
192,192,26178,1,4,0:0:0:0:
192,192,27156,1,0,0:0:0:0:
320,192,27319,1,6,0:0:0:0:
64,192,27483,1,4,0:0:0:0:
448,192,27483,1,2,0:0:0:0:
192,192,27972,128,0,28298:0:0:0:0:
320,192,28298,128,0,28624:0:0:0:0:
448,192,28624,1,6,0:0:0:0:
64,192,28787,1,4,0:0:0:0:
192,192,28787,1,2,0:0:0:0:
448,192,29113,1,0,0:0:0:0:
320,192,29276,1,0,0:0:0:0:
192,192,29439,1,0,0:0:0:0:
64,192,29602,128,8,29928:0:0:0:0:
320,192,29928,128,8,30254:0:0:0:0:
64,192,30254,1,4,0:0:0:0:
448,192,30254,1,2,0:0:0:0:
320,192,30580,1,8,0:0:0:0:
448,192,30580,1,0,0:0:0:40:Hat Open.wav
64,192,30906,1,2,0:0:0:0:
192,192,31069,1,2,0:0:0:0:
320,192,31233,1,8,0:0:0:0:
448,192,31559,1,2,0:0:0:0:
64,192,31885,1,8,0:0:0:0:
192,192,31885,1,0,0:0:0:40:Hat Open.wav
448,192,32211,1,2,0:0:0:0:
320,192,32374,1,2,0:0:0:0:
192,192,32537,1,8,0:0:0:0:
64,192,32863,1,4,0:0:0:0:
448,192,32863,1,2,0:0:0:0:
192,192,33189,1,8,0:0:0:0:
320,192,33189,1,0,0:0:0:40:Hat Open.wav
64,192,33515,1,2,0:0:0:0:
448,192,33678,1,2,0:0:0:0:
320,192,33841,1,8,0:0:0:0:
192,192,34004,1,2,0:0:0:0:
192,192,34330,1,2,0:0:0:0:
192,192,34656,1,0,0:0:0:50:Tom3.wav
448,192,34819,1,2,0:0:0:0:
320,192,34983,1,2,0:0:0:0:
64,192,35146,128,8,35472:0:0:0:0:
192,192,35146,1,0,0:0:0:0:
320,192,35472,1,4,0:0:0:0:
448,192,35472,1,2,0:0:0:0:
192,192,35798,1,2,0:0:0:0:
64,192,36124,1,2,0:0:0:0:
448,192,36450,1,2,0:0:0:0:
192,192,36776,1,2,0:0:0:0:
320,192,37102,1,2,0:0:0:0:
448,192,37428,1,2,0:0:0:0:
64,192,37754,1,2,0:0:0:0:
192,192,37754,1,8,0:0:0:0:
320,192,38080,1,2,0:0:0:0:
192,192,38406,1,2,0:0:0:0:
448,192,38733,1,2,0:0:0:0:
320,192,39059,1,2,0:0:0:0:
64,192,39385,1,2,0:0:0:0:
192,192,39711,1,2,0:0:0:0:
320,192,40037,1,2,0:0:0:0:
64,192,40363,1,2,0:0:0:0:
448,192,40363,1,8,0:0:0:0:
64,192,40689,1,4,0:0:0:0:
192,192,40689,1,2,0:0:0:0:
320,192,41015,1,2,0:0:0:0:
64,192,41341,1,2,0:0:0:0:
192,192,41667,1,2,0:0:0:0:
448,192,41993,1,2,0:0:0:0:
320,192,42319,1,2,0:0:0:0:
192,192,42646,1,2,0:0:0:0:
64,192,42972,1,2,0:0:0:0:
448,192,42972,1,8,0:0:0:0:
320,192,43298,1,2,0:0:0:0:
64,192,43461,1,2,0:0:0:0:
320,192,43624,1,8,0:0:0:0:
448,192,43624,1,4,0:0:0:0:
192,192,43950,1,2,0:0:0:0:
448,192,44113,1,2,0:0:0:0:
64,192,44276,1,8,0:0:0:0:
192,192,44276,1,4,0:0:0:0:
448,192,44602,1,12,0:0:0:0:
320,192,44765,1,2,0:0:0:0:
192,192,44928,1,8,0:0:0:0:
64,192,45091,1,6,0:0:0:0:
448,192,45091,1,0,0:0:0:0:
320,192,45417,1,8,0:0:0:0:
192,192,45580,128,0,45906:0:0:0:0:
64,192,45906,1,4,0:0:0:0:
448,192,45906,1,2,0:0:0:0:
320,192,46233,1,10,0:0:0:0:
192,192,46559,1,2,0:0:0:0:
64,192,46885,1,2,0:0:0:0:
448,192,46885,1,8,0:0:0:0:
192,192,47211,1,2,0:0:0:0:
320,192,47537,1,10,0:0:0:0:
64,192,47863,1,2,0:0:0:0:
192,192,48189,1,2,0:0:0:0:
448,192,48189,1,8,0:0:0:0:
320,192,48515,1,2,0:0:0:0:
192,192,48841,1,10,0:0:0:0:
64,192,49167,1,2,0:0:0:0:
320,192,49493,1,2,0:0:0:0:
448,192,49493,1,8,0:0:0:0:
192,192,49819,1,2,0:0:0:0:
320,192,50146,1,10,0:0:0:0:
448,192,50472,1,2,0:0:0:0:
64,192,50798,1,2,0:0:0:0:
192,192,50798,1,8,0:0:0:0:
320,192,51124,1,2,0:0:0:0:
448,192,51124,1,4,0:0:0:0:
192,192,51450,1,10,0:0:0:0:
64,192,51776,1,2,0:0:0:0:
320,192,52102,1,2,0:0:0:0:
448,192,52102,1,8,0:0:0:0:
192,192,52428,1,2,0:0:0:0:
448,192,52754,1,10,0:0:0:0:
320,192,53080,1,2,0:0:0:0:
64,192,53406,1,2,0:0:0:0:
192,192,53406,1,8,0:0:0:0:
320,192,53733,1,2,0:0:0:0:
448,192,53733,128,4,54059:0:0:0:0:
64,192,54059,1,10,0:0:0:0:
192,192,54222,1,2,0:0:0:0:
320,192,54548,1,2,0:0:0:0:
64,192,54874,128,2,55363:0:0:0:0:
448,192,54874,1,4,0:0:0:0:
192,192,55363,1,10,0:0:0:0:
448,192,55689,128,10,56015:0:0:0:0:
64,192,56015,128,0,56341:0:0:0:50:Tom3.wav
320,192,56341,1,0,0:0:0:50:Kick.wav
64,192,56993,1,0,0:0:0:40:Clap.wav
192,192,56993,1,0,0:0:0:0:
448,192,57483,1,0,0:0:0:50:Kick.wav
320,192,57646,1,0,0:0:0:50:Kick.wav
320,192,57972,1,0,0:0:0:50:Kick.wav
64,192,58298,1,0,0:0:0:50:Snare.wav
448,192,58298,1,0,0:0:0:40:Clap.wav
192,192,58950,1,0,0:0:0:50:Kick.wav
320,192,59602,1,0,0:0:0:40:Clap.wav
448,192,59602,1,0,0:0:0:0:
64,192,60091,1,0,0:0:0:50:Kick.wav
192,192,60254,1,0,0:0:0:50:Kick.wav
192,192,60580,1,0,0:0:0:50:Snare.wav
64,192,60906,1,0,0:0:0:50:Clap.wav
448,192,60906,1,0,0:0:0:0:
320,192,61233,1,0,0:0:0:0:
192,192,61396,1,0,0:0:0:50:Kick.wav
320,192,61559,1,0,0:0:0:50:Kick.wav
64,192,62211,1,0,0:0:0:40:Clap.wav
448,192,62211,1,0,0:0:0:0:
320,192,62700,1,0,0:0:0:50:Kick.wav
192,192,62863,1,0,0:0:0:50:Kick.wav
192,192,63189,1,0,0:0:0:50:Kick.wav
64,192,63515,128,0,64167:0:0:0:50:Snare.wav
448,192,63515,1,0,0:0:0:40:Clap.wav
320,192,64167,1,2,0:0:0:0:
448,192,64167,1,0,0:0:0:40:Short Finish.wav
64,192,64656,1,2,0:0:0:0:
192,192,64656,1,0,0:0:0:40:Short Finish.wav
320,192,65146,128,2,65798:0:0:0:0:
448,192,65146,1,0,0:0:0:40:Short Finish.wav
192,192,65798,128,10,66124:0:0:0:0:
64,192,66124,128,10,66450:0:0:0:0:
448,192,66450,128,10,66776:0:0:0:0:
320,192,66776,1,6,0:0:0:0:
192,192,66939,1,2,0:0:0:0:
64,192,67102,1,8,0:0:0:0:
448,192,67428,1,2,0:0:0:0:
192,192,67591,1,2,0:0:0:0:
320,192,67754,1,8,0:0:0:0:
64,192,68080,1,2,0:0:0:0:
320,192,68243,1,2,0:0:0:0:
448,192,68406,1,8,0:0:0:0:
192,192,68733,1,2,0:0:0:0:
64,192,68896,1,2,0:0:0:0:
320,192,69059,1,8,0:0:0:0:
64,192,69385,1,2,0:0:0:0:
192,192,69385,1,4,0:0:0:0:
320,192,69548,1,2,0:0:0:0:
448,192,69711,1,8,0:0:0:0:
64,192,70037,1,2,0:0:0:0:
320,192,70200,1,2,0:0:0:0:
192,192,70363,1,8,0:0:0:0:
448,192,70689,1,2,0:0:0:0:
192,192,70852,1,2,0:0:0:0:
64,192,71015,1,8,0:0:0:0:
320,192,71341,1,2,0:0:0:0:
448,192,71504,1,2,0:0:0:0:
192,192,71667,128,8,71993:0:0:0:0:
64,192,71993,1,4,0:0:0:0:
448,192,71993,1,2,0:0:0:0:
320,192,72483,1,2,0:0:0:0:
192,192,72646,1,8,0:0:0:0:
448,192,73135,1,2,0:0:0:0:
64,192,73461,1,2,0:0:0:0:
320,192,73624,1,2,0:0:0:0:
192,192,73950,1,8,0:0:0:0:
192,192,74276,1,0,0:0:0:50:Tom2.wav
64,192,74602,1,8,0:0:0:0:
448,192,74602,1,4,0:0:0:0:
192,192,74928,1,2,0:0:0:0:
320,192,75091,1,8,0:0:0:0:
448,192,75091,1,4,0:0:0:0:
320,192,75417,1,2,0:0:0:0:
64,192,75580,1,4,0:0:0:0:
192,192,75580,1,8,0:0:0:0:
64,192,75906,1,8,0:0:0:0:
448,192,75906,1,4,0:0:0:0:
320,192,76559,128,8,76885:0:0:0:0:
192,192,76885,128,8,77211:0:0:0:0:
64,192,77211,1,4,0:0:0:0:
448,192,77211,128,2,77537:0:0:0:0:
192,192,77537,1,8,0:0:0:0:
448,192,77863,1,2,0:0:0:0:
320,192,78026,1,2,0:0:0:0:
64,192,78189,1,8,0:0:0:0:
192,192,78515,128,2,78841:0:0:0:0:
320,192,78841,1,8,0:0:0:0:
64,192,79167,1,2,0:0:0:0:
192,192,79330,1,2,0:0:0:0:
448,192,79493,1,8,0:0:0:0:
320,192,79819,128,2,80472:0:0:0:0:
64,192,80146,1,8,0:0:0:0:
448,192,80472,128,2,80798:0:0:0:0:
192,192,80798,1,8,0:0:0:0:
64,192,80961,128,2,81287:0:0:0:0:
320,192,81287,1,2,0:0:0:0:
448,192,81450,1,8,0:0:0:0:
64,192,81776,1,2,0:0:0:0:
192,192,81939,1,2,0:0:0:0:
320,192,82102,1,8,0:0:0:0:
448,192,82265,128,6,82591:0:0:0:0:
64,192,82591,1,2,0:0:0:0:
320,192,82754,1,8,0:0:0:0:
192,192,83080,1,2,0:0:0:0:
448,192,83243,1,2,0:0:0:0:
64,192,83406,1,8,0:0:0:0:
320,192,83733,1,2,0:0:0:0:
448,192,83733,1,0,0:0:0:40:Hat Open.wav
320,192,84059,1,8,0:0:0:0:
64,192,84222,1,2,0:0:0:0:
192,192,84222,1,0,0:0:0:0:
192,192,84548,1,2,0:0:0:0:
64,192,84711,1,8,0:0:0:0:
448,192,84711,1,0,0:0:0:40:Hat Open.wav
320,192,85037,1,2,0:0:0:0:
64,192,85363,1,8,0:0:0:0:
448,192,85526,1,2,0:0:0:0:
192,192,85852,1,2,0:0:0:0:
320,192,86015,1,8,0:0:0:0:
64,192,86178,128,2,86667:0:0:0:0:
448,192,86178,1,4,0:0:0:0:
320,192,86667,1,8,0:0:0:0:
448,192,86667,1,0,0:0:0:40:Hat Open.wav
192,192,86993,1,2,0:0:0:0:
320,192,87319,1,8,0:0:0:0:
448,192,87646,128,4,87972:0:0:0:0:
64,192,87646,1,2,0:0:0:0:
192,192,87972,1,8,0:0:0:0:
320,192,88298,1,2,0:0:0:0:
64,192,88461,1,2,0:0:0:0:
448,192,88624,1,8,0:0:0:0:
320,192,88950,128,2,89276:0:0:0:0:
192,192,89276,1,8,0:0:0:0:
320,192,89602,1,2,0:0:0:0:
448,192,89765,1,2,0:0:0:0:
64,192,89928,1,8,0:0:0:0:
192,192,90254,128,2,90906:0:0:0:0:
448,192,90580,1,8,0:0:0:0:
320,192,90906,1,2,0:0:0:0:
64,192,91069,128,2,91396:0:0:0:0:
448,192,91396,128,6,91722:0:0:0:0:
192,192,91722,1,2,0:0:0:0:
64,192,91885,1,8,0:0:0:0:
448,192,92211,1,2,0:0:0:0:
320,192,92374,1,2,0:0:0:0:
192,192,92537,1,8,0:0:0:0:
64,192,92700,128,6,93026:0:0:0:0:
320,192,93026,1,2,0:0:0:0:
448,192,93189,1,8,0:0:0:0:
64,192,93515,1,2,0:0:0:0:
448,192,93678,1,2,0:0:0:0:
320,192,93841,1,8,0:0:0:0:
192,192,94004,128,2,94330:0:0:0:0:
448,192,94330,1,2,0:0:0:0:
64,192,94493,1,8,0:0:0:0:
320,192,94656,128,0,94983:0:0:0:0:
192,192,94983,1,2,0:0:0:0:
320,192,95146,1,8,0:0:0:0:
64,192,95309,1,2,0:0:0:0:
448,192,95309,1,4,0:0:0:0:
192,192,95635,1,2,0:0:0:0:
320,192,95798,1,8,0:0:0:0:
192,192,95961,1,2,0:0:0:0:
64,192,96124,1,8,0:0:0:0:
448,192,96124,128,0,96613:0:0:0:40:Hat Open.wav
320,192,96613,1,8,0:0:0:0:
64,192,96939,1,8,0:0:0:0:
448,192,97102,1,8,0:0:0:0:
192,192,97428,128,0,97917:0:0:0:0:
64,192,97917,128,2,98406:0:0:0:0:
320,192,97917,1,4,0:0:0:0:
320,192,98406,1,8,0:0:0:0:
448,192,98406,1,0,0:0:0:40:Hat Open.wav
64,192,98733,1,8,0:0:0:0:
192,192,98733,1,0,0:0:0:40:Hat Open.wav
448,192,99059,1,8,0:0:0:0:
320,192,99385,1,8,0:0:0:0:
64,192,99711,1,8,0:0:0:0:
192,192,100037,1,8,0:0:0:0:
320,192,100363,1,8,0:0:0:0:
448,192,100689,1,8,0:0:0:0:
64,192,101015,1,8,0:0:0:0:
192,192,101015,1,0,0:0:0:40:Hat Open.wav
320,192,101341,1,8,0:0:0:0:
448,192,101341,1,0,0:0:0:40:Hat Open.wav
64,192,101667,1,8,0:0:0:0:
192,192,101993,1,8,0:0:0:0:
448,192,102319,1,8,0:0:0:0:
320,192,102646,1,8,0:0:0:0:
192,192,102972,1,8,0:0:0:0:
64,192,103298,1,12,0:0:0:0:
320,192,103624,1,8,0:0:0:0:
448,192,103624,1,0,0:0:0:40:Hat Open.wav
64,192,103950,1,8,0:0:0:0:
192,192,103950,1,0,0:0:0:40:Hat Open.wav
320,192,104276,1,8,0:0:0:0:
448,192,104602,1,8,0:0:0:0:
192,192,104928,1,8,0:0:0:0:
64,192,105254,1,8,0:0:0:0:
320,192,105580,1,8,0:0:0:0:
64,192,105906,1,2,0:0:0:0:
448,192,105906,1,4,0:0:0:0:
192,192,106069,1,8,0:0:0:0:
320,192,106233,1,8,0:0:0:0:
64,192,106396,1,2,0:0:0:0:
192,192,106396,1,0,0:0:0:40:Hat Open.wav
320,192,106722,1,2,0:0:0:0:
448,192,106722,1,0,0:0:0:40:Hat Open.wav
64,192,107048,128,4,107863:0:0:0:0:
448,192,107048,1,2,0:0:0:0:
320,192,107863,128,10,108189:0:0:0:0:
192,192,108189,128,10,108515:0:0:0:0:
64,192,108515,1,4,0:0:0:0:
448,192,108515,1,2,0:0:0:0:
320,192,108841,1,8,0:0:0:0:
448,192,109167,1,2,0:0:0:0:
64,192,109330,1,2,0:0:0:0:
192,192,109493,1,8,0:0:0:0:
320,192,109656,1,2,0:0:0:0:
320,192,109983,1,2,0:0:0:0:
192,192,110146,1,8,0:0:0:0:
448,192,110472,1,2,0:0:0:0:
320,192,110635,1,2,0:0:0:0:
64,192,110798,1,8,0:0:0:0:
320,192,111124,1,2,0:0:0:0:
448,192,111124,1,4,0:0:0:0:
192,192,111450,1,8,0:0:0:0:
64,192,111776,1,2,0:0:0:0:
448,192,111939,1,2,0:0:0:0:
320,192,112102,1,8,0:0:0:0:
192,192,112265,1,2,0:0:0:0:
192,192,112591,1,2,0:0:0:0:
320,192,112754,1,8,0:0:0:0:
64,192,113080,1,2,0:0:0:0:
192,192,113243,1,2,0:0:0:0:
448,192,113406,1,8,0:0:0:0:
64,192,113733,1,4,0:0:0:0:
192,192,113733,1,2,0:0:0:0:
320,192,114059,1,8,0:0:0:0:
448,192,114385,1,2,0:0:0:0:
64,192,114548,1,2,0:0:0:0:
192,192,114711,1,8,0:0:0:0:
320,192,114874,1,2,0:0:0:0:
320,192,115200,1,2,0:0:0:0:
64,192,115363,1,8,0:0:0:0:
192,192,115689,1,2,0:0:0:0:
448,192,115852,1,2,0:0:0:0:
320,192,116015,1,8,0:0:0:0:
64,192,116341,128,4,116667:0:0:0:0:
448,192,116341,1,2,0:0:0:0:
192,192,116667,128,8,116993:0:0:0:0:
320,192,116993,128,2,117319:0:0:0:0:
448,192,117319,1,8,0:0:0:0:
192,192,117483,1,2,0:0:0:0:
192,192,117809,1,2,0:0:0:0:
192,192,118135,1,2,0:0:0:0:
448,192,118298,128,12,118624:0:0:0:0:
320,192,118624,128,0,118950:0:0:0:50:Tom2.wav
64,192,118950,1,2,0:0:0:0:
192,192,119113,1,8,0:0:0:0:
448,192,120254,1,8,0:0:0:0:
320,192,120417,1,8,0:0:0:0:
192,192,120906,128,8,121233:0:0:0:0:
320,192,121233,128,0,121559:0:0:0:50:Tom2.wav
64,192,121559,1,8,0:0:0:0:
448,192,121722,1,8,0:0:0:0:
320,192,122211,1,2,0:0:0:0:
192,192,122374,128,8,122700:0:0:0:0:
64,192,122700,1,4,0:0:0:0:
448,192,122700,1,2,0:0:0:0:
320,192,123026,1,2,0:0:0:0:
192,192,123189,1,8,0:0:0:0:
320,192,123515,1,8,0:0:0:0:
448,192,123515,1,0,0:0:0:40:Short Finish.wav
64,192,123841,1,8,0:0:0:0:
192,192,123841,1,4,0:0:0:0:
64,192,124167,1,4,0:0:0:0:
448,192,124167,1,2,0:0:0:0:
320,192,124493,1,8,0:0:0:0:
192,192,124819,1,2,0:0:0:0:
64,192,124983,1,2,0:0:0:0:
448,192,125146,1,8,0:0:0:0:
320,192,125472,1,2,0:0:0:0:
64,192,125798,1,8,0:0:0:0:
192,192,126124,1,2,0:0:0:0:
448,192,126287,1,2,0:0:0:0:
320,192,126450,1,8,0:0:0:0:
64,192,126776,1,2,0:0:0:0:
64,192,127102,1,8,0:0:0:0:
192,192,127102,1,4,0:0:0:0:
448,192,127428,1,10,0:0:0:0:
192,192,127591,1,10,0:0:0:0:
320,192,127754,1,8,0:0:0:0:
448,192,127754,1,4,0:0:0:0:
64,192,128080,1,12,0:0:0:0:
192,192,128243,1,2,0:0:0:0:
448,192,128406,1,8,0:0:0:0:
320,192,128569,1,6,0:0:0:0:
64,192,128896,1,8,0:0:0:0:
192,192,128896,1,0,0:0:0:0:
64,192,129385,1,4,0:0:0:0:
448,192,129385,1,2,0:0:0:0:
320,192,129711,1,10,0:0:0:0:
192,192,130037,1,2,0:0:0:0:
64,192,130363,1,2,0:0:0:0:
448,192,130363,1,8,0:0:0:0:
320,192,130689,1,2,0:0:0:0:
64,192,131015,1,10,0:0:0:0:
192,192,131341,1,2,0:0:0:0:
320,192,131667,1,2,0:0:0:0:
448,192,131667,1,8,0:0:0:0:
64,192,131993,1,2,0:0:0:0:
448,192,132319,1,10,0:0:0:0:
320,192,132646,1,2,0:0:0:0:
64,192,132972,1,2,0:0:0:0:
192,192,132972,1,8,0:0:0:0:
448,192,133298,1,2,0:0:0:0:
320,192,133624,1,10,0:0:0:0:
64,192,133950,1,2,0:0:0:0:
192,192,134276,1,8,0:0:0:0:
448,192,134276,1,2,0:0:0:0:
192,192,134602,1,2,0:0:0:0:
320,192,134602,1,4,0:0:0:0:
64,192,134928,1,10,0:0:0:0:
448,192,135254,1,2,0:0:0:0:
64,192,135580,1,2,0:0:0:0:
320,192,135580,1,8,0:0:0:0:
192,192,135906,1,2,0:0:0:0:
448,192,136233,1,10,0:0:0:0:
64,192,136559,1,2,0:0:0:0:
192,192,136885,1,2,0:0:0:0:
320,192,136885,1,8,0:0:0:0:
64,192,137211,128,2,137700:0:0:0:0:
448,192,137211,1,4,0:0:0:0:
320,192,137700,1,2,0:0:0:0:
192,192,138026,1,2,0:0:0:0:
64,192,138352,1,4,0:0:0:0:
448,192,138352,128,2,138841:0:0:0:0:
320,192,138841,128,10,139167:0:0:0:0:
64,192,139167,128,10,139493:0:0:0:0:
448,192,139493,128,0,139819:0:0:0:50:Tom1.wav
192,192,139819,1,0,0:0:0:50:Kick.wav
64,192,140472,1,0,0:0:0:40:Clap.wav
320,192,140472,1,0,0:0:0:0:
448,192,140961,1,0,0:0:0:50:Kick.wav
192,192,141124,1,0,0:0:0:50:Kick.wav
192,192,141450,1,0,0:0:0:50:Kick.wav
64,192,141776,1,0,0:0:0:50:Snare.wav
448,192,141776,1,0,0:0:0:40:Clap.wav
320,192,142428,1,0,0:0:0:50:Kick.wav
192,192,143080,1,0,0:0:0:40:Clap.wav
448,192,143080,1,0,0:0:0:0:
64,192,143569,1,0,0:0:0:50:Kick.wav
320,192,143733,1,0,0:0:0:50:Kick.wav
320,192,144059,1,0,0:0:0:50:Snare.wav
64,192,144385,1,0,0:0:0:40:Clap.wav
448,192,144385,1,0,0:0:0:0:
192,192,144711,1,0,0:0:0:0:
320,192,144874,1,0,0:0:0:50:Kick.wav
192,192,145037,1,0,0:0:0:50:Kick.wav
64,192,145689,1,0,0:0:0:40:Clap.wav
320,192,145689,1,0,0:0:0:0:
192,192,146178,1,0,0:0:0:50:Kick.wav
320,192,146341,1,0,0:0:0:50:Kick.wav
320,192,146667,1,0,0:0:0:50:Kick.wav
64,192,146993,1,0,0:0:0:50:Snare.wav
448,192,146993,1,0,0:0:0:40:Clap.wav
192,192,147319,1,0,0:0:0:0:
320,192,147646,1,2,0:0:0:0:
448,192,147646,1,4,0:0:0:0:
64,192,148135,1,2,0:0:0:0:
192,192,148135,1,4,0:0:0:0:
64,192,148624,128,4,149276:0:0:0:0:
448,192,148624,1,2,0:0:0:0:
320,192,149276,128,10,149602:0:0:0:0:
192,192,149602,128,10,149928:0:0:0:0:
448,192,149928,128,10,150254:0:0:0:0:
64,192,150254,1,8,0:0:0:0:
192,192,150254,1,4,0:0:0:0:
64,192,150580,1,8,0:0:0:0:
320,192,150580,1,0,0:0:0:40:Hat Open.wav
192,192,150906,1,8,0:0:0:0:
448,192,150906,1,0,0:0:0:40:Hat Open.wav
320,192,151233,1,8,0:0:0:0:
448,192,151233,1,0,0:0:0:40:Hat Open.wav
64,192,151559,1,8,0:0:0:0:
192,192,151559,1,0,0:0:0:40:Hat Open.wav
320,192,151885,1,8,0:0:0:0:
448,192,151885,1,0,0:0:0:40:Hat Open.wav
64,192,152211,1,8,0:0:0:0:
192,192,152211,1,0,0:0:0:40:Hat Open.wav
320,192,152537,1,8,0:0:0:0:
64,192,152700,1,2,0:0:0:0:
448,192,152700,1,4,0:0:0:0:
320,192,153026,1,2,0:0:0:0:
64,192,153189,1,8,0:0:0:0:
192,192,153189,1,0,0:0:0:0:
320,192,153515,1,8,0:0:0:0:
448,192,153515,1,0,0:0:0:0:
64,192,153841,1,0,0:0:0:50:Tom1.wav
192,192,154004,1,0,0:0:0:50:Tom3.wav
320,192,154167,1,8,0:0:0:0:
448,192,154167,128,0,154656:0:0:0:0:
64,192,154656,128,8,155146:0:0:0:0:
192,192,154656,1,0,0:0:0:0:
320,192,155146,1,8,0:0:0:0:
448,192,155146,1,0,0:0:0:0:
64,192,155472,1,8,0:0:0:0:
448,192,155472,1,4,0:0:0:0:
320,192,155798,1,2,0:0:0:0:
64,192,155961,1,8,0:0:0:0:
192,192,155961,1,4,0:0:0:0:
192,192,156287,1,2,0:0:0:0:
320,192,156450,1,4,0:0:0:0:
448,192,156450,1,8,0:0:0:0:
64,192,156776,1,8,0:0:0:0:
448,192,156776,1,4,0:0:0:0:
192,192,157428,1,0,0:0:0:50:Tom1.wav
320,192,157754,1,0,0:0:0:50:Tom3.wav
64,192,158080,1,4,0:0:0:0:
448,192,158080,128,2,158406:0:0:0:0:
192,192,158406,1,8,0:0:0:0:
448,192,158733,1,2,0:0:0:0:
320,192,158896,1,2,0:0:0:0:
192,192,159059,1,8,0:0:0:0:
64,192,159385,128,2,159711:0:0:0:0:
448,192,159711,1,8,0:0:0:0:
64,192,160037,1,2,0:0:0:0:
192,192,160200,1,2,0:0:0:0:
320,192,160363,1,8,0:0:0:0:
448,192,160689,128,2,161341:0:0:0:0:
64,192,161015,1,8,0:0:0:0:
320,192,161341,128,2,161667:0:0:0:0:
192,192,161667,1,8,0:0:0:0:
64,192,161830,128,2,162156:0:0:0:0:
448,192,162156,1,2,0:0:0:0:
320,192,162319,1,8,0:0:0:0:
64,192,162646,1,2,0:0:0:0:
192,192,162809,1,2,0:0:0:0:
320,192,162972,1,8,0:0:0:0:
448,192,163135,128,6,163461:0:0:0:0:
64,192,163461,1,2,0:0:0:0:
192,192,163624,1,8,0:0:0:0:
448,192,163950,1,2,0:0:0:0:
64,192,164113,1,2,0:0:0:0:
320,192,164276,1,8,0:0:0:0:
64,192,164602,1,2,0:0:0:0:
192,192,164602,1,0,0:0:0:40:Hat Open.wav
320,192,165091,1,2,0:0:0:0:
448,192,165091,1,0,0:0:0:0:
64,192,165580,1,8,0:0:0:0:
448,192,165580,1,0,0:0:0:40:Hat Open.wav
320,192,165906,1,2,0:0:0:0:
448,192,166233,1,8,0:0:0:0:
192,192,166396,1,2,0:0:0:0:
320,192,166722,1,2,0:0:0:0:
64,192,166885,1,8,0:0:0:0:
192,192,167048,128,10,167537:0:0:0:0:
448,192,167048,1,4,0:0:0:0:
64,192,167537,1,0,0:0:0:50:Tom2.wav
320,192,167863,1,0,0:0:0:50:Tom1.wav
192,192,168189,1,8,0:0:0:0:
64,192,168515,128,4,168841:0:0:0:0:
448,192,168515,1,2,0:0:0:0:
320,192,168841,1,8,0:0:0:0:
64,192,169167,1,2,0:0:0:0:
192,192,169330,1,2,0:0:0:0:
320,192,169493,1,8,0:0:0:0:
448,192,169819,128,2,170146:0:0:0:0:
64,192,170146,1,8,0:0:0:0:
448,192,170472,1,2,0:0:0:0:
320,192,170635,1,2,0:0:0:0:
192,192,170798,1,8,0:0:0:0:
64,192,171124,128,2,171776:0:0:0:0:
448,192,171450,1,8,0:0:0:0:
192,192,171776,1,2,0:0:0:0:
320,192,171939,128,2,172265:0:0:0:0:
448,192,172265,128,6,172591:0:0:0:0:
192,192,172591,1,2,0:0:0:0:
64,192,172754,1,8,0:0:0:0:
448,192,173080,1,2,0:0:0:0:
320,192,173243,1,2,0:0:0:0:
64,192,173406,1,8,0:0:0:0:
192,192,173569,128,6,173896:0:0:0:0:
320,192,173896,1,2,0:0:0:0:
448,192,174059,1,8,0:0:0:0:
64,192,174385,1,2,0:0:0:0:
320,192,174711,1,8,0:0:0:0:
192,192,174874,128,2,175200:0:0:0:0:
448,192,175200,1,2,0:0:0:0:
64,192,175363,1,8,0:0:0:0:
320,192,175526,128,0,175852:0:0:0:0:
192,192,175852,1,2,0:0:0:0:
320,192,176015,1,8,0:0:0:0:
64,192,176178,1,2,0:0:0:0:
448,192,176178,1,4,0:0:0:0:
192,192,176504,1,2,0:0:0:0:
320,192,176667,1,8,0:0:0:0:
192,192,176830,1,2,0:0:0:0:
64,192,176993,1,8,0:0:0:0:
448,192,176993,128,0,177483:0:0:0:40:Hat Open.wav
320,192,177483,1,8,0:0:0:0:
64,192,177809,1,8,0:0:0:0:
448,192,177972,1,8,0:0:0:0:
192,192,178298,128,0,178624:0:0:0:0:
320,192,178624,128,0,178950:0:0:0:0:
64,192,178950,1,0,0:0:0:0:
448,192,178950,128,0,181069:0:0:0:0:
192,192,181233,128,0,181559:0:0:0:0:
320,192,181559,128,0,183841:0:0:0:0:
64,192,183841,128,0,184167:0:0:0:0:
192,192,184167,1,2,0:0:0:0:
448,192,184167,128,4,184983:0:0:0:0:
320,192,185146,128,0,185472:0:0:0:0:
64,192,185472,1,0,0:0:0:0:
192,192,185798,128,0,186450:0:0:0:0:
320,192,186450,128,0,186776:0:0:0:0:
64,192,186776,128,4,187428:0:0:0:0:
448,192,186776,1,2,0:0:0:0:
192,192,187428,128,0,188080:0:0:0:0:
320,192,188080,128,0,188733:0:0:0:0:
448,192,188733,128,0,189059:0:0:0:0:
192,192,189059,128,0,189385:0:0:0:0:
64,192,189385,128,4,191504:0:0:0:0:
448,192,189385,1,2,0:0:0:0:
320,192,191667,128,0,191993:0:0:0:0:
192,192,191993,128,2,194276:0:0:0:0:
448,192,191993,1,4,0:0:0:0:
64,192,194276,128,0,194602:0:0:0:0:
320,192,194602,1,4,0:0:0:0:
448,192,194602,128,2,195091:0:0:0:0:
192,192,195254,128,0,195580:0:0:0:0:
64,192,195580,128,0,195906:0:0:0:0:
448,192,195906,128,0,196233:0:0:0:0:
320,192,196233,128,0,196559:0:0:0:0:
64,192,196559,128,0,196885:0:0:0:0:
192,192,196885,128,0,197211:0:0:0:0:
64,192,197211,1,4,0:0:0:0:
448,192,197211,128,2,197863:0:0:0:0:
320,192,197863,128,0,198515:0:0:0:0:
192,192,198515,128,0,198841:0:0:0:0:
320,192,199167,1,0,0:0:0:0:
192,192,199412,1,0,0:0:0:0:
320,192,199656,1,0,0:0:0:0:
64,192,199819,1,2,0:0:0:0:
448,192,199819,1,4,0:0:0:0:
192,192,200146,1,8,0:0:0:0:
448,192,200472,1,2,0:0:0:0:
320,192,200798,1,8,0:0:0:0:
64,192,200961,1,2,0:0:0:0:
192,192,201287,1,2,0:0:0:0:
448,192,201450,1,8,0:0:0:0:
64,192,201776,1,2,0:0:0:0:
320,192,201939,1,2,0:0:0:0:
192,192,202102,1,8,0:0:0:0:
448,192,202428,1,2,0:0:0:0:
320,192,202754,1,8,0:0:0:0:
64,192,203080,1,2,0:0:0:0:
192,192,203406,1,8,0:0:0:0:
448,192,203569,1,2,0:0:0:0:
320,192,203896,1,2,0:0:0:0:
64,192,204059,1,8,0:0:0:0:
448,192,204385,1,2,0:0:0:0:
192,192,204548,1,2,0:0:0:0:
320,192,204711,1,8,0:0:0:0:
64,192,205037,1,4,0:0:0:0:
192,192,205037,1,2,0:0:0:0:
448,192,205363,1,8,0:0:0:0:
64,192,205526,1,6,0:0:0:0:
320,192,205852,1,2,0:0:0:0:
192,192,206015,1,12,0:0:0:0:
64,192,206504,1,2,0:0:0:0:
448,192,206667,1,8,0:0:0:0:
320,192,206993,1,2,0:0:0:0:
192,192,207156,1,2,0:0:0:0:
64,192,207319,1,8,0:0:0:0:
320,192,207646,1,4,0:0:0:0:
448,192,207646,1,2,0:0:0:0:
192,192,207972,1,8,0:0:0:0:
64,192,208298,1,2,0:0:0:0:
320,192,208624,1,8,0:0:0:0:
448,192,208787,1,6,0:0:0:0:
64,192,209113,1,2,0:0:0:0:
192,192,209276,1,8,0:0:0:0:
448,192,209602,1,2,0:0:0:0:
320,192,209765,1,2,0:0:0:0:
192,192,209928,1,2,0:0:0:0:
64,192,210091,1,10,0:0:0:0:
448,192,210906,128,0,211233:0:0:0:0:
320,192,211233,128,0,211559:0:0:0:0:
64,192,211559,128,0,212048:0:0:0:0:
448,192,212048,1,0,0:0:0:0:
320,192,212211,128,0,212537:0:0:0:0:
64,192,212537,1,0,0:0:0:0:
192,192,212700,128,0,213841:0:0:0:0:
320,192,214167,1,0,0:0:0:0:
448,192,214167,1,0,0:0:0:0:
64,192,214656,1,0,0:0:0:0:
192,192,214656,1,0,0:0:0:0:
320,192,215146,1,0,0:0:0:0:
448,192,215146,128,0,215798:0:0:0:0:
192,192,216124,128,0,216450:0:0:0:0:
320,192,216450,128,0,216776:0:0:0:0:
64,192,216776,128,0,217265:0:0:0:0:
448,192,217265,1,0,0:0:0:0:
192,192,217428,128,0,217754:0:0:0:0:
320,192,217754,1,0,0:0:0:0:
448,192,217917,128,0,219059:0:0:0:0:
64,192,219385,1,2,0:0:0:0:
192,192,219385,1,0,0:0:0:0:
320,192,219874,1,2,0:0:0:0:
448,192,219874,1,0,0:0:0:0:
64,192,220363,1,2,0:0:0:0:
192,192,220363,128,4,221178:0:0:0:0:
448,192,221178,1,0,0:0:0:50:Tom1.wav
320,192,221341,128,0,221667:0:0:0:50:Tom2.wav
64,192,221667,128,0,221993:0:0:0:50:Tom3.wav
192,192,221993,1,2,0:0:0:0:
320,192,222156,1,2,0:0:0:0:
448,192,222319,1,8,0:0:0:0:
64,192,222646,1,2,0:0:0:0:
320,192,222809,1,2,0:0:0:0:
192,192,222972,1,8,0:0:0:0:
448,192,223298,1,2,0:0:0:0:
192,192,223461,1,2,0:0:0:0:
64,192,223624,1,8,0:0:0:0:
320,192,223950,1,2,0:0:0:0:
448,192,224113,1,2,0:0:0:0:
192,192,224276,1,8,0:0:0:0:
320,192,224602,1,4,0:0:0:0:
448,192,224602,1,2,0:0:0:0:
192,192,224765,1,2,0:0:0:0:
64,192,224928,1,8,0:0:0:0:
448,192,225254,1,2,0:0:0:0:
192,192,225417,1,2,0:0:0:0:
320,192,225580,1,8,0:0:0:0:
64,192,225906,1,2,0:0:0:0:
320,192,226069,1,2,0:0:0:0:
448,192,226233,1,8,0:0:0:0:
192,192,226559,1,2,0:0:0:0:
64,192,226722,1,2,0:0:0:0:
320,192,226885,1,8,0:0:0:0:
64,192,227211,1,4,0:0:0:0:
448,192,227211,1,2,0:0:0:0:
192,192,227700,1,2,0:0:0:0:
320,192,227863,1,8,0:0:0:0:
448,192,228352,1,2,0:0:0:0:
64,192,228678,1,2,0:0:0:0:
192,192,228841,1,2,0:0:0:0:
320,192,229167,1,8,0:0:0:0:
320,192,229493,1,0,0:0:0:50:Tom2.wav
64,192,229819,1,8,0:0:0:0:
192,192,229819,1,0,0:0:0:40:Short Finish.wav
320,192,230309,1,8,0:0:0:0:
448,192,230309,1,0,0:0:0:40:Short Finish.wav
64,192,230798,1,8,0:0:0:0:
192,192,230798,1,0,0:0:0:40:Short Finish.wav
320,192,231124,1,8,0:0:0:0:
448,192,231124,128,0,231450:0:0:0:40:Short Finish.wav
64,192,231450,128,0,231776:0:0:0:0:
320,192,231776,128,0,232102:0:0:0:0:
192,192,232102,128,0,232428:0:0:0:0:
320,192,232428,1,8,0:0:0:0:
448,192,232428,1,0,0:0:0:0:
320,192,232754,1,2,0:0:0:0:
64,192,232917,1,8,0:0:0:0:
192,192,232917,1,0,0:0:0:0:
192,192,233243,1,2,0:0:0:0:
320,192,233406,1,8,0:0:0:0:
448,192,233406,1,0,0:0:0:0:
64,192,233733,128,8,234059:0:0:0:0:
448,192,233733,1,0,0:0:0:0:
320,192,234059,128,2,234385:0:0:0:0:
192,192,234385,128,8,234711:0:0:0:0:
448,192,234711,128,0,235037:0:0:0:50:Tom3.wav
64,192,235037,128,4,235363:0:0:0:0:
192,192,235037,1,2,0:0:0:0:
320,192,235363,1,8,0:0:0:0:
192,192,235689,1,2,0:0:0:0:
64,192,235852,1,2,0:0:0:0:
448,192,236015,1,8,0:0:0:0:
320,192,236341,128,2,236667:0:0:0:0:
192,192,236667,1,8,0:0:0:0:
320,192,236993,1,2,0:0:0:0:
448,192,237156,1,2,0:0:0:0:
64,192,237319,1,8,0:0:0:0:
448,192,237646,128,2,238298:0:0:0:0:
192,192,237972,1,8,0:0:0:0:
64,192,238298,128,2,238624:0:0:0:0:
320,192,238624,1,8,0:0:0:0:
448,192,238787,128,2,239113:0:0:0:0:
192,192,239113,1,2,0:0:0:0:
64,192,239276,1,8,0:0:0:0:
448,192,239602,1,2,0:0:0:0:
320,192,239765,1,2,0:0:0:0:
192,192,239928,1,8,0:0:0:0:
64,192,240091,128,2,240417:0:0:0:0:
320,192,240417,1,2,0:0:0:0:
448,192,240580,1,8,0:0:0:0:
192,192,240906,1,2,0:0:0:0:
64,192,241069,1,2,0:0:0:0:
320,192,241233,1,8,0:0:0:0:
64,192,241559,1,2,0:0:0:0:
192,192,241559,1,0,0:0:0:40:Hat Open.wav
192,192,241885,1,8,0:0:0:0:
320,192,242048,1,2,0:0:0:0:
448,192,242048,1,0,0:0:0:0:
320,192,242374,1,2,0:0:0:0:
64,192,242537,1,8,0:0:0:0:
448,192,242537,1,0,0:0:0:40:Hat Open.wav
192,192,242863,1,2,0:0:0:0:
320,192,243189,1,8,0:0:0:0:
448,192,243352,1,2,0:0:0:0:
64,192,243678,1,2,0:0:0:0:
448,192,243841,1,8,0:0:0:0:
192,192,244004,1,2,0:0:0:0:
320,192,244004,128,0,244493:0:0:0:0:
448,192,244493,1,8,0:0:0:0:
64,192,244819,1,2,0:0:0:0:
192,192,245146,1,8,0:0:0:0:
320,192,245472,1,4,0:0:0:0:
448,192,245472,128,2,245798:0:0:0:0:
192,192,245798,1,8,0:0:0:0:
320,192,246124,1,2,0:0:0:0:
448,192,246287,1,2,0:0:0:0:
64,192,246450,1,8,0:0:0:0:
192,192,246776,128,2,247102:0:0:0:0:
320,192,247102,1,8,0:0:0:0:
192,192,247428,1,2,0:0:0:0:
64,192,247591,1,2,0:0:0:0:
448,192,247754,1,8,0:0:0:0:
320,192,248080,128,2,248733:0:0:0:0:
64,192,248406,1,8,0:0:0:0:
192,192,248733,1,2,0:0:0:0:
448,192,248896,128,2,249222:0:0:0:0:
64,192,249222,128,6,249548:0:0:0:0:
320,192,249548,1,2,0:0:0:0:
448,192,249711,1,8,0:0:0:0:
64,192,250037,1,2,0:0:0:0:
192,192,250200,1,2,0:0:0:0:
320,192,250363,1,8,0:0:0:0:
448,192,250526,128,2,250852:0:0:0:0:
192,192,250852,1,2,0:0:0:0:
64,192,251015,1,8,0:0:0:0:
448,192,251341,1,2,0:0:0:0:
64,192,251504,1,2,0:0:0:0:
192,192,251667,1,8,0:0:0:0:
320,192,251830,128,2,252156:0:0:0:0:
448,192,252156,1,2,0:0:0:0:
64,192,252319,1,8,0:0:0:0:
192,192,252483,128,0,252809:0:0:0:0:
320,192,252809,1,2,0:0:0:0:
448,192,252972,1,8,0:0:0:0:
64,192,253135,1,2,0:0:0:0:
192,192,253461,1,2,0:0:0:0:
320,192,253624,1,8,0:0:0:0:
192,192,253787,1,2,0:0:0:0:
64,192,253950,1,8,0:0:0:0:
448,192,253950,128,0,254439:0:0:0:40:Hat Open.wav
320,192,254439,1,8,0:0:0:0:
64,192,254765,1,8,0:0:0:0:
448,192,254928,1,8,0:0:0:0:
192,192,255254,128,0,255743:0:0:0:0:
64,192,255743,128,2,256233:0:0:0:0:
320,192,256233,1,8,0:0:0:0:
448,192,256233,1,0,0:0:0:40:Hat Open.wav
64,192,256559,1,8,0:0:0:0:
192,192,256559,1,0,0:0:0:40:Hat Open.wav
448,192,256885,1,8,0:0:0:0:
320,192,257211,1,8,0:0:0:0:
64,192,257537,1,8,0:0:0:0:
192,192,257863,1,8,0:0:0:0:
320,192,258189,1,8,0:0:0:0:
448,192,258515,1,8,0:0:0:0:
64,192,258841,1,8,0:0:0:0:
192,192,258841,1,0,0:0:0:40:Hat Open.wav
320,192,259167,1,8,0:0:0:0:
448,192,259167,1,0,0:0:0:40:Hat Open.wav
64,192,259493,1,8,0:0:0:0:
192,192,259819,1,8,0:0:0:0:
448,192,260146,1,8,0:0:0:0:
320,192,260472,1,8,0:0:0:0:
192,192,260798,1,8,0:0:0:0:
64,192,261124,1,8,0:0:0:0:
320,192,261450,1,8,0:0:0:0:
448,192,261450,1,0,0:0:0:40:Hat Open.wav
64,192,261776,1,8,0:0:0:0:
192,192,261776,1,0,0:0:0:40:Hat Open.wav
320,192,262102,1,8,0:0:0:0:
448,192,262428,1,8,0:0:0:0:
64,192,262754,1,8,0:0:0:0:
320,192,263080,1,8,0:0:0:0:
192,192,263406,1,8,0:0:0:0:
64,192,263733,1,2,0:0:0:0:
448,192,263733,1,0,0:0:0:40:Hat Open.wav
320,192,263896,1,8,0:0:0:0:
192,192,264059,1,8,0:0:0:0:
320,192,264222,1,2,0:0:0:0:
448,192,264222,1,0,0:0:0:40:Hat Open.wav
64,192,264548,1,2,0:0:0:0:
192,192,264548,1,0,0:0:0:40:Hat Open.wav
64,192,264874,128,2,265689:0:0:0:0:
448,192,264874,128,4,265689:0:0:0:0:
