osu file format v14

[General]
AudioFilename: audio.mp3
AudioLeadIn: 0
PreviewTime: 60831
Countdown: 0
SampleSet: Soft
StackLeniency: 0.7
Mode: 0
LetterboxInBreaks: 0
WidescreenStoryboard: 1

[Editor]
Bookmarks: 2021,6821,21375,42975,60975,62175,81225,90975,112575,130575,131775,150825,160425,172575,182175,191775,208575,212175,213375,232425,246825,255075,259612
DistanceSpacing: 0.3
BeatDivisor: 4
GridSize: 16
TimelineZoom: 2.2

[Metadata]
Title:Shiroi Yuki no Princess wa
TitleUnicode:白い雪のプリンセスは
Artist:Minato Aqua
ArtistUnicode:湊あくあ
Creator:Amateurre
Version:Insane
Source:
Tags:The Snow White Princess Is japanese pop jpop j-pop cover 阿库娅 akua vtuber virtual youtuber ホロライブ hololive Noboru のぼる Hatsune Miku 初音ミク vocaloid Mocaotic F4UZ4N Ayucchi Present Yorita Yoshino -ClariS- AngelSnow Karen leon737
BeatmapID:2290742
BeatmapSetID:1095366

[Difficulty]
HPDrainRate:5
CircleSize:4
OverallDifficulty:8
ApproachRate:9
SliderMultiplier:1.6
SliderTickRate:1

[Events]
//Background and Video events
0,0,"81195379_p0.jpg",0,0
//Break Periods
//Storyboard Layer 0 (Background)
//Storyboard Layer 1 (Fail)
//Storyboard Layer 2 (Pass)
//Storyboard Layer 3 (Foreground)
//Storyboard Layer 4 (Overlay)
//Storyboard Sound Samples

[TimingPoints]
971,300,4,2,1,50,1,0
2021,-166.666666666667,4,2,1,50,0,0
2396,-166.666666666667,4,2,1,5,0,0
2471,-166.666666666667,4,2,1,50,0,0
3596,-166.666666666667,4,2,1,5,0,0
3671,-166.666666666667,4,2,1,50,0,0
4796,-166.666666666667,4,2,1,5,0,0
4871,-166.666666666667,4,2,1,50,0,0
6821,-100,4,2,1,70,0,0
16646,-100,4,2,1,5,0,0
16721,-100,4,2,1,70,0,0
21071,304.568527918782,4,2,1,70,1,8
21375,300,4,2,1,65,1,0
21525,-125,4,2,1,65,0,0
42975,-166.666666666667,4,2,1,60,0,0
51375,-125,4,2,1,60,0,0
57300,-125,4,2,1,5,0,0
57375,-125,4,2,1,65,0,0
59775,-166.666666666667,4,2,1,65,0,0
62175,-100,4,2,1,75,0,1
81225,-100,4,2,1,70,0,0
85050,-100,4,2,1,5,0,0
85125,-100,4,2,1,70,0,0
88575,-50,4,2,1,70,0,0
88612,-50,4,2,1,5,0,0
89025,-50,4,2,1,70,0,0
89062,-50,4,2,1,5,0,0
89475,-50,4,2,1,70,0,0
89512,-50,4,2,1,5,0,0
89925,-50,4,2,1,70,0,0
89962,-50,4,2,1,5,0,0
90225,-50,4,2,1,70,0,0
90525,-100,4,2,1,70,0,0
90900,-100,4,2,1,5,0,0
90975,-100,4,2,1,65,0,0
91125,-125,4,2,1,65,0,0
99750,-125,4,2,1,5,0,0
99825,-125,4,2,1,65,0,0
100500,-125,4,2,1,5,0,0
100575,-125,4,2,1,65,0,0
102450,-125,4,2,1,5,0,0
102525,-125,4,2,1,65,0,0
107700,-125,4,2,1,5,0,0
107775,-125,4,2,1,65,0,0
112575,-166.666666666667,4,2,1,60,0,0
120975,-125,4,2,1,60,0,0
126900,-125,4,2,1,5,0,0
126975,-125,4,2,1,65,0,0
131775,-100,4,2,1,75,0,1
150825,-100,4,2,1,70,0,0
171375,-166.666666666667,4,2,1,70,0,0
172575,-166.666666666667,4,2,1,55,0,0
180975,-166.666666666667,4,2,1,60,0,0
181125,-125,4,2,1,60,0,0
182100,-125,4,2,1,5,0,0
182175,-125,4,2,1,65,0,0
186900,-125,4,2,1,5,0,0
186975,-125,4,2,1,65,0,0
189375,-166.666666666667,4,2,1,65,0,0
190575,-166.666666666667,4,2,1,60,0,0
191775,-166.666666666667,4,2,1,50,0,0
195375,-333.333333333334,4,2,1,50,0,0
208575,-125,4,2,1,60,0,0
209025,-125,4,2,1,5,0,0
209175,-125,4,2,1,60,0,0
210975,-125,4,2,1,65,0,0
211875,-100,4,2,1,65,0,0
212100,-100,4,2,1,5,0,0
212175,-100,4,2,1,65,0,0
213375,-90.9090909090909,4,2,1,75,0,1
232425,-100,4,2,1,75,0,0
245850,-100,4,2,1,5,0,0
245925,-100,4,2,1,75,0,0
246750,-100,4,2,1,5,0,0
246825,-100,4,2,1,75,0,0
260475,-100,4,2,1,5,0,0

[Colours]
Combo1 : 231,41,46
Combo2 : 253,138,241
Combo3 : 121,231,242
Combo4 : 183,63,235

[HitObjects]
41,351,2021,6,0,P|95:313|146:322,1,120,2|0,2:0|2:0,2:0:0:0:
170,341,2471,2,0,L|180:231,2,95.9999999999998,2|2|0,2:0|2:0|2:0,2:0:0:0:
258,293,3221,6,0,P|339:290|368:248,1,120,2|0,2:0|2:0,2:0:0:0:
379,243,3671,2,0,L|394:357,2,95.9999999999998,2|2|0,2:0|2:0|2:0,2:0:0:0:
296,225,4421,6,0,B|307:178|307:178|300:151|300:151|312:95,1,120,2|0,2:0|2:0,2:0:0:0:
328,83,4871,2,0,P|373:74|425:109,2,95.9999999999998,2|2|0,2:0|2:0|2:0,2:0:0:0:
229,177,5621,6,0,L|128:155,1,95.9999999999998,2|0,2:0|2:0,2:0:0:0:
40,90,6071,1,2,2:0:0:0:
128,78,6221,1,0,2:0:0:0:
58,168,6371,2,0,L|66:268,1,95.9999999999998,2|0,2:0|2:0,2:0:0:0:
23,360,6821,6,0,P|57:306|154:303,1,160,6|2,3:2|3:2,2:0:0:0:
250,358,7271,2,0,P|288:367|326:354,1,80,2|0,1:2|2:0,2:0:0:0:
386,255,7571,1,2,3:2:0:0:
278,211,7721,2,0,L|285:298,1,80,2|0,3:2|1:2,2:0:0:0:
471,251,8021,6,0,P|463:218|353:178,1,160,2|2,3:2|3:2,2:0:0:0:
187,208,8471,1,2,1:2:0:0:
263,126,8621,1,2,2:0:0:0:
187,208,8771,2,0,P|139:215|99:197,1,80,2|2,3:2|3:2,2:0:0:0:
0,162,9071,1,0,1:2:0:0:
90,109,9221,6,0,L|70:287,1,160,2|2,3:2|3:2,2:0:0:0:
197,287,9671,2,0,L|186:201,1,80,2|0,1:2|2:0,2:0:0:0:
90,109,9971,1,2,3:2:0:0:
219,66,10121,2,0,P|201:111|164:135,1,80,2|0,3:2|1:2,2:0:0:0:
136,31,10421,6,0,L|321:22,1,160,6|2,3:2|3:2,2:0:0:0:
405,186,10871,1,0,1:2:0:0:
466,50,11021,2,0,P|397:48|356:149,1,160,6|2,3:2|3:2,2:0:0:0:
470,246,11471,1,0,1:2:0:0:
366,317,11621,6,0,B|301:328|301:328|263:318|263:318|195:332,1,160,6|2,3:2|3:2,2:0:0:0:
85,300,12071,1,2,1:2:0:0:
138,368,12221,1,2,2:0:0:0:
201,252,12371,2,0,L|213:168,2,80,2|2|0,3:2|3:2|1:2,2:0:0:0:
149,107,12821,6,0,B|230:86|230:86|287:135,1,160,2|2,3:2|3:2,2:0:0:0:
357,204,13271,1,2,1:2:0:0:
437,156,13421,1,2,2:0:0:0:
357,204,13571,2,0,L|348:298,1,80,2|2,3:2|3:2,2:0:0:0:
465,244,13871,1,0,1:2:0:0:
497,99,14021,6,0,P|417:74|352:146,1,160,6|2,3:2|3:2,2:0:0:0:
285,228,14471,2,0,P|342:218|369:175,1,80,2|0,1:2|2:0,2:0:0:0:
278,102,14771,1,2,3:2:0:0:
204,178,14921,2,0,L|193:273,1,80,2|0,3:2|1:2,2:0:0:0:
79,342,15221,6,0,P|121:273|226:268,1,160,6|2,3:2|3:2,2:0:0:0:
61,208,15671,1,0,1:2:0:0:
172,350,15821,2,0,B|266:362|237:291|355:318,1,160,6|2,3:2|3:2,2:0:0:0:
445,248,16271,1,0,1:2:0:0:
318,192,16421,6,0,L|322:313,1,120,6|0,3:2|2:0,2:0:0:0:
323,337,16721,1,0,3:2:0:0:
403,177,16871,2,0,P|454:163|493:177,1,80,4|0,1:2|1:2,2:0:0:0:
503,180,17096,1,0,1:2:0:0:
503,180,17171,1,0,3:2:0:0:
403,269,17321,1,4,1:2:0:0:
318,192,17471,1,8,2:3:0:0:
318,192,17546,1,8,2:3:0:0:
318,192,17621,5,0,3:2:0:0:
237,271,17771,2,0,L|151:281,1,80,0|8,1:2|2:3,2:0:0:0:
137,288,17996,1,8,2:3:0:0:
137,288,18071,1,8,2:3:0:0:
59,208,18221,1,4,2:3:0:0:
140,200,18371,1,0,3:2:0:0:
56,290,18521,2,0,L|49:331,2,40,8|8|8,2:3|2:3|2:3,2:0:0:0:
140,200,18821,1,4,2:3:0:0:
28,172,18971,5,6,3:2:0:0:
134,284,19121,1,6,3:2:0:0:
134,284,20021,6,0,B|197:294|197:294|223:281|223:281|309:295,1,160,6|2,3:2|3:2,2:0:0:0:
427,357,20471,1,2,3:2:0:0:
427,357,20621,1,2,3:2:0:0:
364,273,20771,1,2,3:2:0:0:
364,273,20921,1,2,3:2:0:0:
472,257,21071,2,0,P|430:219|435:157,1,120,6|0,1:2|2:0,2:0:0:0:
447,145,21375,5,6,3:2:0:0:
345,91,21525,2,0,L|336:22,2,64,2|2|2,2:0|1:2|2:0,2:0:0:0:
345,194,21975,1,2,3:2:0:0:
254,141,22125,2,0,L|263:72,2,64,2|2|2,3:2|1:2|2:0,2:0:0:0:
246,241,22575,5,2,3:2:0:0:
246,241,22725,1,2,2:0:0:0:
171,175,22875,2,0,P|128:165|57:233,1,128,2|0,1:2|3:2,2:0:0:0:
146,306,23325,2,0,L|132:229,1,64,0|0,3:2|1:2,2:0:0:0:
217,342,23625,6,0,P|170:383|109:377,1,128,2|2,3:2|3:2,2:0:0:0:
35,299,24075,2,0,L|21:376,1,64,2|2,1:2|2:0,2:0:0:0:
63,210,24375,1,2,3:2:0:0:
35,299,24525,1,2,3:2:0:0:
63,210,24675,2,0,L|49:133,1,64,2|0,1:2|2:0,2:0:0:0:
77,57,24975,6,0,B|120:78|120:78|201:64,1,128,2|2,3:2|1:2,2:0:0:0:
355,70,25425,2,0,B|368:100|368:100|369:147,1,64,2|0,3:2|2:0,2:0:0:0:
198,64,25725,2,0,B|198:32|198:32|211:2,1,64,2|0,3:2|1:2,2:0:0:0:
284,115,26025,6,0,L|290:247,1,128,2|0,3:2|3:2,2:0:0:0:
355,313,26475,2,0,P|388:324|441:316,1,64,2|0,1:2|2:0,2:0:0:0:
371,231,26775,1,2,3:2:0:0:
274,317,26925,2,0,P|241:328|188:320,1,64,2|0,3:2|1:2,2:0:0:0:
132,234,27225,6,0,L|124:383,1,128,2|0,3:2|3:2,2:0:0:0:
214,263,27675,2,0,L|211:337,1,64,2|0,1:2|2:0,2:0:0:0:
132,234,27975,1,2,2:0:0:0:
191,174,28125,2,0,B|222:169|222:169|253:177,1,64,2|0,3:2|1:2,2:0:0:0:
319,258,28425,6,0,L|340:114,1,128,2|2,3:2|3:2,2:0:0:0:
464,209,28875,2,0,B|432:217|432:217|401:212,1,64,2|2,1:2|2:0,2:0:0:0:
341,130,29175,1,2,3:2:0:0:
341,130,29325,1,2,3:2:0:0:
396,44,29475,2,0,B|427:35|427:35|458:40,1,64,2|2,1:2|2:0,2:0:0:0:
341,130,29775,6,0,B|297:148|297:148|193:126,1,128,2|0,3:2|1:2,2:0:0:0:
62,112,30225,2,0,L|70:197,1,64,2|0,3:2|2:0,2:0:0:0:
161,68,30525,1,0,3:2:0:0:
151,175,30675,2,0,L|143:260,1,64,0|0,1:2|2:0,2:0:0:0:
96,320,30975,5,6,3:2:0:0:
96,320,31125,1,2,2:0:0:0:
183,363,31275,2,0,P|229:348|248:351,1,64,2|2,1:2|2:0,2:0:0:0:
325,354,31575,1,2,3:2:0:0:
252,266,31725,1,2,3:2:0:0:
325,354,31875,2,0,L|336:264,1,64,2|2,1:2|2:0,2:0:0:0:
437,166,32175,5,2,3:2:0:0:
437,166,32325,1,2,2:0:0:0:
456,242,32475,2,0,P|416:245|357:160,1,128,2|0,1:2|3:2,2:0:0:0:
403,52,32925,2,0,P|394:89|358:116,1,64,0|0,3:2|1:2,2:0:0:0:
292,129,33225,6,0,B|239:137|239:137|216:153|216:153|145:165,1,128,2|2,3:2|3:2,2:0:0:0:
78,142,33675,2,0,L|64:65,1,64,2|2,1:2|2:0,2:0:0:0:
160,9,33975,1,2,3:2:0:0:
46,0,34125,1,0,3:2:0:0:
160,9,34275,2,0,L|146:86,1,64,2|0,1:2|2:0,2:0:0:0:
170,160,34575,6,0,L|181:222,2,64,2|2|2,3:2|2:0|1:2,2:0:0:0:
119,285,35025,2,0,B|89:298|89:298|42:299,1,64,2|0,3:2|2:0,2:0:0:0:
272,222,35325,2,0,B|303:222|303:222|333:235,1,64,2|0,3:2|1:2,2:0:0:0:
193,384,35625,6,0,L|202:245,1,128,2|0,3:2|3:2,2:0:0:0:
333,235,36075,2,0,L|328:298,1,64,2|0,1:2|2:0,2:0:0:0:
253,193,36375,1,2,3:2:0:0:
328,296,36525,2,0,P|369:304|399:296,1,64,2|0,3:2|1:2,2:0:0:0:
475,229,36825,6,0,L|466:356,1,128,2|0,3:2|3:2,2:0:0:0:
411,178,37275,2,0,P|444:155|481:153,1,64,2|0,1:2|2:0,2:0:0:0:
390,262,37575,1,2,3:2:0:0:
319,196,37725,1,2,3:2:0:0:
390,262,37875,2,0,L|379:355,1,64,4|2,1:2|2:0,2:0:0:0:
319,196,38175,6,0,L|307:61,1,128,4|0,3:2|1:2,2:0:0:0:
415,97,38625,2,0,L|405:165,1,64,0|0,3:2|2:0,2:0:0:0:
307,68,38925,1,0,3:2:0:0:
383,10,39075,1,0,1:2:0:0:
307,68,39225,1,0,3:0:0:0:
217,17,39375,6,0,P|163:14|111:84,1,128,2|0,3:2|1:2,2:0:0:0:
199,155,39825,2,0,L|189:87,1,64,0|0,3:2|2:0,2:0:0:0:
50,20,40125,1,0,3:2:0:0:
24,120,40275,1,0,1:2:0:0:
50,20,40425,1,0,3:0:0:0:
109,143,40575,6,0,L|97:278,1,128,2|0,3:2|1:2,2:0:0:0:
228,343,41025,2,0,P|259:346|288:333,1,64,0|0,3:2|2:0,2:0:0:0:
194,250,41325,1,0,3:2:0:0:
139,350,41475,1,0,1:2:0:0:
194,250,41625,1,0,3:0:0:0:
289,330,41775,6,0,L|301:248,1,64,6|0,3:2|3:2,2:0:0:0:
289,146,42075,1,6,1:2:0:0:
411,217,42225,1,0,3:2:0:0:
411,217,42300,1,0,3:2:0:0:
411,217,42375,2,0,P|358:212|339:199,1,64,6|0,1:2|3:2,2:0:0:0:
227,155,42675,2,0,P|256:143|288:145,1,64,6|0,1:2|3:2,2:0:0:0:
203,240,42975,6,0,P|152:208|137:155,1,95.9999999999998,6|0,3:1|1:2,2:0:0:0:
291,91,43425,2,0,P|268:132|226:154,1,95.9999999999998,0|0,3:2|3:2,2:0:0:0:
166,79,43875,2,0,P|199:73|226:87,1,47.9999999999999,0|0,1:2|2:0,2:0:0:0:
354,146,44175,6,0,P|401:149|441:125,1,95.9999999999998,2|0,3:1|1:2,2:0:0:0:
512,246,44625,2,0,P|472:220|424:222,1,95.9999999999998,0|0,3:2|3:2,2:0:0:0:
439,345,45075,2,0,L|453:284,1,47.9999999999999,2|0,1:2|2:0,2:0:0:0:
345,186,45375,6,0,L|352:291,1,95.9999999999998,2|0,3:1|1:2,2:0:0:0:
253,358,45825,2,0,L|259:262,1,95.9999999999998,0|0,3:2|3:2,2:0:0:0:
208,179,46275,2,0,P|231:176|254:167,1,47.9999999999999,2|0,1:2|2:0,2:0:0:0:
132,250,46575,6,0,P|155:253|178:262,1,47.9999999999999,2|0,3:1|2:0,2:0:0:0:
123,160,46875,1,2,1:2:0:0:
48,267,47025,2,0,L|36:157,1,95.9999999999998,2|2,3:2|3:2,2:0:0:0:
129,112,47475,2,0,L|121:173,1,47.9999999999999,0|2,1:2|2:0,2:0:0:0:
71,57,47775,6,0,P|111:32|158:36,1,95.9999999999998,6|0,3:1|1:2,2:0:0:0:
210,180,48225,2,0,P|162:183|122:159,1,95.9999999999998,0|0,3:2|3:2,2:0:0:0:
246,64,48675,2,0,P|253:90|254:124,1,47.9999999999999,0|0,1:2|2:0,2:0:0:0:
307,231,48975,6,0,P|302:183|327:143,1,95.9999999999998,2|0,3:1|1:2,2:0:0:0:
369,284,49425,2,0,P|330:311|283:309,1,95.9999999999998,0|2,3:2|3:2,2:0:0:0:
382,201,49875,2,0,P|410:202|430:215,1,47.9999999999999,0|0,1:2|2:0,2:0:0:0:
499,320,50175,6,0,L|505:224,1,95.9999999999998,2|0,3:1|1:2,2:0:0:0:
374,379,50625,2,0,L|368:283,1,95.9999999999998,0|0,3:2|3:2,2:0:0:0:
430,164,51075,2,0,L|426:221,1,47.9999999999999,2|0,1:2|2:0,2:0:0:0:
357,124,51375,6,0,P|383:95|421:82,1,64,6|0,3:2|2:0,2:0:0:0:
278,165,51675,2,0,P|265:127|273:88,1,64,2|0,1:2|3:2,2:0:0:0:
274,253,51975,2,0,P|235:244|205:218,1,64,2|0,1:2|3:2,2:0:0:0:
348,300,52275,2,0,P|322:329|284:342,1,64,2|0,1:2|2:0,2:0:0:0:
124,247,52575,6,0,P|183:264|206:322,1,128,6|0,3:1|1:2,2:0:0:0:
58,357,53025,2,0,L|36:224,1,128,0|0,3:2|3:2,2:0:0:0:
134,183,53475,2,0,L|122:252,1,64,2|0,1:2|2:0,2:0:0:0:
126,102,53775,6,0,B|205:94|177:148|259:136,1,128,2|0,3:1|1:2,2:0:0:0:
342,106,54225,2,0,P|308:119|285:207,1,128,0|0,3:2|3:2,2:0:0:0:
372,242,54675,2,0,L|355:176,1,64,2|0,1:2|2:0,2:0:0:0:
206,221,54975,6,0,P|244:270|311:273,1,128,2|0,3:1|1:2,2:0:0:0:
443,202,55425,1,0,3:2:0:0:
504,266,55575,6,0,P|493:299|475:362,2,96,2|2|2,2:0|2:0|2:0,2:0:0:0:
443,202,56175,2,0,L|436:137,1,64,2|0,3:1|2:0,2:0:0:0:
463,24,56475,1,2,1:2:0:0:
505,101,56625,2,0,P|445:108|388:57,1,128,2|0,3:2|3:2,2:0:0:0:
243,88,57075,2,0,P|319:114|332:143,1,96,6|0,1:2|2:0,2:0:0:0:
336,144,57375,6,0,L|326:283,1,128,6|0,3:1|1:2,2:0:0:0:
244,331,57825,2,0,P|195:344|161:331,1,64,0|0,3:2|2:0,2:0:0:0:
103,269,58125,1,0,3:2:0:0:
189,206,58275,1,2,1:2:0:0:
103,269,58425,1,2,3:2:0:0:
199,269,58575,6,0,L|186:190,1,64,2|0,3:1|2:0,2:0:0:0:
175,105,58875,1,0,1:2:0:0:
250,144,59025,1,0,1:2:0:0:
106,153,59175,1,8,2:3:0:0:
106,153,59325,1,8,2:3:0:0:
185,29,59475,1,6,2:3:0:0:
185,29,59625,1,4,2:3:0:0:
250,144,59775,6,0,P|297:145|344:96,1,95.9999999999998,6|0,3:1|2:0,2:0:0:0:
274,70,60225,1,0,3:2:0:0:
196,214,60375,2,0,P|160:183|113:178,1,95.9999999999998,2|8,1:0|2:3,2:0:0:0:
137,260,60825,1,4,3:0:0:0:
137,260,60900,1,0,3:0:0:0:
137,260,60975,5,6,2:1:0:0:
196,312,61275,5,2,2:0:0:0:
290,331,61575,5,2,2:0:0:0:
387,273,61875,5,2,2:0:0:0:
464,120,62175,6,0,L|470:284,1,160,6|0,3:2|1:2,2:0:0:0:
353,151,62625,1,2,2:0:0:0:
434,198,62775,2,0,P|473:205|512:197,1,80,2|0,3:2|3:2,2:0:0:0:
412,57,63075,1,0,1:2:0:0:
337,177,63225,1,2,2:0:0:0:
266,77,63375,6,0,L|269:-17,1,80,2|0,3:2|2:0,2:0:0:0:
134,121,63675,2,0,L|136:200,1,80,2|0,1:2|2:0,2:0:0:0:
192,39,63975,1,2,3:2:0:0:
192,39,64125,1,0,3:2:0:0:
257,157,64275,2,0,L|254:236,1,80,2|0,1:2|2:0,2:0:0:0:
128,283,64575,6,0,P|73:255|61:230,1,80,2|0,3:2|2:0,2:0:0:0:
257,157,64875,2,0,P|282:126|320:115,1,80,2|0,1:2|2:0,2:0:0:0:
138,198,65175,2,0,L|131:98,1,80,2|0,3:2|3:2,2:0:0:0:
253,236,65475,2,0,L|248:316,1,80,2|0,1:2|2:0,2:0:0:0:
471,144,65775,6,0,B|391:131|406:205|317:192,1,160,6|0,3:2|1:2,2:0:0:0:
459,224,66225,1,0,3:2:0:0:
333,114,66375,2,0,L|321:29,1,80,6|0,3:2|2:0,2:0:0:0:
459,224,66675,2,0,L|447:309,1,80,6|0,3:2|2:0,2:0:0:0:
326,364,66975,6,0,P|361:307|459:312,1,160,6|0,3:2|1:2,2:0:0:0:
410,378,67425,1,0,2:0:0:0:
305,245,67575,2,0,L|216:232,1,80,2|0,2:0|3:2,2:0:0:0:
126,328,67875,2,0,L|37:341,1,80,2|0,1:2|2:0,2:0:0:0:
129,170,68175,6,0,P|148:230|137:269,1,80,2|0,3:2|2:0,2:0:0:0:
60,223,68475,1,2,1:2:0:0:
107,86,68625,2,0,B|203:69|176:142|274:122,1,160,2|0,3:2|3:2,2:0:0:0:
351,23,69075,1,0,1:2:0:0:
244,44,69225,1,2,2:0:0:0:
408,157,69375,6,0,L|441:72,1,80,6|0,3:2|2:0,2:0:0:0:
314,172,69675,1,2,1:2:0:0:
442,236,69825,5,2,3:2:0:0:
436,82,70125,5,2,3:2:0:0:
442,236,70425,6,0,B|376:255|376:255|345:250|345:250|286:267,1,160,6|0,3:2|3:2,2:0:0:0:
186,345,70875,1,0,1:2:0:0:
215,254,71025,1,0,1:2:0:0:
215,254,71100,1,0,1:2:0:0:
215,254,71175,1,2,3:2:0:0:
275,345,71325,1,0,1:2:0:0:
275,345,71400,1,0,1:2:0:0:
275,345,71475,1,2,3:2:0:0:
134,276,71625,1,0,1:2:0:0:
270,191,71775,6,0,L|276:27,1,160,6|0,3:2|1:2,2:0:0:0:
187,108,72225,1,2,2:0:0:0:
353,142,72375,2,0,L|444:145,1,80,2|0,3:2|3:2,2:0:0:0:
350,51,72675,1,0,1:2:0:0:
264,160,72825,1,2,2:0:0:0:
128,53,72975,6,0,P|185:29|217:36,1,80,2|0,3:2|2:0,2:0:0:0:
98,173,73275,2,0,P|58:171|24:150,1,80,2|0,1:2|2:0,2:0:0:0:
186,109,73575,1,2,3:2:0:0:
186,109,73725,1,0,3:2:0:0:
254,193,73875,2,0,L|242:289,1,80,2|0,1:2|2:0,2:0:0:0:
135,336,74175,6,0,L|39:319,1,80,6|0,3:2|2:0,2:0:0:0:
175,206,74475,2,0,L|271:189,1,80,2|0,1:2|2:0,2:0:0:0:
392,322,74775,1,2,3:2:0:0:
243,271,74925,1,0,3:2:0:0:
353,166,75075,1,2,1:2:0:0:
313,330,75225,6,0,P|325:275|428:252,1,160,6|0,3:2|3:2,2:0:0:0:
490,151,75675,2,0,L|500:250,1,80,2|0,1:2|3:2,2:0:0:0:
392,79,75975,1,2,1:2:0:0:
499,27,76125,1,0,3:2:0:0:
410,162,76275,2,0,P|356:157|316:122,1,80,2|8,1:2|2:3,2:0:0:0:
261,64,76500,1,4,2:3:0:0:
261,64,76575,6,0,B|170:45|197:128|88:109,1,160,6|0,3:2|1:2,2:0:0:0:
124,22,77025,1,0,2:0:0:0:
245,138,77175,2,0,L|248:226,1,80,2|0,2:0|3:2,2:0:0:0:
103,273,77475,2,0,L|100:352,1,80,2|0,1:2|2:0,2:0:0:0:
26,195,77775,6,0,P|62:169|186:203,1,160,2|2,3:2|1:2,2:0:0:0:
305,277,78225,2,0,P|367:282|398:265,1,80,2|0,3:2|2:0,2:0:0:0:
476,126,78525,1,0,3:2:0:0:
345,203,78675,1,0,1:2:0:0:
479,281,78825,1,0,2:0:0:0:
339,123,78975,6,0,L|345:216,1,80,6|0,3:2|2:0,2:0:0:0:
434,51,79275,1,0,3:2:0:0:
484,201,79425,2,0,L|478:294,1,80,6|0,1:2|2:0,2:0:0:0:
339,123,79725,1,0,3:2:0:0:
281,274,79875,2,0,P|241:286|182:273,1,80,6|0,1:2|2:0,2:0:0:0:
104,202,80175,5,2,3:2:0:0:
47,345,80325,1,0,1:2:0:0:
47,345,80400,1,0,1:2:0:0:
47,345,80475,1,2,1:2:0:0:
125,285,80625,1,0,1:2:0:0:
16,218,80775,1,2,3:2:0:0:
195,183,80925,1,0,1:2:0:0:
148,371,81075,1,2,3:2:0:0:
143,109,81225,6,0,P|203:96|278:159,1,160,6|0,3:2|3:2,2:0:0:0:
224,265,81675,2,0,P|185:273|148:261,1,80,0|0,1:2|2:0,2:0:0:0:
90,178,81975,1,0,3:2:0:0:
22,297,82125,2,0,L|15:217,1,80,0|0,2:0|1:2,2:0:0:0:
67,93,82425,6,0,P|142:107|172:194,1,160,0|0,3:2|3:2,2:0:0:0:
90,178,82875,1,0,1:2:0:0:
170,83,83025,1,2,2:0:0:0:
253,171,83175,2,0,P|301:178|341:160,1,80,2|0,3:2|2:0,2:0:0:0:
463,101,83475,1,2,1:2:0:0:
387,18,83625,6,0,P|312:32|287:104,1,160,0|0,3:2|3:2,2:0:0:0:
428,250,84075,2,0,L|417:164,1,80,0|0,1:2|2:0,2:0:0:0:
310,275,84375,1,0,3:2:0:0:
470,329,84525,2,0,P|499:303|512:266,1,80,2|0,3:0|1:2,2:0:0:0:
336,204,84825,6,0,P|277:200|230:274,1,120,0|0,3:2|2:0,2:0:0:0:
232,262,85125,1,2,3:2:0:0:
102,225,85275,1,2,1:2:0:0:
186,176,85425,1,2,2:0:0:0:
154,306,85575,1,2,3:2:0:0:
38,180,85725,2,0,P|65:151|106:144,1,80,2|2,3:2|1:2,2:0:0:0:
270,156,86025,6,0,B|335:147|335:147|368:126|368:126|423:120,1,160,4|0,3:2|3:2,2:0:0:0:
301,75,86475,1,0,1:2:0:0:
404,199,86625,1,0,2:0:0:0:
433,39,86775,2,0,L|517:51,2,80,0|0|0,3:2|2:0|1:2,2:0:0:0:
301,75,87225,6,0,B|210:67|245:133|150:120,1,160,0|0,3:2|3:2,2:0:0:0:
40,23,87675,2,0,L|47:132,1,80,0|0,1:2|3:2,2:0:0:0:
97,182,87975,1,0,1:2:0:0:
173,48,88125,1,8,2:3:0:0:
188,192,88275,1,8,2:3:0:0:
45,102,88425,1,4,2:3:0:0:
266,48,88575,6,0,L|270:87,1,40,4|0,3:2|2:0,2:0:0:0:
368,321,89025,6,0,L|363:281,1,40,4|0,3:2|2:0,2:0:0:0:
403,41,89475,6,0,L|407:80,1,40,4|0,3:2|2:0,2:0:0:0:
492,334,89925,6,0,L|487:294,1,40,4|0,3:2|2:0,2:0:0:0:
354,154,90225,5,0,3:2:0:0:
354,154,90300,1,0,3:2:0:0:
354,154,90375,1,4,3:2:0:0:
424,238,90525,2,0,B|314:220|350:321|234:293,1,200,4|0,3:2|2:0,2:0:0:0:
214,283,90975,5,6,3:2:0:0:
270,214,91125,2,0,L|261:145,2,64,2|2|2,3:2|1:2|2:0,2:0:0:0:
214,283,91575,1,2,3:2:0:0:
332,312,91725,2,0,L|341:381,2,64,2|2|2,2:0|1:2|2:0,2:0:0:0:
390,244,92175,6,0,L|404:167,1,64,2|2,3:2|2:0,2:0:0:0:
335,115,92475,1,2,1:2:0:0:
401,181,92625,2,0,P|438:182|478:167,1,64,2|0,3:2|2:0,2:0:0:0:
335,115,92925,2,0,P|303:113|272:121,1,64,0|0,3:2|1:2,2:0:0:0:
185,188,93225,6,0,P|248:175|271:110,1,128,2|2,3:2|3:2,2:0:0:0:
210,48,93675,2,0,L|196:125,1,64,2|0,1:2|2:0,2:0:0:0:
107,178,93975,1,2,3:2:0:0:
197,225,94125,1,2,2:0:0:0:
107,178,94275,2,0,L|93:101,1,64,2|2,1:2|2:0,2:0:0:0:
197,225,94575,6,0,L|183:302,2,64,2|2|2,3:2|2:0|1:2,2:0:0:0:
130,349,95025,2,0,B|100:362|100:362|52:363,1,64,2|0,3:2|2:0,2:0:0:0:
262,302,95325,2,0,B|293:302|293:302|323:315,1,64,2|0,3:2|1:2,2:0:0:0:
272,219,95625,6,0,P|243:161|174:156,1,128,2|2,3:2|3:2,2:0:0:0:
44,189,96075,2,0,P|77:200|130:192,1,64,2|0,1:2|2:0,2:0:0:0:
174,74,96375,1,2,3:2:0:0:
247,141,96525,2,0,P|214:152|161:144,1,64,2|0,3:2|1:2,2:0:0:0:
46,80,96825,6,0,L|195:72,1,128,2|0,3:2|3:2,2:0:0:0:
396,98,97275,2,0,L|393:172,1,64,2|0,1:2|2:0,2:0:0:0:
268,41,97575,2,0,B|299:36|299:36|330:44,1,64,0|0,3:2|3:2,2:0:0:0:
393,161,97875,1,2,1:2:0:0:
485,107,98025,6,0,L|466:233,1,128,2|2,3:2|3:2,2:0:0:0:
396,98,98475,2,0,L|385:175,1,64,2|2,1:2|3:2,2:0:0:0:
390,179,98700,1,0,3:2:0:0:
390,179,98775,1,2,3:2:0:0:
466,233,98925,1,2,3:2:0:0:
369,269,99075,2,0,P|338:278|308:272,1,64,2|10,1:2|2:3,2:0:0:0:
232,198,99375,6,0,P|180:189|144:295,1,160,2|0,3:2|2:0,2:0:0:0:
188,346,99825,6,0,P|209:316|55:213,1,288,2|0,2:0|2:0,2:0:0:0:
63,205,100575,6,0,L|55:132,2,64,6|2|2,3:2|2:0|1:2,2:0:0:0:
142,79,101025,1,2,2:0:0:0:
206,157,101175,2,0,L|277:168,1,64,2|2,3:2|3:2,2:0:0:0:
305,38,101475,2,0,L|234:49,1,64,2|2,1:2|2:0,2:0:0:0:
356,156,101775,6,0,P|381:103|379:78,1,64,2|2,3:2|2:0,2:0:0:0:
269,166,102075,1,2,1:2:0:0:
326,235,102225,2,0,L|437:252,1,96,2|0,2:0|2:0,2:0:0:0:
442,253,102525,1,0,3:2:0:0:
376,326,102675,1,0,1:2:0:0:
259,289,102825,6,0,B|182:271|202:332|115:305,1,128,2|2,3:2|3:2,2:0:0:0:
102,192,103275,2,0,P|147:230|151:247,1,64,2|2,1:2|2:0,2:0:0:0:
64,324,103575,2,0,P|74:266|87:254,1,64,2|2,3:2|3:2,2:0:0:0:
175,162,103875,1,2,1:2:0:0:
175,162,104025,1,2,2:0:0:0:
14,111,104175,6,0,L|155:84,1,128,2|2,3:2|1:2,2:0:0:0:
263,178,104625,2,0,L|183:166,1,64,2|0,3:2|2:0,2:0:0:0:
76,264,104925,2,0,L|156:252,1,64,2|0,3:2|1:2,2:0:0:0:
272,291,105225,6,0,P|214:303|190:382,1,128,2|2,3:2|3:2,2:0:0:0:
342,336,105675,2,0,P|353:297|348:258,1,64,2|0,1:2|2:0,2:0:0:0:
289,210,105975,1,2,3:2:0:0:
374,188,106125,2,0,L|453:206,1,64,2|0,3:2|1:2,2:0:0:0:
504,283,106425,6,0,P|457:272|444:186,1,128,2|0,3:2|3:2,2:0:0:0:
512,99,106875,2,0,P|517:138|508:165,1,64,2|0,1:2|2:0,2:0:0:0:
438,126,107175,1,2,2:0:0:0:
449,46,107325,1,2,3:2:0:0:
438,126,107475,2,0,L|330:140,1,96,4|0,1:2|2:0,2:0:0:0:
326,142,107775,6,0,P|318:174|226:211,1,128,4|0,3:2|1:2,2:0:0:0:
236,73,108225,2,0,L|251:147,1,64,0|0,3:2|2:0,2:0:0:0:
152,239,108525,1,0,3:2:0:0:
175,151,108675,1,0,1:2:0:0:
152,239,108825,1,0,2:0:0:0:
79,170,108975,6,0,L|61:38,1,128,6|0,3:2|1:2,2:0:0:0:
152,239,109425,2,0,L|64:257,1,64,0|0,3:2|2:0,2:0:0:0:
175,149,109725,1,0,3:2:0:0:
239,258,109875,2,0,L|310:270,1,64,0|0,1:2|2:0,2:0:0:0:
446,291,110175,6,0,P|401:291|360:376,1,128,6|0,3:2|1:2,2:0:0:0:
446,291,110625,2,0,L|456:222,1,64,0|0,3:2|2:0,2:0:0:0:
422,143,110925,1,0,3:2:0:0:
364,210,111075,1,0,1:2:0:0:
422,143,111225,1,0,2:0:0:0:
335,126,111375,6,0,L|267:115,1,64,6|0,3:2|2:0,2:0:0:0:
284,247,111675,2,0,L|216:258,1,64,6|0,1:2|3:2,2:0:0:0:
200,261,111900,1,0,3:2:0:0:
200,261,111975,1,6,1:2:0:0:
199,157,112125,1,0,3:2:0:0:
115,208,112275,2,0,P|94:244|101:288,1,64,6|0,1:2|3:2,2:0:0:0:
185,342,112575,6,0,L|72:358,1,95.9999999999998,6|0,3:1|1:2,2:0:0:0:
210,261,113025,2,0,P|245:278|272:342,1,95.9999999999998,0|0,3:2|3:2,2:0:0:0:
130,269,113475,2,0,L|120:202,1,47.9999999999999,0|0,1:2|2:0,2:0:0:0:
186,156,113775,6,0,P|154:207|101:222,1,95.9999999999998,2|0,3:1|1:2,2:0:0:0:
37,68,114225,2,0,P|78:91|100:133,1,95.9999999999998,0|0,3:2|3:2,2:0:0:0:
25,193,114675,2,0,P|19:160|33:133,1,47.9999999999999,2|0,1:2|2:0,2:0:0:0:
167,73,114975,6,0,L|285:91,1,95.9999999999998,2|0,3:1|1:2,2:0:0:0:
376,166,115425,2,0,L|281:180,1,95.9999999999998,0|0,3:2|3:2,2:0:0:0:
200,181,115875,2,0,P|203:204|212:227,1,47.9999999999999,2|0,1:2|2:0,2:0:0:0:
273,304,116175,6,0,P|282:281|286:258,1,47.9999999999999,2|0,3:1|2:0,2:0:0:0:
186,316,116475,1,2,1:2:0:0:
273,304,116625,2,0,L|368:314,1,95.9999999999998,2|2,3:2|3:2,2:0:0:0:
510,226,117075,2,0,P|489:213|465:210,1,47.9999999999999,0|2,1:2|2:0,2:0:0:0:
451,384,117375,6,0,L|463:275,1,95.9999999999998,6|0,3:1|1:2,2:0:0:0:
358,218,117825,2,0,L|368:313,1,95.9999999999998,0|0,3:2|3:2,2:0:0:0:
466,211,118275,2,0,L|470:151,1,47.9999999999999,0|0,1:2|2:0,2:0:0:0:
320,57,118575,6,0,P|371:89|386:142,1,95.9999999999998,2|0,3:1|1:2,2:0:0:0:
232,206,119025,2,0,P|255:165|297:143,1,95.9999999999998,0|0,3:2|3:2,2:0:0:0:
357,218,119475,2,0,P|324:224|297:210,1,47.9999999999999,0|0,1:2|2:0,2:0:0:0:
178,139,119775,6,0,P|131:136|91:160,1,95.9999999999998,2|0,3:1|1:2,2:0:0:0:
161,309,120225,2,0,L|152:211,1,95.9999999999998,0|0,3:2|3:2,2:0:0:0:
71,243,120675,2,0,L|76:300,1,47.9999999999999,2|0,1:2|2:0,2:0:0:0:
221,368,120975,6,0,P|263:349|282:316,1,64,6|0,3:2|2:0,2:0:0:0:
311,192,121275,2,0,P|281:201|259:224,1,64,2|0,1:2|3:2,2:0:0:0:
352,322,121575,2,0,P|343:292|320:270,1,64,2|0,1:2|3:2,2:0:0:0:
180,237,121875,2,0,P|189:267|212:289,1,64,2|0,1:2|2:0,2:0:0:0:
393,204,122175,6,0,P|386:156|319:110,1,128,6|0,3:1|1:2,2:0:0:0:
238,148,122625,2,0,L|220:9,1,128,0|0,3:2|3:2,2:0:0:0:
333,47,123075,2,0,L|324:115,1,64,2|0,1:2|2:0,2:0:0:0:
247,233,123375,6,0,P|185:219|152:148,1,128,2|0,3:1|1:2,2:0:0:0:
146,24,123825,2,0,P|135:74|53:118,1,128,0|0,3:2|3:2,2:0:0:0:
3,24,124275,2,0,P|38:23|68:35,1,64,2|0,1:2|2:0,2:0:0:0:
202,98,124575,6,0,P|247:109|274:97,1,64,2|0,3:1|2:0,2:0:0:0:
376,29,124875,2,0,P|344:23|315:35,1,64,0|0,1:2|2:0,2:0:0:0:
334,211,125175,6,0,L|347:111,2,96,2|2|2,3:0|2:0|2:0,2:0:0:0:
441,128,125775,2,0,L|431:195,1,64,2|0,3:1|2:0,2:0:0:0:
454,314,126075,1,2,1:2:0:0:
496,237,126225,2,0,P|436:230|379:281,1,128,2|0,3:2|3:2,2:0:0:0:
287,357,126675,2,0,L|278:251,1,96,6|0,1:2|2:0,2:0:0:0:
264,243,126975,6,0,P|208:233|138:282,1,128,6|0,3:1|1:2,2:0:0:0:
69,354,127425,2,0,P|100:355|129:343,1,64,0|0,3:2|2:0,2:0:0:0:
218,314,127725,1,0,3:2:0:0:
83,224,127875,1,2,1:2:0:0:
218,314,128025,1,0,2:0:0:0:
193,181,128175,6,0,L|180:102,1,64,2|0,3:1|2:0,2:0:0:0:
288,224,128475,1,0,1:2:0:0:
148,266,128625,1,0,1:2:0:0:
247,320,128775,1,0,3:2:0:0:
247,320,128925,1,8,2:3:0:0:
193,181,129075,1,10,2:3:0:0:
193,181,129225,1,4,2:3:0:0:
330,295,129375,5,6,3:1:0:0:
330,295,129975,5,6,3:1:0:0:
330,295,130575,5,6,3:1:0:0:
376,225,130875,5,2,3:2:0:0:
404,129,131175,5,6,3:2:0:0:
356,32,131475,5,6,3:2:0:0:
256,238,131775,6,0,B|157:224|199:302|87:283,1,160,6|0,3:2|1:2,2:0:0:0:
241,318,132225,1,2,2:0:0:0:
119,206,132375,2,0,L|130:127,1,80,2|0,3:2|3:2,2:0:0:0:
19,162,132675,1,0,1:2:0:0:
110,285,132825,1,2,2:0:0:0:
211,168,132975,6,0,P|264:158|306:172,1,80,2|0,3:2|2:0,2:0:0:0:
464,294,133275,2,0,P|424:299|386:289,1,80,2|0,1:2|2:0,2:0:0:0:
361,127,133575,1,2,3:2:0:0:
427,216,133725,1,0,3:2:0:0:
308,329,133875,2,0,L|293:214,1,80,2|0,1:2|2:0,2:0:0:0:
168,123,134175,6,0,P|113:151|101:176,1,80,2|0,3:2|2:0,2:0:0:0:
297,249,134475,2,0,P|334:237|359:206,1,80,2|0,1:2|2:0,2:0:0:0:
178,208,134775,2,0,L|171:308,1,80,2|0,3:2|3:2,2:0:0:0:
293,170,135075,2,0,L|288:90,1,80,2|0,1:2|2:0,2:0:0:0:
94,94,135375,6,0,B|102:160|102:160|94:186|94:186|104:265,1,160,6|0,3:2|1:2,2:0:0:0:
12,140,135825,1,0,3:2:0:0:
178,208,135975,2,0,L|263:196,1,80,6|0,3:2|2:0,2:0:0:0:
367,101,136275,2,0,L|282:89,1,80,6|0,3:2|2:0,2:0:0:0:
325,271,136575,6,0,P|398:249|421:176,1,160,6|0,3:2|1:2,2:0:0:0:
287,89,137025,1,0,2:0:0:0:
433,51,137175,2,0,L|522:38,1,80,2|0,2:0|3:2,2:0:0:0:
340,190,137475,2,0,L|251:177,1,80,2|0,1:2|2:0,2:0:0:0:
90,161,137775,6,0,P|90:121|107:86,1,80,2|0,3:2|2:0,2:0:0:0:
152,215,138075,1,2,1:2:0:0:
17,263,138225,2,0,B|113:246|86:319|184:299,1,160,2|0,3:2|3:2,2:0:0:0:
41,344,138675,1,0,1:2:0:0:
152,215,138825,1,2,2:0:0:0:
296,304,138975,6,0,L|324:217,1,80,6|0,3:2|2:0,2:0:0:0:
202,323,139275,1,2,1:2:0:0:
334,381,139425,5,2,3:2:0:0:
321,228,139725,5,2,3:2:0:0:
464,329,140025,6,0,B|395:327|395:327|367:314|367:314|305:313,1,160,6|0,3:2|3:2,2:0:0:0:
409,233,140475,1,0,1:2:0:0:
464,329,140625,1,0,1:2:0:0:
464,329,140700,1,0,1:2:0:0:
464,329,140775,1,2,3:2:0:0:
321,228,140925,1,0,1:2:0:0:
321,228,141000,1,0,1:2:0:0:
321,228,141075,1,2,3:2:0:0:
473,168,141225,1,0,1:2:0:0:
321,98,141375,6,0,L|157:104,1,160,6|0,3:2|1:2,2:0:0:0:
22,217,141825,1,2,2:0:0:0:
76,38,141975,2,0,L|81:129,1,80,2|0,3:2|3:2,2:0:0:0:
211,225,142275,1,0,1:2:0:0:
161,103,142425,1,2,2:0:0:0:
81,267,142575,6,0,P|138:291|170:284,1,80,2|0,3:2|2:0,2:0:0:0:
284,202,142875,2,0,P|244:204|210:225,1,80,2|0,1:2|2:0,2:0:0:0:
291,375,143175,1,2,3:2:0:0:
210,224,143325,1,0,3:2:0:0:
144,368,143475,2,0,L|156:272,1,80,2|0,1:2|2:0,2:0:0:0:
362,233,143775,6,0,L|345:329,1,80,6|0,3:2|2:0,2:0:0:0:
210,224,144075,2,0,L|193:128,1,80,2|0,1:2|2:0,2:0:0:0:
327,150,144375,1,2,3:2:0:0:
267,284,144525,1,0,3:2:0:0:
196,145,144675,1,2,1:2:0:0:
362,233,144825,6,0,P|414:177|405:96,1,160,6|0,3:2|3:2,2:0:0:0:
246,17,145275,2,0,L|256:116,1,80,2|0,1:2|3:2,2:0:0:0:
362,233,145575,1,2,1:2:0:0:
405,99,145725,1,0,3:2:0:0:
277,174,145875,2,0,P|223:169|183:134,1,80,2|8,1:2|2:3,2:0:0:0:
126,70,146100,1,4,2:3:0:0:
126,70,146175,6,0,B|110:243,1,160,6|0,3:2|1:2,2:0:0:0:
44,164,146625,1,0,2:0:0:0:
206,248,146775,2,0,L|294:248,1,80,2|0,2:0|3:2,2:0:0:0:
94,313,147075,2,0,L|6:313,1,80,2|0,1:2|2:0,2:0:0:0:
44,164,147375,6,0,P|80:138|198:185,1,160,2|2,3:2|1:2,2:0:0:0:
286,248,147825,2,0,L|292:156,1,80,2|0,3:2|2:0,2:0:0:0:
422,91,148125,1,0,3:2:0:0:
425,246,148275,1,0,3:2:0:0:
291,168,148425,1,0,1:2:0:0:
425,246,148575,6,0,L|431:339,1,80,6|0,3:2|2:0,2:0:0:0:
422,91,148875,1,0,3:2:0:0:
291,168,149025,2,0,L|198:162,1,80,6|0,1:2|2:0,2:0:0:0:
335,68,149325,1,0,3:2:0:0:
425,246,149475,2,0,P|465:236|510:195,1,80,6|0,1:2|1:2,2:0:0:0:
312,149,149775,5,2,3:2:0:0:
277,273,149925,1,0,1:2:0:0:
312,149,150075,1,2,1:2:0:0:
401,241,150225,1,0,1:2:0:0:
232,196,150375,1,2,3:2:0:0:
353,318,150525,1,0,1:2:0:0:
398,163,150675,1,2,3:2:0:0:
257,289,150825,6,0,B|182:315|182:315|102:300,1,160,6|2,3:2|3:2,2:0:0:0:
32,245,151275,2,0,B|16:283|16:283|17:335,1,80,2|2,1:2|2:0,2:0:0:0:
121,225,151575,2,0,P|89:169|-11:168,1,160,2|2,3:2|1:2,2:0:0:0:
151,303,152025,6,0,L|170:136,1,160,2|2,3:2|3:2,2:0:0:0:
243,77,152475,1,2,1:2:0:0:
169,144,152625,2,0,P|121:153|82:135,1,80,2|0,2:0|3:2,2:0:0:0:
160,51,152925,1,2,2:0:0:0:
254,161,153075,1,2,1:2:0:0:
327,29,153225,6,0,B|336:100|336:100|346:110|346:110|358:198,1,160,2|2,3:2|3:2,2:0:0:0:
492,239,153675,2,0,L|506:146,1,80,2|0,1:2|2:0,2:0:0:0:
356,183,153975,2,0,L|370:276,1,80,2|2,3:2|2:0,2:0:0:0:
419,106,154275,1,2,1:2:0:0:
369,261,154425,6,0,P|321:277|286:276,1,80,2|0,3:2|2:0,2:0:0:0:
140,237,154725,1,2,3:2:0:0:
247,118,154875,2,0,L|230:210,1,80,2|2,1:2|1:2,2:0:0:0:
220,338,155175,1,2,3:2:0:0:
325,198,155325,1,2,3:2:0:0:
140,237,155475,1,2,1:2:0:0:
319,287,155625,6,0,P|374:272|399:162,1,160,6|2,3:2|3:2,2:0:0:0:
245,115,156075,2,0,L|159:124,1,80,2|2,1:2|2:0,2:0:0:0:
316,43,156375,2,0,L|484:68,1,160,2|0,3:2|1:2,2:0:0:0:
417,257,156825,6,0,P|365:248|340:151,1,160,2|0,3:2|3:2,2:0:0:0:
407,182,157275,1,2,1:2:0:0:
320,304,157425,2,0,B|249:295|249:295|239:285|239:285|151:273,1,160,2|0,2:0|2:0,2:0:0:0:
46,315,157875,1,0,1:2:0:0:
51,185,158025,6,0,P|118:201|166:284,1,160,2|2,3:2|3:2,2:0:0:0:
145,125,158475,1,2,1:2:0:0:
165,274,158625,1,2,2:0:0:0:
145,125,158775,2,0,L|232:135,1,80,2|0,3:2|2:0,2:0:0:0:
315,122,159075,1,2,1:2:0:0:
319,32,159225,6,0,P|247:60|224:134,1,160,6|0,3:2|3:2,2:0:0:0:
339,207,159675,1,8,2:3:0:0:
339,207,159750,1,8,2:3:0:0:
339,207,159825,1,8,2:3:0:0:
211,269,159975,1,0,1:2:0:0:
211,269,160050,1,4,2:3:0:0:
211,269,160125,1,4,2:3:0:0:
223,133,160275,1,6,1:2:0:0:
316,365,160425,6,0,L|339:201,1,160,6|2,3:2|3:2,2:0:0:0:
234,296,160875,1,2,1:2:0:0:
410,242,161025,2,0,L|495:250,1,80,2|2,2:0|3:2,2:0:0:0:
321,123,161325,1,2,2:0:0:0:
249,268,161475,1,2,1:2:0:0:
73,155,161625,6,0,L|251:131,1,160,2|2,3:2|3:2,2:0:0:0:
161,225,162075,1,2,1:2:0:0:
57,77,162225,2,0,L|235:53,1,160,2|2,2:0|2:0,2:0:0:0:
401,58,162675,1,2,1:2:0:0:
293,0,162825,2,0,L|307:99,1,80,2|0,3:2|2:0,2:0:0:0:
332,212,163125,5,2,3:2:0:0:
360,202,163200,1,2,2:0:0:0:
390,206,163275,2,0,L|393:162,3,40,2|2|2|2,1:2|2:0|2:0|2:0,2:0:0:0:
413,159,163575,5,2,3:2:0:0:
413,159,163650,1,2,2:0:0:0:
413,159,163725,2,0,L|469:157,1,40,2|2,2:0|2:0,2:0:0:0:
334,107,163875,2,0,L|288:109,3,40,2|2|2|2,1:2|2:0|3:2|2:0,2:0:0:0:
386,44,164175,2,0,L|432:46,3,40,2|2|2|2,2:0|2:0|3:2|2:0,2:0:0:0:
304,31,164475,1,2,1:2:0:0:
284,32,164550,1,2,2:0:0:0:
264,34,164625,1,2,1:2:0:0:
244,36,164700,1,2,2:0:0:0:
223,38,164775,2,0,L|112:46,1,80,2|0,3:2|3:2,2:0:0:0:
61,186,165075,1,0,1:2:0:0:
32,104,165225,6,0,P|90:106|137:217,1,160,6|2,3:2|3:2,2:0:0:0:
108,273,165675,1,2,1:2:0:0:
143,184,165825,1,2,3:2:0:0:
196,262,165975,1,2,1:2:0:0:
108,273,166125,1,2,3:2:0:0:
228,184,166275,1,2,1:2:0:0:
245,330,166425,6,0,B|289:345|289:345|403:299,1,160,6|2,3:2|3:2,2:0:0:0:
471,254,166875,1,2,1:2:0:0:
473,348,167025,1,2,3:2:0:0:
394,304,167175,1,2,1:2:0:0:
471,254,167325,1,10,2:3:0:0:
382,214,167475,2,0,L|296:201,1,80,10|0,2:3|3:2,2:0:0:0:
231,114,167775,5,6,3:2:0:0:
216,110,167850,1,2,2:0:0:0:
201,110,167925,1,2,2:0:0:0:
186,114,168000,1,2,2:0:0:0:
173,121,168075,2,0,L|178:174,3,40,2|2|2|2,1:2|2:0|2:0|2:0,2:0:0:0:
101,188,168375,2,0,L|96:241,3,40,2|2|2|2,2:0|2:0|3:2|2:0,2:0:0:0:
26,264,168675,2,0,L|31:317,3,40,2|2|2|2,1:2|2:0|2:0|2:0,2:0:0:0:
96,359,168975,5,2,3:2:0:0:
109,351,169050,1,2,2:0:0:0:
123,347,169125,1,2,2:0:0:0:
138,346,169200,1,2,2:0:0:0:
154,346,169275,2,0,L|163:277,3,40,2|2|2|2,1:2|2:0|2:0|2:0,2:0:0:0:
259,301,169575,2,0,L|264:354,3,40,2|2|2|2,2:0|2:0|3:2|2:0,2:0:0:0:
368,340,169875,2,0,L|359:409,3,40,2|2|2|2,1:2|2:0|2:0|2:0,2:0:0:0:
348,253,170175,5,2,3:2:0:0:
351,230,170250,1,2,2:0:0:0:
354,207,170325,1,2,2:0:0:0:
358,185,170400,1,2,2:0:0:0:
361,162,170475,1,2,1:2:0:0:
325,67,170625,5,2,3:2:0:0:
234,143,170775,1,2,1:2:0:0:
325,67,170925,1,2,3:2:0:0:
361,162,171075,1,2,1:2:0:0:
227,47,171225,1,2,3:2:0:0:
151,139,171375,6,0,P|102:135|73:95,1,95.9999999999998,6|2,3:2|2:0,2:0:0:0:
252,231,171975,2,0,P|280:269|268:328,1,95.9999999999998,2|2,2:0|2:0,2:0:0:0:
27,257,172575,6,0,P|77:231|132:246,2,95.9999999999998,6|0|0,3:1|2:0|2:0,2:0:0:0:
86,311,173475,1,0,3:2:0:0:
188,196,173775,6,0,P|235:192|275:216,2,95.9999999999998,2|0|0,1:0|2:0|2:0,2:0:0:0:
216,270,174675,1,2,3:2:0:0:
308,339,174975,6,0,B|361:341|345:310|413:318,2,95.9999999999998,2|0|0,3:1|2:0|3:2,2:0:0:0:
399,316,175875,1,2,2:0:0:0:
304,260,176175,5,2,1:0:0:0:
399,316,176475,1,2,2:0:0:0:
463,220,176775,1,2,2:0:0:0:
366,160,177075,1,2,2:0:0:0:
304,260,177375,6,0,P|254:286|199:271,2,95.9999999999998,6|0|0,3:1|2:0|2:0,2:0:0:0:
245,206,178275,1,0,3:2:0:0:
157,140,178575,6,0,P|107:114|52:129,2,95.9999999999998,2|0|0,1:0|2:0|2:0,2:0:0:0:
98,194,179475,1,0,3:2:0:0:
188,58,179775,6,0,L|294:55,2,95.9999999999998,2|0|0,3:1|3:2|1:2,2:0:0:0:
283,55,180675,2,0,L|287:108,1,47.9999999999999,2|0,3:2|2:0,2:0:0:0:
241,207,180975,5,6,1:2:0:0:
360,155,181125,2,0,L|394:152,2,32,0|0|2,3:2|3:2|3:2,2:0:0:0:
210,123,181425,1,4,1:2:0:0:
327,233,181575,2,0,L|361:230,2,32,2|0|0,3:2|3:2|3:2,2:0:0:0:
189,275,181875,2,0,P|147:282|112:338,1,96,6|0,1:2|2:0,2:0:0:0:
114,321,182175,6,0,L|93:194,1,128,6|0,3:1|1:2,2:0:0:0:
274,292,182625,2,0,P|242:350|182:367,1,128,0|0,2:0|3:2,2:0:0:0:
199,211,183075,2,0,L|187:280,1,64,2|0,1:2|2:0,2:0:0:0:
193,133,183375,6,0,B|272:125|244:179|326:167,1,128,2|0,3:1|1:2,2:0:0:0:
389,172,183825,2,0,P|377:120|289:97,1,128,0|0,2:0|3:2,2:0:0:0:
193,133,184275,2,0,L|188:68,1,64,2|0,1:2|2:0,2:0:0:0:
217,209,184575,6,0,P|155:205|117:156,1,128,2|0,3:1|1:2,2:0:0:0:
35,102,185025,1,0,3:0:0:0:
29,197,185175,6,0,L|23:305,2,96,2|2|2,2:0|2:0|2:0,2:0:0:0:
117,156,185775,2,0,L|129:220,1,64,2|0,3:1|2:0,2:0:0:0:
163,332,186075,1,2,1:2:0:0:
93,305,186225,2,0,P|132:261|209:275,1,128,2|0,3:2|3:2,2:0:0:0:
276,334,186675,2,0,P|352:308|365:279,1,96,6|0,1:2|2:0,2:0:0:0:
364,274,186975,6,0,L|373:146,1,128,6|0,3:1|1:2,2:0:0:0:
288,58,187425,2,0,P|239:45|205:58,1,64,0|0,2:0|2:0,2:0:0:0:
147,120,187725,1,0,3:2:0:0:
233,183,187875,1,2,1:2:0:0:
147,120,188025,1,2,2:0:0:0:
243,120,188175,6,0,L|230:199,1,64,2|0,3:1|2:0,2:0:0:0:
152,322,188475,1,0,1:2:0:0:
294,245,188625,1,0,1:2:0:0:
157,222,188775,2,0,L|95:207,2,42.6666666666667,0|8|8,3:2|2:3|2:3,2:0:0:0:
244,332,189075,2,0,L|308:325,2,42.6666666666667,10|4|4,2:3|2:3|2:3,2:0:0:0:
73,367,189375,6,0,L|61:265,1,95.9999999999998,6|0,3:1|2:0,2:0:0:0:
62,272,189825,1,0,3:2:0:0:
157,205,189975,2,0,P|204:205|240:175,1,95.9999999999998,2|0,1:0|2:0,2:0:0:0:
181,129,190425,1,0,3:2:0:0:
181,129,190500,1,0,3:2:0:0:
181,129,190575,5,6,3:2:0:0:
157,205,190875,5,2,2:0:0:0:
140,287,191175,5,2,2:0:0:0:
119,371,191475,5,2,2:0:0:0:
157,205,191775,5,6,2:0:0:0:
157,205,192225,1,2,2:0:0:0:
228,245,192375,1,2,2:0:0:0:
228,245,192825,1,2,2:0:0:0:
85,160,192975,5,2,2:0:0:0:
139,96,193275,1,2,2:0:0:0:
216,78,193575,1,2,2:0:0:0:
288,106,193875,1,2,2:0:0:0:
403,246,194175,5,2,2:0:0:0:
344,194,194475,1,2,2:0:0:0:
325,119,194775,1,2,2:0:0:0:
351,50,195075,1,2,2:0:0:0:
344,194,195375,6,0,L|341:248,1,47.9999999999999,2|0,2:0|2:0,2:0:0:0:
292,302,195975,1,2,2:0:0:0:
216,311,196275,1,2,2:0:0:0:
103,234,196575,6,0,P|126:231|150:235,1,47.9999999999999,2|0,2:0|2:0,2:0:0:0:
125,310,197175,1,2,2:0:0:0:
103,234,197475,1,2,2:0:0:0:
205,184,197775,5,2,2:0:0:0:
129,156,198075,1,2,2:0:0:0:
129,156,198225,2,0,L|124:98,1,47.9999999999999,2|0,2:0|2:0,2:0:0:0:
375,26,198825,5,2,2:0:0:0:
375,26,198975,1,2,2:0:0:0:
435,84,199275,1,2,2:0:0:0:
435,84,199425,1,2,2:0:0:0:
420,162,199725,1,2,2:0:0:0:
372,224,200025,6,0,L|298:237,1,71.9999999999999,2|0,2:0|2:0,2:0:0:0:
170,191,200775,1,2,2:0:0:0:
223,275,201075,1,2,2:0:0:0:
255,166,201375,6,0,L|262:109,1,47.9999999999999,2|0,2:0|2:0,2:0:0:0:
270,40,201975,1,2,2:0:0:0:
61,58,202425,5,2,2:0:0:0:
61,58,202575,1,2,2:0:0:0:
36,131,202875,1,2,2:0:0:0:
59,207,203175,1,2,2:0:0:0:
119,255,203475,1,2,2:0:0:0:
298,285,203775,5,2,2:0:0:0:
223,260,204075,1,2,2:0:0:0:
149,281,204375,1,2,2:0:0:0:
102,338,204675,1,2,2:0:0:0:
102,338,204825,6,0,L|44:337,1,47.9999999999999,2|0,2:0|2:0,2:0:0:0:
149,281,205275,1,2,2:0:0:0:
223,260,205575,1,2,2:0:0:0:
298,285,205875,1,2,2:0:0:0:
359,340,206175,5,2,2:0:0:0:
474,215,206775,6,0,L|417:208,2,47.9999999999999,2|2|2,2:0|2:0|2:0,2:0:0:0:
353,198,207675,1,2,2:0:0:0:
353,198,207825,2,0,L|280:187,1,71.9999999999999,2|0,2:0|2:0,2:0:0:0:
191,56,208575,6,0,P|244:68|273:201,1,192,6|0,3:2|2:0,2:0:0:0:
200,145,209175,1,2,3:2:0:0:
47,217,209475,2,0,L|60:351,1,128,0|0,3:2|3:2,2:0:0:0:
187,272,210075,2,0,L|200:138,1,128,0|0,3:2|3:2,2:0:0:0:
47,217,210675,1,0,3:2:0:0:
61,48,210975,5,6,2:3:0:0:
117,163,211125,1,0,3:2:0:0:
61,48,211275,1,0,3:2:0:0:
36,179,211425,5,6,2:3:0:0:
139,73,211575,1,0,3:2:0:0:
36,179,211725,1,0,3:2:0:0:
139,255,211875,2,0,P|194:230|216:174,1,120,6|0,3:2|2:0,2:0:0:0:
219,151,212175,5,2,2:0:0:0:
269,90,212475,5,2,2:0:0:0:
356,50,212775,5,2,2:0:0:0:
476,70,213075,5,2,2:0:0:0:
404,228,213375,6,0,B|333:217|333:217|314:226|314:226|217:208,1,176,6|0,3:2|1:2,2:0:0:0:
65,193,213825,1,2,2:0:0:0:
166,87,213975,2,0,L|150:181,1,88,2|0,3:2|3:2,2:0:0:0:
68,78,214275,1,0,1:2:0:0:
178,5,214425,1,2,2:0:0:0:
263,130,214575,6,0,L|351:113,1,88,2|0,3:2|2:0,2:0:0:0:
459,214,214875,2,0,L|371:197,1,88,2|0,1:2|2:0,2:0:0:0:
448,106,215175,1,2,3:2:0:0:
448,106,215325,1,0,3:2:0:0:
459,214,215475,2,0,L|453:305,1,88,2|0,1:2|2:0,2:0:0:0:
300,322,215775,6,0,P|240:307|223:285,1,88,2|0,3:2|2:0,2:0:0:0:
68,224,216075,2,0,P|102:197|145:194,1,88,2|0,1:2|2:0,2:0:0:0:
138,363,216375,2,0,L|131:263,1,88,2|0,3:2|3:2,2:0:0:0:
227,123,216675,2,0,L|224:214,1,88,2|0,1:2|2:0,2:0:0:0:
145,88,216975,6,0,P|211:35|293:57,1,176,6|0,3:2|1:2,2:0:0:0:
448,125,217425,1,0,3:2:0:0:
360,218,217575,2,0,L|349:123,1,88,6|0,3:2|2:0,2:0:0:0:
461,38,217875,2,0,L|447:129,1,88,6|0,1:2|2:0,2:0:0:0:
399,291,218175,6,0,P|322:293|271:215,1,176,6|0,3:2|1:2,2:0:0:0:
225,155,218625,1,2,2:0:0:0:
106,253,218775,2,0,L|201:268,1,88,2|0,2:0|3:2,2:0:0:0:
138,128,219075,2,0,L|43:142,1,88,2|0,1:2|2:0,2:0:0:0:
228,33,219375,6,0,P|245:96|234:135,1,88,2|0,3:2|2:0,2:0:0:0:
106,253,219675,1,2,1:2:0:0:
179,193,219825,2,0,B|275:176|248:249|346:229,1,176,2|0,3:2|3:2,2:0:0:0:
447,111,220275,1,0,1:2:0:0:
322,146,220425,1,2,2:0:0:0:
423,279,220575,6,0,L|458:188,1,88,6|0,3:2|2:0,2:0:0:0:
322,146,220875,1,2,1:2:0:0:
423,279,221025,5,2,3:2:0:0:
447,111,221325,5,2,3:2:0:0:
335,236,221625,6,0,B|269:255|269:255|238:250|238:250|164:269,1,176,6|0,3:2|3:2,2:0:0:0:
87,205,222075,1,0,1:2:0:0:
81,295,222225,1,0,1:2:0:0:
81,295,222300,1,0,1:2:0:0:
81,295,222375,1,2,1:2:0:0:
172,179,222525,1,0,1:2:0:0:
163,158,222600,1,0,1:2:0:0:
150,141,222675,1,2,1:2:0:0:
133,127,222750,1,0,1:2:0:0:
113,118,222825,1,0,1:2:0:0:
91,114,222900,1,0,1:2:0:0:
68,119,222975,6,0,L|254:95,1,176,6|0,3:2|1:2,2:0:0:0:
398,81,223425,1,2,2:0:0:0:
332,234,223575,2,0,L|315:142,1,88,2|0,3:2|3:2,2:0:0:0:
435,184,223875,1,0,1:2:0:0:
365,319,224025,1,2,2:0:0:0:
252,259,224175,6,0,P|314:231|346:238,1,88,2|0,3:2|2:0,2:0:0:0:
455,365,224475,2,0,P|415:363|374:334,1,88,2|0,1:2|2:0,2:0:0:0:
258,256,224775,1,2,3:2:0:0:
258,256,224925,1,0,3:2:0:0:
435,184,225075,2,0,L|423:280,1,88,2|0,1:2|2:0,2:0:0:0:
266,345,225375,6,0,L|170:328,1,88,6|0,3:2|2:0,2:0:0:0:
275,174,225675,2,0,L|371:157,1,88,2|0,1:2|3:2,2:0:0:0:
258,256,225975,1,2,1:2:0:0:
148,191,226125,1,0,3:2:0:0:
179,329,226275,1,2,1:2:0:0:
68,198,226425,6,0,P|80:143|189:123,1,176,6|0,3:2|3:2,2:0:0:0:
275,174,226875,2,0,L|288:59,1,88,2|0,1:2|3:2,2:0:0:0:
440,42,227175,1,2,1:2:0:0:
361,160,227325,1,0,3:2:0:0:
474,251,227475,2,0,P|469:197|430:152,1,88,2|8,1:2|2:3,2:0:0:0:
361,160,227700,1,4,2:3:0:0:
361,160,227775,6,0,B|270:141|297:224|182:204,1,176,6|0,3:2|1:2,2:0:0:0:
117,131,228225,1,0,2:0:0:0:
219,40,228375,2,0,L|221:135,1,88,2|0,2:0|3:2,2:0:0:0:
123,218,228675,2,0,L|116:129,1,88,2|0,1:2|2:0,2:0:0:0:
196,287,228975,6,0,P|122:311|40:265,1,176,2|2,3:2|1:2,2:0:0:0:
269,257,229425,2,0,P|274:319|254:357,1,88,2|0,3:2|2:0,2:0:0:0:
196,287,229725,1,0,3:2:0:0:
345,212,229875,1,0,1:2:0:0:
334,370,230025,1,0,1:2:0:0:
269,257,230175,6,0,L|259:153,1,88,6|0,1:2|3:2,2:0:0:0:
383,304,230475,1,0,3:2:0:0:
472,158,230625,2,0,L|465:257,1,88,6|0,1:2|3:2,2:0:0:0:
374,102,230925,1,0,3:2:0:0:
269,257,231075,2,0,P|229:269|162:253,1,88,6|0,1:2|1:2,2:0:0:0:
96,168,231375,5,2,1:2:0:0:
235,186,231525,1,0,1:2:0:0:
235,186,231600,1,0,1:2:0:0:
235,186,231675,1,10,2:3:0:0:
168,108,231825,1,8,2:3:0:0:
153,250,231975,1,10,2:3:0:0:
256,96,232125,1,4,2:3:0:0:
83,81,232275,1,6,2:3:0:0:
235,186,232425,6,0,L|399:176,1,160,6|0,3:2|3:2,2:0:0:0:
358,296,232875,2,0,P|337:259|335:218,1,80,0|0,1:2|2:0,2:0:0:0:
470,167,233175,2,0,P|466:206|446:240,1,80,0|0,3:2|2:0,2:0:0:0:
373,100,233475,1,0,1:2:0:0:
272,165,233625,6,0,P|216:142|204:37,1,160,0|0,3:2|3:2,2:0:0:0:
298,4,234075,2,0,L|274:84,1,80,0|0,1:2|2:0,2:0:0:0:
193,220,234375,2,0,L|171:144,2,80,2|0|0,3:2|2:0|1:2,2:0:0:0:
272,264,234825,6,0,P|221:312|129:286,1,160,2|0,3:2|3:2,2:0:0:0:
24,227,235275,2,0,L|21:339,1,80,0|0,1:2|2:0,2:0:0:0:
115,207,235575,1,0,3:2:0:0:
115,207,235725,1,0,2:0:0:0:
47,141,235875,1,2,1:2:0:0:
136,110,236025,6,0,L|303:94,1,160,2|0,3:2|3:2,2:0:0:0:
364,192,236475,2,0,L|271:178,1,80,2|0,1:2|1:2,2:0:0:0:
401,109,236775,1,2,3:2:0:0:
471,231,236925,2,0,L|485:123,1,80,2|0,3:2|1:2,2:0:0:0:
363,191,237225,6,0,B|372:260|372:260|366:283|366:283|375:358,1,160,6|0,3:2|3:2,2:0:0:0:
224,286,237675,2,0,P|262:257|304:255,1,80,0|0,1:2|2:0,2:0:0:0:
444,300,237975,2,0,P|482:329|524:331,2,80,0|0|0,3:2|2:0|1:2,2:0:0:0:
481,146,238425,6,0,P|444:196|344:190,1,160,0|0,3:2|3:2,2:0:0:0:
224,104,238875,2,0,P|280:111|321:147,1,80,0|0,1:2|2:0,2:0:0:0:
256,264,239175,2,0,L|246:176,1,80,0|0,3:2|2:0,2:0:0:0:
138,105,239475,1,0,1:2:0:0:
59,224,239625,6,0,L|42:57,1,160,0|0,3:2|3:2,2:0:0:0:
132,266,240075,2,0,P|100:300|33:310,1,80,0|0,1:2|2:0,2:0:0:0:
165,196,240375,1,0,3:2:0:0:
210,261,240525,2,0,L|292:273,1,80,0|0,2:0|1:2,2:0:0:0:
468,175,240825,6,0,P|414:173|368:270,1,160,6|0,3:2|3:2,2:0:0:0:
452,332,241275,2,0,L|440:242,1,80,2|0,1:2|3:2,2:0:0:0:
359,341,241575,1,2,1:2:0:0:
292,192,241725,2,0,L|288:292,1,80,2|0,3:2|1:2,2:0:0:0:
436,149,242025,6,0,B|344:138|392:213|287:191,1,160,6|0,3:2|3:2,2:0:0:0:
193,143,242475,2,0,L|95:154,1,80,0|0,1:2|2:0,2:0:0:0:
278,40,242775,2,0,L|266:125,2,80,0|0|0,3:2|2:0|1:2,2:0:0:0:
210,221,243225,6,0,L|238:383,1,160,0|0,3:2|3:2,2:0:0:0:
124,282,243675,2,0,P|77:271|28:279,1,80,0|0,1:2|2:0,2:0:0:0:
150,369,243975,1,0,3:2:0:0:
209,302,244125,2,0,P|256:291|305:299,1,80,0|0,2:0|1:2,2:0:0:0:
382,357,244425,6,0,B|387:291|387:291|397:273|397:273|402:195,1,160,0|0,3:2|3:2,2:0:0:0:
303,134,244875,2,0,L|316:216,1,80,0|0,1:2|2:0,2:0:0:0:
348,53,245175,1,0,3:2:0:0:
414,120,245325,2,0,L|401:199,1,80,0|0,2:0|1:2,2:0:0:0:
316,292,245625,6,0,P|269:284|225:215,1,120,0|0,3:2|2:0,2:0:0:0:
226,199,245925,1,2,3:2:0:0:
195,342,246075,1,2,1:2:0:0:
315,213,246225,1,10,2:3:0:0:
315,213,246300,1,8,2:3:0:0:
315,213,246375,1,2,1:2:0:0:
146,183,246525,2,0,P|93:191|70:251,1,120,6|0,3:2|2:0,2:0:0:0:
69,247,246825,6,0,L|50:71,1,160,6|2,3:2|3:2,2:0:0:0:
185,33,247275,2,0,L|177:127,1,80,2|2,1:2|3:2,2:0:0:0:
153,276,247575,2,0,P|231:267|275:185,1,160,2|0,3:2|1:2,2:0:0:0:
399,78,248025,6,0,B|377:115|377:115|404:250,1,160,6|2,3:2|3:2,2:0:0:0:
331,309,248475,2,0,P|286:318|247:304,1,80,2|2,1:2|3:2,2:0:0:0:
400,230,248775,2,0,P|452:217|503:323,1,160,2|0,3:2|1:2,2:0:0:0:
394,381,249225,6,0,B|371:306|371:306|412:194,1,160,6|2,3:2|3:2,2:0:0:0:
481,137,249675,1,2,1:2:0:0:
481,137,249825,1,2,3:2:0:0:
362,102,249975,2,0,L|195:124,1,160,2|0,3:2|1:2,2:0:0:0:
99,214,250425,6,0,P|178:190|195:92,1,160,6|2,3:2|3:2,2:0:0:0:
221,286,250875,1,2,1:2:0:0:
119,125,251025,1,2,3:2:0:0:
39,288,251175,1,2,1:2:0:0:
131,213,251325,1,8,2:3:0:0:
131,213,251400,1,8,2:3:0:0:
131,213,251475,1,4,2:3:0:0:
221,286,251625,6,0,B|285:298|285:298|318:288|318:288|401:302,1,160,6|2,3:2|3:2,2:0:0:0:
465,211,252075,1,2,1:2:0:0:
377,296,252225,1,2,3:2:0:0:
359,195,252375,1,2,1:2:0:0:
477,300,252525,1,0,3:2:0:0:
477,300,252600,1,0,3:0:0:0:
477,300,252675,1,0,1:2:0:0:
359,195,252825,6,0,L|341:98,1,80,6|0,3:2|2:0,2:0:0:0:
459,38,253125,1,2,3:2:0:0:
442,140,253275,1,2,1:2:0:0:
332,33,253425,2,0,P|287:49|270:159,1,160,2|0,3:2|3:2,2:0:0:0:
224,298,253875,1,0,1:2:0:0:
239,272,253950,1,8,2:3:0:0:
262,254,254025,1,8,2:3:0:0:
291,246,254100,1,4,2:3:0:0:
320,250,254175,6,0,P|364:178|328:104,1,160,6|0,3:2|2:0,2:0:0:0:
221,118,254625,6,0,P|296:102|331:25,1,160,6|0,3:2|2:0,2:0:0:0:
245,35,255075,5,6,3:2:0:0:
256,192,255150,12,0,260475,2:0:0:0:
