osu file format v14

[General]
AudioFilename: audio.mp3
AudioLeadIn: 0
PreviewTime: 60831
Countdown: 0
SampleSet: Soft
StackLeniency: 0.3
Mode: 0
LetterboxInBreaks: 0
WidescreenStoryboard: 1

[Editor]
Bookmarks: 2021,6821,21375,42975,60975,62175,81225,90975,112575,130575,131775,150825,160425,172575,182175,191775,208575,212175,213375,232425,246825,255075,259575
DistanceSpacing: 1.3
BeatDivisor: 4
GridSize: 16
TimelineZoom: 2.2

[Metadata]
Title:Shiroi Yuki no Princess wa
TitleUnicode:白い雪のプリンセスは
Artist:Minato Aqua
ArtistUnicode:湊あくあ
Creator:Amateurre
Version:Aquanother
Source:
Tags:The Snow White Princess Is japanese pop jpop j-pop cover 阿库娅 akua vtuber virtual youtuber ホロライブ hololive Noboru のぼる Hatsune Miku 初音ミク vocaloid Mocaotic F4UZ4N Ayucchi Present Yorita Yoshino -ClariS- AngelSnow Karen leon737
BeatmapID:2748324
BeatmapSetID:1095366

[Difficulty]
HPDrainRate:5
CircleSize:4
OverallDifficulty:8
ApproachRate:9
SliderMultiplier:1.92
SliderTickRate:1

[Events]
//Background and Video events
0,0,"81195379_p0.jpg",0,0
//Break Periods
2,191975,207975
//Storyboard Layer 0 (Background)
//Storyboard Layer 1 (Fail)
//Storyboard Layer 2 (Pass)
//Storyboard Layer 3 (Foreground)
//Storyboard Layer 4 (Overlay)
//Storyboard Sound Samples

[TimingPoints]
971,300,4,2,1,50,1,0
6821,-100,4,2,1,70,0,0
16421,-200,4,2,1,70,0,0
16646,-200,4,2,1,5,0,0
16721,-200,4,2,1,70,0,0
17471,-100,4,2,1,70,0,0
18971,-66.6666666666667,4,2,1,70,0,0
20246,-66.6666666666667,4,2,1,5,0,0
20321,-100,4,2,1,70,0,0
21071,304.568527918782,4,2,1,70,1,8
21071,-125,4,2,1,70,0,0
21304,-125,4,2,1,5,0,0
21375,300,4,2,1,65,1,0
42975,-100,4,2,1,60,0,0
46806,-100,4,2,1,5,0,0
46875,-100,4,2,1,60,0,0
57375,-100,4,2,1,65,0,0
58806,-100,4,2,1,5,0,0
58875,-100,4,2,1,65,0,0
62175,-100,4,2,1,75,0,0
69600,-100,4,2,1,5,0,0
69675,-100,4,2,1,75,0,0
70050,-100,4,2,1,5,0,0
70125,-100,4,2,1,75,0,0
70350,-100,4,2,1,5,0,0
70425,-100,4,2,1,75,0,0
70650,-100,4,2,1,5,0,0
70725,-100,4,2,1,75,0,0
81225,-100,4,2,1,70,0,0
90975,-100,4,2,1,65,0,0
112575,-100,4,2,1,60,0,0
116406,-100,4,2,1,5,0,0
116475,-100,4,2,1,60,0,0
126975,-100,4,2,1,65,0,0
128406,-100,4,2,1,5,0,0
128475,-100,4,2,1,65,0,0
131775,-100,4,2,1,75,0,0
139950,-100,4,2,1,5,0,0
140025,-100,4,2,1,75,0,0
140256,-100,4,2,1,5,0,0
140325,-100,4,2,1,75,0,0
150825,-100,4,2,1,70,0,0
151056,-100,4,2,1,5,0,0
151125,-100,4,2,1,70,0,0
152256,-100,4,2,1,5,0,0
152325,-100,4,2,1,70,0,0
158250,-100,4,2,1,5,0,0
158325,-100,4,2,1,70,0,0
160656,-100,4,2,1,5,0,0
160725,-100,4,2,1,70,0,0
165456,-100,4,2,1,5,0,0
165525,-100,4,2,1,70,0,0
166656,-100,4,2,1,5,0,0
166725,-100,4,2,1,70,0,0
172575,-200,4,2,1,55,0,0
180975,-125,4,2,1,60,0,0
182175,-125,4,2,1,65,0,0
184506,-125,4,2,1,5,0,0
184575,-125,4,2,1,65,0,0
190575,-125,4,2,1,60,0,0
191775,-125,4,2,1,50,0,0
208575,-100,4,2,1,60,0,0
210975,-100,4,2,1,65,0,0
213375,-100,4,2,1,75,0,0
221250,-100,4,2,1,5,0,0
221325,-100,4,2,1,75,0,0
221550,-100,4,2,1,5,0,0
221625,-100,4,2,1,75,0,0
221850,-100,4,2,1,5,0,0
221925,-100,4,2,1,75,0,0
246750,-100,4,2,1,5,0,0
246825,-100,4,2,1,75,0,0
255075,-100,4,2,1,70,0,0
260475,-100,4,2,1,5,0,0

[Colours]
Combo1 : 231,41,46
Combo2 : 253,138,241
Combo3 : 121,231,242
Combo4 : 183,63,235

[HitObjects]
131,15,6821,6,0,L|100:216,1,192,6|2,3:2|3:2,2:0:0:0:
183,249,7271,1,2,1:2:0:0:
183,249,7421,1,0,2:0:0:0:
290,186,7571,2,0,L|403:167,1,96,2|2,3:2|3:2,2:0:0:0:
384,170,7796,1,0,3:0:0:0:
383,169,7871,1,0,1:2:0:0:
329,361,8021,6,0,L|182:383,1,144,2|0,3:2|2:0,2:0:0:0:
186,382,8321,1,2,3:2:0:0:
121,328,8471,2,0,L|14:343,1,96,2|0,1:2|2:0,2:0:0:0:
191,230,8771,1,2,3:2:0:0:
191,230,8921,1,2,3:2:0:0:
317,346,9071,1,0,1:2:0:0:
444,223,9221,6,0,P|457:122|416:27,1,192,2|2,3:2|3:2,2:0:0:0:
264,101,9671,2,0,P|264:143|278:203,1,96,2|0,1:2|2:0,2:0:0:0:
353,231,9971,1,2,3:2:0:0:
398,347,10121,1,2,3:2:0:0:
398,347,10196,1,0,3:0:0:0:
398,347,10271,1,0,1:2:0:0:
200,243,10421,6,0,L|30:264,1,144,6|0,3:2|2:0,2:0:0:0:
47,267,10721,2,0,L|57:210,1,48,2|0,3:2|2:0,2:0:0:0:
71,136,10871,1,0,1:2:0:0:
61,144,11021,2,0,L|25:346,1,192,6|2,3:2|3:2,2:0:0:0:
105,370,11471,1,0,1:2:0:0:
255,143,11621,6,0,B|301:109|349:115|382:153|382:153|382:170|387:189|416:213,1,192,6|2,3:2|3:2,2:0:0:0:
485,178,12071,1,2,1:2:0:0:
485,178,12221,1,0,2:0:0:0:
298,341,12371,2,0,L|327:238,1,96,2|2,3:2|3:2,2:0:0:0:
324,248,12596,1,0,3:0:0:0:
324,248,12671,1,0,1:2:0:0:
161,168,12821,6,0,L|141:16,1,144,2|0,3:2|2:0,2:0:0:0:
142,25,13121,1,2,3:2:0:0:
273,104,13271,1,2,1:2:0:0:
246,179,13421,1,0,2:0:0:0:
76,146,13571,1,2,3:2:0:0:
50,299,13721,1,2,3:2:0:0:
50,299,13796,1,0,3:0:0:0:
50,299,13871,1,0,1:2:0:0:
83,372,14021,6,0,L|274:350,1,192,6|2,3:2|3:2,2:0:0:0:
329,284,14471,2,0,L|429:273,1,96,2|0,1:2|2:0,2:0:0:0:
424,273,14696,1,0,3:0:0:0:
424,273,14771,1,2,3:2:0:0:
413,88,14921,1,2,3:2:0:0:
489,128,15071,1,0,1:2:0:0:
237,78,15221,6,0,B|166:91|166:91|151:172,1,144,6|0,3:2|2:0,2:0:0:0:
170,168,15521,2,0,L|246:154,1,48,2|0,3:2|2:0,2:0:0:0:
289,201,15671,1,0,1:2:0:0:
163,43,15821,6,0,B|116:98|116:98|157:170,1,144,6|0,3:2|2:0,2:0:0:0:
170,168,16121,2,0,L|246:154,1,48,2|0,3:2|2:0,2:0:0:0:
289,201,16271,1,0,1:2:0:0:
85,356,16421,6,0,L|-25:332,1,96,6|0,3:2|3:2,2:0:0:0:
207,296,16871,2,0,L|97:272,1,96,4|0,1:2|3:2,2:0:0:0:
23,163,17321,1,4,1:2:0:0:
85,99,17471,2,0,L|80:44,2,48,8|8|0,2:3|2:3|3:2,2:0:0:0:
61,16,17771,5,0,1:2:0:0:
3,80,17921,1,8,2:3:0:0:
76,180,18071,1,8,2:3:0:0:
230,127,18221,1,4,2:3:0:0:
354,137,18371,1,0,3:2:0:0:
424,205,18521,1,8,2:3:0:0:
424,205,18596,1,8,2:3:0:0:
424,205,18671,1,8,2:3:0:0:
424,225,18821,1,4,2:3:0:0:
493,370,18971,6,0,L|356:325,1,144,6|6,3:2|3:2,2:0:0:0:
356,325,20021,6,0,L|126:251,1,216,6|0,3:2|2:0,2:0:0:0:
139,248,20321,6,0,L|146:193,1,48,2|0,3:2|2:0,2:0:0:0:
120,222,20471,2,0,L|127:167,1,48,2|0,3:2|2:0,2:0:0:0:
200,183,20621,2,0,L|207:128,1,48,2|0,3:2|2:0,2:0:0:0:
45,172,20771,2,0,L|52:117,1,48,2|0,3:2|2:0,2:0:0:0:
275,261,20921,2,0,L|282:206,1,48,2|0,3:2|2:0,2:0:0:0:
484,152,21071,6,0,L|504:-11,1,153.6,6|6,1:2|3:2,2:0:0:0:
421,27,21525,5,2,2:0:0:0:
434,229,21675,1,2,1:2:0:0:
434,229,21825,1,2,2:0:0:0:
502,0,21975,5,2,3:2:0:0:
421,27,22125,1,2,3:2:0:0:
434,229,22275,1,2,1:2:0:0:
434,229,22425,1,2,2:0:0:0:
505,181,22575,6,0,L|402:202,1,96,2|2,3:2|2:0,2:0:0:0:
347,140,22875,1,2,1:2:0:0:
511,260,23025,2,0,L|408:281,1,96,2|0,2:0|3:0,2:0:0:0:
382,358,23325,1,0,0:2:0:0:
299,384,23475,1,0,1:2:0:0:
131,267,23625,6,0,L|176:62,1,192,2|2,3:2|3:2,2:0:0:0:
356,40,24075,2,0,L|336:133,1,96,2|2,1:2|2:0,2:0:0:0:
470,268,24375,2,0,L|374:234,1,96,2|2,3:2|3:2,2:0:0:0:
379,235,24600,1,0,3:0:0:0:
379,235,24675,1,2,1:2:0:0:
416,157,24825,1,0,2:0:0:0:
467,365,24975,6,0,L|371:331,1,96,2|2,3:2|2:0,2:0:0:0:
293,358,25275,1,2,1:2:0:0:
197,217,25425,2,0,L|186:268,1,48,2|0,3:2|2:0,2:0:0:0:
190,201,25725,2,0,L|179:252,1,48,2|0,3:2|2:0,2:0:0:0:
215,337,25875,1,0,1:0:0:0:
285,136,26025,6,0,L|81:174,1,192,2|0,3:2|3:2,2:0:0:0:
94,280,26475,2,0,L|-5:299,1,96,2|0,1:2|2:0,2:0:0:0:
37,110,26775,1,2,3:2:0:0:
37,110,26925,1,2,3:2:0:0:
227,158,27075,2,0,L|281:148,1,48,0|0,1:2|2:0,2:0:0:0:
285,136,27225,6,0,L|81:174,1,192,2|0,3:2|3:2,2:0:0:0:
177,333,27675,2,0,L|197:227,1,96,2|0,1:2|2:0,2:0:0:0:
281,231,27975,1,2,2:0:0:0:
165,342,28125,2,0,L|185:236,1,96,2|0,3:2|1:2,2:0:0:0:
113,79,28425,1,2,3:2:0:0:
116,68,28725,5,2,3:2:0:0:
200,86,28875,1,2,1:2:0:0:
267,32,29025,1,2,2:0:0:0:
351,50,29175,1,2,3:2:0:0:
420,216,29325,1,2,3:2:0:0:
343,62,29475,1,2,1:2:0:0:
436,216,29625,1,2,2:0:0:0:
499,70,29775,6,0,B|430:83|430:83|401:138|401:138|329:153,1,192,2|0,3:2|1:2,2:0:0:0:
484,364,30225,2,0,B|425:351|425:351|396:296|396:296|327:283,1,192,2|0,3:2|3:2,2:0:0:0:
195,210,30675,1,0,1:2:0:0:
195,210,30825,1,0,2:0:0:0:
16,368,30975,5,6,3:2:0:0:
90,324,31125,1,2,2:0:0:0:
69,115,31275,1,2,1:2:0:0:
69,115,31425,1,2,2:0:0:0:
16,368,31575,5,2,3:2:0:0:
90,324,31725,1,2,3:2:0:0:
69,115,31875,1,2,1:2:0:0:
69,115,32025,1,2,2:0:0:0:
21,187,32175,6,0,L|8:293,1,96,2|2,3:2|2:0,2:0:0:0:
165,372,32475,1,2,1:2:0:0:
238,326,32625,1,2,2:0:0:0:
244,318,32925,1,0,3:2:0:0:
126,235,33075,1,0,1:2:0:0:
242,100,33225,6,0,L|345:114,1,96,2|0,3:2|2:0,2:0:0:0:
158,11,33525,2,0,L|165:61,1,48,2|0,3:2|2:0,2:0:0:0:
233,112,33675,2,0,L|336:126,1,96,2|2,1:2|2:0,2:0:0:0:
476,16,33975,1,2,3:2:0:0:
462,101,34125,1,0,3:2:0:0:
445,185,34275,1,2,1:2:0:0:
440,198,34575,5,2,3:2:0:0:
374,115,34725,1,2,2:0:0:0:
304,35,34875,1,2,1:2:0:0:
433,212,35025,6,0,L|494:225,1,48,2|0,3:2|2:0,2:0:0:0:
207,97,35325,2,0,L|268:110,1,48,2|0,3:2|2:0,2:0:0:0:
267,111,35475,1,0,1:2:0:0:
373,288,35625,6,0,P|336:243|202:190,1,192,2|0,3:2|3:2,2:0:0:0:
373,288,36075,2,0,P|372:229|353:186,1,96,2|0,1:2|2:0,2:0:0:0:
162,264,36375,1,2,3:2:0:0:
162,264,36525,1,2,3:2:0:0:
237,305,36675,1,0,1:2:0:0:
75,306,36825,6,0,P|64:234|128:109,1,192,2|0,3:2|3:2,2:0:0:0:
75,306,37275,2,0,P|23:262|12:226,1,96,2|0,1:2|2:0,2:0:0:0:
161,371,37575,1,2,2:0:0:0:
313,315,37725,1,2,3:2:0:0:
471,363,37875,1,4,1:2:0:0:
480,355,38175,6,0,L|385:371,1,96,4|0,3:2|2:0,2:0:0:0:
508,271,38475,1,0,1:2:0:0:
508,271,38625,1,0,3:2:0:0:
290,217,38775,2,0,L|385:201,1,96,0|0,2:0|3:2,2:0:0:0:
262,301,39075,1,0,1:2:0:0:
262,301,39225,1,0,2:0:0:0:
479,142,39375,6,0,B|504:74|462:51|462:51|419:8,1,144,2|0,3:2|2:0,2:0:0:0:
433,22,39675,2,0,B|411:44|411:44|377:47|389:105,1,96,0|0,1:2|3:2,2:0:0:0:
271,190,39975,2,0,B|296:122|254:99|254:99|211:56,1,144,0|0,2:0|2:0,2:0:0:0:
225,70,40275,2,0,B|203:92|203:92|169:95|181:153,1,96,0|0,1:2|2:0,2:0:0:0:
6,268,40575,6,0,L|164:225,1,144,2|0,3:2|2:0,2:0:0:0:
144,230,40875,1,0,1:2:0:0:
219,272,41025,1,0,3:2:0:0:
436,153,41175,1,0,1:0:0:0:
362,196,41325,1,0,3:2:0:0:
112,99,41475,1,0,1:2:0:0:
186,141,41625,1,0,3:0:0:0:
309,39,41775,6,0,L|292:149,1,96,6|0,3:2|3:2,2:0:0:0:
194,272,42075,2,0,L|177:382,1,96,6|0,1:2|3:2,2:0:0:0:
281,142,42375,6,0,L|304:-6,1,144,6|0,1:2|2:0,2:0:0:0:
303,0,42675,1,6,1:2:0:0:
222,31,42825,1,0,3:2:0:0:
353,195,42975,6,0,L|471:226,1,96,6|0,3:1|2:0,2:0:0:0:
288,269,43275,2,0,L|406:300,1,96,0|0,1:2|3:2,2:0:0:0:
436,361,43575,1,0,2:0:0:0:
510,316,43725,1,0,3:2:0:0:
510,316,43875,1,0,1:2:0:0:
509,0,44175,6,0,L|472:194,1,192,2|0,3:1|1:2,2:0:0:0:
329,154,44625,1,0,3:2:0:0:
244,134,44775,2,0,L|224:237,1,96,0|0,2:0|3:2,2:0:0:0:
205,312,45075,1,2,1:2:0:0:
36,20,45375,6,0,P|81:27|118:77,1,96,2|0,3:1|2:0,2:0:0:0:
177,5,45675,2,0,P|212:33|219:95,1,96,0|0,1:2|3:2,2:0:0:0:
346,102,45975,2,0,P|339:147|289:184,1,96,0|0,2:0|3:2,2:0:0:0:
296,346,46275,2,0,P|251:339|214:289,1,96,2|0,1:2|2:0,2:0:0:0:
221,213,46575,6,0,P|302:224|382:309,1,192,2|2,3:1|1:2,2:0:0:0:
418,375,47025,2,0,L|527:359,1,96,2|0,3:2|2:0,2:0:0:0:
455,181,47325,1,2,3:2:0:0:
455,181,47475,1,0,1:2:0:0:
503,348,47775,6,0,L|408:361,1,96,6|0,3:1|2:0,2:0:0:0:
367,285,48075,2,0,L|272:298,1,96,0|0,1:2|3:2,2:0:0:0:
115,364,48375,1,0,2:0:0:0:
115,364,48525,1,0,3:2:0:0:
156,169,48675,2,0,L|61:182,1,96,0|0,1:2|2:0,2:0:0:0:
24,351,48975,6,0,P|113:316|209:348,1,192,2|0,3:1|1:2,2:0:0:0:
257,275,49425,1,0,3:2:0:0:
399,384,49575,2,0,L|388:281,1,96,0|2,2:0|3:2,2:0:0:0:
257,275,49875,2,0,L|246:172,1,96,0|0,1:2|2:0,2:0:0:0:
498,178,50175,6,0,L|482:22,1,144,2|0,3:1|2:0,2:0:0:0:
483,34,50475,1,0,1:2:0:0:
403,0,50625,1,0,3:2:0:0:
317,13,50775,1,0,2:0:0:0:
295,96,50925,1,0,3:2:0:0:
302,106,51075,1,2,1:2:0:0:
307,113,51375,5,6,3:2:0:0:
137,77,51675,1,2,1:2:0:0:
103,246,51975,1,2,1:2:0:0:
273,282,52275,1,2,1:2:0:0:
436,162,52575,6,0,P|401:214|407:309,1,144,6|0,3:1|2:0,2:0:0:0:
482,296,52875,2,0,P|507:243|497:186,1,96,0|0,1:2|3:2,2:0:0:0:
441,74,53175,1,0,2:0:0:0:
441,74,53325,1,0,3:2:0:0:
308,147,53475,2,0,L|189:166,1,96,2|0,1:2|2:0,2:0:0:0:
196,247,53775,6,0,L|-8:285,1,192,2|0,3:1|1:2,2:0:0:0:
9,270,54375,1,0,2:0:0:0:
76,324,54525,1,0,3:2:0:0:
112,187,54675,2,0,L|93:78,1,96,2|0,1:2|2:0,2:0:0:0:
79,7,54975,5,2,3:1:0:0:
271,166,55275,1,0,1:2:0:0:
468,12,55575,2,0,P|428:40|368:36,1,96,2|0,2:0|3:2,2:0:0:0:
382,41,55800,1,0,3:0:0:0:
382,41,55875,1,0,1:2:0:0:
302,6,56025,1,2,2:0:0:0:
426,161,56175,6,0,L|389:312,1,144,2|0,3:1|2:0,2:0:0:0:
391,300,56475,1,2,1:2:0:0:
196,384,56625,1,2,3:2:0:0:
147,312,56775,2,0,L|42:323,1,96,0|0,2:0|3:2,2:0:0:0:
172,123,57075,2,0,P|213:180|208:266,1,144,6|0,1:2|2:0,2:0:0:0:
292,264,57375,6,0,L|307:155,1,96,6|0,3:1|2:0,2:0:0:0:
472,349,57675,2,0,L|487:240,1,96,0|0,1:2|3:2,2:0:0:0:
369,15,57975,1,0,2:0:0:0:
450,42,58125,1,0,3:2:0:0:
369,15,58275,2,0,L|261:27,1,96,2|2,1:2|2:0,2:0:0:0:
408,204,58575,6,0,L|204:229,1,192,2|0,3:1|1:2,2:0:0:0:
175,151,59025,1,0,1:2:0:0:
134,227,59175,1,8,2:3:0:0:
238,339,59325,1,8,2:3:0:0:
339,153,59475,1,6,2:3:0:0:
339,153,59775,6,0,P|317:85|329:4,1,144,6|0,3:1|2:0,2:0:0:0:
325,14,60075,1,0,2:0:0:0:
417,38,60225,1,0,3:2:0:0:
385,238,60375,2,0,P|324:200|281:130,1,144,2|0,1:0|2:0,2:0:0:0:
285,140,60675,1,8,2:3:0:0:
370,100,60825,1,4,2:3:0:0:
482,219,60975,5,6,2:1:0:0:
371,339,61275,1,2,2:0:0:0:
207,346,61575,1,2,2:0:0:0:
81,241,61875,1,2,2:0:0:0:
146,82,62175,6,0,L|341:92,1,192,6|0,3:2|1:2,2:0:0:0:
400,32,62625,1,2,2:0:0:0:
497,161,62775,2,0,L|484:258,1,96,2|0,3:2|3:2,2:0:0:0:
484,256,63000,1,0,3:0:0:0:
484,256,63075,1,0,1:2:0:0:
399,274,63225,2,0,L|391:329,1,48,2|0,2:0|2:0,2:0:0:0:
399,334,63375,6,0,P|346:339|301:308,1,96,2|0,3:2|2:0,2:0:0:0:
165,319,63675,2,0,P|133:276|138:221,1,96,2|0,1:2|2:0,2:0:0:0:
277,101,63975,1,2,3:2:0:0:
277,101,64125,1,0,3:2:0:0:
218,37,64275,2,0,L|119:51,1,96,2|0,1:2|2:0,2:0:0:0:
42,183,64575,5,2,3:2:0:0:
159,141,64725,1,0,2:0:0:0:
277,101,64875,1,2,1:2:0:0:
264,94,65175,5,2,3:2:0:0:
382,134,65325,1,0,3:2:0:0:
499,176,65475,1,2,1:2:0:0:
468,95,65625,1,0,3:0:0:0:
303,173,65775,6,0,P|284:229|304:328,1,144,6|0,3:2|2:0,2:0:0:0:
347,374,66075,2,0,P|391:365|450:376,1,96,0|0,1:2|3:2,2:0:0:0:
227,359,66375,2,0,P|162:372|74:328,1,144,6|0,3:2|2:0,2:0:0:0:
74,348,66675,2,0,L|72:294,1,48,6|0,3:2|2:0,2:0:0:0:
55,213,66825,1,0,3:0:0:0:
55,213,66900,1,0,3:0:0:0:
55,213,66975,6,0,P|116:217|145:256,1,96,6|0,3:2|2:0,2:0:0:0:
0,140,67275,2,0,P|1:94|39:48,1,96,0|0,1:2|2:0,2:0:0:0:
246,1,67575,2,0,L|215:193,1,192,2|2,2:0|1:2,2:0:0:0:
465,360,68175,6,0,L|353:327,1,96,2|0,3:2|2:0,2:0:0:0:
386,247,68475,1,2,1:2:0:0:
199,361,68625,1,2,3:2:0:0:
199,361,68700,1,0,3:0:0:0:
199,361,68775,1,0,2:0:0:0:
211,275,68925,1,0,3:2:0:0:
95,158,69075,1,0,1:2:0:0:
66,239,69225,2,0,L|125:238,1,48,2|0,2:0|2:0,2:0:0:0:
128,231,69375,6,0,L|154:75,1,144,6|0,3:2|2:0,2:0:0:0:
151,88,69675,1,2,1:2:0:0:
103,16,69825,2,0,P|40:22|23:102,1,144,2|0,3:2|2:0,2:0:0:0:
54,164,70125,2,0,L|106:152,1,48,2|0,3:2|2:0,2:0:0:0:
228,128,70275,2,0,L|280:116,1,48,2|0,3:2|2:0,2:0:0:0:
356,13,70425,6,0,P|397:71|507:73,1,144,6|0,3:2|2:0,2:0:0:0:
464,87,70725,1,0,3:2:0:0:
351,250,70875,2,0,P|352:196|379:154,1,96,0|0,1:2|1:2,2:0:0:0:
386,153,71100,2,0,L|446:165,1,48,0|2,1:2|3:2,2:0:0:0:
449,338,71325,2,0,L|401:328,1,48,0|0,1:2|1:2,2:0:0:0:
330,373,71475,2,0,L|229:353,1,96,2|0,3:2|1:2,2:0:0:0:
175,303,71700,1,0,1:2:0:0:
175,303,71775,6,0,P|128:275|20:341,1,192,6|0,3:2|1:2,2:0:0:0:
98,377,72225,1,2,2:0:0:0:
243,248,72375,2,0,L|232:147,1,96,2|0,3:2|3:2,2:0:0:0:
232,152,72600,1,0,3:0:0:0:
232,152,72675,1,0,1:2:0:0:
160,104,72825,2,0,L|110:120,1,48,2|0,2:0|2:0,2:0:0:0:
102,110,72975,6,0,P|81:58|103:20,1,96,2|0,3:2|2:0,2:0:0:0:
296,14,73275,2,0,P|317:66|295:104,1,96,2|0,1:2|2:0,2:0:0:0:
392,221,73575,1,2,3:2:0:0:
392,221,73725,1,0,3:2:0:0:
455,161,73875,1,2,1:2:0:0:
510,299,74025,1,0,3:0:0:0:
510,299,74100,1,0,3:0:0:0:
510,299,74175,5,6,3:2:0:0:
246,173,74475,1,2,1:2:0:0:
108,246,74625,2,0,L|121:304,1,48,0|0,2:0|2:0,2:0:0:0:
129,305,74775,2,0,L|33:286,1,96,2|0,3:2|3:2,2:0:0:0:
10,203,75075,1,2,1:2:0:0:
82,45,75225,6,0,P|163:28|257:86,1,192,6|0,3:2|3:2,2:0:0:0:
290,159,75675,1,2,1:2:0:0:
209,366,75975,1,2,1:2:0:0:
290,159,76275,1,2,1:2:0:0:
375,212,76425,1,8,2:3:0:0:
375,212,76500,1,4,2:3:0:0:
375,212,76575,6,0,L|375:317,1,96,6|0,3:2|2:0,2:0:0:0:
313,368,76875,1,0,1:2:0:0:
169,282,77025,1,0,2:0:0:0:
157,367,77175,1,2,2:0:0:0:
96,210,77325,1,0,3:2:0:0:
196,74,77475,2,0,L|173:184,1,96,2|0,1:2|2:0,2:0:0:0:
317,230,77775,6,0,L|466:211,1,144,2|0,3:2|2:0,2:0:0:0:
459,211,78075,1,2,1:2:0:0:
435,138,78225,1,2,3:2:0:0:
435,138,78300,1,0,3:0:0:0:
435,138,78375,1,0,2:0:0:0:
381,311,78525,1,0,3:2:0:0:
294,319,78675,1,0,1:2:0:0:
207,321,78825,2,0,L|126:324,1,48,0|0,2:0|2:0,2:0:0:0:
150,331,78975,6,0,P|114:281|153:156,1,192,6|0,3:2|3:2,2:0:0:0:
45,298,79425,2,0,P|47:236|155:161,1,192,6|0,1:2|3:2,2:0:0:0:
55,180,79875,2,0,P|93:158|158:170,1,96,6|0,1:2|2:0,2:0:0:0:
198,236,80100,1,0,3:0:0:0:
198,236,80175,6,0,L|295:219,1,96,2|0,3:2|1:2,2:0:0:0:
281,209,80400,2,0,L|332:201,1,48,0|2,2:0|1:2,2:0:0:0:
461,360,80625,1,0,1:2:0:0:
512,253,80775,1,2,3:2:0:0:
461,360,80925,1,0,1:2:0:0:
416,126,81075,2,0,L|411:176,1,48,2|0,3:2|2:0,2:0:0:0:
417,186,81225,6,0,L|223:147,1,192,6|0,3:2|3:2,2:0:0:0:
7,270,81675,2,0,L|26:366,1,96,0|0,1:2|2:0,2:0:0:0:
250,377,81975,1,0,3:2:0:0:
250,377,82275,2,0,L|236:311,1,48,0|0,1:2|2:0,2:0:0:0:
112,197,82425,6,0,P|103:293|129:386,1,192,0|0,3:2|3:2,2:0:0:0:
333,367,82875,2,0,P|334:313|312:264,1,96,0|0,1:2|2:0,2:0:0:0:
318,274,83100,1,0,2:0:0:0:
318,274,83175,1,2,3:2:0:0:
268,204,83325,1,0,2:0:0:0:
183,188,83475,1,2,1:2:0:0:
327,136,83625,6,0,P|401:196|515:186,1,192,0|0,3:2|3:2,2:0:0:0:
261,0,84075,2,0,P|261:46|243:117,1,96,0|0,1:2|2:0,2:0:0:0:
249,345,84375,2,0,P|251:266|276:183,1,144,0|0,3:2|2:0,2:0:0:0:
267,203,84675,1,0,1:2:0:0:
167,76,84825,2,0,L|60:71,1,96,0|0,3:2|2:0,2:0:0:0:
36,91,85125,5,2,3:2:0:0:
63,173,85275,1,2,1:2:0:0:
196,162,85425,1,2,2:0:0:0:
59,293,85575,1,2,3:2:0:0:
162,342,85725,1,2,3:2:0:0:
276,204,85875,2,0,L|285:148,1,48,2|0,1:2|2:0,2:0:0:0:
297,147,86025,6,0,P|385:176|498:170,1,192,4|0,3:2|3:2,2:0:0:0:
496,361,86475,2,0,P|446:350|389:356,1,96,0|0,1:2|2:0,2:0:0:0:
167,284,86775,1,0,3:2:0:0:
167,284,87075,2,0,P|165:303|170:345,1,48,0|0,1:2|2:0,2:0:0:0:
303,381,87225,6,0,B|365:312|264:268|337:184,1,192,0|0,3:2|3:2,2:0:0:0:
392,143,87675,2,0,P|402:97|386:46,1,96,0|0,1:2|3:2,2:0:0:0:
388,50,87900,1,0,3:0:0:0:
388,50,87975,2,0,L|322:50,1,48,0|0,1:2|2:0,2:0:0:0:
286,119,88125,2,0,L|220:119,1,48,8|0,2:3|2:0,2:0:0:0:
192,49,88275,2,0,L|126:49,1,48,8|0,2:3|2:0,2:0:0:0:
127,48,88425,1,4,2:3:0:0:
0,134,88575,5,4,3:2:0:0:
0,134,89025,5,4,3:2:0:0:
0,134,89475,5,4,3:2:0:0:
0,134,89925,5,4,3:2:0:0:
129,234,90225,2,0,L|120:289,1,48,0|0,3:2|3:2,2:0:0:0:
108,361,90375,1,4,3:2:0:0:
224,172,90525,2,0,P|282:170|377:268,1,192,4|0,3:2|2:0,2:0:0:0:
374,256,90975,6,0,L|388:159,1,96,6|2,3:2|3:2,2:0:0:0:
444,96,91275,1,2,1:2:0:0:
284,282,91575,2,0,L|294:214,1,48,2|0,3:2|2:0,2:0:0:0:
303,159,91725,2,0,L|313:91,1,48,2|0,2:0|2:0,2:0:0:0:
272,32,91875,2,0,P|222:20|167:47,1,96,2|2,1:2|2:0,2:0:0:0:
0,126,92175,5,2,3:2:0:0:
28,247,92325,1,2,2:0:0:0:
147,283,92475,1,2,1:2:0:0:
248,210,92625,1,2,3:2:0:0:
0,126,92925,1,0,3:2:0:0:
68,72,93075,2,0,L|125:88,1,48,0|0,1:2|2:0,2:0:0:0:
126,78,93225,6,0,L|85:275,1,192,2|2,3:2|3:2,2:0:0:0:
35,335,93675,1,2,1:2:0:0:
188,294,93825,1,0,3:0:0:0:
188,294,93900,1,0,3:0:0:0:
188,294,93975,1,2,3:2:0:0:
271,316,94125,1,2,2:0:0:0:
160,286,94275,1,2,1:2:0:0:
298,323,94425,1,2,2:0:0:0:
200,370,94575,6,0,P|213:279|239:211,1,144,2|0,3:2|2:0,2:0:0:0:
230,230,94875,1,2,1:2:0:0:
360,124,95025,2,0,P|406:114|471:140,1,96,2|0,3:2|2:0,2:0:0:0:
313,54,95325,1,2,3:2:0:0:
313,54,95475,1,0,1:2:0:0:
268,128,95625,6,0,P|174:149|75:107,1,192,2|2,3:2|3:2,2:0:0:0:
39,44,96075,2,0,L|147:34,1,96,2|0,1:2|2:0,2:0:0:0:
150,225,96375,1,2,3:2:0:0:
65,205,96525,1,2,3:2:0:0:
0,381,96675,2,0,L|-9:295,1,48,0|0,1:2|2:0,2:0:0:0:
2,320,96825,6,0,L|210:296,1,192,2|0,3:2|3:2,2:0:0:0:
240,370,97275,2,0,L|350:356,1,96,2|0,1:2|2:0,2:0:0:0:
485,259,97575,1,2,3:2:0:0:
481,172,97725,1,0,3:2:0:0:
302,110,97875,1,2,1:2:0:0:
384,285,98025,6,0,P|401:225|376:77,1,192,2|2,3:2|3:2,2:0:0:0:
508,0,98475,2,0,L|398:17,1,96,2|2,1:2|3:2,2:0:0:0:
413,14,98700,1,0,3:0:0:0:
413,14,98775,1,2,3:2:0:0:
302,110,98925,1,2,3:2:0:0:
217,127,99075,1,2,1:2:0:0:
132,146,99225,2,0,L|144:92,1,48,10|8,2:3|2:3,2:0:0:0:
160,21,99375,5,2,3:2:0:0:
160,21,100575,5,6,3:2:0:0:
76,42,100725,1,2,2:0:0:0:
101,124,100875,1,2,1:2:0:0:
185,103,101025,1,2,2:0:0:0:
335,169,101175,5,2,3:2:0:0:
248,162,101325,1,2,3:2:0:0:
245,247,101475,1,2,1:2:0:0:
331,254,101625,1,2,2:0:0:0:
427,360,101775,6,0,L|445:261,1,96,2|2,3:2|2:0,2:0:0:0:
464,184,102075,1,2,1:2:0:0:
464,184,102225,1,2,2:0:0:0:
278,15,102375,1,0,3:0:0:0:
362,34,102525,1,0,3:2:0:0:
445,54,102675,1,0,1:2:0:0:
364,208,102825,6,0,P|318:215|263:180,1,96,2|0,3:2|2:0,2:0:0:0:
37,289,103125,2,0,L|52:236,1,48,2|0,3:2|2:0,2:0:0:0:
16,171,103275,2,0,P|62:164|117:199,1,96,2|2,1:2|2:0,2:0:0:0:
177,368,103575,1,2,3:2:0:0:
262,354,103725,1,2,3:2:0:0:
347,339,103875,1,2,1:2:0:0:
341,355,104175,5,2,3:2:0:0:
407,272,104325,1,2,2:0:0:0:
477,192,104475,1,2,1:2:0:0:
412,0,104625,6,0,L|418:65,1,48,2|0,3:2|2:0,2:0:0:0:
490,278,104925,2,0,L|496:343,1,48,2|0,3:2|2:0,2:0:0:0:
496,342,105075,1,0,1:2:0:0:
496,110,105225,6,0,P|395:84|317:124,1,192,2|2,3:2|3:2,2:0:0:0:
143,206,105675,2,0,L|43:189,1,96,2|0,1:2|2:0,2:0:0:0:
119,24,105975,1,2,3:2:0:0:
119,24,106125,1,2,3:2:0:0:
244,157,106275,1,0,1:2:0:0:
30,81,106425,6,0,P|131:107|209:67,1,192,2|0,3:2|3:2,2:0:0:0:
350,202,106875,2,0,L|450:219,1,96,2|0,1:2|2:0,2:0:0:0:
300,373,107175,1,2,2:0:0:0:
200,231,107325,1,2,3:2:0:0:
307,95,107475,1,4,1:2:0:0:
295,105,107775,6,0,L|311:-3,1,96,4|0,3:2|2:0,2:0:0:0:
213,134,108075,1,0,1:2:0:0:
213,134,108225,1,0,3:2:0:0:
392,218,108375,2,0,L|376:326,1,96,0|0,2:0|3:2,2:0:0:0:
474,189,108675,1,0,1:2:0:0:
474,189,108825,1,0,2:0:0:0:
461,9,108975,6,0,P|410:22|416:106,1,144,6|0,3:2|2:0,2:0:0:0:
410,101,109275,2,0,B|470:101|470:101|496:62,1,96,0|0,1:2|3:2,2:0:0:0:
413,283,109575,2,0,P|464:296|458:380,1,144,0|0,2:0|2:0,2:0:0:0:
464,375,109875,2,0,B|403:375|403:375|377:336,1,96,0|0,1:2|2:0,2:0:0:0:
110,255,110175,6,0,P|132:199|229:176,1,144,6|0,3:2|2:0,2:0:0:0:
206,170,110475,1,0,1:2:0:0:
218,255,110625,1,0,3:2:0:0:
151,108,110775,1,0,1:0:0:0:
71,75,110925,1,0,3:2:0:0:
262,108,111075,1,0,1:2:0:0:
330,55,111225,1,0,3:0:0:0:
493,132,111375,6,0,P|432:121|400:79,1,96,6|0,3:2|2:0,2:0:0:0:
135,0,111675,2,0,P|182:3|218:33,1,96,6|0,1:2|3:2,2:0:0:0:
319,159,111975,2,0,P|310:81|342:-11,1,144,6|0,1:2|2:0,2:0:0:0:
326,18,112275,1,6,1:2:0:0:
403,182,112425,1,0,3:2:0:0:
203,263,112575,6,0,L|301:245,1,96,6|0,3:1|2:0,2:0:0:0:
160,359,112875,2,0,L|258:341,1,96,0|0,1:2|3:2,2:0:0:0:
408,378,113175,1,0,2:0:0:0:
494,357,113325,1,0,3:2:0:0:
494,357,113475,1,0,1:2:0:0:
505,62,113775,6,0,P|422:106|333:78,1,192,2|0,3:1|1:2,2:0:0:0:
273,14,114225,1,0,3:2:0:0:
126,170,114375,2,0,L|230:157,1,96,0|0,2:0|3:2,2:0:0:0:
295,201,114675,1,2,1:2:0:0:
26,373,114975,6,0,P|14:319|41:264,1,96,2|0,3:1|2:0,2:0:0:0:
113,289,115275,2,0,P|126:334|113:380,1,96,0|0,1:2|3:2,2:0:0:0:
1,149,115575,2,0,P|12:94|60:56,1,96,0|0,2:0|3:2,2:0:0:0:
231,151,115875,2,0,P|223:197|192:234,1,96,2|0,1:2|2:0,2:0:0:0:
77,335,116175,6,0,P|78:237|116:149,1,192,2|2,3:1|1:2,2:0:0:0:
290,80,116625,2,0,L|387:62,1,96,2|0,3:2|2:0,2:0:0:0:
459,17,116925,1,2,3:2:0:0:
459,17,117075,1,0,1:2:0:0:
490,316,117375,6,0,L|510:213,1,96,6|0,3:1|2:0,2:0:0:0:
383,377,117675,2,0,L|403:274,1,96,0|0,1:2|3:2,2:0:0:0:
446,122,117975,1,0,2:0:0:0:
446,122,118125,1,0,3:2:0:0:
327,207,118275,2,0,L|308:301,1,96,0|0,1:2|2:0,2:0:0:0:
50,317,118575,6,0,P|38:225|119:119,1,192,2|0,3:1|1:2,2:0:0:0:
169,124,119025,1,0,3:2:0:0:
0,17,119175,2,0,L|112:33,1,96,0|0,2:0|3:2,2:0:0:0:
237,182,119475,2,0,L|349:198,1,96,0|0,1:2|2:0,2:0:0:0:
512,92,119775,6,0,L|360:72,1,144,2|0,3:1|2:0,2:0:0:0:
369,73,120075,1,0,1:2:0:0:
301,18,120225,1,0,3:2:0:0:
246,85,120375,1,0,2:0:0:0:
178,30,120525,1,0,3:2:0:0:
123,97,120675,1,2,1:2:0:0:
134,110,120975,5,6,3:2:0:0:
137,282,121275,1,2,1:2:0:0:
26,149,121575,1,2,1:2:0:0:
29,321,121875,1,2,1:2:0:0:
231,362,122175,6,0,P|270:320|359:319,1,144,6|0,3:1|2:0,2:0:0:0:
420,360,122475,2,0,P|445:307|435:250,1,96,0|0,1:2|3:2,2:0:0:0:
339,136,122775,1,0,2:0:0:0:
339,136,122925,1,0,3:2:0:0:
246,234,123075,2,0,L|348:224,1,96,2|0,1:2|2:0,2:0:0:0:
459,0,123375,6,0,L|422:191,1,192,2|0,3:1|1:2,2:0:0:0:
135,167,123975,1,0,2:0:0:0:
209,122,124125,1,0,3:2:0:0:
99,26,124275,2,0,L|-5:6,1,96,2|0,1:2|2:0,2:0:0:0:
183,0,124575,5,2,3:1:0:0:
275,231,124875,1,0,1:2:0:0:
84,349,125175,2,0,P|33:341|4:290,1,96,2|0,3:0|3:2,2:0:0:0:
7,307,125400,1,0,3:0:0:0:
7,307,125475,1,0,1:2:0:0:
25,223,125625,1,2,2:0:0:0:
247,318,125775,6,0,L|401:279,1,144,2|0,3:1|2:0,2:0:0:0:
386,282,126075,1,2,1:2:0:0:
179,268,126225,1,2,3:2:0:0:
296,132,126375,2,0,P|308:176|295:234,1,96,0|0,2:0|3:2,2:0:0:0:
92,235,126675,2,0,P|75:165|103:76,1,144,6|0,1:2|2:0,2:0:0:0:
140,33,126975,6,0,L|239:49,1,96,6|0,3:1|2:0,2:0:0:0:
351,154,127275,2,0,L|450:170,1,96,0|0,1:2|3:2,2:0:0:0:
227,305,127575,1,0,2:0:0:0:
266,228,127725,1,0,3:2:0:0:
401,366,127875,2,0,L|500:382,1,96,2|0,1:2|2:0,2:0:0:0:
512,90,128175,6,0,P|480:180|475:275,1,192,2|0,3:1|1:2,2:0:0:0:
388,274,128625,1,0,1:2:0:0:
359,192,128775,1,0,3:2:0:0:
410,68,128925,1,8,2:3:0:0:
496,40,129075,1,10,2:3:0:0:
496,40,129150,1,0,3:0:0:0:
496,40,129225,1,4,2:3:0:0:
281,0,129375,5,6,3:1:0:0:
281,0,129975,2,0,L|271:65,1,48,6|0,3:1|2:0,2:0:0:0:
137,151,130125,1,0,2:0:0:0:
259,128,130275,1,2,2:0:0:0:
364,194,130425,1,2,2:0:0:0:
213,360,130575,6,0,L|220:312,3,48,6|0|0|0,3:1|2:0|2:0|2:0,2:0:0:0:
127,324,130875,2,0,L|134:276,3,48,2|0|0|0,3:2|2:0|2:0|2:0,2:0:0:0:
166,202,131175,5,6,3:2:0:0:
137,169,131250,1,0,3:0:0:0:
95,156,131325,1,0,3:0:0:0:
53,167,131400,1,0,3:0:0:0:
68,116,131475,5,6,3:2:0:0:
110,105,131550,1,0,3:0:0:0:
152,118,131625,1,0,3:0:0:0:
181,151,131700,1,0,3:0:0:0:
195,191,131775,6,0,L|391:222,1,192,6|0,3:2|1:2,2:0:0:0:
459,177,132225,1,2,2:0:0:0:
328,17,132375,2,0,L|327:112,1,96,2|0,3:2|3:2,2:0:0:0:
326,112,132600,1,0,3:0:0:0:
326,112,132675,1,0,1:2:0:0:
283,200,132825,2,0,L|282:259,1,48,2|0,2:0|2:0,2:0:0:0:
343,308,132975,5,2,3:2:0:0:
51,177,133275,1,2,1:2:0:0:
121,369,133575,2,0,L|221:356,1,96,2|0,3:2|3:2,2:0:0:0:
216,356,133800,1,0,3:0:0:0:
216,356,133875,1,2,1:2:0:0:
302,365,134025,1,0,2:0:0:0:
157,282,134175,6,0,P|146:215|198:129,1,144,2|0,3:2|2:0,2:0:0:0:
176,147,134475,1,2,1:2:0:0:
334,96,134625,1,0,2:0:0:0:
419,106,134775,1,2,3:2:0:0:
263,35,134925,1,0,3:2:0:0:
263,35,135000,1,0,3:0:0:0:
263,35,135075,1,2,1:2:0:0:
263,35,135375,6,0,L|295:201,1,144,6|0,3:2|2:0,2:0:0:0:
278,190,135675,2,0,L|289:240,1,48,0|0,1:2|2:0,2:0:0:0:
260,318,135825,1,0,3:2:0:0:
495,352,135975,1,6,3:2:0:0:
137,374,136275,1,6,3:2:0:0:
495,352,136575,6,0,P|466:313|362:294,1,144,6|0,3:2|2:0,2:0:0:0:
348,367,136875,2,0,L|281:355,1,48,0|0,1:2|2:0,2:0:0:0:
247,287,137025,1,0,2:0:0:0:
390,112,137175,2,0,L|369:210,1,96,2|0,2:0|3:2,2:0:0:0:
140,362,137475,2,0,L|160:268,1,96,2|0,1:2|2:0,2:0:0:0:
26,99,137775,6,0,P|100:160|198:142,1,192,2|2,3:2|1:2,2:0:0:0:
263,6,138225,1,2,3:2:0:0:
442,105,138375,2,0,L|332:85,1,96,0|0,2:0|3:2,2:0:0:0:
347,87,138600,1,0,3:0:0:0:
347,87,138675,1,0,1:2:0:0:
176,25,138825,1,2,2:0:0:0:
229,243,138975,5,6,3:2:0:0:
238,252,139275,2,0,L|228:313,1,48,2|0,1:2|2:0,2:0:0:0:
266,110,139425,2,0,L|256:171,1,48,2|0,3:2|2:0,2:0:0:0:
275,119,139725,6,0,L|265:180,1,48,2|0,3:2|2:0,2:0:0:0:
247,261,139875,2,0,L|237:322,1,48,2|0,3:2|2:0,2:0:0:0:
304,372,140025,6,0,L|521:339,1,192,6|0,3:2|3:2,2:0:0:0:
391,95,140475,2,0,B|350:89|350:89|368:151,1,96,0|0,1:2|1:2,2:0:0:0:
369,159,140700,2,0,L|313:141,1,48,0|2,1:2|3:2,2:0:0:0:
512,263,140925,2,0,L|456:245,1,48,0|0,1:2|1:2,2:0:0:0:
385,265,141075,1,2,3:2:0:0:
512,71,141225,2,0,L|456:53,1,48,0|0,1:2|1:2,2:0:0:0:
399,8,141375,6,0,P|330:80|225:69,1,192,6|0,3:2|1:2,2:0:0:0:
180,17,141825,1,2,2:0:0:0:
0,190,141975,2,0,L|103:179,1,96,2|0,3:2|3:2,2:0:0:0:
95,179,142200,1,0,3:0:0:0:
95,179,142275,1,0,1:2:0:0:
123,98,142425,2,0,L|57:105,1,48,2|0,2:0|2:0,2:0:0:0:
60,97,142575,6,0,P|34:49|55:11,1,96,2|0,3:2|2:0,2:0:0:0:
209,169,142875,2,0,L|187:272,1,96,2|0,1:2|2:0,2:0:0:0:
188,262,143100,1,0,3:0:0:0:
188,262,143175,1,2,3:2:0:0:
10,366,143475,1,2,1:2:0:0:
266,349,143775,6,0,P|314:300|413:293,1,144,6|0,3:2|2:0,2:0:0:0:
385,286,144075,1,2,1:2:0:0:
426,361,144225,2,0,L|482:348,1,48,0|0,2:0|2:0,2:0:0:0:
483,335,144375,2,0,L|498:227,1,96,2|0,3:2|3:2,2:0:0:0:
448,167,144675,1,2,1:2:0:0:
276,211,144825,6,0,L|304:12,1,192,6|0,3:2|3:2,2:0:0:0:
216,15,145275,1,2,1:2:0:0:
153,147,145425,1,0,3:2:0:0:
153,147,145500,1,0,3:0:0:0:
153,147,145575,1,2,1:2:0:0:
377,111,145875,1,2,1:2:0:0:
124,48,146025,2,0,L|71:37,1,48,8|4,2:3|2:3,2:0:0:0:
66,29,146175,6,0,P|51:85|67:116,1,96,6|0,3:2|2:0,2:0:0:0:
181,262,146475,1,0,1:2:0:0:
184,274,146775,2,0,L|77:255,1,96,2|0,2:0|3:2,2:0:0:0:
37,326,147075,1,2,1:2:0:0:
265,226,147225,1,0,3:0:0:0:
265,226,147300,1,0,3:0:0:0:
265,226,147375,6,0,P|284:153|245:71,1,144,2|0,3:2|2:0,2:0:0:0:
261,90,147675,1,2,1:2:0:0:
292,313,147825,2,0,L|389:329,1,96,2|0,3:2|2:0,2:0:0:0:
418,244,148125,2,0,L|515:260,1,96,0|0,3:2|3:2,2:0:0:0:
332,23,148425,2,0,L|394:31,1,48,0|0,1:2|2:0,2:0:0:0:
392,19,148575,6,0,L|343:223,1,192,6|0,3:2|3:2,2:0:0:0:
229,361,149025,2,0,L|273:174,1,192,6|0,1:2|3:2,2:0:0:0:
194,82,149475,2,0,L|288:97,1,96,6|0,1:2|1:2,2:0:0:0:
288,97,149700,1,0,3:0:0:0:
288,97,149775,5,2,3:2:0:0:
101,215,149925,1,0,1:2:0:0:
101,215,150000,1,0,3:0:0:0:
101,215,150075,2,0,P|97:164|127:123,1,96,2|0,1:2|1:2,2:0:0:0:
192,165,150300,2,0,L|179:222,1,48,0|2,2:0|3:2,2:0:0:0:
367,288,150525,2,0,L|354:345,1,48,0|0,1:2|2:0,2:0:0:0:
279,363,150675,1,2,3:2:0:0:
512,236,150825,6,0,P|419:226|357:133,1,192,6|2,3:2|3:2,2:0:0:0:
372,76,151200,2,0,L|429:102,1,48,0|2,2:0|1:2,2:0:0:0:
125,171,151425,2,0,L|182:197,1,48,2|0,2:0|2:0,2:0:0:0:
250,183,151575,1,2,3:2:0:0:
145,25,151725,1,2,2:0:0:0:
297,0,151875,2,0,L|286:54,1,48,2|0,1:2|2:0,2:0:0:0:
273,57,152025,6,0,L|66:88,1,192,2|2,3:2|3:2,2:0:0:0:
0,275,152475,2,0,B|-19:219|-19:219|19:172,1,96,2|2,1:2|2:0,2:0:0:0:
134,170,152775,1,0,3:2:0:0:
23,11,152925,1,2,2:0:0:0:
134,170,153075,2,0,L|127:230,1,48,2|0,1:2|2:0,2:0:0:0:
186,284,153225,6,0,P|262:272|323:318,1,144,2|0,3:2|2:0,2:0:0:0:
294,384,153525,2,0,L|236:367,1,48,2|0,3:2|2:0,2:0:0:0:
186,275,153675,6,0,P|262:263|323:309,1,144,2|0,1:2|2:0,2:0:0:0:
409,366,153975,2,0,L|407:303,1,48,2|0,3:2|2:0,2:0:0:0:
406,223,154125,2,0,L|404:160,1,48,2|0,2:0|2:0,2:0:0:0:
397,312,154275,1,2,1:2:0:0:
414,166,154425,1,2,3:2:0:0:
493,212,154575,5,0,2:0:0:0:
287,296,154725,1,2,3:2:0:0:
315,81,154875,1,2,1:2:0:0:
493,212,155025,1,2,1:2:0:0:
287,296,155175,6,0,P|291:256|311:227,1,48,2|0,3:2|2:0,2:0:0:0:
315,81,155325,2,0,P|346:104|362:136,1,48,2|0,3:2|2:0,2:0:0:0:
493,212,155475,2,0,P|456:227|421:225,1,48,2|0,1:2|2:0,2:0:0:0:
371,197,155625,1,6,3:2:0:0:
172,344,155925,6,0,L|120:334,1,48,2|0,3:2|2:0,2:0:0:0:
37,360,156075,2,0,L|61:257,1,96,2|2,1:2|2:0,2:0:0:0:
225,102,156375,2,0,P|202:52|112:38,1,144,2|0,3:2|2:0,2:0:0:0:
120,34,156675,1,0,1:2:0:0:
0,188,156825,6,0,L|105:173,1,96,2|0,3:2|2:0,2:0:0:0:
153,237,157050,1,0,3:0:0:0:
153,237,157125,2,0,L|211:227,1,48,0|0,3:2|2:0,2:0:0:0:
266,177,157275,1,2,1:2:0:0:
512,125,157425,2,0,P|449:116|412:15,1,144,2|0,3:2|2:0,2:0:0:0:
407,52,157725,1,0,3:0:0:0:
491,235,157875,2,0,L|436:216,1,48,0|0,1:2|2:0,2:0:0:0:
438,208,158025,6,0,B|390:187|351:214|351:214|343:241|312:266,1,144,2|0,3:2|2:0,2:0:0:0:
322,257,158325,1,2,3:2:0:0:
381,358,158475,2,0,P|392:320|399:280,1,48,2|0,1:2|2:0,2:0:0:0:
355,174,158625,2,0,P|344:136|328:98,1,48,2|0,2:0|2:0,2:0:0:0:
249,48,158775,1,2,3:2:0:0:
133,43,158925,1,0,2:0:0:0:
81,145,159075,1,2,1:2:0:0:
209,323,159225,6,0,L|173:160,1,144,6|0,3:2|2:0,2:0:0:0:
186,186,159525,1,0,3:2:0:0:
194,190,159600,1,0,3:0:0:0:
202,194,159675,6,0,L|140:178,3,48,8|8|8|8,2:3|2:3|2:3|2:3,2:0:0:0:
90,269,159975,1,0,1:2:0:0:
98,301,160050,1,4,2:3:0:0:
124,334,160125,1,4,2:3:0:0:
174,349,160200,1,4,2:3:0:0:
235,335,160275,2,0,L|252:264,1,48,6|0,1:2|2:0,2:0:0:0:
337,206,160425,6,0,L|307:-21,1,192,6|2,3:2|3:2,2:0:0:0:
346,218,160875,1,2,1:2:0:0:
239,153,161025,1,2,2:0:0:0:
415,48,161175,1,2,3:2:0:0:
302,26,161325,1,2,2:0:0:0:
446,147,161475,2,0,L|433:195,1,48,2|0,1:2|2:0,2:0:0:0:
443,203,161625,6,0,P|365:220|310:322,1,192,2|2,3:2|3:2,2:0:0:0:
488,282,162075,1,2,1:2:0:0:
266,142,162225,1,2,2:0:0:0:
254,148,162525,1,2,2:0:0:0:
358,98,162675,1,2,1:2:0:0:
405,290,162825,2,0,L|375:386,1,96,2|0,3:2|2:0,2:0:0:0:
187,252,163125,6,0,L|155:241,1,24,2|0,3:2|0:0,0:0:0:0:
164,244,163200,2,0,L|132:233,1,24,2|0,0:2|0:0,0:0:0:0:
141,236,163275,2,0,L|109:225,1,24,2|0,1:2|0:0,0:0:0:0:
118,228,163350,2,0,L|86:217,1,24,2|0,0:2|0:0,0:0:0:0:
95,220,163425,2,0,L|63:209,1,24,2|0,0:2|0:0,0:0:0:0:
72,212,163500,2,0,L|40:201,1,24,2|0,0:2|0:0,0:0:0:0:
39,187,163575,5,2,3:2:0:0:
34,148,163650,1,2,2:0:0:0:
50,113,163725,1,2,2:0:0:0:
85,98,163800,1,2,2:0:0:0:
119,115,163875,5,2,1:2:0:0:
143,83,163950,1,2,2:0:0:0:
179,71,164025,1,2,3:2:0:0:
214,84,164100,1,2,2:0:0:0:
225,120,164175,5,2,2:0:0:0:
264,114,164250,1,2,2:0:0:0:
298,131,164325,1,2,3:2:0:0:
314,165,164400,1,2,2:0:0:0:
309,203,164475,6,0,L|295:267,1,48,2|2,1:2|2:0,2:0:0:0:
198,313,164625,2,0,L|184:377,1,48,2|2,1:2|2:0,2:0:0:0:
87,194,164775,1,2,3:2:0:0:
172,183,164925,1,0,3:2:0:0:
90,374,165075,1,0,1:2:0:0:
172,183,165225,6,0,P|88:152|29:49,1,192,6|2,3:2|3:2,2:0:0:0:
196,272,165675,2,0,L|293:264,1,96,2|2,1:2|3:2,2:0:0:0:
344,31,165975,2,0,L|441:23,1,96,2|2,1:2|3:2,2:0:0:0:
439,24,166200,1,0,3:0:0:0:
439,24,166275,2,0,L|423:86,1,48,2|0,1:2|2:0,2:0:0:0:
512,103,166425,6,0,B|452:103|452:103|402:159|402:159|330:159,1,192,6|2,3:2|3:2,2:0:0:0:
406,358,166875,2,0,P|399:311|421:249,1,96,2|2,1:2|3:2,2:0:0:0:
482,214,167175,1,2,1:2:0:0:
313,79,167325,1,10,2:3:0:0:
313,79,167400,1,8,2:3:0:0:
313,79,167475,1,10,2:3:0:0:
261,148,167625,2,0,L|195:132,1,48,0|0,3:2|2:0,2:0:0:0:
134,178,167775,5,6,3:2:0:0:
136,184,167850,1,2,2:0:0:0:
138,189,167925,1,2,2:0:0:0:
140,195,168000,1,2,2:0:0:0:
122,214,168075,5,2,1:2:0:0:
126,202,168150,1,2,2:0:0:0:
130,191,168225,1,2,2:0:0:0:
134,178,168300,1,2,2:0:0:0:
101,152,168375,5,2,2:0:0:0:
108,174,168450,1,2,2:0:0:0:
115,194,168525,1,2,3:2:0:0:
122,214,168600,1,2,2:0:0:0:
70,243,168675,5,2,1:2:0:0:
81,213,168750,1,2,2:0:0:0:
91,185,168825,1,2,2:0:0:0:
101,152,168900,1,2,2:0:0:0:
118,97,168975,6,0,L|56:104,1,48,2|2,3:2|2:0,2:0:0:0:
121,86,169125,2,0,L|59:93,1,48,2|2,2:0|2:0,2:0:0:0:
133,73,169275,2,0,L|71:80,1,48,2|2,1:2|2:0,2:0:0:0:
157,67,169425,2,0,L|95:74,1,48,2|2,2:0|2:0,2:0:0:0:
191,73,169575,2,0,L|129:80,1,48,2|2,2:0|2:0,2:0:0:0:
223,124,169725,2,0,L|161:131,1,48,2|2,3:2|2:0,2:0:0:0:
213,224,169875,2,0,L|151:231,1,48,2|2,1:2|2:0,2:0:0:0:
139,338,170025,2,0,L|77:345,1,48,2|2,2:0|2:0,2:0:0:0:
33,289,170175,5,2,1:2:0:0:
31,277,170325,1,2,2:0:0:0:
87,208,170475,5,2,1:2:0:0:
78,167,170625,1,2,3:2:0:0:
226,248,170775,5,2,1:2:0:0:
207,164,170925,1,2,3:2:0:0:
390,189,171075,5,2,1:2:0:0:
353,26,171225,1,2,3:2:0:0:
358,43,171375,5,6,3:2:0:0:
446,332,172575,6,0,L|336:313,2,96,6|0|0,3:1|2:0|2:0,2:0:0:0:
275,360,173475,1,0,3:2:0:0:
275,360,173625,1,0,2:0:0:0:
240,203,173775,2,0,L|130:184,2,96,2|0|0,1:0|2:0|2:0,2:0:0:0:
392,233,174675,1,2,3:2:0:0:
350,74,174975,2,0,L|323:185,2,96,2|0|0,3:1|2:0|3:2,2:0:0:0:
301,272,175875,1,2,2:0:0:0:
436,125,176175,1,2,1:0:0:0:
48,61,176775,1,2,2:0:0:0:
265,377,177375,6,0,L|358:356,1,96,6|0,3:1|2:0,2:0:0:0:
140,256,177975,2,0,L|233:235,1,96,0|0,2:0|3:2,2:0:0:0:
0,381,178575,2,0,L|192:339,1,192,2|0,1:0|2:0,2:0:0:0:
225,129,179475,1,0,3:2:0:0:
157,74,179775,2,0,L|63:94,1,96,2|0,3:1|3:2,2:0:0:0:
206,0,180375,1,0,1:2:0:0:
206,0,180675,1,2,3:2:0:0:
135,186,180975,6,0,L|121:272,1,76.8,6|0,1:2|3:2,2:0:0:0:
114,341,181200,1,0,3:2:0:0:
114,341,181275,2,0,L|168:347,1,38.4,2|0,3:2|2:0,2:0:0:0:
273,204,181425,2,0,L|259:290,1,76.8,4|2,1:2|3:2,2:0:0:0:
252,359,181650,1,0,3:2:0:0:
252,359,181725,2,0,L|306:365,1,38.4,0|0,3:2|2:0,2:0:0:0:
386,373,181875,5,6,1:2:0:0:
386,373,182175,2,0,P|388:325|369:293,1,76.8,6|0,3:1|2:0,2:0:0:0:
501,290,182475,2,0,P|473:250|438:237,1,76.8,0|0,1:2|2:0,2:0:0:0:
300,242,182775,2,0,P|253:228|218:239,1,76.8,0|0,2:0|3:2,2:0:0:0:
259,46,183075,2,0,P|214:63|192:94,1,76.8,2|0,1:2|2:0,2:0:0:0:
146,282,183375,5,2,3:1:0:0:
146,282,183675,1,0,1:2:0:0:
66,254,183825,1,0,2:0:0:0:
72,153,183975,2,0,L|-11:125,1,76.8,0|0,2:0|3:2,2:0:0:0:
148,0,184275,6,0,P|184:74|152:141,1,153.6,2|2,1:2|3:1,2:0:0:0:
334,0,184875,1,0,1:2:0:0:
224,202,185175,2,0,L|331:197,1,76.8,2|0,2:0|3:2,2:0:0:0:
362,257,185475,1,0,1:2:0:0:
362,257,185625,1,2,2:0:0:0:
499,149,185775,6,0,P|462:98|391:92,1,115.2,2|0,3:1|2:0,2:0:0:0:
413,86,186075,1,2,1:2:0:0:
174,41,186225,1,2,3:2:0:0:
217,113,186375,2,0,L|293:109,1,76.8,0|0,2:0|3:2,2:0:0:0:
116,320,186675,2,0,L|142:196,1,115.2,6|0,1:2|2:0,2:0:0:0:
83,141,186975,6,0,P|45:137|9:169,1,76.8,6|0,3:1|2:0,2:0:0:0:
139,77,187275,2,0,P|133:39|92:12,1,76.8,0|0,1:2|2:0,2:0:0:0:
202,141,187575,1,0,2:0:0:0:
286,149,187725,1,0,3:2:0:0:
405,35,187875,1,2,1:2:0:0:
414,42,188175,6,0,L|405:90,1,38.4,2|0,3:1|2:0,2:0:0:0:
438,156,188325,1,0,2:0:0:0:
322,67,188475,1,0,1:2:0:0:
444,170,188625,1,0,1:2:0:0:
177,188,188775,6,0,P|138:191|102:169,1,51.2,0|8,1:2|1:3,2:0:0:0:
88,114,188975,1,8,2:3:0:0:
131,44,189075,6,0,P|156:39|187:47,1,51.2,10|4,2:3|2:3,2:0:0:0:
222,115,189275,1,4,2:3:0:0:
296,148,189375,5,6,3:1:0:0:
59,308,189675,1,0,2:0:0:0:
45,216,189825,1,0,3:2:0:0:
243,215,189975,5,2,1:0:0:0:
256,222,190125,1,0,2:0:0:0:
269,229,190275,1,0,2:0:0:0:
282,235,190425,1,0,3:2:0:0:
210,41,190575,5,6,3:2:0:0:
210,41,191475,2,0,L|221:-4,3,38.4,2|0|0|0,2:0|2:0|2:0|2:0,2:0:0:0:
199,52,191775,5,6,2:0:0:0:
81,262,208575,6,0,B|-14:224|-1:127|76:79|150:148|150:148|122:166|111:195,1,336,6|0,3:2|2:0,2:0:0:0:
124,196,209175,5,2,3:2:0:0:
334,185,209475,1,0,3:2:0:0:
76,269,209775,5,0,3:2:0:0:
385,252,210075,1,0,3:2:0:0:
31,91,210375,5,0,3:2:0:0:
401,71,210675,1,0,3:2:0:0:
167,30,210975,6,0,L|159:85,1,48,6|0,2:3|2:0,2:0:0:0:
306,131,211125,1,0,3:2:0:0:
151,87,211275,1,0,3:2:0:0:
299,121,211425,6,0,L|307:66,1,48,6|0,2:3|2:0,2:0:0:0:
160,20,211575,1,0,3:2:0:0:
315,64,211725,1,0,3:2:0:0:
197,202,211875,5,6,3:2:0:0:
197,202,212175,2,0,L|128:211,3,48,2|0|0|0,2:0|2:0|2:0|2:0,2:0:0:0:
231,345,212475,2,0,L|300:336,3,48,2|0|0|0,2:0|2:0|2:0|2:0,2:0:0:0:
363,279,212775,5,2,3:2:0:0:
373,252,212850,1,0,3:0:0:0:
383,225,212925,1,0,3:0:0:0:
393,198,213000,1,0,3:0:0:0:
439,223,213075,5,2,3:2:0:0:
432,170,213150,1,0,3:0:0:0:
424,117,213225,1,0,3:0:0:0:
418,64,213300,1,0,3:0:0:0:
405,12,213375,6,0,L|204:42,1,192,6|0,3:2|1:2,2:0:0:0:
161,108,213825,1,2,2:0:0:0:
23,230,213975,2,0,L|-1:327,1,96,2|0,3:2|3:2,2:0:0:0:
0,323,214200,1,0,3:0:0:0:
0,323,214275,1,0,1:2:0:0:
85,335,214425,2,0,L|100:278,1,48,2|0,2:0|2:0,2:0:0:0:
108,277,214575,6,0,P|156:264|210:298,1,96,2|0,3:2|2:0,2:0:0:0:
336,373,214875,1,2,1:2:0:0:
423,348,215025,1,0,3:0:0:0:
423,348,215100,1,0,3:0:0:0:
423,348,215175,1,2,3:2:0:0:
204,180,215475,1,2,1:2:0:0:
494,243,215775,6,0,L|385:269,1,96,2|0,3:2|2:0,2:0:0:0:
512,89,216075,2,0,L|403:115,1,96,2|0,1:2|2:0,2:0:0:0:
353,53,216375,1,2,3:2:0:0:
279,228,216525,2,0,L|295:177,1,48,0|0,3:2|2:0,2:0:0:0:
285,172,216675,1,2,1:2:0:0:
279,159,216975,6,0,L|238:318,1,144,6|0,3:2|2:0,2:0:0:0:
177,353,217275,2,0,B|115:331|115:331|116:285,1,96,0|0,1:2|3:2,2:0:0:0:
363,223,217575,2,0,B|428:226|406:304|488:303,1,144,6|0,3:2|2:0,2:0:0:0:
485,291,217875,2,0,P|460:276|429:273,1,48,6|0,1:2|2:0,2:0:0:0:
465,184,218025,1,0,3:0:0:0:
465,184,218100,1,0,3:0:0:0:
465,184,218175,6,0,L|449:83,1,96,6|0,3:2|2:0,2:0:0:0:
282,252,218475,2,0,L|266:151,1,96,0|0,1:2|3:0,2:0:0:0:
266,157,218700,1,0,3:0:0:0:
266,157,218775,1,2,2:0:0:0:
69,42,219075,1,2,1:2:0:0:
0,316,219375,6,0,P|52:263|148:250,1,144,2|0,3:2|2:0,2:0:0:0:
117,246,219675,1,2,1:2:0:0:
157,333,219825,1,2,3:2:0:0:
157,333,219900,1,0,3:0:0:0:
157,333,219975,2,0,L|259:329,1,96,0|0,2:0|3:2,2:0:0:0:
323,184,220275,1,0,1:2:0:0:
363,107,220425,2,0,L|422:103,1,48,2|0,2:0|2:0,2:0:0:0:
443,0,220575,5,6,3:2:0:0:
400,93,220875,2,0,L|352:96,1,48,2|0,1:2|2:0,2:0:0:0:
343,85,221025,2,0,P|277:97|217:51,1,144,2|0,3:2|2:0,2:0:0:0:
141,29,221325,2,0,L|145:88,1,48,2|0,3:2|2:0,2:0:0:0:
9,111,221475,2,0,L|13:170,1,48,2|0,3:2|2:0,2:0:0:0:
127,289,221625,6,0,L|280:245,1,144,6|0,3:2|2:0,2:0:0:0:
267,332,221925,2,0,L|334:312,1,48,0|0,3:2|2:0,2:0:0:0:
395,293,222075,1,0,1:2:0:0:
484,116,222225,2,0,L|438:129,1,48,0|0,1:2|1:2,2:0:0:0:
377,79,222375,1,2,1:2:0:0:
475,353,222525,1,0,1:2:0:0:
475,353,222600,1,0,1:2:0:0:
475,353,222675,1,2,1:2:0:0:
508,190,222825,2,0,L|462:203,1,48,0|0,1:2|1:2,2:0:0:0:
456,216,222975,6,0,L|259:168,1,192,6|0,3:2|1:2,2:0:0:0:
211,106,223425,1,2,2:0:0:0:
34,258,223575,2,0,L|22:148,1,96,2|0,3:2|3:2,2:0:0:0:
23,162,223800,1,0,3:0:0:0:
23,162,223875,1,0,1:2:0:0:
91,110,224025,2,0,L|83:39,1,48,2|0,2:0|2:0,2:0:0:0:
75,52,224175,6,0,P|25:30|-31:44,1,96,2|0,3:2|2:0,2:0:0:0:
206,0,224475,2,0,L|188:111,1,96,2|0,1:2|2:0,2:0:0:0:
190,94,224700,1,0,3:0:0:0:
190,94,224775,1,2,3:2:0:0:
425,282,225075,1,2,1:2:0:0:
345,248,225225,1,0,2:0:0:0:
448,366,225375,6,0,P|474:277|513:213,1,144,6|0,3:2|2:0,2:0:0:0:
498,232,225675,1,2,1:2:0:0:
512,38,225825,1,0,3:2:0:0:
512,38,225900,1,0,3:0:0:0:
512,38,225975,2,0,L|415:44,1,96,2|0,1:2|3:2,2:0:0:0:
218,155,226275,2,0,L|270:149,1,48,2|0,1:2|2:0,2:0:0:0:
279,141,226425,6,0,B|311:104|311:104|398:126|398:126|406:196,1,192,6|0,3:2|3:2,2:0:0:0:
287,360,226875,2,0,P|268:311|304:248,1,96,2|0,1:2|3:2,2:0:0:0:
291,260,227100,2,0,L|343:282,1,48,0|2,2:0|1:2,2:0:0:0:
157,42,227325,2,0,L|209:64,1,48,0|0,3:2|2:0,2:0:0:0:
215,55,227475,1,2,1:2:0:0:
34,144,227625,1,8,2:3:0:0:
34,144,227700,1,4,2:3:0:0:
34,144,227775,5,6,3:2:0:0:
299,31,228075,1,0,1:2:0:0:
345,104,228225,1,0,2:0:0:0:
431,97,228375,2,0,L|452:-9,1,96,2|0,2:0|3:2,2:0:0:0:
336,183,228675,1,2,1:2:0:0:
322,178,228975,6,0,P|422:150|531:154,1,192,2|2,3:2|1:2,2:0:0:0:
259,247,229425,1,2,3:2:0:0:
166,47,229575,2,0,L|192:149,1,96,0|0,2:0|3:2,2:0:0:0:
189,140,229800,1,0,3:0:0:0:
189,140,229875,1,0,1:2:0:0:
9,384,230175,5,6,1:2:0:0:
97,310,230325,1,0,3:2:0:0:
211,322,230475,1,0,3:2:0:0:
5,258,230625,5,6,1:2:0:0:
118,237,230775,1,0,3:2:0:0:
210,305,230925,1,0,3:2:0:0:
366,368,231075,2,0,L|398:257,1,96,6|0,1:2|1:2,2:0:0:0:
454,228,231300,1,0,3:0:0:0:
454,228,231375,6,0,P|410:188|364:191,1,96,2|0,1:2|1:2,2:0:0:0:
310,232,231600,2,0,L|296:284,1,48,0|10,2:0|2:3,2:0:0:0:
219,15,231825,2,0,L|205:67,1,48,8|8,2:3|2:3,2:0:0:0:
275,112,231975,2,0,L|384:100,1,96,10|4,2:3|2:3,2:0:0:0:
370,101,232200,1,4,2:3:0:0:
370,101,232275,1,6,2:3:0:0:
204,172,232425,6,0,L|8:105,1,192,6|0,3:2|3:2,2:0:0:0:
53,376,232875,1,0,1:2:0:0:
95,384,232950,1,0,3:0:0:0:
132,362,233025,1,0,3:0:0:0:
155,326,233100,1,0,3:0:0:0:
147,283,233175,2,0,L|37:296,1,96,0|0,3:2|2:0,2:0:0:0:
5,221,233475,1,0,1:2:0:0:
323,220,233625,1,0,3:2:0:0:
180,70,233925,6,0,L|102:56,1,48,0|0,3:2|2:0,2:0:0:0:
54,84,234075,2,0,P|52:128|82:169,1,96,0|0,1:2|2:0,2:0:0:0:
258,113,234375,2,0,L|280:19,1,96,2|0,3:2|2:0,2:0:0:0:
191,168,234675,1,0,1:2:0:0:
311,269,234825,6,0,P|395:269|482:348,1,192,2|0,3:2|3:2,2:0:0:0:
276,346,235275,2,0,L|159:366,1,96,0|0,1:2|3:0,2:0:0:0:
181,362,235500,1,0,3:0:0:0:
181,362,235575,1,0,3:2:0:0:
423,135,235875,2,0,L|405:195,1,48,2|0,1:2|2:0,2:0:0:0:
396,187,236025,6,0,P|365:141|387:38,1,144,2|0,3:2|2:0,2:0:0:0:
373,56,236325,1,0,3:2:0:0:
262,186,236475,2,0,L|201:195,1,48,2|0,1:2|2:0,2:0:0:0:
197,196,236625,1,0,1:2:0:0:
172,50,236775,2,0,L|67:17,1,96,2|2,3:2|3:2,2:0:0:0:
80,21,237000,1,0,3:0:0:0:
80,21,237075,1,0,1:2:0:0:
0,260,237225,6,0,P|20:178|124:119,1,192,6|0,3:2|3:2,2:0:0:0:
203,304,237675,1,0,1:2:0:0:
244,315,237750,1,0,3:0:0:0:
286,305,237825,1,0,3:0:0:0:
318,276,237900,1,0,3:0:0:0:
328,234,237975,2,0,L|210:203,1,96,0|0,3:2|2:0,2:0:0:0:
455,340,238275,2,0,L|407:327,1,48,0|0,1:2|2:0,2:0:0:0:
400,337,238425,6,0,L|446:177,1,144,0|0,3:2|2:0,2:0:0:0:
439,198,238725,1,0,3:2:0:0:
497,134,238875,1,0,1:2:0:0:
257,62,239175,1,0,3:2:0:0:
23,217,239475,2,0,L|76:206,1,48,0|0,1:2|2:0,2:0:0:0:
81,195,239625,6,0,P|82:120|-17:21,1,192,0|0,3:2|3:2,2:0:0:0:
232,239,240075,2,0,L|342:262,1,96,0|0,1:2|2:0,2:0:0:0:
103,384,240375,2,0,P|99:325|149:254,1,144,0|0,3:2|2:0,2:0:0:0:
154,270,240675,2,0,L|92:258,1,48,0|0,1:2|2:0,2:0:0:0:
172,181,240825,6,0,B|77:179|120:78|22:78,1,192,6|0,3:2|3:2,2:0:0:0:
243,121,241275,2,0,L|370:151,1,96,2|0,1:2|3:2,2:0:0:0:
336,143,241500,1,0,3:0:0:0:
336,143,241575,1,2,1:2:0:0:
409,98,241725,1,2,3:2:0:0:
235,33,241875,2,0,L|305:52,1,48,0|0,1:2|2:0,2:0:0:0:
292,37,242025,5,6,3:2:0:0:
341,311,242325,1,0,3:2:0:0:
424,352,242475,1,0,1:2:0:0:
424,352,242625,1,0,2:0:0:0:
511,181,242775,2,0,L|390:195,1,96,0|0,3:2|3:0,2:0:0:0:
415,192,243000,1,0,3:0:0:0:
415,192,243075,1,0,1:2:0:0:
125,331,243225,6,0,B|134:370|134:370|284:354,1,144,0|0,3:2|2:0,2:0:0:0:
237,358,243525,1,0,3:2:0:0:
68,173,243675,2,0,P|51:217|57:264,1,96,0|0,1:2|3:0,2:0:0:0:
57,264,243900,1,0,3:0:0:0:
57,264,243975,1,0,3:2:0:0:
325,81,244275,6,0,L|272:69,1,48,0|0,1:2|2:0,2:0:0:0:
272,55,244425,2,0,L|461:105,1,192,0|0,3:2|3:2,2:0:0:0:
353,300,244875,2,0,L|242:271,1,96,0|0,1:2|2:0,2:0:0:0:
190,83,245175,1,0,3:2:0:0:
330,214,245325,1,0,3:0:0:0:
330,214,245400,1,0,3:0:0:0:
330,214,245475,1,0,3:2:0:0:
211,166,245625,1,0,3:2:0:0:
318,124,245775,1,0,2:0:0:0:
154,233,245925,6,0,L|110:214,1,48,2|0,3:2|2:0,2:0:0:0:
31,234,246075,2,0,L|6:141,1,96,2|10,1:2|2:3,2:0:0:0:
6,141,246300,1,0,3:0:0:0:
6,141,246375,1,2,1:2:0:0:
131,0,246525,2,0,B|171:35|171:35|138:131,1,144,6|0,3:2|2:0,2:0:0:0:
211,166,246825,6,0,B|304:161|268:265|376:258,1,192,6|2,3:2|3:2,2:0:0:0:
335,128,247275,1,2,1:2:0:0:
335,128,247425,1,2,3:2:0:0:
456,233,247575,2,0,L|437:339,1,96,2|0,3:2|3:0,2:0:0:0:
439,327,247800,1,0,3:0:0:0:
439,327,247875,1,0,1:2:0:0:
512,88,248025,5,6,3:2:0:0:
250,27,248325,1,2,3:2:0:0:
512,88,248475,2,0,L|398:104,1,96,2|2,1:2|3:2,2:0:0:0:
416,101,248700,1,0,3:0:0:0:
416,101,248775,1,2,3:2:0:0:
93,24,249075,2,0,L|101:80,1,48,0|0,1:2|2:0,2:0:0:0:
92,83,249225,6,0,P|159:78|232:128,1,144,6|0,3:2|2:0,2:0:0:0:
223,116,249525,1,2,3:2:0:0:
249,203,249675,1,2,1:2:0:0:
249,203,249825,1,2,3:2:0:0:
330,4,249975,2,0,L|313:103,1,96,2|0,3:2|3:0,2:0:0:0:
313,98,250200,1,0,3:0:0:0:
313,98,250275,1,0,1:2:0:0:
492,249,250425,6,0,L|288:275,1,192,6|2,3:2|3:2,2:0:0:0:
150,116,250875,2,0,B|114:117|114:117|92:174,1,96,2|2,1:2|3:2,2:0:0:0:
184,384,251175,2,0,L|221:286,1,96,2|8,1:2|2:3,2:0:0:0:
217,294,251400,1,8,2:3:0:0:
217,294,251475,1,4,2:3:0:0:
18,246,251625,6,0,P|77:207|209:208,1,192,6|2,3:2|3:2,2:0:0:0:
269,65,252075,1,2,1:2:0:0:
345,104,252225,1,2,3:2:0:0:
194,111,252375,1,2,1:2:0:0:
355,243,252525,1,0,3:2:0:0:
104,108,252675,2,0,L|123:56,1,48,0|0,1:2|2:0,2:0:0:0:
110,49,252825,6,0,B|56:22|56:22|12:150,1,192,6|2,3:2|3:2,2:0:0:0:
46,300,253275,2,0,L|27:352,1,48,2|0,1:2|2:0,2:0:0:0:
40,359,253425,2,0,B|94:386|94:386|138:258,1,192,2|0,3:2|3:2,2:0:0:0:
212,286,253800,1,0,3:2:0:0:
225,292,253875,2,0,L|279:313,1,48,0|8,1:2|2:3,2:0:0:0:
282,316,254025,1,8,2:3:0:0:
294,322,254100,1,4,2:3:0:0:
306,328,254175,5,6,3:2:0:0:
437,266,254325,1,0,2:0:0:0:
431,284,254475,1,0,2:0:0:0:
201,211,254625,5,6,3:2:0:0:
421,106,254775,1,0,2:0:0:0:
411,137,254925,1,0,2:0:0:0:
246,16,255075,5,6,3:2:0:0:
256,192,255150,12,0,260475,2:0:0:0:
