osu file format v14

[General]
AudioFilename: audio.ogg
AudioLeadIn: 0
PreviewTime: 137183
Countdown: 0
SampleSet: Soft
StackLeniency: 0.7
Mode: 3
LetterboxInBreaks: 0
SpecialStyle: 0
WidescreenStoryboard: 1

[Editor]
DistanceSpacing: 0.7
BeatDivisor: 4
GridSize: 4
TimelineZoom: 1.6

[Metadata]
Title:Mada, Aoi
TitleUnicode:未だ、青い
Artist:Minato Aqua
ArtistUnicode:湊あくあ
Creator:DenYi
Version:Ysg's Hard
Source:あくありうむ。
Tags:Artzone ML-ysg lami- j-pop jpop pop hololive ホロライブ virtual youtuber vtuber バーチャル japanese original 8th single vn visual novel video game aquarium akuarium Stay Blue op opening Full version
BeatmapID:3748543
BeatmapSetID:1826609

[Difficulty]
HPDrainRate:7.5
CircleSize:4
OverallDifficulty:7.5
ApproachRate:5
SliderMultiplier:1.4
SliderTickRate:1

[Events]
//Background and Video events
0,0,"mada aoi3.jpg",0,0
Video,-40,"imada aoi.mp4"
//Break Periods
//Storyboard Layer 0 (Background)
//Storyboard Layer 1 (Fail)
//Storyboard Layer 2 (Pass)
//Storyboard Layer 3 (Foreground)
//Storyboard Layer 4 (Overlay)
//Storyboard Sound Samples
Sample,1136,0,"Rim.wav",25
Sample,1460,0,"Rim.wav",25
Sample,1622,0,"Rim.wav",25
Sample,1785,0,"Hat Open.wav",15
Sample,1947,0,"Rim.wav",25
Sample,2190,0,"Rim.wav",25
Sample,2433,0,"Rim.wav",25
Sample,2758,0,"Rim.wav",25
Sample,2920,0,"Rim.wav",25
Sample,3082,0,"Hat Open.wav",15
Sample,3244,0,"Rim.wav",25
Sample,3487,0,"Rim.wav",25
Sample,3731,0,"Rim.wav",25
Sample,4055,0,"Rim.wav",25
Sample,4217,0,"Rim.wav",25
Sample,4379,0,"Hat Open.wav",15
Sample,4541,0,"Rim.wav",25
Sample,5028,0,"Rim.wav",25
Sample,5352,0,"Rim.wav",25
Sample,5514,0,"Hat Open.wav",15
Sample,5514,0,"Rim.wav",25
Sample,5839,0,"Rim.wav",25
Sample,5839,0,"Ride.wav",30
Sample,6325,0,"Rim.wav",25
Sample,6649,0,"Rim.wav",25
Sample,6812,0,"Rim.wav",25
Sample,7136,0,"Rim.wav",25
Sample,11677,0,"Hat.wav",60
Sample,12974,0,"Hat.wav",60
Sample,14920,0,"Hat.wav",60
Sample,16866,0,"Hat.wav",60
Sample,45731,0,"Rim.wav",50
Sample,50920,0,"Rim.wav",50
Sample,72163,0,"Tom3.wav",40
Sample,72812,0,"Tom3.wav",40
Sample,74595,0,"Hat.wav",60
Sample,84974,0,"Hat.wav",60
Sample,87568,0,"Hat.wav",60
Sample,116595,0,"Ride.wav",30
Sample,116920,0,"Ride.wav",30
Sample,119514,0,"Rim.wav",50
Sample,120974,0,"Rim.wav",50
Sample,122109,0,"Rim.wav",50
Sample,123568,0,"Rim.wav",50
Sample,124704,0,"Rim.wav",50
Sample,139460,0,"Hat.wav",60
Sample,142055,0,"Hat.wav",60
Sample,152433,0,"Hat.wav",60
Sample,161190,0,"Ride.wav",30
Sample,167677,0,"Ride.wav",30
Sample,180974,0,"Hat.wav",60
Sample,193947,0,"Hat.wav",60

[TimingPoints]
650,324.324324324324,4,2,1,50,1,0
73298,-100,4,2,1,50,0,1
94055,-100,4,2,1,50,0,0
138163,-100,4,2,1,50,0,1
156325,-100,4,2,1,50,0,0
179677,-100,4,2,1,50,0,1
203028,-100,4,2,1,50,0,0

[HitObjects]
64,192,650,5,2,0:0:0:0:
320,192,650,128,4,893:0:0:0:0:
448,192,650,1,0,0:0:0:0:
192,192,893,128,0,1136:0:0:0:25:Rim.wav
448,192,1136,128,0,1460:0:0:0:35:LR3_HiHatSCD.wav
192,192,1460,1,0,0:0:0:35:LR3_HiHatSCD.wav
320,192,1622,1,0,0:0:0:35:LR3_HiHatSCD.wav
64,192,1785,1,0,0:0:0:35:LR3_HiHatSCD.wav
448,192,1947,1,0,0:0:0:35:LR3_HiHatSCD.wav
192,192,2109,1,0,0:0:0:35:LR3_HiHatSCD.wav
320,192,2190,1,0,0:0:0:35:LR3_HiHatSCD.wav
64,192,2271,1,0,0:0:0:35:LR3_HiHatSCD.wav
448,192,2433,128,0,2758:0:0:0:35:LR3_HiHatSCD.wav
192,192,2758,1,0,0:0:0:35:LR3_HiHatSCD.wav
320,192,2839,1,0,0:0:0:25:Rim.wav
64,192,2920,1,0,0:0:0:35:LR3_HiHatSCD.wav
448,192,3082,1,0,0:0:0:35:LR3_HiHatSCD.wav
192,192,3244,1,0,0:0:0:35:LR3_HiHatSCD.wav
320,192,3244,1,4,0:0:0:30:soft-hitfinish.wav
64,192,3406,1,0,0:0:0:35:LR3_HiHatSCD.wav
448,192,3487,1,0,0:0:0:35:LR3_HiHatSCD.wav
192,192,3568,1,0,0:0:0:35:LR3_HiHatSCD.wav
320,192,3731,128,0,4055:0:0:0:35:LR3_HiHatSCD.wav
64,192,4055,1,0,0:0:0:35:LR3_HiHatSCD.wav
448,192,4217,1,0,0:0:0:35:LR3_HiHatSCD.wav
192,192,4379,1,0,0:0:0:35:LR3_HiHatSCD.wav
320,192,4541,1,0,0:0:0:35:LR3_HiHatSCD.wav
64,192,4704,1,0,0:0:0:35:LR3_HiHatSCD.wav
448,192,4785,1,0,0:0:0:25:Rim.wav
192,192,4866,1,0,0:0:0:35:LR3_HiHatSCD.wav
64,192,5028,128,0,5352:0:0:0:35:LR3_HiHatSCD.wav
448,192,5352,1,0,0:0:0:35:LR3_HiHatSCD.wav
320,192,5433,1,0,0:0:0:25:Rim.wav
192,192,5514,1,0,0:0:0:35:LR3_HiHatSCD.wav
64,192,5595,1,0,0:0:0:15:Ride.wav
320,192,5677,1,0,0:0:0:20:Ride.wav
192,192,5758,1,0,0:0:0:25:Ride.wav
64,192,5839,1,0,0:0:0:35:LR3_HiHatSCD.wav
448,192,5839,1,4,0:0:0:30:soft-hitfinish.wav
320,192,6001,1,0,0:0:0:0:
64,192,6082,1,0,0:0:0:25:Rim.wav
448,192,6163,1,0,0:0:0:0:
192,192,6325,128,0,6649:0:0:0:35:LR3_HiHatSCD.wav
320,192,6649,1,0,0:0:0:35:LR3_HiHatSCD.wav
64,192,6812,1,0,0:0:0:35:LR3_HiHatSCD.wav
448,192,6974,1,0,0:0:0:15:Hat Open.wav
192,192,7136,1,0,0:0:0:35:LR3_HiHatSCD.wav
320,192,7298,1,0,0:0:0:0:
64,192,7379,1,0,0:0:0:25:Rim.wav
448,192,7460,1,0,0:0:0:0:
192,192,7622,128,0,7947:0:0:0:25:Rim.wav
448,192,7947,1,0,0:0:0:25:Rim.wav
64,192,8028,1,0,0:0:0:25:Rim.wav
320,192,8109,1,0,0:0:0:25:Rim.wav
64,192,8433,1,4,0:0:0:30:soft-hitfinish.wav
192,192,8433,1,0,0:0:0:0:
448,192,8595,1,0,0:0:0:0:
192,192,8677,1,0,0:0:0:25:Rim.wav
320,192,8758,1,0,0:0:0:0:
64,192,8920,128,0,9244:0:0:0:25:Rim.wav
448,192,9244,1,0,0:0:0:25:Rim.wav
192,192,9406,1,0,0:0:0:25:Rim.wav
320,192,9487,1,0,0:0:0:25:Rim.wav
64,192,9568,1,0,0:0:0:25:Rim.wav
192,192,9649,1,0,0:0:0:25:Rim.wav
320,192,9731,1,8,0:0:0:0:
448,192,9731,1,0,0:0:0:40:Tom3.wav
320,192,9893,1,8,0:0:0:0:
448,192,9893,1,0,0:0:0:40:Tom3.wav
64,192,10379,1,8,0:0:0:0:
192,192,10379,1,0,0:0:0:0:
64,192,10541,1,2,0:0:0:0:
448,192,10541,1,0,0:0:0:40:Hat Open.wav
64,192,11028,1,2,0:0:0:0:
192,192,11028,128,4,12001:0:0:0:0:
448,192,11028,1,0,0:0:0:0:
320,192,11352,1,10,0:0:0:0:
448,192,11352,1,8,0:0:0:60:Hat.wav
320,192,11677,1,2,0:0:0:0:
64,192,12001,1,10,0:0:0:0:
448,192,12001,1,8,0:0:0:60:Hat.wav
320,192,12163,1,0,0:0:0:0:
192,192,12244,1,0,0:0:0:0:
64,192,12325,1,2,0:0:0:0:
448,192,12325,128,8,12487:0:0:0:60:Hat.wav
192,192,12487,128,0,12649:0:0:0:0:
320,192,12649,1,10,0:0:0:0:
448,192,12649,1,8,0:0:0:60:Hat.wav
64,192,12812,128,0,12974:0:0:0:0:
192,192,12974,128,2,13298:0:0:0:0:
320,192,13298,1,10,0:0:0:0:
448,192,13298,1,8,0:0:0:60:Hat.wav
448,192,13460,128,0,13622:0:0:0:0:
64,192,13622,1,2,0:0:0:0:
320,192,13622,128,8,13947:0:0:0:60:Hat.wav
64,192,13947,1,10,0:0:0:0:
192,192,13947,1,8,0:0:0:60:Hat.wav
320,192,14109,128,0,14271:0:0:0:0:
192,192,14271,128,2,14433:0:0:0:0:
448,192,14271,1,8,0:0:0:60:Hat.wav
320,192,14433,128,0,14595:0:0:0:0:
64,192,14595,1,10,0:0:0:0:
192,192,14595,128,8,14758:0:0:0:60:Hat.wav
448,192,14758,128,0,15082:0:0:0:0:
320,192,14920,1,2,0:0:0:0:
64,192,15082,1,0,0:0:0:0:
192,192,15163,1,0,0:0:0:0:
320,192,15244,1,10,0:0:0:0:
448,192,15244,1,8,0:0:0:60:Hat.wav
64,192,15406,128,0,15568:0:0:0:0:
192,192,15568,1,2,0:0:0:0:
448,192,15568,1,8,0:0:0:60:Hat.wav
320,192,15731,1,8,0:0:0:0:
192,192,15812,1,8,0:0:0:0:
64,192,15893,1,2,0:0:0:0:
320,192,15893,1,8,0:0:0:0:
448,192,15974,1,8,0:0:0:0:
192,192,16055,1,8,0:0:0:0:
320,192,16136,1,8,0:0:0:0:
64,192,16217,1,4,0:0:0:0:
192,192,16217,1,2,0:0:0:0:
448,192,16217,128,2,17190:0:0:0:0:
64,192,16541,1,10,0:0:0:0:
320,192,16541,1,8,0:0:0:60:Hat.wav
192,192,16866,1,2,0:0:0:0:
64,192,17190,1,10,0:0:0:0:
192,192,17190,1,8,0:0:0:60:Hat.wav
320,192,17352,128,0,17514:0:0:0:0:
64,192,17514,128,2,17677:0:0:0:0:
448,192,17514,1,8,0:0:0:60:Hat.wav
192,192,17677,128,0,17839:0:0:0:0:
64,192,17839,1,10,0:0:0:0:
320,192,17839,1,8,0:0:0:60:Hat.wav
448,192,18001,128,0,18163:0:0:0:0:
192,192,18163,1,2,0:0:0:0:
320,192,18163,128,8,18487:0:0:0:60:Hat.wav
64,192,18487,1,10,0:0:0:0:
448,192,18487,1,8,0:0:0:60:Hat.wav
192,192,18649,128,0,18812:0:0:0:0:
320,192,18812,1,2,0:0:0:0:
448,192,18812,128,8,19136:0:0:0:60:Hat.wav
64,192,19136,1,2,0:0:0:0:
192,192,19136,1,8,0:0:0:0:
64,192,19298,128,8,19622:0:0:0:0:
320,192,19298,1,4,0:0:0:0:
448,192,19298,1,0,0:0:0:0:
192,192,19460,1,2,0:0:0:0:
448,192,19622,1,0,0:0:0:0:
192,192,19785,1,8,0:0:0:0:
320,192,19785,1,2,0:0:0:0:
64,192,19947,1,8,0:0:0:0:
192,192,19947,128,4,20271:0:0:0:0:
448,192,19947,1,0,0:0:0:0:
320,192,20109,1,2,0:0:0:0:
448,192,20271,1,8,0:0:0:0:
320,192,20352,1,8,0:0:0:0:
64,192,20433,1,8,0:0:0:0:
192,192,20433,1,2,0:0:0:0:
64,192,20595,1,0,0:0:0:40:Tom1.wav
192,192,20677,1,0,0:0:0:40:Tom1.wav
320,192,20758,1,2,0:0:0:0:
448,192,20758,1,0,0:0:0:0:
192,192,20920,1,0,0:0:0:40:Tom2.wav
320,192,21001,1,0,0:0:0:40:Tom2.wav
64,192,21082,1,2,0:0:0:0:
448,192,21082,1,0,0:0:0:40:Tom2.wav
320,192,21244,1,0,0:0:0:40:Tom3.wav
192,192,21325,1,0,0:0:0:40:Tom3.wav
64,192,21406,1,4,0:0:0:0:
320,192,21406,1,2,0:0:0:0:
448,192,21406,1,0,0:0:0:0:
64,192,21731,1,2,0:0:0:0:
192,192,21731,1,0,0:0:0:0:
192,192,22055,1,2,0:0:0:0:
320,192,22055,1,0,0:0:0:0:
64,192,22217,1,0,0:0:0:50:Rim.wav
320,192,22379,1,2,0:0:0:0:
448,192,22379,1,0,0:0:0:50:Rim.wav
192,192,22541,1,0,0:0:0:0:
64,192,22704,1,2,0:0:0:0:
448,192,22704,1,0,0:0:0:0:
320,192,22947,1,0,0:0:0:50:Rim.wav
64,192,23028,1,2,0:0:0:0:
192,192,23028,1,0,0:0:0:0:
448,192,23190,1,0,0:0:0:50:Rim.wav
192,192,23352,1,2,0:0:0:0:
320,192,23352,1,0,0:0:0:0:
64,192,23514,1,0,0:0:0:50:Rim.wav
192,192,23595,1,0,0:0:0:50:Rim.wav
320,192,23677,1,2,0:0:0:0:
448,192,23677,1,0,0:0:0:0:
64,192,24001,1,2,0:0:0:0:
192,192,24001,1,4,0:0:0:0:
448,192,24001,1,0,0:0:0:0:
320,192,24325,1,2,0:0:0:0:
448,192,24325,1,0,0:0:0:0:
192,192,24649,1,2,0:0:0:0:
320,192,24649,1,0,0:0:0:0:
448,192,24812,1,0,0:0:0:50:Rim.wav
64,192,24974,1,2,0:0:0:0:
192,192,24974,1,0,0:0:0:50:Rim.wav
320,192,25298,1,2,0:0:0:0:
448,192,25298,1,0,0:0:0:0:
192,192,25379,1,0,0:0:0:50:Rim.wav
320,192,25541,1,0,0:0:0:50:Rim.wav
64,192,25622,1,2,0:0:0:0:
192,192,25622,1,0,0:0:0:0:
448,192,25785,1,0,0:0:0:50:Rim.wav
64,192,25947,1,2,0:0:0:0:
320,192,25947,1,0,0:0:0:0:
192,192,26109,1,0,0:0:0:50:Rim.wav
320,192,26190,1,0,0:0:0:50:Rim.wav
64,192,26271,1,2,0:0:0:0:
448,192,26271,1,0,0:0:0:0:
192,192,26595,1,2,0:0:0:0:
320,192,26595,1,4,0:0:0:0:
448,192,26595,1,0,0:0:0:0:
64,192,26920,1,2,0:0:0:0:
192,192,26920,1,0,0:0:0:0:
320,192,27082,1,0,0:0:0:50:Rim.wav
64,192,27244,1,2,0:0:0:0:
448,192,27244,1,0,0:0:0:0:
192,192,27406,1,0,0:0:0:50:Rim.wav
320,192,27568,1,2,0:0:0:0:
448,192,27568,1,0,0:0:0:50:Rim.wav
64,192,27893,1,2,0:0:0:0:
192,192,27893,1,0,0:0:0:50:Rim.wav
320,192,28136,1,0,0:0:0:50:Rim.wav
64,192,28217,1,2,0:0:0:0:
448,192,28217,1,0,0:0:0:0:
192,192,28379,1,0,0:0:0:50:Rim.wav
320,192,28541,1,2,0:0:0:0:
448,192,28541,1,0,0:0:0:0:
192,192,28704,1,0,0:0:0:50:Rim.wav
320,192,28785,1,0,0:0:0:50:Rim.wav
64,192,28866,1,2,0:0:0:0:
448,192,28866,1,0,0:0:0:0:
64,192,29190,1,2,0:0:0:0:
192,192,29190,1,4,0:0:0:0:
320,192,29190,1,0,0:0:0:0:
192,192,29514,1,2,0:0:0:0:
448,192,29514,1,0,0:0:0:0:
64,192,29839,1,2,0:0:0:0:
320,192,29839,1,0,0:0:0:0:
192,192,30001,1,0,0:0:0:50:Rim.wav
64,192,30163,1,2,0:0:0:0:
448,192,30163,1,0,0:0:0:50:Rim.wav
320,192,30487,1,2,0:0:0:0:
448,192,30487,1,0,0:0:0:0:
64,192,30731,1,0,0:0:0:50:Rim.wav
192,192,30812,1,2,0:0:0:0:
320,192,30812,1,0,0:0:0:0:
448,192,30974,1,0,0:0:0:50:Rim.wav
64,192,31136,1,2,0:0:0:0:
192,192,31136,1,0,0:0:0:0:
320,192,31298,1,0,0:0:0:50:Rim.wav
192,192,31379,1,0,0:0:0:50:Rim.wav
64,192,31460,1,10,0:0:0:0:
448,192,31460,1,0,0:0:0:60:Hat.wav
192,192,31785,1,2,0:0:0:0:
320,192,31785,1,4,0:0:0:0:
448,192,31785,1,0,0:0:0:0:
64,192,32028,1,0,0:0:0:50:Rim.wav
192,192,32109,1,2,0:0:0:0:
320,192,32109,1,0,0:0:0:0:
64,192,32433,1,2,0:0:0:0:
448,192,32433,1,0,0:0:0:0:
320,192,32595,1,0,0:0:0:50:Rim.wav
64,192,32758,1,2,0:0:0:0:
192,192,32758,1,0,0:0:0:50:Rim.wav
192,192,33082,1,2,0:0:0:0:
320,192,33082,1,0,0:0:0:0:
448,192,33325,1,0,0:0:0:50:Rim.wav
64,192,33406,1,2,0:0:0:0:
320,192,33406,1,0,0:0:0:0:
192,192,33568,1,0,0:0:0:50:Rim.wav
64,192,33731,1,2,0:0:0:0:
448,192,33731,1,0,0:0:0:0:
320,192,33893,1,0,0:0:0:50:Rim.wav
192,192,33974,1,0,0:0:0:50:Rim.wav
320,192,34055,1,2,0:0:0:0:
448,192,34055,1,0,0:0:0:0:
64,192,34379,1,2,0:0:0:0:
192,192,34379,1,4,0:0:0:0:
448,192,34379,1,0,0:0:0:0:
320,192,34622,1,0,0:0:0:50:Rim.wav
64,192,34704,1,2,0:0:0:0:
192,192,34704,1,0,0:0:0:0:
448,192,34866,1,0,0:0:0:50:Rim.wav
192,192,35028,1,2,0:0:0:0:
320,192,35028,1,0,0:0:0:0:
64,192,35190,1,0,0:0:0:50:Rim.wav
320,192,35352,1,2,0:0:0:0:
448,192,35352,1,0,0:0:0:50:Rim.wav
64,192,35677,1,2,0:0:0:0:
448,192,35677,1,0,0:0:0:0:
192,192,35920,1,0,0:0:0:50:Rim.wav
64,192,36001,1,2,0:0:0:0:
320,192,36001,1,0,0:0:0:0:
448,192,36163,1,0,0:0:0:50:Rim.wav
64,192,36325,1,2,0:0:0:0:
192,192,36325,1,0,0:0:0:0:
320,192,36487,1,0,0:0:0:50:Rim.wav
192,192,36568,1,0,0:0:0:50:Rim.wav
320,192,36649,1,2,0:0:0:0:
448,192,36649,1,8,0:0:0:0:
64,192,36974,1,2,0:0:0:0:
192,192,36974,1,4,0:0:0:0:
448,192,36974,1,0,0:0:0:0:
192,192,37298,1,2,0:0:0:0:
320,192,37298,1,0,0:0:0:0:
320,192,37622,1,2,0:0:0:0:
448,192,37622,1,0,0:0:0:0:
64,192,37785,1,0,0:0:0:50:Rim.wav
192,192,37947,1,2,0:0:0:0:
448,192,37947,1,0,0:0:0:50:Rim.wav
64,192,38271,1,2,0:0:0:0:
320,192,38271,1,0,0:0:0:0:
192,192,38514,1,0,0:0:0:50:Rim.wav
64,192,38595,1,2,0:0:0:0:
448,192,38595,1,0,0:0:0:0:
192,192,38920,1,2,0:0:0:0:
320,192,38920,1,0,0:0:0:0:
448,192,39082,1,0,0:0:0:50:Rim.wav
320,192,39163,1,0,0:0:0:50:Rim.wav
64,192,39244,1,2,0:0:0:0:
192,192,39244,1,0,0:0:0:0:
64,192,39568,1,2,0:0:0:0:
320,192,39568,1,4,0:0:0:0:
448,192,39568,1,0,0:0:0:0:
192,192,39893,1,2,0:0:0:0:
320,192,39893,1,0,0:0:0:0:
64,192,40217,1,2,0:0:0:0:
192,192,40217,1,0,0:0:0:0:
320,192,40460,1,0,0:0:0:50:Rim.wav
64,192,40541,1,2,0:0:0:0:
448,192,40541,1,0,0:0:0:0:
192,192,40704,1,0,0:0:0:50:Rim.wav
320,192,40866,1,2,0:0:0:0:
448,192,40866,1,0,0:0:0:0:
192,192,41028,1,0,0:0:0:50:Rim.wav
64,192,41190,1,8,0:0:0:0:
448,192,41190,1,0,0:0:0:0:
320,192,41271,1,0,0:0:0:40:Tom1.wav
192,192,41352,1,0,0:0:0:40:Tom2.wav
320,192,41433,1,0,0:0:0:40:Tom3.wav
64,192,41514,1,8,0:0:0:0:
192,192,41514,1,0,0:0:0:0:
320,192,41677,1,8,0:0:0:0:
448,192,41677,1,0,0:0:0:50:Hat Open.wav
64,192,42163,1,2,0:0:0:0:
192,192,42163,1,4,0:0:0:0:
448,192,42163,1,0,0:0:0:0:
320,192,42325,1,0,0:0:0:0:
64,192,42487,1,2,0:0:0:0:
448,192,42487,1,0,0:0:0:0:
192,192,42649,1,0,0:0:0:0:
64,192,42812,1,2,0:0:0:0:
320,192,42812,128,0,42974:0:0:0:0:
192,192,43136,1,2,0:0:0:0:
448,192,43136,1,0,0:0:0:0:
320,192,43298,1,0,0:0:0:0:
64,192,43460,128,2,43785:0:0:0:0:
448,192,43460,1,0,0:0:0:0:
192,192,43704,1,0,0:0:0:50:Rim.wav
320,192,43785,1,2,0:0:0:0:
448,192,43785,1,0,0:0:0:0:
192,192,43947,1,0,0:0:0:50:Rim.wav
64,192,44109,1,2,0:0:0:0:
320,192,44109,128,0,44271:0:0:0:0:
192,192,44271,1,0,0:0:0:50:Rim.wav
320,192,44352,1,0,0:0:0:50:Rim.wav
64,192,44433,1,2,0:0:0:0:
448,192,44433,1,0,0:0:0:0:
192,192,44595,1,0,0:0:0:60:Hat.wav
64,192,44758,1,2,0:0:0:0:
320,192,44758,128,4,45244:0:0:0:0:
448,192,44758,1,0,0:0:0:0:
192,192,45001,1,0,0:0:0:50:Rim.wav
448,192,45082,1,2,0:0:0:0:
64,192,45244,1,0,0:0:0:0:
192,192,45406,128,2,45893:0:0:0:0:
448,192,45406,1,0,0:0:0:0:
320,192,45568,1,0,0:0:0:50:Rim.wav
64,192,45731,1,2,0:0:0:0:
320,192,45893,1,0,0:0:0:0:
64,192,46055,1,2,0:0:0:0:
448,192,46055,128,0,47028:0:0:0:0:
320,192,46298,1,0,0:0:0:50:Rim.wav
192,192,46379,1,2,0:0:0:0:
64,192,46541,1,0,0:0:0:50:Rim.wav
320,192,46704,1,2,0:0:0:0:
192,192,46866,1,0,0:0:0:50:Rim.wav
320,192,46947,1,0,0:0:0:50:Rim.wav
64,192,47028,1,2,0:0:0:0:
192,192,47028,1,0,0:0:0:0:
64,192,47352,1,2,0:0:0:0:
320,192,47352,1,4,0:0:0:0:
448,192,47352,1,0,0:0:0:0:
192,192,47514,1,0,0:0:0:0:
320,192,47677,1,2,0:0:0:0:
448,192,47677,1,0,0:0:0:0:
192,192,47839,1,0,0:0:0:0:
64,192,48001,128,2,48163:0:0:0:0:
448,192,48001,1,0,0:0:0:0:
192,192,48325,1,2,0:0:0:0:
320,192,48325,1,0,0:0:0:0:
448,192,48487,1,0,0:0:0:0:
64,192,48649,1,2,0:0:0:0:
192,192,48649,128,0,48974:0:0:0:0:
320,192,48893,1,0,0:0:0:50:Rim.wav
64,192,48974,1,2,0:0:0:0:
448,192,48974,1,0,0:0:0:0:
192,192,49136,1,0,0:0:0:0:
320,192,49298,1,2,0:0:0:0:
448,192,49298,1,0,0:0:0:0:
192,192,49460,1,0,0:0:0:60:Hat.wav
64,192,49622,1,2,0:0:0:0:
320,192,49622,1,8,0:0:0:0:
448,192,49785,1,0,0:0:0:60:Hat.wav
64,192,49947,1,2,0:0:0:0:
192,192,49947,128,4,50271:0:0:0:0:
320,192,49947,1,0,0:0:0:0:
320,192,50271,1,2,0:0:0:0:
448,192,50271,1,0,0:0:0:0:
64,192,50433,1,0,0:0:0:0:
64,192,50595,128,2,51244:0:0:0:0:
448,192,50595,1,0,0:0:0:0:
320,192,50758,1,0,0:0:0:50:Rim.wav
192,192,50920,1,2,0:0:0:0:
320,192,51244,1,2,0:0:0:0:
448,192,51244,1,0,0:0:0:50:Rim.wav
192,192,51487,1,0,0:0:0:50:Rim.wav
64,192,51568,1,2,0:0:0:0:
448,192,51568,1,0,0:0:0:0:
320,192,51731,1,0,0:0:0:40:Tom1.wav
192,192,51893,1,2,0:0:0:0:
448,192,51893,1,0,0:0:0:0:
64,192,52055,1,0,0:0:0:40:Tom2.wav
320,192,52217,1,2,0:0:0:0:
448,192,52217,1,0,0:0:0:0:
192,192,52379,1,0,0:0:0:40:Tom3.wav
64,192,52541,1,2,0:0:0:0:
320,192,52541,1,4,0:0:0:0:
448,192,52541,1,0,0:0:0:0:
192,192,52704,1,0,0:0:0:0:
64,192,52866,1,2,0:0:0:0:
448,192,52866,1,0,0:0:0:0:
320,192,53028,1,0,0:0:0:0:
64,192,53190,1,2,0:0:0:0:
192,192,53190,128,0,53352:0:0:0:0:
320,192,53352,1,0,0:0:0:50:Rim.wav
64,192,53514,1,2,0:0:0:0:
448,192,53514,1,0,0:0:0:50:Rim.wav
192,192,53677,1,0,0:0:0:0:
320,192,53839,1,2,0:0:0:0:
448,192,53839,128,0,54163:0:0:0:0:
64,192,54082,1,0,0:0:0:50:Rim.wav
192,192,54163,1,2,0:0:0:0:
320,192,54163,1,0,0:0:0:0:
448,192,54325,1,0,0:0:0:50:Rim.wav
64,192,54487,1,2,0:0:0:0:
192,192,54487,1,0,0:0:0:0:
320,192,54649,1,0,0:0:0:50:Rim.wav
192,192,54731,1,0,0:0:0:50:Rim.wav
64,192,54812,1,2,0:0:0:0:
448,192,54812,1,0,0:0:0:0:
320,192,54974,1,0,0:0:0:60:Hat.wav
64,192,55136,1,2,0:0:0:0:
192,192,55136,128,4,55460:0:0:0:0:
448,192,55136,1,0,0:0:0:0:
320,192,55460,1,2,0:0:0:0:
448,192,55460,1,0,0:0:0:0:
64,192,55622,1,0,0:0:0:0:
192,192,55785,1,2,0:0:0:0:
320,192,55785,128,0,56109:0:0:0:0:
448,192,55947,1,0,0:0:0:50:Rim.wav
64,192,56109,1,2,0:0:0:0:
192,192,56109,1,0,0:0:0:50:Rim.wav
448,192,56271,1,0,0:0:0:0:
64,192,56433,128,2,56758:0:0:0:0:
320,192,56433,1,0,0:0:0:0:
448,192,56677,1,0,0:0:0:50:Rim.wav
192,192,56758,1,2,0:0:0:0:
320,192,56758,1,0,0:0:0:0:
64,192,56920,1,0,0:0:0:0:
320,192,57082,1,2,0:0:0:0:
448,192,57082,1,0,0:0:0:0:
192,192,57244,1,0,0:0:0:60:Hat.wav
64,192,57406,1,2,0:0:0:0:
448,192,57406,1,0,0:0:0:0:
320,192,57568,1,0,0:0:0:60:Hat.wav
64,192,57731,1,2,0:0:0:0:
192,192,57731,1,4,0:0:0:0:
448,192,57731,128,0,58055:0:0:0:0:
192,192,58055,1,2,0:0:0:0:
320,192,58055,1,0,0:0:0:0:
64,192,58379,1,2,0:0:0:0:
320,192,58379,1,0,0:0:0:0:
192,192,58541,1,0,0:0:0:50:Rim.wav
64,192,58704,1,2,0:0:0:0:
448,192,58704,1,0,0:0:0:50:Rim.wav
320,192,58866,1,0,0:0:0:0:
192,192,59028,128,2,59352:0:0:0:0:
448,192,59028,1,0,0:0:0:0:
320,192,59271,1,0,0:0:0:50:Rim.wav
64,192,59352,1,2,0:0:0:0:
448,192,59352,128,0,59677:0:0:0:0:
192,192,59514,1,0,0:0:0:50:Rim.wav
64,192,59677,128,2,60001:0:0:0:0:
320,192,59839,1,0,0:0:0:50:Rim.wav
192,192,60001,1,2,0:0:0:0:
448,192,60001,1,0,0:0:0:50:Rim.wav
320,192,60163,1,0,0:0:0:60:Hat.wav
64,192,60325,1,2,0:0:0:0:
192,192,60325,1,4,0:0:0:0:
448,192,60325,1,0,0:0:0:0:
320,192,60487,1,0,0:0:0:0:
64,192,60649,1,2,0:0:0:0:
448,192,60649,128,0,61622:0:0:0:0:
192,192,60974,1,2,0:0:0:0:
320,192,60974,1,0,0:0:0:0:
64,192,61298,1,2,0:0:0:0:
192,192,61298,1,8,0:0:0:0:
64,192,61622,1,2,0:0:0:0:
320,192,61622,1,0,0:0:0:0:
192,192,61785,1,8,0:0:0:0:
320,192,61785,1,8,0:0:0:60:Hat.wav
192,192,61947,1,2,0:0:0:0:
448,192,61947,1,0,0:0:0:0:
64,192,62109,1,2,0:0:0:0:
320,192,62109,1,0,0:0:0:0:
192,192,62271,1,8,0:0:0:0:
320,192,62271,1,0,0:0:0:0:
448,192,62433,1,0,0:0:0:40:Tom1.wav
64,192,62595,1,0,0:0:0:40:Tom2.wav
192,192,62758,1,2,0:0:0:0:
320,192,62758,1,0,0:0:0:0:
64,192,62920,1,4,0:0:0:0:
320,192,62920,128,2,63244:0:0:0:0:
448,192,62920,1,0,0:0:0:0:
192,192,63406,1,0,0:0:0:50:Rim.wav
448,192,63568,128,0,63893:0:0:0:0:
64,192,63731,1,2,0:0:0:0:
320,192,63893,1,0,0:0:0:50:Rim.wav
192,192,64055,1,0,0:0:0:0:
64,192,64217,1,2,0:0:0:0:
320,192,64217,1,0,0:0:0:50:Rim.wav
448,192,64379,1,0,0:0:0:0:
192,192,64460,1,0,0:0:0:50:Rim.wav
64,192,64541,128,0,64866:0:0:0:0:
320,192,64704,1,0,0:0:0:50:Rim.wav
64,192,65028,1,2,0:0:0:0:
192,192,65028,1,0,0:0:0:0:
320,192,65190,1,8,0:0:0:0:
448,192,65190,1,0,0:0:0:0:
192,192,65352,1,0,0:0:0:40:Tom2.wav
320,192,65433,1,0,0:0:0:40:Tom2.wav
64,192,65514,1,2,0:0:0:0:
192,192,65514,128,4,65839:0:0:0:0:
448,192,65514,1,0,0:0:0:0:
320,192,66001,1,0,0:0:0:50:Rim.wav
64,192,66163,128,0,66487:0:0:0:0:
448,192,66325,1,2,0:0:0:0:
192,192,66487,1,0,0:0:0:50:Rim.wav
320,192,66649,1,0,0:0:0:0:
192,192,66812,1,2,0:0:0:0:
448,192,66812,1,0,0:0:0:50:Rim.wav
64,192,66974,1,0,0:0:0:0:
320,192,67055,1,0,0:0:0:50:Rim.wav
448,192,67136,128,0,67460:0:0:0:0:
192,192,67298,1,0,0:0:0:50:Rim.wav
64,192,67622,1,2,0:0:0:0:
320,192,67622,1,0,0:0:0:0:
192,192,67785,1,8,0:0:0:0:
448,192,67785,1,0,0:0:0:0:
320,192,67947,1,0,0:0:0:40:Tom2.wav
192,192,68028,1,0,0:0:0:40:Tom2.wav
64,192,68109,128,4,68433:0:0:0:0:
320,192,68109,1,2,0:0:0:0:
448,192,68109,1,0,0:0:0:0:
448,192,68595,1,0,0:0:0:50:Rim.wav
192,192,68758,128,0,69082:0:0:0:0:
320,192,68920,1,2,0:0:0:0:
64,192,69082,1,0,0:0:0:50:Rim.wav
448,192,69244,1,0,0:0:0:0:
192,192,69406,1,2,0:0:0:0:
320,192,69406,128,0,69568:0:0:0:50:Rim.wav
64,192,69568,1,0,0:0:0:0:
448,192,69649,1,0,0:0:0:50:Rim.wav
192,192,69731,128,0,69893:0:0:0:0:
320,192,69893,1,0,0:0:0:50:Rim.wav
64,192,70055,128,0,70217:0:0:0:0:
448,192,70217,1,2,0:0:0:0:
320,192,70298,1,2,0:0:0:0:
64,192,70379,1,8,0:0:0:0:
192,192,70379,1,8,0:0:0:60:Hat.wav
320,192,70541,1,0,0:0:0:0:
192,192,70704,1,2,0:0:0:0:
448,192,70704,1,0,0:0:0:0:
192,192,70866,1,8,0:0:0:0:
320,192,70866,1,8,0:0:0:60:Hat.wav
64,192,71028,1,8,0:0:0:0:
448,192,71028,1,8,0:0:0:60:Hat.wav
64,192,71190,1,2,0:0:0:0:
192,192,71190,1,0,0:0:0:0:
320,192,71352,1,8,0:0:0:0:
192,192,71433,1,8,0:0:0:0:
448,192,71514,1,2,0:0:0:0:
320,192,71595,1,2,0:0:0:0:
64,192,71677,1,0,0:0:0:40:Tom2.wav
192,192,71758,1,0,0:0:0:40:Tom2.wav
448,192,71839,1,2,0:0:0:0:
320,192,71920,1,2,0:0:0:0:
64,192,72001,1,8,0:0:0:0:
192,192,72001,1,0,0:0:0:40:Tom3.wav
64,192,72163,1,8,0:0:0:0:
192,192,72163,1,8,0:0:0:50:Hat Open.wav
320,192,72649,1,8,0:0:0:0:
448,192,72649,1,0,0:0:0:40:Tom3.wav
320,192,72812,1,8,0:0:0:0:
448,192,72812,1,8,0:0:0:50:Hat Open.wav
64,192,73298,1,2,0:0:0:0:
192,192,73298,1,4,0:0:0:0:
448,192,73298,1,0,0:0:0:0:
320,192,73460,1,0,0:0:0:0:
64,192,73622,1,10,0:0:0:0:
448,192,73622,1,0,0:0:0:60:Hat.wav
192,192,73785,1,0,0:0:0:0:
320,192,73947,128,2,74271:0:0:0:0:
448,192,73947,1,0,0:0:0:60:Hat.wav
64,192,74271,1,10,0:0:0:0:
192,192,74271,1,0,0:0:0:60:Hat.wav
448,192,74433,128,0,74758:0:0:0:0:
64,192,74595,1,2,0:0:0:0:
192,192,74758,1,0,0:0:0:0:
320,192,74920,128,10,75082:0:0:0:0:
448,192,74920,1,0,0:0:0:60:Hat.wav
64,192,75244,1,2,0:0:0:0:
192,192,75244,128,0,75568:0:0:0:60:Hat.wav
320,192,75568,1,10,0:0:0:0:
448,192,75568,1,0,0:0:0:60:Hat.wav
64,192,75893,1,2,0:0:0:0:
192,192,75893,1,0,0:0:0:60:Hat.wav
320,192,76055,1,0,0:0:0:0:
64,192,76217,1,10,0:0:0:0:
448,192,76217,1,0,0:0:0:60:Hat.wav
192,192,76379,1,0,0:0:0:0:
320,192,76541,1,2,0:0:0:0:
448,192,76541,128,0,76704:0:0:0:60:Hat.wav
64,192,76866,1,10,0:0:0:0:
192,192,76866,1,0,0:0:0:60:Hat.wav
320,192,77028,1,0,0:0:0:0:
64,192,77190,1,2,0:0:0:0:
448,192,77190,1,0,0:0:0:60:Hat.wav
192,192,77352,1,0,0:0:0:0:
320,192,77514,1,10,0:0:0:0:
448,192,77514,1,0,0:0:0:60:Hat.wav
192,192,77677,1,0,0:0:0:0:
64,192,77839,128,2,78163:0:0:0:0:
320,192,77839,1,0,0:0:0:60:Hat.wav
192,192,78163,1,10,0:0:0:0:
448,192,78163,1,0,0:0:0:60:Hat.wav
320,192,78325,1,8,0:0:0:0:
192,192,78406,1,8,0:0:0:0:
64,192,78487,1,2,0:0:0:0:
320,192,78487,128,4,78812:0:0:0:0:
448,192,78487,1,0,0:0:0:0:
64,192,78812,1,10,0:0:0:0:
192,192,78812,1,0,0:0:0:60:Hat.wav
192,192,79136,1,2,0:0:0:0:
448,192,79136,128,0,79460:0:0:0:60:Hat.wav
64,192,79460,1,10,0:0:0:0:
320,192,79460,1,0,0:0:0:60:Hat.wav
192,192,79622,1,0,0:0:0:0:
64,192,79785,128,2,80109:0:0:0:0:
448,192,79785,1,0,0:0:0:60:Hat.wav
192,192,80109,1,10,0:0:0:0:
320,192,80109,128,0,80433:0:0:0:60:Hat.wav
192,192,80433,128,2,80758:0:0:0:0:
448,192,80433,1,0,0:0:0:60:Hat.wav
64,192,80758,1,10,0:0:0:0:
448,192,80758,128,0,81082:0:0:0:60:Hat.wav
64,192,81082,128,2,81406:0:0:0:0:
192,192,81082,1,4,0:0:0:0:
320,192,81082,1,0,0:0:0:0:
320,192,81406,1,10,0:0:0:0:
448,192,81406,1,0,0:0:0:60:Hat.wav
192,192,81568,1,0,0:0:0:0:
64,192,81731,128,2,82055:0:0:0:0:
448,192,81731,1,0,0:0:0:60:Hat.wav
192,192,82055,1,10,0:0:0:0:
320,192,82055,1,0,0:0:0:60:Hat.wav
320,192,82217,1,0,0:0:0:0:
64,192,82379,1,2,0:0:0:0:
192,192,82379,1,4,0:0:0:0:
448,192,82379,1,0,0:0:0:0:
320,192,82541,1,8,0:0:0:0:
192,192,82622,1,8,0:0:0:0:
64,192,82704,1,8,0:0:0:0:
448,192,82704,1,2,0:0:0:0:
192,192,82866,1,0,0:0:0:40:Tom1.wav
320,192,82947,1,0,0:0:0:40:Tom1.wav
64,192,83028,1,2,0:0:0:0:
192,192,83028,1,0,0:0:0:40:Tom2.wav
320,192,83190,1,0,0:0:0:40:Tom2.wav
192,192,83271,1,0,0:0:0:40:Tom2.wav
320,192,83352,1,2,0:0:0:0:
448,192,83352,1,0,0:0:0:0:
64,192,83514,1,0,0:0:0:40:Tom3.wav
192,192,83595,1,0,0:0:0:40:Tom3.wav
64,192,83677,1,4,0:0:0:0:
320,192,83677,1,2,0:0:0:0:
448,192,83677,1,0,0:0:0:0:
192,192,83839,1,0,0:0:0:0:
64,192,84001,1,10,0:0:0:0:
448,192,84001,1,4,0:0:0:0:
320,192,84163,1,0,0:0:0:0:
64,192,84325,1,2,0:0:0:0:
192,192,84325,128,0,84487:0:0:0:60:Hat.wav
320,192,84649,1,10,0:0:0:0:
448,192,84649,1,0,0:0:0:60:Hat.wav
64,192,84812,128,0,85136:0:0:0:0:
192,192,84974,1,2,0:0:0:0:
320,192,85136,1,0,0:0:0:0:
64,192,85298,1,10,0:0:0:0:
448,192,85298,128,0,85460:0:0:0:60:Hat.wav
192,192,85622,1,2,0:0:0:0:
320,192,85622,128,0,85947:0:0:0:60:Hat.wav
64,192,85947,1,10,0:0:0:0:
448,192,85947,1,0,0:0:0:60:Hat.wav
192,192,86109,1,0,0:0:0:0:
64,192,86271,1,2,0:0:0:0:
320,192,86271,1,4,0:0:0:0:
448,192,86271,1,0,0:0:0:0:
192,192,86433,1,0,0:0:0:0:
64,192,86595,1,10,0:0:0:0:
448,192,86595,1,0,0:0:0:60:Hat.wav
320,192,86758,1,0,0:0:0:0:
64,192,86920,1,2,0:0:0:0:
192,192,86920,128,0,87082:0:0:0:60:Hat.wav
320,192,87244,1,10,0:0:0:0:
448,192,87244,1,0,0:0:0:60:Hat.wav
64,192,87406,128,0,87731:0:0:0:0:
448,192,87568,1,2,0:0:0:0:
320,192,87731,128,0,87893:0:0:0:0:
64,192,87893,1,10,0:0:0:0:
192,192,87893,1,0,0:0:0:60:Hat.wav
448,192,88055,1,0,0:0:0:0:
192,192,88217,1,2,0:0:0:0:
320,192,88217,1,0,0:0:0:60:Hat.wav
64,192,88379,1,0,0:0:0:0:
320,192,88541,1,2,0:0:0:0:
448,192,88541,1,8,0:0:0:0:
64,192,88622,1,8,0:0:0:0:
192,192,88704,1,8,0:0:0:0:
320,192,88785,1,8,0:0:0:0:
64,192,88866,1,4,0:0:0:0:
192,192,88866,1,2,0:0:0:0:
448,192,88866,128,0,89190:0:0:0:0:
192,192,89190,1,10,0:0:0:0:
320,192,89190,1,0,0:0:0:60:Hat.wav
64,192,89514,1,2,0:0:0:0:
320,192,89514,1,0,0:0:0:60:Hat.wav
192,192,89677,1,0,0:0:0:0:
64,192,89839,1,10,0:0:0:0:
448,192,89839,1,0,0:0:0:60:Hat.wav
320,192,90001,1,0,0:0:0:0:
192,192,90163,1,2,0:0:0:0:
448,192,90163,128,0,90487:0:0:0:60:Hat.wav
64,192,90487,1,10,0:0:0:0:
320,192,90487,1,0,0:0:0:60:Hat.wav
192,192,90649,1,0,0:0:0:0:
320,192,90812,1,2,0:0:0:0:
448,192,90812,1,0,0:0:0:60:Hat.wav
192,192,90974,1,0,0:0:0:0:
64,192,91136,128,10,91785:0:0:0:0:
448,192,91136,1,0,0:0:0:60:Hat.wav
192,192,91460,1,2,0:0:0:0:
320,192,91460,1,4,0:0:0:0:
192,192,91785,1,10,0:0:0:0:
448,192,91785,1,0,0:0:0:60:Hat.wav
320,192,91947,1,0,0:0:0:0:
64,192,92109,1,2,0:0:0:0:
448,192,92109,1,0,0:0:0:60:Hat.wav
192,192,92271,1,0,0:0:0:0:
64,192,92433,1,10,0:0:0:0:
320,192,92433,1,0,0:0:0:60:Hat.wav
192,192,92595,1,0,0:0:0:0:
320,192,92758,1,2,0:0:0:0:
448,192,92758,1,0,0:0:0:60:Hat.wav
64,192,92920,1,0,0:0:0:0:
192,192,93082,1,8,0:0:0:0:
320,192,93082,1,2,0:0:0:0:
448,192,93082,1,4,0:0:0:0:
64,192,93406,1,2,0:0:0:0:
192,192,93406,1,0,0:0:0:0:
320,192,93568,1,8,0:0:0:0:
192,192,93649,1,8,0:0:0:0:
64,192,93731,1,2,0:0:0:0:
448,192,93731,1,8,0:0:0:0:
320,192,93812,1,8,0:0:0:0:
192,192,93893,1,0,0:0:0:40:Tom2.wav
64,192,94055,1,4,0:0:0:0:
320,192,94055,1,2,0:0:0:0:
448,192,94055,128,0,94379:0:0:0:0:
192,192,94379,1,0,0:0:0:0:
64,192,94541,1,2,0:0:0:0:
320,192,94541,1,0,0:0:0:0:
64,192,94704,1,8,0:0:0:0:
448,192,94704,1,0,0:0:0:0:
192,192,94866,1,0,0:0:0:40:Tom2.wav
320,192,95028,1,0,0:0:0:40:Tom3.wav
192,192,95190,1,2,0:0:0:0:
448,192,95190,1,0,0:0:0:0:
64,192,95352,1,8,0:0:0:0:
448,192,95352,1,0,0:0:0:40:Tom1.wav
320,192,95514,1,2,0:0:0:0:
192,192,95595,1,2,0:0:0:0:
64,192,95677,1,8,0:0:0:0:
320,192,95677,128,4,96649:0:0:0:0:
448,192,95677,1,0,0:0:0:0:
192,192,95839,1,0,0:0:0:0:
64,192,96001,1,0,0:0:0:0:
448,192,96163,1,0,0:0:0:0:
192,192,96325,128,0,96649:0:0:0:0:
64,192,96649,1,4,0:0:0:0:
448,192,96649,1,2,0:0:0:0:
192,192,96812,1,0,0:0:0:0:
320,192,96974,1,0,0:0:0:0:
64,192,97136,1,0,0:0:0:50:Rim.wav
192,192,97136,1,0,0:0:0:0:
448,192,97298,1,0,0:0:0:0:
64,192,97460,1,0,0:0:0:50:Rim.wav
192,192,97460,1,0,0:0:0:0:
320,192,97622,1,0,0:0:0:50:Rim.wav
448,192,97622,1,0,0:0:0:0:
64,192,97785,1,0,0:0:0:0:
192,192,97947,1,0,0:0:0:50:Rim.wav
320,192,97947,1,0,0:0:0:0:
448,192,98109,1,0,0:0:0:0:
64,192,98190,1,0,0:0:0:50:Rim.wav
320,192,98271,1,0,0:0:0:0:
192,192,98352,1,0,0:0:0:0:
64,192,98433,1,0,0:0:0:50:Rim.wav
448,192,98433,1,0,0:0:0:0:
320,192,98595,1,0,0:0:0:0:
64,192,98758,1,0,0:0:0:50:Rim.wav
192,192,98839,1,0,0:0:0:50:Rim.wav
320,192,98920,1,0,0:0:0:50:Rim.wav
448,192,98920,1,0,0:0:0:0:
192,192,99082,1,0,0:0:0:0:
64,192,99244,1,4,0:0:0:30:soft-hitfinish.wav
448,192,99244,1,0,0:0:0:0:
192,192,99406,1,0,0:0:0:0:
320,192,99487,1,0,0:0:0:50:Rim.wav
64,192,99568,1,0,0:0:0:0:
192,192,99649,1,0,0:0:0:0:
320,192,99731,1,0,0:0:0:0:
448,192,99731,1,0,0:0:0:0:
64,192,99893,1,0,0:0:0:0:
320,192,100055,1,0,0:0:0:50:Rim.wav
448,192,100055,1,0,0:0:0:0:
64,192,100217,1,0,0:0:0:50:Rim.wav
192,192,100217,1,0,0:0:0:0:
320,192,100379,1,0,0:0:0:0:
192,192,100541,1,0,0:0:0:50:Rim.wav
448,192,100541,1,0,0:0:0:0:
64,192,100704,1,0,0:0:0:0:
192,192,100785,1,0,0:0:0:50:Rim.wav
320,192,100866,1,0,0:0:0:0:
64,192,101028,128,0,101352:0:0:0:50:Rim.wav
448,192,101028,1,0,0:0:0:0:
192,192,101190,1,0,0:0:0:0:
320,192,101352,1,0,0:0:0:50:Rim.wav
192,192,101433,1,0,0:0:0:50:Rim.wav
64,192,101514,1,2,0:0:0:0:
448,192,101514,128,0,101677:0:0:0:0:
320,192,101677,128,0,101839:0:0:0:0:
64,192,101839,1,4,0:0:0:0:
192,192,101839,1,2,0:0:0:0:
448,192,101839,1,0,0:0:0:0:
64,192,102163,1,2,0:0:0:0:
192,192,102163,1,0,0:0:0:0:
320,192,102325,1,0,0:0:0:0:
64,192,102487,1,2,0:0:0:0:
448,192,102487,1,0,0:0:0:0:
192,192,102649,1,0,0:0:0:50:Rim.wav
64,192,102812,1,2,0:0:0:0:
320,192,102812,1,0,0:0:0:50:Rim.wav
320,192,103136,1,2,0:0:0:0:
448,192,103136,1,0,0:0:0:0:
64,192,103379,1,0,0:0:0:50:Rim.wav
320,192,103460,1,2,0:0:0:0:
448,192,103460,1,0,0:0:0:0:
192,192,103622,1,0,0:0:0:0:
64,192,103785,1,2,0:0:0:0:
448,192,103785,1,0,0:0:0:0:
320,192,103947,1,0,0:0:0:50:Rim.wav
192,192,104028,1,0,0:0:0:50:Rim.wav
64,192,104109,1,2,0:0:0:0:
320,192,104109,1,0,0:0:0:0:
64,192,104433,1,4,0:0:0:0:
192,192,104433,1,2,0:0:0:0:
448,192,104433,1,0,0:0:0:0:
320,192,104677,1,0,0:0:0:50:Rim.wav
192,192,104758,1,2,0:0:0:0:
448,192,104758,1,0,0:0:0:0:
64,192,104920,1,0,0:0:0:0:
320,192,105082,1,2,0:0:0:0:
448,192,105082,1,0,0:0:0:0:
192,192,105244,1,0,0:0:0:50:Rim.wav
64,192,105406,1,2,0:0:0:0:
320,192,105406,1,0,0:0:0:50:Rim.wav
448,192,105568,1,0,0:0:0:0:
64,192,105731,1,2,0:0:0:0:
192,192,105731,1,8,0:0:0:0:
320,192,105893,1,0,0:0:0:0:
192,192,105974,1,0,0:0:0:50:Rim.wav
64,192,106055,1,8,0:0:0:0:
320,192,106055,1,4,0:0:0:0:
448,192,106055,1,2,0:0:0:0:
64,192,106217,1,8,0:0:0:0:
192,192,106298,1,8,0:0:0:0:
320,192,106379,1,8,0:0:0:0:
448,192,106379,1,2,0:0:0:0:
448,192,106541,1,0,0:0:0:40:Tom2.wav
320,192,106622,1,0,0:0:0:40:Tom2.wav
64,192,106704,1,2,0:0:0:0:
192,192,106704,1,0,0:0:0:0:
320,192,106866,1,0,0:0:0:40:Tom3.wav
192,192,106947,1,0,0:0:0:40:Tom3.wav
64,192,107028,1,4,0:0:0:0:
320,192,107028,1,2,0:0:0:0:
448,192,107028,1,0,0:0:0:0:
64,192,107352,1,2,0:0:0:0:
448,192,107352,1,0,0:0:0:0:
192,192,107677,1,2,0:0:0:0:
320,192,107677,1,0,0:0:0:0:
64,192,107839,1,0,0:0:0:50:Rim.wav
320,192,108001,1,2,0:0:0:0:
448,192,108001,1,0,0:0:0:50:Rim.wav
64,192,108325,1,2,0:0:0:0:
192,192,108325,1,0,0:0:0:0:
64,192,108568,1,0,0:0:0:50:Rim.wav
320,192,108649,1,2,0:0:0:0:
448,192,108649,1,0,0:0:0:0:
192,192,108812,1,0,0:0:0:50:Rim.wav
64,192,108974,1,2,0:0:0:0:
320,192,108974,1,0,0:0:0:0:
448,192,109136,1,0,0:0:0:50:Rim.wav
320,192,109217,1,0,0:0:0:50:Rim.wav
64,192,109298,1,2,0:0:0:0:
192,192,109298,1,0,0:0:0:0:
192,192,109622,1,2,0:0:0:0:
320,192,109622,1,4,0:0:0:0:
448,192,109622,1,0,0:0:0:0:
64,192,109866,1,0,0:0:0:50:Rim.wav
320,192,109947,1,2,0:0:0:0:
448,192,109947,1,0,0:0:0:0:
192,192,110109,1,0,0:0:0:50:Rim.wav
64,192,110271,1,2,0:0:0:0:
320,192,110271,1,0,0:0:0:0:
448,192,110433,1,0,0:0:0:50:Rim.wav
64,192,110595,1,2,0:0:0:0:
192,192,110595,1,0,0:0:0:0:
320,192,110758,1,0,0:0:0:0:
192,192,110920,1,2,0:0:0:0:
448,192,110920,1,0,0:0:0:50:Rim.wav
64,192,111001,1,0,0:0:0:50:Rim.wav
320,192,111163,1,0,0:0:0:50:Rim.wav
64,192,111244,1,2,0:0:0:0:
192,192,111244,1,0,0:0:0:50:Rim.wav
448,192,111406,1,0,0:0:0:50:Rim.wav
192,192,111568,1,2,0:0:0:0:
320,192,111568,1,0,0:0:0:0:
64,192,111731,1,0,0:0:0:50:Rim.wav
192,192,111812,1,0,0:0:0:50:Rim.wav
320,192,111893,1,2,0:0:0:0:
448,192,111893,1,0,0:0:0:0:
64,192,112217,1,2,0:0:0:0:
192,192,112217,1,4,0:0:0:0:
448,192,112217,1,0,0:0:0:0:
320,192,112460,1,0,0:0:0:50:Rim.wav
64,192,112541,1,2,0:0:0:0:
448,192,112541,1,0,0:0:0:0:
192,192,112704,1,0,0:0:0:50:Rim.wav
64,192,112866,1,2,0:0:0:0:
320,192,112866,1,0,0:0:0:0:
448,192,113028,1,0,0:0:0:50:Rim.wav
192,192,113190,1,2,0:0:0:0:
320,192,113190,1,0,0:0:0:0:
64,192,113514,1,2,0:0:0:0:
448,192,113514,1,0,0:0:0:0:
192,192,113758,1,0,0:0:0:50:Rim.wav
320,192,113839,1,2,0:0:0:0:
448,192,113839,1,0,0:0:0:0:
192,192,114001,1,0,0:0:0:50:Rim.wav
64,192,114163,1,2,0:0:0:0:
320,192,114163,1,0,0:0:0:0:
448,192,114325,1,0,0:0:0:50:Rim.wav
320,192,114406,1,0,0:0:0:50:Rim.wav
64,192,114487,1,2,0:0:0:0:
192,192,114487,1,0,0:0:0:0:
192,192,114812,1,2,0:0:0:0:
320,192,114812,1,4,0:0:0:0:
448,192,114812,1,0,0:0:0:0:
64,192,115055,1,0,0:0:0:50:Rim.wav
192,192,115136,1,2,0:0:0:0:
448,192,115136,1,0,0:0:0:0:
320,192,115298,1,0,0:0:0:50:Rim.wav
64,192,115460,1,2,0:0:0:0:
448,192,115460,1,0,0:0:0:0:
192,192,115622,1,0,0:0:0:50:Rim.wav
64,192,115785,1,2,0:0:0:0:
320,192,115785,1,0,0:0:0:50:Rim.wav
192,192,116109,1,2,0:0:0:0:
320,192,116109,1,0,0:0:0:50:Rim.wav
448,192,116352,1,0,0:0:0:50:Rim.wav
64,192,116433,1,2,0:0:0:0:
192,192,116433,1,0,0:0:0:0:
320,192,116595,1,0,0:0:0:50:Rim.wav
192,192,116677,1,0,0:0:0:30:Ride.wav
64,192,116758,1,2,0:0:0:0:
448,192,116758,1,0,0:0:0:30:Ride.wav
192,192,116920,1,0,0:0:0:50:Rim.wav
320,192,117001,1,0,0:0:0:50:Rim.wav
64,192,117082,1,2,0:0:0:0:
448,192,117082,1,0,0:0:0:30:Ride.wav
192,192,117406,1,2,0:0:0:0:
320,192,117406,1,4,0:0:0:0:
448,192,117406,1,0,0:0:0:0:
64,192,117568,1,0,0:0:0:0:
192,192,117731,1,2,0:0:0:0:
320,192,117731,1,0,0:0:0:0:
448,192,117893,1,0,0:0:0:0:
64,192,118055,1,2,0:0:0:0:
192,192,118055,1,0,0:0:0:0:
320,192,118217,1,8,0:0:0:20:soft-hitclap.wav
64,192,118379,1,2,0:0:0:0:
448,192,118379,1,0,0:0:0:50:Rim.wav
192,192,118541,1,8,0:0:0:20:soft-hitclap.wav
320,192,118622,1,8,0:0:0:20:soft-hitclap.wav
192,192,118704,1,2,0:0:0:0:
448,192,118704,1,0,0:0:0:0:
64,192,118866,1,8,0:0:0:20:soft-hitclap.wav
192,192,118947,1,0,0:0:0:50:Rim.wav
320,192,119028,1,2,0:0:0:0:
448,192,119028,1,0,0:0:0:0:
64,192,119190,1,8,0:0:0:20:soft-hitclap.wav
192,192,119352,1,2,0:0:0:0:
448,192,119352,1,0,0:0:0:0:
320,192,119514,1,8,0:0:0:20:soft-hitclap.wav
192,192,119595,1,0,0:0:0:50:Rim.wav
64,192,119677,1,2,0:0:0:0:
448,192,119677,1,0,0:0:0:0:
320,192,119758,1,8,0:0:0:20:soft-hitclap.wav
192,192,119839,1,8,0:0:0:20:soft-hitclap.wav
64,192,120001,1,2,0:0:0:0:
320,192,120001,1,4,0:0:0:0:
448,192,120001,1,0,0:0:0:0:
192,192,120244,1,0,0:0:0:50:Rim.wav
64,192,120325,1,2,0:0:0:0:
448,192,120325,1,8,0:0:0:35:soft-hitclap.wav
192,192,120487,1,8,0:0:0:35:soft-hitclap.wav
320,192,120487,1,0,0:0:0:0:
64,192,120649,1,2,0:0:0:0:
448,192,120649,1,0,0:0:0:0:
192,192,120812,1,0,0:0:0:50:Rim.wav
320,192,120974,1,2,0:0:0:0:
448,192,120974,1,8,0:0:0:35:soft-hitclap.wav
192,192,121136,1,8,0:0:0:35:soft-hitclap.wav
320,192,121217,1,8,0:0:0:35:soft-hitclap.wav
64,192,121298,1,2,0:0:0:0:
192,192,121298,1,0,0:0:0:0:
448,192,121541,1,0,0:0:0:50:Rim.wav
192,192,121622,1,2,0:0:0:0:
320,192,121622,1,0,0:0:0:0:
64,192,121785,1,8,0:0:0:35:soft-hitclap.wav
448,192,121785,1,0,0:0:0:0:
192,192,121947,1,2,0:0:0:0:
320,192,121947,1,0,0:0:0:0:
64,192,122109,1,8,0:0:0:35:soft-hitclap.wav
192,192,122190,1,0,0:0:0:50:Rim.wav
320,192,122271,1,2,0:0:0:0:
448,192,122271,1,0,0:0:0:0:
64,192,122352,1,0,0:0:0:0:
192,192,122433,1,0,0:0:0:0:
320,192,122514,1,0,0:0:0:0:
64,192,122595,1,2,0:0:0:0:
192,192,122595,1,4,0:0:0:0:
448,192,122595,1,0,0:0:0:0:
320,192,122920,1,2,0:0:0:0:
448,192,122920,1,0,0:0:0:0:
64,192,123082,1,8,0:0:0:35:soft-hitclap.wav
192,192,123082,1,0,0:0:0:50:Rim.wav
320,192,123244,1,2,0:0:0:0:
448,192,123244,1,0,0:0:0:0:
192,192,123406,1,0,0:0:0:50:Rim.wav
64,192,123568,1,2,0:0:0:0:
320,192,123568,1,8,0:0:0:35:soft-hitclap.wav
448,192,123731,1,0,0:0:0:0:
64,192,123893,1,2,0:0:0:0:
192,192,123893,1,8,0:0:0:35:soft-hitclap.wav
320,192,124136,1,0,0:0:0:50:Rim.wav
64,192,124217,1,2,0:0:0:0:
448,192,124217,1,0,0:0:0:0:
192,192,124379,1,8,0:0:0:35:soft-hitclap.wav
320,192,124379,1,0,0:0:0:0:
64,192,124541,1,2,0:0:0:0:
448,192,124541,1,0,0:0:0:0:
192,192,124704,1,8,0:0:0:35:soft-hitclap.wav
320,192,124785,1,0,0:0:0:50:Rim.wav
192,192,124866,1,2,0:0:0:0:
448,192,124866,1,8,0:0:0:35:soft-hitclap.wav
64,192,125028,1,0,0:0:0:0:
192,192,125190,1,2,0:0:0:0:
320,192,125190,1,4,0:0:0:0:
448,192,125190,1,0,0:0:0:0:
64,192,125352,1,0,0:0:0:0:
320,192,125514,1,2,0:0:0:0:
448,192,125514,1,0,0:0:0:0:
64,192,125677,1,8,0:0:0:35:soft-hitclap.wav
192,192,125677,1,0,0:0:0:0:
320,192,125839,1,2,0:0:0:0:
448,192,125839,1,0,0:0:0:0:
192,192,126001,1,0,0:0:0:50:Rim.wav
64,192,126163,1,10,0:0:0:0:
448,192,126163,1,0,0:0:0:50:Rim.wav
192,192,126325,1,8,0:0:0:0:
320,192,126325,1,0,0:0:0:60:Hat.wav
64,192,126487,1,2,0:0:0:0:
448,192,126487,1,0,0:0:0:60:Hat.wav
320,192,126731,1,0,0:0:0:50:Rim.wav
64,192,126812,1,2,0:0:0:0:
192,192,126812,1,0,0:0:0:0:
320,192,126974,1,8,0:0:0:0:
192,192,127055,1,8,0:0:0:0:
64,192,127136,1,8,0:0:0:0:
448,192,127136,1,0,0:0:0:0:
320,192,127298,1,0,0:0:0:40:Tom1.wav
192,192,127460,1,0,0:0:0:40:Tom2.wav
320,192,127622,1,0,0:0:0:40:Tom3.wav
64,192,127785,1,4,0:0:0:0:
192,192,127785,1,2,0:0:0:0:
448,192,127785,128,0,128109:0:0:0:0:
64,192,128109,1,0,0:0:0:0:
192,192,128271,1,0,0:0:0:0:
448,192,128433,128,0,128758:0:0:0:0:
320,192,128595,1,2,0:0:0:0:
64,192,128758,1,0,0:0:0:50:Rim.wav
192,192,128920,1,0,0:0:0:0:
320,192,129082,1,2,0:0:0:0:
448,192,129082,1,0,0:0:0:50:Rim.wav
192,192,129244,1,0,0:0:0:0:
320,192,129325,1,0,0:0:0:50:Rim.wav
64,192,129406,128,0,129731:0:0:0:0:
448,192,129568,1,0,0:0:0:50:Rim.wav
192,192,130055,1,8,0:0:0:0:
448,192,130055,1,0,0:0:0:0:
320,192,130217,1,0,0:0:0:0:
64,192,130379,1,2,0:0:0:0:
192,192,130379,128,0,130704:0:0:0:60:Hat.wav
448,192,130704,1,0,0:0:0:0:
320,192,130866,1,0,0:0:0:50:Rim.wav
192,192,131028,128,0,131352:0:0:0:0:
64,192,131190,1,2,0:0:0:0:
448,192,131352,1,0,0:0:0:50:Rim.wav
320,192,131514,1,0,0:0:0:0:
64,192,131677,1,2,0:0:0:0:
192,192,131677,128,0,131920:0:0:0:50:Rim.wav
320,192,131920,1,0,0:0:0:50:Rim.wav
64,192,132001,128,0,132325:0:0:0:0:
448,192,132163,1,0,0:0:0:50:Rim.wav
192,192,132487,1,2,0:0:0:0:
320,192,132487,1,0,0:0:0:0:
64,192,132649,1,8,0:0:0:0:
448,192,132649,1,0,0:0:0:0:
192,192,132812,1,0,0:0:0:0:
64,192,132974,1,2,0:0:0:0:
320,192,132974,128,0,133298:0:0:0:60:Hat.wav
448,192,132974,1,0,0:0:0:0:
192,192,133460,1,0,0:0:0:50:Rim.wav
448,192,133622,128,0,133947:0:0:0:0:
64,192,133785,1,2,0:0:0:0:
320,192,133947,1,0,0:0:0:50:Rim.wav
192,192,134109,1,0,0:0:0:0:
64,192,134271,128,2,134514:0:0:0:0:
448,192,134271,1,0,0:0:0:50:Rim.wav
320,192,134514,1,0,0:0:0:50:Rim.wav
192,192,134595,128,0,134920:0:0:0:0:
448,192,134758,1,0,0:0:0:50:Rim.wav
320,192,134920,128,0,135082:0:0:0:0:
64,192,135082,1,2,0:0:0:0:
448,192,135082,1,0,0:0:0:0:
192,192,135244,1,8,0:0:0:0:
320,192,135244,1,0,0:0:0:40:Tom2.wav
64,192,135406,1,2,0:0:0:0:
448,192,135406,1,0,0:0:0:0:
64,192,135568,1,2,0:0:0:0:
192,192,135568,1,0,0:0:0:60:Hat.wav
320,192,135731,1,8,0:0:0:0:
448,192,135731,1,0,0:0:0:60:Hat.wav
320,192,135893,1,8,0:0:0:0:
448,192,135893,1,0,0:0:0:60:Hat.wav
64,192,136055,1,2,0:0:0:0:
192,192,136055,1,0,0:0:0:0:
320,192,136217,1,8,0:0:0:0:
448,192,136217,1,0,0:0:0:0:
192,192,136325,1,0,0:0:0:40:Tom2.wav
320,192,136433,1,0,0:0:0:40:Tom3.wav
64,192,136541,1,0,0:0:0:40:Tom3.wav
192,192,136649,1,2,0:0:0:0:
320,192,136758,1,2,0:0:0:0:
64,192,136866,1,8,0:0:0:0:
448,192,136866,1,0,0:0:0:40:Tom3.wav
64,192,137028,1,8,0:0:0:0:
448,192,137028,1,0,0:0:0:40:Tom3.wav
192,192,137514,1,8,0:0:0:0:
320,192,137514,1,0,0:0:0:40:Tom3.wav
192,192,137677,1,8,0:0:0:0:
320,192,137677,1,0,0:0:0:40:Tom3.wav
64,192,138163,1,4,0:0:0:0:
320,192,138163,1,2,0:0:0:0:
448,192,138163,1,0,0:0:0:0:
192,192,138325,1,0,0:0:0:0:
64,192,138487,1,10,0:0:0:0:
448,192,138487,1,0,0:0:0:60:Hat.wav
320,192,138649,1,0,0:0:0:0:
192,192,138812,128,2,139136:0:0:0:0:
448,192,138812,1,0,0:0:0:60:Hat.wav
64,192,139136,1,10,0:0:0:0:
320,192,139136,1,0,0:0:0:60:Hat.wav
448,192,139298,128,0,139622:0:0:0:0:
192,192,139460,1,2,0:0:0:0:
320,192,139622,1,0,0:0:0:0:
64,192,139785,128,10,140109:0:0:0:0:
192,192,139785,1,0,0:0:0:60:Hat.wav
320,192,140109,128,2,140433:0:0:0:0:
448,192,140109,1,0,0:0:0:60:Hat.wav
64,192,140433,1,10,0:0:0:0:
192,192,140433,1,0,0:0:0:60:Hat.wav
64,192,140758,1,2,0:0:0:0:
320,192,140758,1,4,0:0:0:0:
448,192,140758,1,0,0:0:0:0:
192,192,140920,1,0,0:0:0:0:
64,192,141082,1,10,0:0:0:0:
448,192,141082,1,0,0:0:0:60:Hat.wav
320,192,141244,1,0,0:0:0:0:
192,192,141406,128,2,141568:0:0:0:0:
448,192,141406,1,0,0:0:0:60:Hat.wav
64,192,141731,1,10,0:0:0:0:
192,192,141731,1,0,0:0:0:60:Hat.wav
320,192,141893,128,0,142217:0:0:0:0:
448,192,142055,1,2,0:0:0:0:
64,192,142217,1,0,0:0:0:0:
192,192,142379,1,10,0:0:0:0:
320,192,142379,1,0,0:0:0:60:Hat.wav
448,192,142541,1,0,0:0:0:0:
64,192,142704,128,2,143028:0:0:0:0:
192,192,142704,1,0,0:0:0:60:Hat.wav
320,192,143028,1,10,0:0:0:0:
448,192,143028,1,0,0:0:0:60:Hat.wav
192,192,143190,1,8,0:0:0:0:
320,192,143271,1,8,0:0:0:0:
64,192,143352,1,4,0:0:0:0:
192,192,143352,1,2,0:0:0:0:
448,192,143352,128,0,143677:0:0:0:0:
64,192,143677,1,10,0:0:0:0:
320,192,143677,1,0,0:0:0:60:Hat.wav
192,192,144001,128,2,144163:0:0:0:0:
320,192,144001,1,0,0:0:0:60:Hat.wav
64,192,144325,1,10,0:0:0:0:
448,192,144325,1,0,0:0:0:60:Hat.wav
320,192,144487,1,0,0:0:0:0:
192,192,144649,1,2,0:0:0:0:
448,192,144649,128,0,144974:0:0:0:60:Hat.wav
64,192,144974,128,10,145298:0:0:0:0:
320,192,144974,1,0,0:0:0:60:Hat.wav
192,192,145298,128,2,145622:0:0:0:0:
448,192,145298,1,0,0:0:0:60:Hat.wav
64,192,145622,1,10,0:0:0:0:
320,192,145622,128,0,145947:0:0:0:60:Hat.wav
64,192,145947,1,2,0:0:0:0:
192,192,145947,1,4,0:0:0:0:
448,192,145947,128,0,146271:0:0:0:0:
192,192,146271,1,10,0:0:0:0:
320,192,146271,1,0,0:0:0:60:Hat.wav
64,192,146433,1,0,0:0:0:0:
320,192,146595,1,2,0:0:0:0:
448,192,146595,128,0,146920:0:0:0:60:Hat.wav
64,192,146920,1,10,0:0:0:0:
192,192,146920,1,0,0:0:0:60:Hat.wav
320,192,147082,1,0,0:0:0:0:
64,192,147244,1,2,0:0:0:0:
192,192,147244,1,4,0:0:0:0:
448,192,147244,1,0,0:0:0:0:
320,192,147406,1,8,0:0:0:0:
192,192,147487,1,8,0:0:0:0:
64,192,147568,1,2,0:0:0:0:
448,192,147568,1,8,0:0:0:0:
192,192,147731,1,8,0:0:0:0:
320,192,147812,1,8,0:0:0:0:
192,192,147893,1,8,0:0:0:0:
448,192,147893,1,2,0:0:0:0:
64,192,147974,1,8,0:0:0:0:
320,192,148055,1,8,0:0:0:0:
192,192,148136,1,8,0:0:0:0:
64,192,148217,1,8,0:0:0:0:
320,192,148217,1,2,0:0:0:0:
448,192,148298,1,8,0:0:0:0:
192,192,148379,1,0,0:0:0:40:Tom3.wav
320,192,148460,1,0,0:0:0:40:Tom3.wav
64,192,148541,1,4,0:0:0:0:
192,192,148541,1,2,0:0:0:0:
448,192,148541,1,0,0:0:0:0:
320,192,148704,1,0,0:0:0:0:
64,192,148866,1,10,0:0:0:0:
448,192,148866,1,0,0:0:0:60:Hat.wav
192,192,149028,1,0,0:0:0:0:
64,192,149190,1,2,0:0:0:0:
320,192,149190,128,0,149352:0:0:0:60:Hat.wav
192,192,149514,1,10,0:0:0:0:
448,192,149514,1,0,0:0:0:60:Hat.wav
320,192,149677,1,0,0:0:0:0:
64,192,149839,1,2,0:0:0:0:
192,192,149839,1,0,0:0:0:60:Hat.wav
320,192,150001,1,0,0:0:0:0:
64,192,150163,1,10,0:0:0:0:
448,192,150163,128,0,150325:0:0:0:60:Hat.wav
192,192,150487,128,2,150812:0:0:0:0:
320,192,150487,1,0,0:0:0:60:Hat.wav
64,192,150812,1,10,0:0:0:0:
448,192,150812,1,0,0:0:0:60:Hat.wav
320,192,150974,1,8,0:0:0:0:
192,192,151055,1,8,0:0:0:0:
64,192,151136,1,2,0:0:0:0:
320,192,151136,1,4,0:0:0:0:
448,192,151136,1,0,0:0:0:0:
192,192,151298,1,0,0:0:0:0:
64,192,151460,1,10,0:0:0:0:
448,192,151460,1,0,0:0:0:60:Hat.wav
320,192,151622,1,0,0:0:0:0:
192,192,151785,128,2,152109:0:0:0:0:
448,192,151785,1,0,0:0:0:60:Hat.wav
320,192,152109,1,10,0:0:0:0:
448,192,152109,1,0,0:0:0:60:Hat.wav
64,192,152271,128,0,152595:0:0:0:0:
320,192,152433,1,2,0:0:0:0:
448,192,152595,128,0,152758:0:0:0:0:
192,192,152758,1,10,0:0:0:0:
320,192,152758,1,0,0:0:0:60:Hat.wav
64,192,153082,1,2,0:0:0:0:
448,192,153082,1,0,0:0:0:60:Hat.wav
192,192,153244,1,0,0:0:0:0:
320,192,153406,1,10,0:0:0:0:
448,192,153406,1,0,0:0:0:60:Hat.wav
192,192,153568,1,0,0:0:0:0:
64,192,153731,1,4,0:0:0:0:
320,192,153731,128,2,154055:0:0:0:0:
448,192,153731,1,0,0:0:0:0:
64,192,154055,1,8,0:0:0:0:
192,192,154055,1,0,0:0:0:40:Tom1.wav
320,192,154217,1,2,0:0:0:0:
448,192,154217,1,0,0:0:0:0:
64,192,154379,1,0,0:0:0:40:Tom2.wav
192,192,154379,1,0,0:0:0:0:
64,192,154541,1,2,0:0:0:0:
448,192,154541,1,0,0:0:0:0:
320,192,154704,1,0,0:0:0:40:Tom3.wav
64,192,154866,1,2,0:0:0:0:
192,192,154866,1,0,0:0:0:0:
320,192,155028,1,0,0:0:0:40:Tom3.wav
192,192,155190,1,2,0:0:0:0:
320,192,155271,1,2,0:0:0:0:
64,192,155352,1,8,0:0:0:0:
192,192,155352,1,4,0:0:0:0:
448,192,155352,128,0,156325:0:0:0:0:
64,192,156325,128,4,157298:0:0:0:0:
192,192,156325,1,2,0:0:0:0:
320,192,156325,1,0,0:0:0:0:
448,192,157298,1,0,0:0:0:50:Rim.wav
192,192,157622,1,0,0:0:0:50:Rim.wav
320,192,157866,1,0,0:0:0:50:Rim.wav
64,192,158109,1,0,0:0:0:50:Rim.wav
448,192,158433,1,0,0:0:0:50:Rim.wav
320,192,158514,1,0,0:0:0:50:Rim.wav
192,192,158595,1,0,0:0:0:50:Rim.wav
64,192,158920,1,4,0:0:0:30:soft-hitfinish.wav
448,192,158920,1,0,0:0:0:0:
320,192,159163,1,0,0:0:0:50:Rim.wav
192,192,159406,1,0,0:0:0:50:Rim.wav
448,192,159731,1,0,0:0:0:50:Rim.wav
64,192,159893,1,0,0:0:0:50:Rim.wav
320,192,160217,1,0,0:0:0:50:Rim.wav
192,192,160460,1,0,0:0:0:50:Rim.wav
448,192,160704,1,0,0:0:0:50:Rim.wav
64,192,161028,1,0,0:0:0:50:Rim.wav
320,192,161190,1,0,0:0:0:50:Rim.wav
64,192,161514,1,4,0:0:0:0:
192,192,161514,1,0,0:0:0:0:
320,192,162001,1,0,0:0:0:50:Rim.wav
192,192,162325,1,0,0:0:0:50:Rim.wav
448,192,162487,1,0,0:0:0:50:Rim.wav
64,192,162812,1,0,0:0:0:50:Rim.wav
320,192,163055,1,0,0:0:0:50:Rim.wav
192,192,163298,1,0,0:0:0:50:Rim.wav
448,192,163460,1,0,0:0:0:50:Rim.wav
64,192,163622,1,0,0:0:0:50:Rim.wav
192,192,163704,1,0,0:0:0:50:Rim.wav
320,192,163785,1,0,0:0:0:50:Rim.wav
64,192,164109,1,4,0:0:0:0:
448,192,164109,1,0,0:0:0:0:
320,192,164595,1,0,0:0:0:50:Rim.wav
192,192,164920,1,0,0:0:0:50:Rim.wav
448,192,165082,1,0,0:0:0:50:Rim.wav
64,192,165406,1,2,0:0:0:0:
192,192,165406,1,0,0:0:0:0:
320,192,165568,1,8,0:0:0:0:
448,192,165568,1,0,0:0:0:0:
64,192,165731,1,2,0:0:0:0:
192,192,165731,1,0,0:0:0:50:Rim.wav
320,192,165893,1,0,0:0:0:50:Rim.wav
64,192,166055,1,0,0:0:0:40:Tom2.wav
448,192,166055,1,0,0:0:0:0:
192,192,166217,1,0,0:0:0:50:Rim.wav
320,192,166298,1,0,0:0:0:40:Tom2.wav
448,192,166379,1,0,0:0:0:50:Rim.wav
64,192,166541,1,0,0:0:0:40:Tom3.wav
192,192,166622,1,0,0:0:0:40:Tom3.wav
64,192,166704,1,2,0:0:0:0:
320,192,166704,1,4,0:0:0:0:
448,192,166704,1,0,0:0:0:0:
192,192,166947,1,2,0:0:0:0:
320,192,166947,1,0,0:0:0:0:
448,192,167028,1,0,0:0:0:30:Ride.wav
64,192,167190,1,2,0:0:0:0:
192,192,167190,1,0,0:0:0:50:Rim.wav
64,192,167352,1,8,0:0:0:0:
448,192,167352,1,0,0:0:0:30:Ride.wav
320,192,167677,1,0,0:0:0:50:Rim.wav
64,192,168001,1,2,0:0:0:0:
192,192,168001,1,0,0:0:0:30:Ride.wav
320,192,168163,1,8,0:0:0:0:
448,192,168163,1,0,0:0:0:50:Rim.wav
192,192,168325,1,0,0:0:0:30:Ride.wav
64,192,168487,1,2,0:0:0:0:
448,192,168487,1,0,0:0:0:0:
192,192,168649,1,8,0:0:0:0:
320,192,168649,1,0,0:0:0:30:Ride.wav
64,192,168812,1,0,0:0:0:50:Rim.wav
448,192,168974,1,0,0:0:0:30:Ride.wav
192,192,169136,1,0,0:0:0:40:Tom3.wav
320,192,169217,1,0,0:0:0:40:Tom3.wav
64,192,169298,1,4,0:0:0:0:
192,192,169298,1,2,0:0:0:0:
448,192,169298,1,0,0:0:0:0:
192,192,169541,1,2,0:0:0:0:
320,192,169541,1,0,0:0:0:0:
64,192,169622,1,0,0:0:0:30:Ride.wav
320,192,169785,1,2,0:0:0:0:
448,192,169785,1,0,0:0:0:50:Rim.wav
64,192,169947,1,8,0:0:0:0:
448,192,169947,1,0,0:0:0:30:Ride.wav
192,192,170271,1,0,0:0:0:30:Ride.wav
320,192,170595,1,2,0:0:0:0:
448,192,170595,1,0,0:0:0:30:Ride.wav
64,192,170758,1,8,0:0:0:0:
192,192,170758,1,0,0:0:0:50:Rim.wav
320,192,170920,1,0,0:0:0:30:Ride.wav
64,192,171082,1,2,0:0:0:0:
448,192,171082,1,0,0:0:0:50:Rim.wav
192,192,171244,1,8,0:0:0:0:
320,192,171244,1,0,0:0:0:30:Ride.wav
64,192,171406,1,0,0:0:0:50:Rim.wav
320,192,171568,1,2,0:0:0:0:
448,192,171568,1,0,0:0:0:30:Ride.wav
192,192,171731,1,8,0:0:0:0:
320,192,171812,1,8,0:0:0:0:
64,192,171893,1,4,0:0:0:0:
192,192,171893,1,2,0:0:0:0:
448,192,171893,1,0,0:0:0:0:
64,192,172136,1,2,0:0:0:0:
320,192,172136,1,0,0:0:0:0:
192,192,172379,1,2,0:0:0:0:
448,192,172379,1,0,0:0:0:50:Rim.wav
192,192,172541,1,8,0:0:0:0:
320,192,172541,1,0,0:0:0:30:Ride.wav
64,192,172866,1,0,0:0:0:30:Ride.wav
448,192,173028,1,0,0:0:0:50:Rim.wav
192,192,173190,1,2,0:0:0:0:
320,192,173190,1,0,0:0:0:30:Ride.wav
64,192,173352,1,8,0:0:0:0:
448,192,173352,1,0,0:0:0:50:Rim.wav
192,192,173514,1,0,0:0:0:30:Ride.wav
320,192,173677,1,2,0:0:0:0:
448,192,173677,1,0,0:0:0:0:
64,192,173839,1,8,0:0:0:0:
192,192,173839,1,0,0:0:0:30:Ride.wav
320,192,174001,1,0,0:0:0:50:Rim.wav
448,192,174163,1,0,0:0:0:30:Ride.wav
64,192,174325,1,0,0:0:0:40:Tom2.wav
192,192,174406,1,0,0:0:0:40:Tom2.wav
64,192,174487,1,4,0:0:0:0:
320,192,174487,1,2,0:0:0:0:
448,192,174487,1,0,0:0:0:0:
192,192,174812,1,0,0:0:0:30:Ride.wav
64,192,174974,1,2,0:0:0:0:
320,192,174974,1,0,0:0:0:0:
64,192,175136,1,8,0:0:0:0:
448,192,175136,1,0,0:0:0:30:Ride.wav
192,192,175460,1,0,0:0:0:30:Ride.wav
448,192,175622,1,8,0:0:0:20:soft-hitclap.wav
320,192,175704,1,8,0:0:0:20:soft-hitclap.wav
64,192,175785,1,2,0:0:0:0:
192,192,175785,1,0,0:0:0:30:Ride.wav
64,192,175947,1,8,0:0:0:0:
448,192,175947,1,0,0:0:0:0:
320,192,176109,1,0,0:0:0:30:Ride.wav
192,192,176271,1,2,0:0:0:0:
448,192,176271,1,0,0:0:0:0:
64,192,176433,1,4,0:0:0:0:
320,192,176433,1,8,0:0:0:0:
448,192,176433,1,0,0:0:0:0:
64,192,176677,1,4,0:0:0:0:
320,192,176677,1,8,0:0:0:0:
448,192,176677,1,0,0:0:0:0:
64,192,176920,1,4,0:0:0:0:
320,192,176920,1,8,0:0:0:0:
448,192,176920,1,0,0:0:0:0:
192,192,179190,1,2,0:0:0:0:
320,192,179271,1,2,0:0:0:0:
64,192,179352,1,8,0:0:0:0:
192,192,179352,1,0,0:0:0:40:Tom2.wav
448,192,179352,1,0,0:0:0:0:
64,192,179677,1,4,0:0:0:0:
320,192,179677,1,2,0:0:0:0:
448,192,179677,1,0,0:0:0:0:
192,192,179839,1,0,0:0:0:0:
320,192,180001,1,10,0:0:0:0:
448,192,180001,1,0,0:0:0:60:Hat.wav
192,192,180163,1,0,0:0:0:0:
64,192,180325,128,2,180649:0:0:0:0:
448,192,180325,1,0,0:0:0:60:Hat.wav
192,192,180649,1,10,0:0:0:0:
320,192,180649,1,0,0:0:0:60:Hat.wav
448,192,180812,128,0,181136:0:0:0:0:
64,192,180974,1,2,0:0:0:0:
192,192,181136,1,0,0:0:0:0:
320,192,181298,128,10,181460:0:0:0:0:
448,192,181298,1,0,0:0:0:60:Hat.wav
64,192,181622,1,2,0:0:0:0:
192,192,181622,128,0,181947:0:0:0:60:Hat.wav
320,192,181947,1,10,0:0:0:0:
448,192,181947,1,0,0:0:0:60:Hat.wav
64,192,182271,1,4,0:0:0:0:
192,192,182271,1,2,0:0:0:0:
448,192,182271,1,0,0:0:0:0:
320,192,182433,1,0,0:0:0:0:
64,192,182595,1,10,0:0:0:0:
192,192,182595,1,0,0:0:0:60:Hat.wav
320,192,182758,1,0,0:0:0:0:
64,192,182920,1,2,0:0:0:0:
448,192,182920,128,0,183082:0:0:0:60:Hat.wav
192,192,183244,1,10,0:0:0:0:
320,192,183244,1,0,0:0:0:60:Hat.wav
64,192,183406,1,0,0:0:0:0:
320,192,183568,1,2,0:0:0:0:
448,192,183568,1,0,0:0:0:60:Hat.wav
192,192,183731,1,0,0:0:0:0:
64,192,183893,1,10,0:0:0:0:
320,192,183893,1,0,0:0:0:60:Hat.wav
448,192,184055,1,0,0:0:0:0:
64,192,184217,1,2,0:0:0:0:
192,192,184217,128,0,184379:0:0:0:60:Hat.wav
448,192,184379,1,8,0:0:0:0:
320,192,184460,1,8,0:0:0:0:
64,192,184541,1,2,0:0:0:0:
192,192,184541,1,8,0:0:0:0:
320,192,184704,1,8,0:0:0:0:
192,192,184785,1,8,0:0:0:0:
64,192,184866,1,4,0:0:0:0:
320,192,184866,1,2,0:0:0:0:
448,192,184866,128,0,185190:0:0:0:0:
192,192,185190,1,10,0:0:0:0:
320,192,185190,1,0,0:0:0:60:Hat.wav
64,192,185514,128,2,185839:0:0:0:0:
192,192,185514,1,0,0:0:0:60:Hat.wav
320,192,185839,1,10,0:0:0:0:
448,192,185839,1,0,0:0:0:60:Hat.wav
192,192,186001,1,0,0:0:0:0:
64,192,186163,1,2,0:0:0:0:
448,192,186163,128,0,186487:0:0:0:60:Hat.wav
192,192,186487,128,10,186812:0:0:0:0:
320,192,186487,1,0,0:0:0:60:Hat.wav
64,192,186812,1,2,0:0:0:0:
320,192,186812,128,0,187136:0:0:0:60:Hat.wav
64,192,187136,128,10,187460:0:0:0:0:
448,192,187136,1,0,0:0:0:60:Hat.wav
192,192,187460,1,2,0:0:0:0:
320,192,187460,1,4,0:0:0:0:
448,192,187460,128,0,187785:0:0:0:0:
64,192,187785,1,10,0:0:0:0:
192,192,187785,1,0,0:0:0:60:Hat.wav
320,192,187947,1,0,0:0:0:0:
64,192,188109,1,2,0:0:0:0:
448,192,188109,1,0,0:0:0:60:Hat.wav
192,192,188271,1,8,0:0:0:0:
320,192,188352,1,8,0:0:0:0:
192,192,188433,1,8,0:0:0:0:
448,192,188433,1,2,0:0:0:0:
64,192,188514,1,8,0:0:0:0:
320,192,188595,1,8,0:0:0:0:
192,192,188677,1,8,0:0:0:0:
320,192,188758,1,2,0:0:0:0:
448,192,188758,1,8,0:0:0:0:
64,192,188839,1,8,0:0:0:0:
192,192,188920,1,8,0:0:0:0:
320,192,189001,1,8,0:0:0:0:
192,192,189082,1,2,0:0:0:0:
448,192,189082,1,8,0:0:0:0:
64,192,189163,1,8,0:0:0:0:
320,192,189244,1,8,0:0:0:0:
192,192,189325,1,8,0:0:0:0:
64,192,189406,1,2,0:0:0:0:
448,192,189406,1,0,0:0:0:40:Tom1.wav
192,192,189568,1,0,0:0:0:40:Tom1.wav
320,192,189649,1,0,0:0:0:40:Tom1.wav
64,192,189731,1,2,0:0:0:0:
448,192,189731,1,0,0:0:0:40:Tom2.wav
192,192,189812,1,0,0:0:0:40:Tom2.wav
320,192,189893,1,0,0:0:0:40:Tom3.wav
192,192,189974,1,0,0:0:0:40:Tom3.wav
64,192,190055,1,4,0:0:0:0:
320,192,190055,1,2,0:0:0:0:
448,192,190055,1,0,0:0:0:0:
192,192,190217,1,0,0:0:0:0:
64,192,190379,1,4,0:0:0:0:
320,192,190379,1,2,0:0:0:0:
448,192,190379,1,8,0:0:0:0:
192,192,190541,1,0,0:0:0:0:
320,192,190704,128,2,191028:0:0:0:0:
448,192,190704,1,0,0:0:0:60:Hat.wav
64,192,191028,1,10,0:0:0:0:
192,192,191028,1,0,0:0:0:60:Hat.wav
448,192,191190,1,0,0:0:0:0:
192,192,191352,1,2,0:0:0:0:
320,192,191352,1,0,0:0:0:60:Hat.wav
64,192,191514,1,0,0:0:0:0:
320,192,191677,1,10,0:0:0:0:
448,192,191677,128,0,191839:0:0:0:60:Hat.wav
64,192,192001,1,2,0:0:0:0:
192,192,192001,128,0,192325:0:0:0:60:Hat.wav
320,192,192325,1,10,0:0:0:0:
448,192,192325,1,0,0:0:0:60:Hat.wav
64,192,192649,1,2,0:0:0:0:
192,192,192649,1,4,0:0:0:0:
448,192,192649,1,0,0:0:0:0:
320,192,192812,1,0,0:0:0:0:
64,192,192974,1,10,0:0:0:0:
192,192,192974,1,0,0:0:0:60:Hat.wav
320,192,193136,1,0,0:0:0:0:
64,192,193298,1,2,0:0:0:0:
448,192,193298,1,0,0:0:0:60:Hat.wav
192,192,193460,1,0,0:0:0:0:
320,192,193622,1,10,0:0:0:0:
448,192,193622,1,0,0:0:0:60:Hat.wav
192,192,193785,128,0,194109:0:0:0:0:
320,192,193947,1,2,0:0:0:0:
448,192,194109,128,0,194271:0:0:0:0:
64,192,194271,1,10,0:0:0:0:
320,192,194271,1,0,0:0:0:60:Hat.wav
64,192,194595,1,2,0:0:0:0:
192,192,194595,1,0,0:0:0:60:Hat.wav
448,192,194758,1,8,0:0:0:0:
320,192,194839,1,8,0:0:0:0:
192,192,194920,1,8,0:0:0:0:
448,192,194920,1,2,0:0:0:0:
64,192,195001,1,8,0:0:0:0:
320,192,195082,1,8,0:0:0:0:
192,192,195163,1,8,0:0:0:0:
64,192,195244,128,4,195568:0:0:0:0:
320,192,195244,1,2,0:0:0:0:
448,192,195244,1,0,0:0:0:0:
192,192,195568,1,10,0:0:0:0:
448,192,195568,1,0,0:0:0:60:Hat.wav
192,192,195893,1,2,0:0:0:0:
320,192,195893,1,0,0:0:0:60:Hat.wav
64,192,196055,1,0,0:0:0:0:
320,192,196217,1,10,0:0:0:0:
448,192,196217,1,0,0:0:0:60:Hat.wav
192,192,196379,1,0,0:0:0:0:
64,192,196541,1,2,0:0:0:0:
448,192,196541,128,0,196866:0:0:0:60:Hat.wav
192,192,196866,1,10,0:0:0:0:
320,192,196866,1,0,0:0:0:60:Hat.wav
64,192,197028,1,0,0:0:0:0:
320,192,197190,1,2,0:0:0:0:
448,192,197190,1,0,0:0:0:60:Hat.wav
192,192,197352,1,0,0:0:0:0:
64,192,197514,1,10,0:0:0:0:
320,192,197514,128,0,198163:0:0:0:60:Hat.wav
192,192,197839,1,2,0:0:0:0:
448,192,197839,1,4,0:0:0:0:
64,192,198163,1,10,0:0:0:0:
192,192,198163,1,0,0:0:0:60:Hat.wav
448,192,198325,1,0,0:0:0:0:
64,192,198487,1,2,0:0:0:0:
448,192,198487,1,0,0:0:0:60:Hat.wav
320,192,198649,1,0,0:0:0:0:
64,192,198812,1,10,0:0:0:0:
192,192,198812,1,0,0:0:0:60:Hat.wav
448,192,198974,1,0,0:0:0:0:
192,192,199136,1,2,0:0:0:0:
320,192,199136,1,0,0:0:0:60:Hat.wav
64,192,199298,1,2,0:0:0:0:
448,192,199298,1,0,0:0:0:0:
64,192,199460,1,8,0:0:0:0:
192,192,199460,1,0,0:0:0:60:Hat.wav
320,192,199622,1,2,0:0:0:0:
448,192,199622,1,0,0:0:0:0:
64,192,199785,1,0,0:0:0:40:Tom2.wav
192,192,199947,1,2,0:0:0:0:
320,192,199947,1,0,0:0:0:0:
64,192,200109,1,8,0:0:0:0:
320,192,200109,1,4,0:0:0:0:
448,192,200109,128,0,200433:0:0:0:0:
64,192,200433,1,4,0:0:0:0:
192,192,200433,128,2,200758:0:0:0:0:
320,192,200433,1,0,0:0:0:0:
448,192,200758,1,8,0:0:0:0:
320,192,200839,1,8,0:0:0:0:
64,192,200920,1,2,0:0:0:0:
192,192,201001,1,2,0:0:0:0:
320,192,201082,1,0,0:0:0:40:Tom2.wav
448,192,201163,1,0,0:0:0:40:Tom3.wav
64,192,201244,1,2,0:0:0:0:
192,192,201325,1,2,0:0:0:0:
448,192,201406,1,0,0:0:0:40:Tom2.wav
320,192,201487,1,0,0:0:0:40:Tom2.wav
192,192,201568,1,0,0:0:0:40:Tom3.wav
64,192,201649,1,0,0:0:0:40:Tom3.wav
320,192,201731,1,8,0:0:0:0:
448,192,201731,1,0,0:0:0:0:
64,192,201893,1,2,0:0:0:0:
192,192,201893,1,0,0:0:0:0:
64,192,202055,1,8,0:0:0:0:
320,192,202055,1,4,0:0:0:0:
448,192,202055,128,0,203028:0:0:0:0:
64,192,203028,128,2,203190:0:0:0:0:
192,192,203028,1,4,0:0:0:0:
320,192,203028,1,0,0:0:0:0:
64,192,203514,128,0,203677:0:0:0:0:
64,192,203839,128,0,204001:0:0:0:0:
320,192,204001,128,0,204325:0:0:0:0:
192,192,204325,128,0,204487:0:0:0:0:
192,192,204812,128,0,204974:0:0:0:0:
192,192,205136,128,0,205298:0:0:0:0:
448,192,205298,128,0,205622:0:0:0:30:Ride.wav
64,192,205460,1,0,0:0:0:30:Ride.wav
192,192,205541,1,0,0:0:0:30:Ride.wav
320,192,205622,128,0,205785:0:0:0:30:Ride.wav
320,192,206109,128,0,206271:0:0:0:0:
320,192,206433,128,0,206595:0:0:0:0:
64,192,206595,128,0,206920:0:0:0:0:
448,192,206920,128,0,207082:0:0:0:0:
448,192,207406,128,0,207568:0:0:0:0:
64,192,207568,1,0,0:0:0:30:Ride.wav
448,192,207731,128,0,207893:0:0:0:0:
192,192,207893,128,0,208217:0:0:0:30:Ride.wav
320,192,208217,128,0,208379:0:0:0:0:
320,192,208704,128,0,208866:0:0:0:0:
320,192,209028,128,0,209190:0:0:0:0:
64,192,209190,128,0,209514:0:0:0:0:
192,192,209514,128,0,209677:0:0:0:0:
192,192,210001,128,0,210163:0:0:0:0:
448,192,210163,1,0,0:0:0:30:Ride.wav
192,192,210325,128,0,210487:0:0:0:0:
320,192,210487,128,0,210812:0:0:0:0:
448,192,210812,128,0,210974:0:0:0:30:Ride.wav
448,192,211298,128,0,211460:0:0:0:0:
448,192,211622,128,0,211785:0:0:0:0:
192,192,211785,128,0,212109:0:0:0:0:
64,192,212109,128,0,212271:0:0:0:0:
64,192,212433,128,0,213406:0:0:0:0:
192,192,213406,1,0,0:0:0:0:
320,192,213406,128,0,215352:0:0:0:0:
