osu file format v14

[General]
AudioFilename: audio.ogg
AudioLeadIn: 0
PreviewTime: 137183
Countdown: 0
SampleSet: Soft
StackLeniency: 0.7
Mode: 3
LetterboxInBreaks: 0
SpecialStyle: 0
WidescreenStoryboard: 0

[Editor]
Bookmarks: 191183
DistanceSpacing: 0.7
BeatDivisor: 4
GridSize: 4
TimelineZoom: 2.3

[Metadata]
Title:Mada, Aoi
TitleUnicode:未だ、青い
Artist:Minato Aqua
ArtistUnicode:湊あくあ
Creator:DenYi
Version:Still Blue
Source:あくありうむ。
Tags:Artzone ML-ysg lami- j-pop jpop pop hololive ホロライブ virtual youtuber vtuber バーチャル japanese original 8th single vn visual novel video game aquarium akuarium Stay Blue op opening Full version
BeatmapID:3748537
BeatmapSetID:1826609

[Difficulty]
HPDrainRate:8
CircleSize:4
OverallDifficulty:8
ApproachRate:5
SliderMultiplier:1.4
SliderTickRate:1

[Events]
//Background and Video events
Video,-40,"imada aoi.mp4"
0,0,"mada aoi4.jpg",0,0
//Break Periods
//Storyboard Layer 0 (Background)
//Storyboard Layer 1 (Fail)
//Storyboard Layer 2 (Pass)
//Storyboard Layer 3 (Foreground)
//Storyboard Layer 4 (Overlay)
//Storyboard Sound Samples
Sample,1785,0,"Hat Open.wav",15
Sample,3082,0,"Hat Open.wav",15
Sample,4379,0,"Hat Open.wav",15
Sample,5514,0,"Rim.wav",25
Sample,5839,0,"Ride.wav",30
Sample,5839,0,"Rim.wav",25
Sample,102812,0,"Rim.wav",50
Sample,116595,0,"Ride.wav",30
Sample,116920,0,"Ride.wav",30
Sample,119514,0,"Rim.wav",50
Sample,120974,0,"Rim.wav",50
Sample,122109,0,"Rim.wav",50
Sample,123568,0,"Rim.wav",50
Sample,124704,0,"Rim.wav",50
Sample,161190,0,"Ride.wav",30
Sample,167677,0,"Ride.wav",30

[TimingPoints]
650,324.324324324324,4,2,1,50,1,0
73298,-100,4,2,1,50,0,1
94055,-100,4,2,1,50,0,0
138163,-100,4,2,1,50,0,1
156325,-100,4,2,1,50,0,0
179677,-100,4,2,1,50,0,1
203028,-100,4,2,1,50,0,0

[HitObjects]
64,192,650,5,2,0:0:0:0:
320,192,650,1,4,0:0:0:0:
448,192,650,1,0,0:0:0:0:
192,192,812,1,0,0:0:0:0:
320,192,893,1,0,0:0:0:25:Rim.wav
448,192,893,1,0,0:0:0:0:
64,192,1055,1,0,0:0:0:0:
192,192,1136,1,0,0:0:0:35:LR3_HiHatSCD.wav
448,192,1136,1,0,0:0:0:25:Rim.wav
320,192,1298,1,0,0:0:0:0:
192,192,1379,1,0,0:0:0:0:
64,192,1460,1,0,0:0:0:35:LR3_HiHatSCD.wav
448,192,1460,1,0,0:0:0:25:Rim.wav
192,192,1622,1,0,0:0:0:35:LR3_HiHatSCD.wav
320,192,1622,1,0,0:0:0:25:Rim.wav
192,192,1785,1,0,0:0:0:35:LR3_HiHatSCD.wav
64,192,1947,1,0,0:0:0:35:LR3_HiHatSCD.wav
448,192,1947,1,0,0:0:0:25:Rim.wav
320,192,2109,1,0,0:0:0:35:LR3_HiHatSCD.wav
64,192,2190,1,0,0:0:0:35:LR3_HiHatSCD.wav
192,192,2190,1,0,0:0:0:25:Rim.wav
448,192,2271,1,0,0:0:0:35:LR3_HiHatSCD.wav
64,192,2433,1,0,0:0:0:35:LR3_HiHatSCD.wav
320,192,2433,1,0,0:0:0:25:Rim.wav
192,192,2595,1,0,0:0:0:0:
320,192,2677,1,0,0:0:0:0:
64,192,2758,1,0,0:0:0:35:LR3_HiHatSCD.wav
448,192,2758,1,0,0:0:0:25:Rim.wav
192,192,2920,1,0,0:0:0:35:LR3_HiHatSCD.wav
320,192,2920,1,0,0:0:0:25:Rim.wav
192,192,3082,1,0,0:0:0:35:LR3_HiHatSCD.wav
64,192,3244,1,0,0:0:0:35:LR3_HiHatSCD.wav
320,192,3244,1,4,0:0:0:30:soft-hitfinish.wav
448,192,3244,1,0,0:0:0:25:Rim.wav
192,192,3406,1,0,0:0:0:35:LR3_HiHatSCD.wav
320,192,3487,1,0,0:0:0:35:LR3_HiHatSCD.wav
448,192,3487,1,0,0:0:0:25:Rim.wav
64,192,3649,1,0,0:0:0:0:
192,192,3731,1,0,0:0:0:35:LR3_HiHatSCD.wav
448,192,3731,1,0,0:0:0:25:Rim.wav
320,192,3893,1,0,0:0:0:0:
192,192,3974,1,0,0:0:0:0:
64,192,4055,1,0,0:0:0:35:LR3_HiHatSCD.wav
448,192,4055,1,0,0:0:0:25:Rim.wav
192,192,4217,1,0,0:0:0:35:LR3_HiHatSCD.wav
320,192,4217,1,0,0:0:0:25:Rim.wav
192,192,4379,1,0,0:0:0:35:LR3_HiHatSCD.wav
64,192,4541,1,0,0:0:0:35:LR3_HiHatSCD.wav
448,192,4541,1,0,0:0:0:25:Rim.wav
320,192,4704,1,0,0:0:0:35:LR3_HiHatSCD.wav
64,192,4785,1,0,0:0:0:25:Rim.wav
192,192,4785,1,0,0:0:0:0:
448,192,4866,1,0,0:0:0:35:LR3_HiHatSCD.wav
64,192,5028,1,0,0:0:0:35:LR3_HiHatSCD.wav
320,192,5028,1,0,0:0:0:25:Rim.wav
192,192,5190,1,0,0:0:0:0:
320,192,5271,1,0,0:0:0:0:
64,192,5352,1,0,0:0:0:35:LR3_HiHatSCD.wav
448,192,5352,1,0,0:0:0:25:Rim.wav
64,192,5514,128,0,5677:0:0:0:35:LR3_HiHatSCD.wav
320,192,5514,1,0,0:0:0:15:Hat Open.wav
192,192,5595,128,0,5758:0:0:0:15:Ride.wav
320,192,5677,128,0,5839:0:0:0:20:Ride.wav
448,192,5758,128,0,5839:0:0:0:25:Ride.wav
64,192,5839,1,0,0:0:0:35:LR3_HiHatSCD.wav
192,192,5839,1,4,0:0:0:30:soft-hitfinish.wav
64,192,6082,1,0,0:0:0:25:Rim.wav
320,192,6082,1,0,0:0:0:0:
448,192,6163,1,0,0:0:0:0:
192,192,6325,1,0,0:0:0:35:LR3_HiHatSCD.wav
320,192,6325,1,0,0:0:0:25:Rim.wav
64,192,6487,128,0,7136:0:0:0:0:
192,192,6649,1,0,0:0:0:35:LR3_HiHatSCD.wav
448,192,6649,1,0,0:0:0:25:Rim.wav
320,192,6812,1,0,0:0:0:35:LR3_HiHatSCD.wav
448,192,6812,1,0,0:0:0:25:Rim.wav
192,192,6974,1,0,0:0:0:15:Hat Open.wav
320,192,7136,128,0,7785:0:0:0:35:LR3_HiHatSCD.wav
448,192,7136,1,0,0:0:0:25:Rim.wav
64,192,7379,1,0,0:0:0:25:Rim.wav
192,192,7379,1,0,0:0:0:0:
448,192,7460,1,0,0:0:0:0:
64,192,7622,1,0,0:0:0:25:Rim.wav
448,192,7622,1,0,0:0:0:0:
192,192,7785,128,0,8433:0:0:0:0:
320,192,7947,1,0,0:0:0:25:Rim.wav
448,192,7947,1,0,0:0:0:0:
64,192,8109,1,0,0:0:0:25:Rim.wav
448,192,8109,1,0,0:0:0:0:
320,192,8271,1,0,0:0:0:0:
64,192,8433,1,4,0:0:0:30:soft-hitfinish.wav
320,192,8433,1,0,0:0:0:0:
448,192,8433,128,0,9406:0:0:0:0:
64,192,8677,1,0,0:0:0:25:Rim.wav
320,192,8677,1,0,0:0:0:0:
192,192,8758,1,0,0:0:0:0:
64,192,8920,1,0,0:0:0:25:Rim.wav
192,192,8920,1,0,0:0:0:0:
320,192,9082,1,0,0:0:0:0:
64,192,9244,1,0,0:0:0:25:Rim.wav
192,192,9244,1,0,0:0:0:0:
320,192,9406,1,0,0:0:0:25:Rim.wav
64,192,9487,1,0,0:0:0:25:Rim.wav
192,192,9568,1,0,0:0:0:25:Rim.wav
320,192,9649,1,0,0:0:0:25:Rim.wav
64,192,9731,1,8,0:0:0:0:
192,192,9731,1,0,0:0:0:40:Tom3.wav
448,192,9731,1,0,0:0:0:0:
64,192,9893,1,8,0:0:0:0:
192,192,9893,1,0,0:0:0:40:Tom3.wav
448,192,9893,1,0,0:0:0:0:
64,192,10379,1,8,0:0:0:0:
192,192,10379,1,0,0:0:0:0:
320,192,10379,1,0,0:0:0:0:
64,192,10541,1,2,0:0:0:0:
192,192,10541,1,0,0:0:0:40:Hat Open.wav
320,192,10541,1,0,0:0:0:0:
448,192,10704,128,0,10866:0:0:0:0:
320,192,10785,128,0,10947:0:0:0:0:
192,192,10866,128,0,11028:0:0:0:0:
64,192,10947,128,0,11028:0:0:0:0:
320,192,11028,1,2,0:0:0:0:
448,192,11028,128,4,12001:0:0:0:0:
192,192,11190,1,0,0:0:0:0:
64,192,11352,1,10,0:0:0:0:
320,192,11352,1,8,0:0:0:60:Hat.wav
64,192,11514,1,0,0:0:0:0:
192,192,11677,1,2,0:0:0:0:
320,192,11677,1,8,0:0:0:60:Hat.wav
64,192,11839,1,0,0:0:0:0:
64,192,12001,1,8,0:0:0:0:
192,192,12001,1,2,0:0:0:0:
320,192,12001,1,8,0:0:0:60:Hat.wav
192,192,12163,128,0,12325:0:0:0:0:
64,192,12244,128,0,12325:0:0:0:0:
320,192,12325,128,2,12406:0:0:0:0:
448,192,12325,1,8,0:0:0:60:Hat.wav
320,192,12487,128,0,12649:0:0:0:0:
64,192,12649,1,2,0:0:0:0:
192,192,12649,1,8,0:0:0:0:
448,192,12649,1,8,0:0:0:60:Hat.wav
192,192,12812,128,0,13298:0:0:0:0:
320,192,12974,1,8,0:0:0:60:Hat.wav
448,192,12974,1,2,0:0:0:0:
64,192,13136,1,0,0:0:0:0:
64,192,13298,1,2,0:0:0:0:
320,192,13298,1,8,0:0:0:0:
448,192,13298,1,8,0:0:0:60:Hat.wav
448,192,13460,128,0,13541:0:0:0:0:
64,192,13622,1,2,0:0:0:0:
448,192,13622,128,8,13947:0:0:0:60:Hat.wav
320,192,13785,1,0,0:0:0:0:
64,192,13947,1,2,0:0:0:0:
192,192,13947,1,8,0:0:0:0:
320,192,13947,1,8,0:0:0:60:Hat.wav
192,192,14109,128,0,14190:0:0:0:0:
64,192,14271,1,2,0:0:0:0:
192,192,14271,128,8,14433:0:0:0:60:Hat.wav
448,192,14433,128,0,14758:0:0:0:0:
64,192,14595,1,8,0:0:0:0:
192,192,14595,1,2,0:0:0:0:
320,192,14595,128,8,14758:0:0:0:60:Hat.wav
64,192,14758,128,0,15244:0:0:0:0:
192,192,14920,1,2,0:0:0:0:
448,192,14920,1,8,0:0:0:60:Hat.wav
320,192,15082,1,0,0:0:0:0:
192,192,15244,1,8,0:0:0:0:
320,192,15244,1,2,0:0:0:0:
448,192,15244,1,8,0:0:0:60:Hat.wav
448,192,15406,128,0,15893:0:0:0:0:
64,192,15568,1,2,0:0:0:0:
320,192,15568,1,8,0:0:0:60:Hat.wav
192,192,15731,1,8,0:0:0:0:
320,192,15812,1,8,0:0:0:0:
64,192,15893,1,2,0:0:0:0:
192,192,15893,1,8,0:0:0:0:
320,192,15974,1,8,0:0:0:0:
64,192,16055,1,8,0:0:0:0:
448,192,16055,1,0,0:0:0:0:
192,192,16136,1,8,0:0:0:0:
64,192,16217,1,4,0:0:0:0:
320,192,16217,128,2,17190:0:0:0:0:
448,192,16217,1,2,0:0:0:0:
192,192,16379,1,0,0:0:0:0:
64,192,16541,1,10,0:0:0:0:
448,192,16541,1,8,0:0:0:60:Hat.wav
448,192,16704,1,0,0:0:0:0:
64,192,16866,1,2,0:0:0:0:
192,192,16866,1,8,0:0:0:60:Hat.wav
448,192,17028,1,0,0:0:0:0:
64,192,17190,1,8,0:0:0:0:
192,192,17190,1,2,0:0:0:0:
448,192,17190,1,8,0:0:0:60:Hat.wav
64,192,17352,128,0,17514:0:0:0:0:
192,192,17433,128,0,17514:0:0:0:0:
320,192,17514,1,2,0:0:0:0:
448,192,17514,128,8,17595:0:0:0:60:Hat.wav
448,192,17677,128,0,17839:0:0:0:0:
64,192,17839,1,8,0:0:0:0:
192,192,17839,1,2,0:0:0:0:
320,192,17839,1,8,0:0:0:60:Hat.wav
192,192,18001,128,0,18487:0:0:0:0:
320,192,18163,1,2,0:0:0:0:
448,192,18163,1,8,0:0:0:60:Hat.wav
64,192,18325,1,0,0:0:0:0:
64,192,18487,1,2,0:0:0:0:
320,192,18487,1,8,0:0:0:0:
448,192,18487,1,8,0:0:0:60:Hat.wav
320,192,18649,128,0,18731:0:0:0:0:
64,192,18812,1,2,0:0:0:0:
320,192,18812,128,8,19136:0:0:0:60:Hat.wav
448,192,18974,1,0,0:0:0:0:
64,192,19136,1,2,0:0:0:0:
192,192,19136,128,8,19217:0:0:0:0:
192,192,19298,1,8,0:0:0:0:
320,192,19298,1,4,0:0:0:0:
448,192,19298,128,0,19622:0:0:0:0:
64,192,19460,1,2,0:0:0:0:
320,192,19460,1,0,0:0:0:0:
192,192,19622,1,0,0:0:0:0:
64,192,19785,128,8,19866:0:0:0:0:
320,192,19785,1,2,0:0:0:0:
448,192,19785,1,0,0:0:0:0:
64,192,19947,1,8,0:0:0:0:
320,192,19947,128,4,20271:0:0:0:0:
448,192,19947,1,0,0:0:0:0:
64,192,20271,1,8,0:0:0:0:
192,192,20271,1,0,0:0:0:0:
320,192,20352,1,8,0:0:0:0:
64,192,20433,1,8,0:0:0:0:
448,192,20433,1,2,0:0:0:0:
192,192,20595,1,0,0:0:0:40:Tom1.wav
320,192,20595,1,0,0:0:0:0:
64,192,20677,1,0,0:0:0:40:Tom1.wav
448,192,20677,1,0,0:0:0:0:
192,192,20758,1,2,0:0:0:0:
320,192,20758,1,0,0:0:0:0:
64,192,20920,1,0,0:0:0:40:Tom2.wav
192,192,20920,1,0,0:0:0:0:
320,192,21001,1,0,0:0:0:40:Tom2.wav
448,192,21001,1,0,0:0:0:0:
64,192,21082,1,2,0:0:0:0:
192,192,21082,1,0,0:0:0:40:Tom2.wav
320,192,21244,1,0,0:0:0:40:Tom3.wav
448,192,21244,1,0,0:0:0:0:
192,192,21325,1,0,0:0:0:40:Tom3.wav
64,192,21406,128,4,21568:0:0:0:0:
320,192,21406,128,2,21568:0:0:0:0:
448,192,21406,128,0,21568:0:0:0:0:
64,192,21731,1,2,0:0:0:0:
192,192,21731,1,0,0:0:0:0:
320,192,21893,1,0,0:0:0:0:
64,192,22055,1,2,0:0:0:0:
448,192,22055,1,0,0:0:0:0:
192,192,22217,1,0,0:0:0:50:Rim.wav
192,192,22379,1,2,0:0:0:0:
320,192,22379,1,0,0:0:0:50:Rim.wav
448,192,22541,1,0,0:0:0:0:
64,192,22704,1,2,0:0:0:0:
192,192,22704,1,0,0:0:0:0:
448,192,22866,1,0,0:0:0:0:
64,192,22947,1,0,0:0:0:50:Rim.wav
192,192,23028,1,2,0:0:0:0:
320,192,23028,1,0,0:0:0:0:
64,192,23190,1,0,0:0:0:50:Rim.wav
320,192,23352,1,2,0:0:0:0:
448,192,23352,1,0,0:0:0:0:
192,192,23514,1,0,0:0:0:50:Rim.wav
320,192,23595,1,0,0:0:0:50:Rim.wav
64,192,23677,1,2,0:0:0:0:
448,192,23677,1,0,0:0:0:0:
192,192,23839,1,0,0:0:0:0:
64,192,24001,128,2,24163:0:0:0:0:
320,192,24001,128,4,24163:0:0:0:0:
448,192,24001,128,0,24163:0:0:0:0:
64,192,24325,1,2,0:0:0:0:
192,192,24325,1,0,0:0:0:0:
448,192,24487,1,0,0:0:0:0:
192,192,24649,1,2,0:0:0:0:
320,192,24649,1,0,0:0:0:0:
64,192,24812,1,0,0:0:0:50:Rim.wav
64,192,24974,1,2,0:0:0:0:
448,192,24974,1,0,0:0:0:50:Rim.wav
320,192,25136,1,0,0:0:0:0:
64,192,25298,1,2,0:0:0:0:
192,192,25298,1,0,0:0:0:0:
448,192,25460,1,0,0:0:0:0:
192,192,25541,1,0,0:0:0:50:Rim.wav
320,192,25622,1,2,0:0:0:0:
448,192,25622,1,0,0:0:0:0:
64,192,25785,1,0,0:0:0:50:Rim.wav
192,192,25947,1,2,0:0:0:0:
320,192,25947,1,0,0:0:0:0:
448,192,26109,1,0,0:0:0:50:Rim.wav
320,192,26190,1,0,0:0:0:50:Rim.wav
64,192,26271,1,2,0:0:0:0:
192,192,26271,1,0,0:0:0:0:
320,192,26433,1,0,0:0:0:0:
64,192,26595,128,2,26758:0:0:0:0:
192,192,26595,128,4,26758:0:0:0:0:
448,192,26595,128,0,26758:0:0:0:0:
320,192,26920,1,2,0:0:0:0:
448,192,26920,1,0,0:0:0:0:
192,192,27082,1,0,0:0:0:50:Rim.wav
64,192,27244,1,2,0:0:0:0:
448,192,27244,1,0,0:0:0:0:
320,192,27406,1,0,0:0:0:50:Rim.wav
192,192,27568,1,2,0:0:0:0:
320,192,27568,1,0,0:0:0:50:Rim.wav
64,192,27731,1,0,0:0:0:0:
320,192,27893,1,2,0:0:0:0:
448,192,27893,1,0,0:0:0:50:Rim.wav
64,192,28055,1,0,0:0:0:0:
448,192,28136,1,0,0:0:0:50:Rim.wav
192,192,28217,1,2,0:0:0:0:
320,192,28217,1,0,0:0:0:0:
448,192,28379,1,0,0:0:0:50:Rim.wav
64,192,28541,1,2,0:0:0:0:
192,192,28541,1,0,0:0:0:0:
320,192,28704,1,0,0:0:0:50:Rim.wav
192,192,28785,1,0,0:0:0:50:Rim.wav
64,192,28866,1,2,0:0:0:0:
448,192,28866,1,0,0:0:0:0:
192,192,29028,1,0,0:0:0:0:
64,192,29190,128,2,29352:0:0:0:0:
320,192,29190,128,4,29352:0:0:0:0:
448,192,29190,128,0,29352:0:0:0:0:
192,192,29433,1,0,0:0:0:0:
320,192,29514,1,2,0:0:0:0:
448,192,29514,1,0,0:0:0:0:
64,192,29677,1,0,0:0:0:0:
192,192,29839,1,2,0:0:0:0:
320,192,29839,1,0,0:0:0:0:
448,192,30001,1,0,0:0:0:50:Rim.wav
64,192,30163,1,2,0:0:0:0:
448,192,30163,1,0,0:0:0:50:Rim.wav
192,192,30325,1,0,0:0:0:0:
320,192,30487,1,2,0:0:0:0:
448,192,30487,1,0,0:0:0:0:
64,192,30649,1,0,0:0:0:0:
448,192,30731,1,0,0:0:0:50:Rim.wav
64,192,30812,1,2,0:0:0:0:
192,192,30812,1,0,0:0:0:0:
448,192,30974,1,0,0:0:0:50:Rim.wav
192,192,31136,1,2,0:0:0:0:
320,192,31136,1,0,0:0:0:0:
64,192,31298,1,0,0:0:0:50:Rim.wav
192,192,31379,1,0,0:0:0:50:Rim.wav
320,192,31460,1,10,0:0:0:0:
448,192,31460,1,0,0:0:0:60:Hat.wav
192,192,31622,1,0,0:0:0:0:
64,192,31785,128,2,31947:0:0:0:0:
320,192,31785,128,4,31947:0:0:0:0:
448,192,31785,128,0,31947:0:0:0:0:
192,192,32028,1,0,0:0:0:50:Rim.wav
320,192,32109,1,2,0:0:0:0:
448,192,32109,1,0,0:0:0:0:
192,192,32271,1,0,0:0:0:0:
64,192,32433,1,2,0:0:0:0:
448,192,32433,1,0,0:0:0:0:
320,192,32595,1,0,0:0:0:50:Rim.wav
192,192,32758,1,2,0:0:0:0:
320,192,32758,1,0,0:0:0:50:Rim.wav
64,192,32920,1,0,0:0:0:0:
320,192,33082,1,2,0:0:0:0:
448,192,33082,1,0,0:0:0:0:
448,192,33244,1,0,0:0:0:0:
64,192,33325,1,0,0:0:0:50:Rim.wav
192,192,33406,1,2,0:0:0:0:
320,192,33406,1,0,0:0:0:0:
64,192,33568,1,0,0:0:0:50:Rim.wav
320,192,33731,1,2,0:0:0:0:
448,192,33731,1,0,0:0:0:0:
192,192,33893,1,0,0:0:0:50:Rim.wav
320,192,33974,1,0,0:0:0:50:Rim.wav
64,192,34055,1,2,0:0:0:0:
448,192,34055,1,0,0:0:0:0:
192,192,34217,1,0,0:0:0:0:
64,192,34379,128,2,34541:0:0:0:0:
320,192,34379,128,4,34541:0:0:0:0:
448,192,34379,128,0,34541:0:0:0:0:
192,192,34622,1,0,0:0:0:50:Rim.wav
320,192,34704,1,2,0:0:0:0:
448,192,34704,1,0,0:0:0:0:
64,192,34866,1,0,0:0:0:50:Rim.wav
192,192,35028,1,2,0:0:0:0:
320,192,35028,1,0,0:0:0:0:
448,192,35190,1,0,0:0:0:50:Rim.wav
64,192,35352,1,2,0:0:0:0:
448,192,35352,1,0,0:0:0:50:Rim.wav
320,192,35514,1,0,0:0:0:0:
64,192,35677,1,2,0:0:0:0:
192,192,35677,1,0,0:0:0:0:
448,192,35839,1,0,0:0:0:0:
192,192,35920,1,0,0:0:0:50:Rim.wav
320,192,36001,1,2,0:0:0:0:
448,192,36001,1,0,0:0:0:0:
64,192,36163,1,0,0:0:0:50:Rim.wav
192,192,36325,1,2,0:0:0:0:
320,192,36325,1,0,0:0:0:0:
448,192,36487,1,0,0:0:0:50:Rim.wav
320,192,36568,1,0,0:0:0:50:Rim.wav
64,192,36649,1,2,0:0:0:0:
192,192,36649,1,8,0:0:0:0:
320,192,36812,1,0,0:0:0:0:
64,192,36974,128,2,37136:0:0:0:0:
192,192,36974,128,4,37136:0:0:0:0:
448,192,36974,128,0,37136:0:0:0:0:
64,192,37298,1,2,0:0:0:0:
192,192,37298,1,0,0:0:0:0:
448,192,37460,1,0,0:0:0:0:
192,192,37622,1,2,0:0:0:0:
320,192,37622,1,0,0:0:0:0:
64,192,37785,1,0,0:0:0:50:Rim.wav
64,192,37947,1,2,0:0:0:0:
448,192,37947,1,0,0:0:0:50:Rim.wav
320,192,38109,1,0,0:0:0:0:
64,192,38271,128,2,38433:0:0:0:0:
192,192,38271,1,0,0:0:0:0:
448,192,38271,128,0,38433:0:0:0:0:
320,192,38514,1,0,0:0:0:50:Rim.wav
64,192,38595,1,2,0:0:0:0:
192,192,38595,1,0,0:0:0:0:
320,192,38758,1,0,0:0:0:0:
64,192,38920,1,2,0:0:0:0:
448,192,38920,1,0,0:0:0:0:
192,192,39082,1,0,0:0:0:50:Rim.wav
320,192,39163,1,0,0:0:0:50:Rim.wav
64,192,39244,1,2,0:0:0:0:
448,192,39244,1,0,0:0:0:0:
320,192,39406,1,0,0:0:0:0:
64,192,39568,128,2,39731:0:0:0:0:
192,192,39568,128,4,39731:0:0:0:0:
448,192,39568,128,0,39731:0:0:0:0:
64,192,39893,1,2,0:0:0:0:
192,192,39893,1,0,0:0:0:0:
448,192,40055,1,0,0:0:0:0:
192,192,40217,1,2,0:0:0:0:
320,192,40217,1,0,0:0:0:0:
64,192,40379,1,0,0:0:0:0:
192,192,40460,1,0,0:0:0:50:Rim.wav
320,192,40541,1,2,0:0:0:0:
448,192,40541,1,0,0:0:0:0:
192,192,40704,1,0,0:0:0:50:Rim.wav
64,192,40866,1,2,0:0:0:0:
448,192,40866,1,0,0:0:0:0:
320,192,41028,1,0,0:0:0:50:Rim.wav
64,192,41190,1,8,0:0:0:0:
192,192,41190,1,0,0:0:0:0:
320,192,41271,1,0,0:0:0:40:Tom1.wav
64,192,41352,1,0,0:0:0:40:Tom2.wav
448,192,41352,1,0,0:0:0:0:
192,192,41433,1,0,0:0:0:40:Tom3.wav
64,192,41514,1,8,0:0:0:0:
320,192,41514,1,0,0:0:0:0:
448,192,41514,1,0,0:0:0:0:
64,192,41677,1,8,0:0:0:0:
192,192,41677,1,0,0:0:0:50:Hat Open.wav
448,192,41677,1,0,0:0:0:0:
64,192,42163,1,2,0:0:0:0:
320,192,42163,1,4,0:0:0:0:
448,192,42163,1,0,0:0:0:0:
192,192,42325,128,0,42487:0:0:0:0:
320,192,42487,128,2,42649:0:0:0:0:
448,192,42487,1,0,0:0:0:0:
64,192,42649,128,0,42812:0:0:0:0:
192,192,42812,1,2,0:0:0:0:
448,192,42812,128,0,43136:0:0:0:0:
320,192,42974,128,0,43136:0:0:0:0:
64,192,43136,1,2,0:0:0:0:
192,192,43136,1,0,0:0:0:0:
320,192,43298,128,0,43460:0:0:0:0:
64,192,43460,128,2,43785:0:0:0:0:
448,192,43460,1,0,0:0:0:0:
320,192,43622,1,0,0:0:0:0:
192,192,43785,1,2,0:0:0:0:
448,192,43785,128,0,44109:0:0:0:0:
320,192,43947,128,0,44109:0:0:0:50:Rim.wav
192,192,44109,128,2,44433:0:0:0:0:
320,192,44271,1,0,0:0:0:50:Rim.wav
64,192,44433,1,2,0:0:0:0:
448,192,44433,128,0,44758:0:0:0:0:
64,192,44595,128,0,44758:0:0:0:60:Hat.wav
192,192,44758,1,2,0:0:0:0:
320,192,44758,128,4,45082:0:0:0:0:
448,192,44920,1,0,0:0:0:0:
64,192,45082,1,2,0:0:0:0:
192,192,45082,1,0,0:0:0:0:
320,192,45244,128,0,45406:0:0:0:0:
192,192,45406,128,2,45731:0:0:0:0:
448,192,45406,1,0,0:0:0:0:
64,192,45568,1,0,0:0:0:50:Rim.wav
320,192,45731,1,2,0:0:0:0:
448,192,45731,1,0,0:0:0:50:Rim.wav
192,192,45893,128,0,46055:0:0:0:0:
64,192,46055,128,2,46379:0:0:0:0:
448,192,46055,128,0,46704:0:0:0:0:
320,192,46217,1,0,0:0:0:0:
192,192,46379,1,2,0:0:0:0:
320,192,46379,1,0,0:0:0:0:
64,192,46541,128,0,47028:0:0:0:50:Rim.wav
192,192,46704,128,2,47028:0:0:0:0:
320,192,46704,1,0,0:0:0:0:
448,192,46866,1,0,0:0:0:50:Rim.wav
320,192,47028,1,2,0:0:0:0:
448,192,47028,1,0,0:0:0:0:
192,192,47190,128,0,47514:0:0:0:0:
64,192,47352,1,2,0:0:0:0:
320,192,47352,128,4,47514:0:0:0:0:
448,192,47352,1,0,0:0:0:0:
448,192,47514,128,0,47677:0:0:0:0:
64,192,47677,1,2,0:0:0:0:
192,192,47677,128,0,47839:0:0:0:0:
320,192,47839,128,0,48001:0:0:0:0:
64,192,48001,128,2,48325:0:0:0:0:
448,192,48001,1,0,0:0:0:0:
192,192,48163,128,0,48325:0:0:0:0:
320,192,48325,1,2,0:0:0:0:
448,192,48325,1,0,0:0:0:0:
192,192,48487,128,0,48649:0:0:0:0:
64,192,48649,1,2,0:0:0:0:
448,192,48649,128,0,48974:0:0:0:0:
192,192,48812,1,0,0:0:0:0:
64,192,48974,128,2,49298:0:0:0:0:
320,192,48974,1,0,0:0:0:0:
192,192,49136,128,0,49298:0:0:0:0:
320,192,49298,128,2,49460:0:0:0:0:
448,192,49298,1,0,0:0:0:0:
192,192,49460,128,0,49622:0:0:0:60:Hat.wav
64,192,49622,128,2,49947:0:0:0:0:
448,192,49622,1,8,0:0:0:0:
448,192,49785,128,0,49947:0:0:0:60:Hat.wav
192,192,49947,128,2,50271:0:0:0:0:
320,192,49947,1,4,0:0:0:0:
64,192,50109,1,0,0:0:0:0:
320,192,50271,1,2,0:0:0:0:
448,192,50271,1,0,0:0:0:0:
192,192,50433,128,0,50595:0:0:0:0:
64,192,50595,1,2,0:0:0:0:
320,192,50595,128,0,51244:0:0:0:0:
448,192,50758,1,0,0:0:0:50:Rim.wav
64,192,50920,1,2,0:0:0:0:
192,192,50920,1,0,0:0:0:50:Rim.wav
64,192,51244,128,2,51893:0:0:0:0:
448,192,51244,128,0,51568:0:0:0:50:Rim.wav
192,192,51406,1,0,0:0:0:0:
192,192,51568,1,2,0:0:0:0:
320,192,51568,1,0,0:0:0:0:
320,192,51731,128,0,51812:0:0:0:40:Tom1.wav
448,192,51731,128,0,52460:0:0:0:0:
192,192,51893,1,2,0:0:0:0:
320,192,51893,128,0,52460:0:0:0:0:
192,192,52055,128,0,52136:0:0:0:40:Tom2.wav
64,192,52217,1,2,0:0:0:0:
192,192,52217,1,0,0:0:0:0:
64,192,52379,128,0,52460:0:0:0:40:Tom3.wav
64,192,52541,1,2,0:0:0:0:
192,192,52541,1,4,0:0:0:0:
448,192,52541,1,0,0:0:0:0:
320,192,52704,128,0,52866:0:0:0:0:
192,192,52866,128,2,53028:0:0:0:0:
448,192,52866,1,0,0:0:0:0:
448,192,53028,128,0,53190:0:0:0:0:
64,192,53190,128,2,53514:0:0:0:0:
320,192,53190,1,0,0:0:0:0:
192,192,53352,128,0,53514:0:0:0:50:Rim.wav
320,192,53514,1,2,0:0:0:0:
448,192,53514,1,0,0:0:0:50:Rim.wav
192,192,53677,128,0,53839:0:0:0:0:
64,192,53839,1,2,0:0:0:0:
448,192,53839,128,0,54163:0:0:0:0:
192,192,54001,1,0,0:0:0:0:
64,192,54163,128,2,54487:0:0:0:0:
320,192,54163,1,0,0:0:0:0:
192,192,54325,128,0,54487:0:0:0:50:Rim.wav
320,192,54487,128,2,54812:0:0:0:0:
192,192,54649,1,0,0:0:0:50:Rim.wav
64,192,54812,128,2,55136:0:0:0:0:
448,192,54812,1,0,0:0:0:0:
448,192,54974,128,0,55136:0:0:0:60:Hat.wav
192,192,55136,128,2,55460:0:0:0:0:
320,192,55136,1,4,0:0:0:0:
64,192,55298,1,0,0:0:0:0:
320,192,55460,1,2,0:0:0:0:
448,192,55460,1,0,0:0:0:0:
192,192,55622,128,0,55785:0:0:0:0:
320,192,55785,128,2,56109:0:0:0:0:
448,192,55785,1,0,0:0:0:0:
64,192,55947,1,0,0:0:0:50:Rim.wav
192,192,56109,1,2,0:0:0:0:
448,192,56109,1,0,0:0:0:50:Rim.wav
320,192,56271,128,0,56433:0:0:0:0:
64,192,56433,128,2,56758:0:0:0:0:
448,192,56433,1,0,0:0:0:0:
320,192,56595,1,0,0:0:0:0:
192,192,56758,1,2,0:0:0:0:
448,192,56758,128,0,57082:0:0:0:0:
320,192,56920,1,0,0:0:0:0:
64,192,57082,1,2,0:0:0:0:
192,192,57082,128,0,57244:0:0:0:0:
448,192,57244,128,0,57406:0:0:0:60:Hat.wav
64,192,57406,128,2,57568:0:0:0:0:
192,192,57406,1,0,0:0:0:0:
320,192,57568,128,0,57731:0:0:0:60:Hat.wav
64,192,57731,128,2,58055:0:0:0:0:
192,192,57731,1,4,0:0:0:0:
448,192,57731,1,0,0:0:0:0:
320,192,58055,1,2,0:0:0:0:
448,192,58055,1,0,0:0:0:0:
192,192,58217,1,0,0:0:0:0:
64,192,58379,1,2,0:0:0:0:
448,192,58379,128,0,58704:0:0:0:0:
320,192,58541,128,0,58704:0:0:0:50:Rim.wav
64,192,58704,128,2,58866:0:0:0:0:
192,192,58704,1,0,0:0:0:50:Rim.wav
448,192,58866,128,0,59028:0:0:0:0:
64,192,59028,1,2,0:0:0:0:
192,192,59028,128,0,59352:0:0:0:0:
320,192,59190,1,0,0:0:0:0:
320,192,59352,128,2,59677:0:0:0:0:
448,192,59352,1,0,0:0:0:0:
64,192,59514,1,0,0:0:0:50:Rim.wav
64,192,59677,128,2,60001:0:0:0:0:
192,192,59677,1,0,0:0:0:0:
448,192,59839,1,0,0:0:0:50:Rim.wav
320,192,60001,1,2,0:0:0:0:
448,192,60001,128,0,60163:0:0:0:50:Rim.wav
192,192,60163,128,0,60325:0:0:0:60:Hat.wav
64,192,60325,1,2,0:0:0:0:
320,192,60325,128,4,60487:0:0:0:0:
448,192,60325,1,0,0:0:0:0:
64,192,60487,128,0,60568:0:0:0:0:
64,192,60649,128,2,61622:0:0:0:0:
192,192,60649,1,0,0:0:0:0:
320,192,60812,1,0,0:0:0:0:
192,192,60974,1,2,0:0:0:0:
448,192,60974,1,0,0:0:0:0:
320,192,61136,1,0,0:0:0:0:
192,192,61298,1,2,0:0:0:0:
448,192,61298,1,8,0:0:0:0:
448,192,61460,1,0,0:0:0:0:
192,192,61622,1,2,0:0:0:0:
320,192,61622,1,0,0:0:0:0:
64,192,61785,1,8,0:0:0:0:
320,192,61785,1,8,0:0:0:60:Hat.wav
448,192,61785,1,0,0:0:0:0:
64,192,61947,1,2,0:0:0:0:
192,192,61947,1,0,0:0:0:0:
64,192,62109,1,2,0:0:0:0:
192,192,62109,1,0,0:0:0:0:
320,192,62271,1,8,0:0:0:0:
448,192,62271,1,0,0:0:0:0:
192,192,62433,1,0,0:0:0:40:Tom1.wav
320,192,62433,1,0,0:0:0:0:
64,192,62595,1,0,0:0:0:40:Tom2.wav
192,192,62595,1,0,0:0:0:0:
320,192,62758,1,2,0:0:0:0:
448,192,62758,1,0,0:0:0:0:
64,192,62920,128,4,63406:0:0:0:0:
320,192,62920,1,2,0:0:0:0:
448,192,62920,1,0,0:0:0:0:
192,192,63244,1,0,0:0:0:0:
448,192,63406,128,0,63893:0:0:0:50:Rim.wav
320,192,63568,128,0,63893:0:0:0:0:
64,192,63731,1,2,0:0:0:0:
64,192,63893,1,0,0:0:0:50:Rim.wav
192,192,63893,128,0,64055:0:0:0:0:
320,192,64055,128,0,64217:0:0:0:0:
64,192,64217,128,2,64541:0:0:0:0:
448,192,64217,1,0,0:0:0:50:Rim.wav
192,192,64379,128,0,64541:0:0:0:0:
448,192,64541,128,0,64866:0:0:0:0:
192,192,64704,1,0,0:0:0:50:Rim.wav
320,192,64866,1,0,0:0:0:0:
64,192,65028,1,2,0:0:0:0:
192,192,65028,1,0,0:0:0:0:
64,192,65190,1,8,0:0:0:0:
320,192,65190,1,0,0:0:0:0:
448,192,65190,1,0,0:0:0:0:
192,192,65352,128,0,66001:0:0:0:40:Tom2.wav
448,192,65433,1,0,0:0:0:40:Tom2.wav
64,192,65514,1,2,0:0:0:0:
320,192,65514,128,4,66001:0:0:0:0:
448,192,65677,1,0,0:0:0:0:
64,192,65839,1,0,0:0:0:0:
448,192,66001,128,0,66487:0:0:0:50:Rim.wav
64,192,66163,128,0,66487:0:0:0:0:
192,192,66325,1,2,0:0:0:0:
320,192,66487,128,0,66649:0:0:0:50:Rim.wav
192,192,66649,128,0,66974:0:0:0:0:
320,192,66812,128,2,66974:0:0:0:0:
448,192,66812,1,0,0:0:0:50:Rim.wav
64,192,66974,128,0,67136:0:0:0:0:
448,192,67136,128,0,67460:0:0:0:0:
64,192,67298,1,0,0:0:0:50:Rim.wav
192,192,67460,128,0,67785:0:0:0:0:
320,192,67622,1,2,0:0:0:0:
448,192,67622,1,0,0:0:0:0:
64,192,67785,1,8,0:0:0:0:
320,192,67785,128,0,67947:0:0:0:0:
448,192,67785,1,0,0:0:0:0:
64,192,67947,128,0,68109:0:0:0:40:Tom2.wav
192,192,68028,1,0,0:0:0:40:Tom2.wav
320,192,68109,1,4,0:0:0:0:
448,192,68109,128,2,68433:0:0:0:0:
192,192,68433,1,0,0:0:0:0:
64,192,68595,128,0,69082:0:0:0:50:Rim.wav
192,192,68758,128,0,69082:0:0:0:0:
320,192,68920,1,2,0:0:0:0:
320,192,69082,1,0,0:0:0:50:Rim.wav
448,192,69082,1,0,0:0:0:0:
448,192,69244,128,0,69406:0:0:0:0:
64,192,69406,1,2,0:0:0:0:
192,192,69406,128,0,70055:0:0:0:50:Rim.wav
320,192,69568,128,0,69649:0:0:0:0:
320,192,69731,128,0,70055:0:0:0:0:
64,192,69893,1,0,0:0:0:50:Rim.wav
448,192,70055,128,0,70379:0:0:0:0:
320,192,70217,1,2,0:0:0:0:
192,192,70298,1,2,0:0:0:0:
64,192,70379,128,8,70704:0:0:0:0:
320,192,70379,1,8,0:0:0:60:Hat.wav
192,192,70541,128,0,70704:0:0:0:0:
320,192,70704,1,2,0:0:0:0:
448,192,70704,1,0,0:0:0:0:
64,192,70866,1,8,0:0:0:0:
192,192,70866,1,8,0:0:0:60:Hat.wav
448,192,70866,1,0,0:0:0:0:
64,192,71028,1,8,0:0:0:0:
192,192,71028,1,8,0:0:0:60:Hat.wav
448,192,71028,1,0,0:0:0:0:
192,192,71190,1,2,0:0:0:0:
320,192,71190,1,0,0:0:0:0:
320,192,71352,1,8,0:0:0:0:
448,192,71352,1,0,0:0:0:0:
64,192,71433,1,8,0:0:0:0:
192,192,71433,1,0,0:0:0:0:
320,192,71514,1,2,0:0:0:0:
448,192,71595,1,2,0:0:0:0:
64,192,71677,1,0,0:0:0:40:Tom2.wav
192,192,71677,1,0,0:0:0:0:
320,192,71758,1,0,0:0:0:40:Tom2.wav
448,192,71758,1,0,0:0:0:0:
64,192,71839,1,2,0:0:0:0:
192,192,71920,1,2,0:0:0:0:
64,192,72001,1,8,0:0:0:0:
320,192,72001,1,0,0:0:0:40:Tom3.wav
448,192,72001,1,0,0:0:0:0:
64,192,72163,1,8,0:0:0:0:
320,192,72163,1,8,0:0:0:50:Hat Open.wav
448,192,72163,1,0,0:0:0:40:Tom3.wav
64,192,72649,1,8,0:0:0:0:
192,192,72649,1,0,0:0:0:40:Tom3.wav
448,192,72649,1,0,0:0:0:0:
64,192,72812,1,8,0:0:0:0:
192,192,72812,1,8,0:0:0:50:Hat Open.wav
448,192,72812,1,0,0:0:0:40:Tom3.wav
64,192,73298,1,2,0:0:0:0:
192,192,73298,128,4,73460:0:0:0:0:
448,192,73298,1,0,0:0:0:0:
320,192,73460,128,0,73622:0:0:0:0:
64,192,73622,1,2,0:0:0:0:
192,192,73622,1,8,0:0:0:0:
448,192,73622,128,0,73785:0:0:0:60:Hat.wav
64,192,73785,128,0,73947:0:0:0:0:
320,192,73947,128,2,74433:0:0:0:0:
448,192,73947,1,0,0:0:0:60:Hat.wav
64,192,74109,1,0,0:0:0:0:
192,192,74271,128,10,74433:0:0:0:0:
448,192,74271,1,0,0:0:0:60:Hat.wav
64,192,74433,128,0,74758:0:0:0:0:
320,192,74595,1,2,0:0:0:0:
448,192,74595,1,0,0:0:0:60:Hat.wav
448,192,74758,128,0,74920:0:0:0:0:
64,192,74920,1,2,0:0:0:0:
192,192,74920,128,8,75082:0:0:0:0:
320,192,74920,1,0,0:0:0:60:Hat.wav
320,192,75082,128,0,75244:0:0:0:0:
64,192,75244,128,2,75568:0:0:0:0:
448,192,75244,1,0,0:0:0:60:Hat.wav
192,192,75406,1,0,0:0:0:0:
192,192,75568,1,2,0:0:0:0:
320,192,75568,1,8,0:0:0:0:
448,192,75568,1,0,0:0:0:60:Hat.wav
320,192,75731,1,0,0:0:0:0:
64,192,75893,1,2,0:0:0:0:
448,192,75893,128,0,76055:0:0:0:60:Hat.wav
192,192,76055,128,0,76217:0:0:0:0:
64,192,76217,1,2,0:0:0:0:
320,192,76217,128,8,76379:0:0:0:0:
448,192,76217,1,0,0:0:0:60:Hat.wav
64,192,76379,128,0,76541:0:0:0:0:
320,192,76541,1,2,0:0:0:0:
448,192,76541,128,0,77028:0:0:0:60:Hat.wav
64,192,76704,1,0,0:0:0:0:
192,192,76866,1,10,0:0:0:0:
320,192,76866,128,0,77028:0:0:0:60:Hat.wav
64,192,77028,128,0,77190:0:0:0:0:
192,192,77190,128,2,77352:0:0:0:0:
448,192,77190,1,0,0:0:0:60:Hat.wav
320,192,77352,128,0,77514:0:0:0:0:
64,192,77514,128,2,77677:0:0:0:0:
192,192,77514,1,8,0:0:0:0:
448,192,77514,1,0,0:0:0:60:Hat.wav
448,192,77677,128,0,77839:0:0:0:0:
64,192,77839,1,2,0:0:0:0:
192,192,77839,128,0,78163:0:0:0:60:Hat.wav
320,192,78001,1,0,0:0:0:0:
64,192,78163,1,2,0:0:0:0:
320,192,78163,1,8,0:0:0:0:
448,192,78163,1,0,0:0:0:60:Hat.wav
64,192,78325,1,8,0:0:0:0:
192,192,78325,1,0,0:0:0:0:
320,192,78406,1,8,0:0:0:0:
64,192,78487,1,2,0:0:0:0:
192,192,78487,1,4,0:0:0:0:
448,192,78487,128,0,78812:0:0:0:0:
64,192,78812,1,8,0:0:0:0:
192,192,78812,1,2,0:0:0:0:
320,192,78812,1,0,0:0:0:60:Hat.wav
320,192,78974,1,0,0:0:0:0:
64,192,79136,128,2,79460:0:0:0:0:
192,192,79136,1,0,0:0:0:60:Hat.wav
448,192,79298,1,0,0:0:0:0:
192,192,79460,1,8,0:0:0:0:
320,192,79460,1,2,0:0:0:0:
448,192,79460,128,0,79622:0:0:0:60:Hat.wav
320,192,79622,128,0,79785:0:0:0:0:
64,192,79785,1,2,0:0:0:0:
192,192,79785,128,0,80109:0:0:0:60:Hat.wav
448,192,79947,1,0,0:0:0:0:
64,192,80109,1,2,0:0:0:0:
320,192,80109,1,8,0:0:0:0:
448,192,80109,128,0,80433:0:0:0:60:Hat.wav
192,192,80271,1,0,0:0:0:0:
64,192,80433,128,2,80758:0:0:0:0:
320,192,80433,1,0,0:0:0:60:Hat.wav
448,192,80595,1,0,0:0:0:0:
192,192,80758,128,8,81082:0:0:0:0:
320,192,80758,1,2,0:0:0:0:
448,192,80758,1,0,0:0:0:60:Hat.wav
64,192,80920,1,0,0:0:0:0:
64,192,81082,1,2,0:0:0:0:
320,192,81082,128,4,81406:0:0:0:0:
448,192,81082,1,0,0:0:0:0:
64,192,81406,1,8,0:0:0:0:
192,192,81406,1,2,0:0:0:0:
448,192,81406,1,0,0:0:0:60:Hat.wav
64,192,81568,128,0,81731:0:0:0:0:
320,192,81731,1,2,0:0:0:0:
448,192,81731,128,0,82055:0:0:0:60:Hat.wav
192,192,81893,1,0,0:0:0:0:
64,192,82055,1,2,0:0:0:0:
192,192,82055,1,8,0:0:0:0:
320,192,82055,1,0,0:0:0:60:Hat.wav
320,192,82217,128,0,82379:0:0:0:0:
64,192,82379,1,2,0:0:0:0:
192,192,82379,128,4,82541:0:0:0:0:
448,192,82379,1,0,0:0:0:0:
320,192,82541,1,8,0:0:0:0:
448,192,82541,1,0,0:0:0:0:
192,192,82622,1,8,0:0:0:0:
64,192,82704,1,8,0:0:0:0:
320,192,82704,1,2,0:0:0:0:
448,192,82704,1,0,0:0:0:0:
64,192,82866,1,0,0:0:0:40:Tom1.wav
192,192,82866,1,0,0:0:0:0:
320,192,82947,1,0,0:0:0:40:Tom1.wav
448,192,82947,1,0,0:0:0:0:
64,192,83028,1,2,0:0:0:0:
192,192,83028,1,0,0:0:0:40:Tom2.wav
320,192,83190,1,0,0:0:0:40:Tom2.wav
448,192,83190,1,0,0:0:0:0:
64,192,83271,1,0,0:0:0:40:Tom2.wav
192,192,83271,1,0,0:0:0:0:
320,192,83352,1,2,0:0:0:0:
448,192,83352,1,0,0:0:0:0:
64,192,83514,1,0,0:0:0:40:Tom3.wav
192,192,83514,1,0,0:0:0:0:
320,192,83595,1,0,0:0:0:40:Tom3.wav
64,192,83677,1,4,0:0:0:0:
192,192,83677,128,2,83839:0:0:0:0:
448,192,83677,1,0,0:0:0:0:
320,192,83839,128,0,84001:0:0:0:0:
64,192,84001,128,2,84163:0:0:0:0:
192,192,84001,1,8,0:0:0:0:
448,192,84001,1,4,0:0:0:0:
448,192,84163,128,0,84325:0:0:0:0:
192,192,84325,128,2,84812:0:0:0:0:
320,192,84325,1,0,0:0:0:60:Hat.wav
64,192,84487,1,0,0:0:0:0:
320,192,84649,128,10,84812:0:0:0:0:
448,192,84649,1,0,0:0:0:60:Hat.wav
64,192,84812,128,0,85136:0:0:0:0:
192,192,84974,1,2,0:0:0:0:
448,192,84974,1,0,0:0:0:60:Hat.wav
320,192,85136,128,0,85298:0:0:0:0:
64,192,85298,1,8,0:0:0:0:
192,192,85298,1,2,0:0:0:0:
448,192,85298,128,0,85460:0:0:0:60:Hat.wav
192,192,85460,128,0,85622:0:0:0:0:
64,192,85622,128,2,85947:0:0:0:0:
320,192,85622,1,0,0:0:0:60:Hat.wav
448,192,85785,1,0,0:0:0:0:
192,192,85947,1,2,0:0:0:0:
320,192,85947,1,8,0:0:0:0:
448,192,85947,1,0,0:0:0:60:Hat.wav
192,192,86109,128,0,86271:0:0:0:0:
64,192,86271,1,2,0:0:0:0:
320,192,86271,1,4,0:0:0:0:
448,192,86271,128,0,86433:0:0:0:0:
64,192,86433,128,0,86595:0:0:0:0:
192,192,86595,1,2,0:0:0:0:
320,192,86595,128,8,86758:0:0:0:0:
448,192,86595,1,0,0:0:0:60:Hat.wav
192,192,86758,128,0,86920:0:0:0:0:
64,192,86920,128,2,87244:0:0:0:0:
448,192,86920,1,0,0:0:0:60:Hat.wav
320,192,87082,1,0,0:0:0:0:
192,192,87244,1,8,0:0:0:0:
320,192,87244,1,2,0:0:0:0:
448,192,87244,128,0,87406:0:0:0:60:Hat.wav
192,192,87406,128,0,87731:0:0:0:0:
64,192,87568,1,2,0:0:0:0:
448,192,87568,1,0,0:0:0:60:Hat.wav
320,192,87731,128,0,87893:0:0:0:0:
64,192,87893,1,8,0:0:0:0:
192,192,87893,1,2,0:0:0:0:
448,192,87893,1,0,0:0:0:60:Hat.wav
192,192,88055,1,0,0:0:0:0:
64,192,88217,1,2,0:0:0:0:
320,192,88217,128,0,88379:0:0:0:60:Hat.wav
448,192,88379,128,0,88541:0:0:0:0:
192,192,88541,128,2,88704:0:0:0:0:
320,192,88541,1,8,0:0:0:0:
64,192,88622,1,8,0:0:0:0:
320,192,88704,128,8,88866:0:0:0:0:
448,192,88785,1,8,0:0:0:0:
64,192,88866,128,4,89190:0:0:0:0:
192,192,88866,1,2,0:0:0:0:
192,192,89190,1,2,0:0:0:0:
320,192,89190,1,8,0:0:0:0:
448,192,89190,1,0,0:0:0:60:Hat.wav
192,192,89352,1,0,0:0:0:0:
64,192,89514,1,2,0:0:0:0:
320,192,89514,128,0,89677:0:0:0:60:Hat.wav
448,192,89677,128,0,89839:0:0:0:0:
64,192,89839,1,8,0:0:0:0:
192,192,89839,128,2,90001:0:0:0:0:
320,192,89839,1,0,0:0:0:60:Hat.wav
320,192,90001,128,0,90163:0:0:0:0:
64,192,90163,128,2,90487:0:0:0:0:
448,192,90163,1,0,0:0:0:60:Hat.wav
192,192,90487,1,8,0:0:0:0:
320,192,90487,1,2,0:0:0:0:
448,192,90487,128,0,90649:0:0:0:60:Hat.wav
320,192,90649,128,0,90812:0:0:0:0:
64,192,90812,1,2,0:0:0:0:
192,192,90812,128,0,90974:0:0:0:60:Hat.wav
448,192,90974,128,0,91136:0:0:0:0:
64,192,91136,128,2,91460:0:0:0:0:
192,192,91136,1,8,0:0:0:0:
320,192,91136,1,0,0:0:0:60:Hat.wav
448,192,91298,1,0,0:0:0:0:
192,192,91460,128,2,91785:0:0:0:0:
320,192,91460,1,4,0:0:0:0:
448,192,91460,1,0,0:0:0:0:
64,192,91785,1,2,0:0:0:0:
320,192,91785,1,8,0:0:0:0:
448,192,91785,1,0,0:0:0:60:Hat.wav
320,192,91947,128,0,92028:0:0:0:0:
192,192,92109,1,2,0:0:0:0:
320,192,92109,128,0,92595:0:0:0:60:Hat.wav
448,192,92271,1,0,0:0:0:0:
64,192,92433,1,8,0:0:0:0:
192,192,92433,1,2,0:0:0:0:
448,192,92433,1,0,0:0:0:60:Hat.wav
64,192,92595,1,0,0:0:0:0:
320,192,92758,1,0,0:0:0:60:Hat.wav
192,192,92758,128,2,93244:0:0:0:0:
64,192,92920,1,0,0:0:0:0:
64,192,93082,1,8,0:0:0:0:
320,192,93082,1,2,0:0:0:0:
448,192,93082,1,4,0:0:0:0:
448,192,93244,1,0,0:0:0:0:
64,192,93406,1,2,0:0:0:0:
192,192,93406,1,0,0:0:0:0:
320,192,93568,1,8,0:0:0:0:
448,192,93568,1,0,0:0:0:0:
192,192,93649,1,8,0:0:0:0:
64,192,93731,1,2,0:0:0:0:
448,192,93731,1,8,0:0:0:0:
320,192,93812,1,8,0:0:0:0:
64,192,93893,1,0,0:0:0:40:Tom2.wav
192,192,93893,1,0,0:0:0:0:
64,192,94055,1,4,0:0:0:0:
320,192,94055,128,2,94541:0:0:0:0:
448,192,94055,128,0,94541:0:0:0:0:
64,192,94541,1,2,0:0:0:0:
192,192,94541,1,0,0:0:0:0:
64,192,94704,1,8,0:0:0:0:
320,192,94704,1,0,0:0:0:0:
448,192,94704,1,0,0:0:0:0:
192,192,94866,1,0,0:0:0:40:Tom2.wav
320,192,94866,1,0,0:0:0:0:
64,192,95028,1,0,0:0:0:40:Tom3.wav
192,192,95028,1,0,0:0:0:0:
320,192,95190,1,2,0:0:0:0:
448,192,95190,1,0,0:0:0:0:
64,192,95352,1,8,0:0:0:0:
192,192,95352,1,0,0:0:0:40:Tom1.wav
448,192,95352,1,0,0:0:0:0:
320,192,95514,1,2,0:0:0:0:
192,192,95595,1,2,0:0:0:0:
64,192,95677,128,8,96163:0:0:0:0:
320,192,95677,1,4,0:0:0:0:
448,192,95677,1,0,0:0:0:0:
448,192,95839,128,0,96568:0:0:0:0:
192,192,96001,128,0,96568:0:0:0:0:
320,192,96163,128,0,96568:0:0:0:0:
64,192,96325,128,0,96568:0:0:0:0:
64,192,96649,1,4,0:0:0:0:
320,192,96649,1,2,0:0:0:0:
448,192,96649,128,0,96812:0:0:0:0:
192,192,97136,128,0,97217:0:0:0:50:Rim.wav
192,192,97460,128,0,97541:0:0:0:50:Rim.wav
192,192,97622,128,0,97947:0:0:0:50:Rim.wav
320,192,97785,1,0,0:0:0:0:
64,192,97947,128,0,98109:0:0:0:50:Rim.wav
448,192,97947,1,0,0:0:0:0:
320,192,98109,1,0,0:0:0:0:
192,192,98190,1,0,0:0:0:50:Rim.wav
64,192,98271,1,0,0:0:0:0:
320,192,98433,128,0,98514:0:0:0:50:Rim.wav
192,192,98595,1,0,0:0:0:0:
320,192,98758,128,0,98839:0:0:0:50:Rim.wav
320,192,98920,128,0,99244:0:0:0:50:Rim.wav
448,192,99082,1,0,0:0:0:0:
64,192,99244,1,4,0:0:0:30:soft-hitfinish.wav
192,192,99244,128,0,99406:0:0:0:0:
448,192,99406,1,0,0:0:0:0:
320,192,99487,1,0,0:0:0:50:Rim.wav
64,192,99568,1,0,0:0:0:0:
448,192,99731,128,0,99812:0:0:0:0:
192,192,99893,1,0,0:0:0:0:
448,192,100055,128,0,100136:0:0:0:50:Rim.wav
448,192,100217,128,0,100541:0:0:0:50:Rim.wav
192,192,100379,1,0,0:0:0:0:
64,192,100541,128,0,100622:0:0:0:50:Rim.wav
320,192,100541,1,0,0:0:0:0:
448,192,100704,128,0,100785:0:0:0:0:
192,192,100785,1,0,0:0:0:50:Rim.wav
320,192,100866,1,0,0:0:0:0:
64,192,101028,128,0,101758:0:0:0:50:Rim.wav
448,192,101190,1,0,0:0:0:0:
192,192,101352,128,0,101433:0:0:0:50:Rim.wav
192,192,101514,128,2,101758:0:0:0:0:
320,192,101514,128,0,101595:0:0:0:0:
448,192,101677,128,0,101758:0:0:0:0:
64,192,101839,1,4,0:0:0:0:
320,192,101839,1,2,0:0:0:0:
448,192,101839,128,0,103622:0:0:0:0:
192,192,102163,1,2,0:0:0:0:
320,192,102325,128,0,102406:0:0:0:0:
64,192,102487,1,2,0:0:0:0:
192,192,102649,128,0,102731:0:0:0:50:Rim.wav
192,192,102812,128,2,103136:0:0:0:0:
64,192,103136,128,2,103217:0:0:0:0:
192,192,103298,1,0,0:0:0:0:
320,192,103460,1,2,0:0:0:0:
64,192,103622,128,0,103704:0:0:0:0:
192,192,103622,128,0,103947:0:0:0:0:
64,192,103785,1,2,0:0:0:0:
320,192,103947,128,0,104109:0:0:0:50:Rim.wav
448,192,103947,128,0,104028:0:0:0:0:
64,192,104109,128,2,104433:0:0:0:0:
192,192,104109,128,0,104271:0:0:0:0:
448,192,104109,1,0,0:0:0:0:
448,192,104271,128,0,104433:0:0:0:0:
192,192,104433,128,4,104514:0:0:0:0:
320,192,104433,128,2,105406:0:0:0:0:
448,192,104758,1,2,0:0:0:0:
64,192,104920,128,0,105001:0:0:0:0:
192,192,105082,1,2,0:0:0:0:
448,192,105244,128,0,105325:0:0:0:50:Rim.wav
64,192,105406,128,2,105487:0:0:0:0:
192,192,105406,128,0,105568:0:0:0:50:Rim.wav
320,192,105568,128,0,105649:0:0:0:0:
448,192,105568,128,0,105731:0:0:0:0:
64,192,105731,1,2,0:0:0:0:
192,192,105731,128,8,105893:0:0:0:0:
320,192,105731,128,0,105893:0:0:0:0:
64,192,106055,1,8,0:0:0:0:
192,192,106055,1,4,0:0:0:0:
448,192,106055,1,2,0:0:0:0:
192,192,106217,1,8,0:0:0:0:
320,192,106217,1,0,0:0:0:0:
64,192,106298,1,8,0:0:0:0:
448,192,106298,1,0,0:0:0:0:
192,192,106379,1,8,0:0:0:0:
320,192,106379,1,2,0:0:0:0:
320,192,106541,1,0,0:0:0:40:Tom2.wav
448,192,106541,1,0,0:0:0:0:
64,192,106622,1,0,0:0:0:40:Tom2.wav
192,192,106622,1,0,0:0:0:0:
320,192,106704,1,2,0:0:0:0:
448,192,106704,1,0,0:0:0:0:
64,192,106866,1,0,0:0:0:40:Tom3.wav
192,192,106866,1,0,0:0:0:0:
320,192,106947,1,0,0:0:0:40:Tom3.wav
64,192,107028,128,4,107190:0:0:0:0:
192,192,107028,128,2,107190:0:0:0:0:
448,192,107028,128,0,107190:0:0:0:0:
320,192,107352,1,2,0:0:0:0:
448,192,107352,1,0,0:0:0:0:
192,192,107514,1,0,0:0:0:0:
64,192,107677,1,2,0:0:0:0:
448,192,107677,1,0,0:0:0:0:
320,192,107839,1,0,0:0:0:50:Rim.wav
192,192,108001,1,2,0:0:0:0:
320,192,108001,1,0,0:0:0:50:Rim.wav
64,192,108163,1,0,0:0:0:0:
320,192,108325,1,2,0:0:0:0:
448,192,108325,1,0,0:0:0:0:
64,192,108487,1,0,0:0:0:0:
448,192,108568,1,0,0:0:0:50:Rim.wav
192,192,108649,1,2,0:0:0:0:
320,192,108649,1,0,0:0:0:0:
448,192,108812,1,0,0:0:0:50:Rim.wav
64,192,108974,1,2,0:0:0:0:
192,192,108974,1,0,0:0:0:0:
320,192,109136,1,0,0:0:0:50:Rim.wav
192,192,109217,1,0,0:0:0:50:Rim.wav
64,192,109298,1,2,0:0:0:0:
448,192,109298,1,0,0:0:0:0:
320,192,109460,1,0,0:0:0:0:
64,192,109622,128,2,109785:0:0:0:0:
192,192,109622,128,4,109785:0:0:0:0:
448,192,109622,128,0,109785:0:0:0:0:
320,192,109947,1,2,0:0:0:0:
448,192,109947,1,0,0:0:0:0:
64,192,110109,1,0,0:0:0:50:Rim.wav
192,192,110271,1,2,0:0:0:0:
320,192,110271,1,0,0:0:0:0:
448,192,110433,1,0,0:0:0:50:Rim.wav
64,192,110595,1,2,0:0:0:0:
448,192,110595,1,0,0:0:0:0:
192,192,110758,1,0,0:0:0:0:
320,192,110920,1,2,0:0:0:0:
448,192,110920,1,0,0:0:0:50:Rim.wav
64,192,111082,1,0,0:0:0:0:
320,192,111163,1,0,0:0:0:50:Rim.wav
64,192,111244,1,2,0:0:0:0:
192,192,111244,1,0,0:0:0:50:Rim.wav
448,192,111406,1,0,0:0:0:50:Rim.wav
192,192,111568,1,2,0:0:0:0:
320,192,111568,1,0,0:0:0:0:
64,192,111731,1,0,0:0:0:50:Rim.wav
320,192,111893,1,2,0:0:0:0:
448,192,111893,1,0,0:0:0:0:
192,192,112055,1,0,0:0:0:0:
64,192,112217,128,2,112379:0:0:0:0:
320,192,112217,128,4,112379:0:0:0:0:
448,192,112217,128,0,112379:0:0:0:0:
64,192,112541,1,2,0:0:0:0:
192,192,112541,1,0,0:0:0:0:
320,192,112704,1,0,0:0:0:50:Rim.wav
64,192,112866,1,2,0:0:0:0:
448,192,112866,1,0,0:0:0:0:
192,192,113028,1,0,0:0:0:50:Rim.wav
192,192,113190,1,2,0:0:0:0:
320,192,113190,1,0,0:0:0:0:
448,192,113352,1,0,0:0:0:0:
64,192,113514,1,2,0:0:0:0:
192,192,113514,1,0,0:0:0:0:
448,192,113677,1,0,0:0:0:0:
64,192,113758,1,0,0:0:0:50:Rim.wav
192,192,113839,1,2,0:0:0:0:
320,192,113839,1,0,0:0:0:0:
64,192,114001,1,0,0:0:0:50:Rim.wav
320,192,114163,1,2,0:0:0:0:
448,192,114163,1,0,0:0:0:0:
192,192,114325,1,0,0:0:0:50:Rim.wav
64,192,114487,1,2,0:0:0:0:
448,192,114487,1,0,0:0:0:0:
320,192,114649,1,0,0:0:0:0:
64,192,114812,128,2,114974:0:0:0:0:
192,192,114812,128,4,114974:0:0:0:0:
448,192,114812,128,0,114974:0:0:0:0:
320,192,115055,1,0,0:0:0:50:Rim.wav
64,192,115136,1,2,0:0:0:0:
192,192,115136,1,0,0:0:0:0:
448,192,115298,1,0,0:0:0:50:Rim.wav
192,192,115460,1,2,0:0:0:0:
320,192,115460,1,0,0:0:0:0:
64,192,115622,1,0,0:0:0:50:Rim.wav
64,192,115785,1,2,0:0:0:0:
448,192,115785,1,0,0:0:0:50:Rim.wav
320,192,115947,1,0,0:0:0:0:
64,192,116109,1,2,0:0:0:0:
192,192,116109,1,0,0:0:0:50:Rim.wav
448,192,116271,1,0,0:0:0:0:
192,192,116352,1,0,0:0:0:50:Rim.wav
320,192,116433,1,2,0:0:0:0:
448,192,116433,1,0,0:0:0:0:
64,192,116595,1,0,0:0:0:50:Rim.wav
192,192,116758,1,2,0:0:0:0:
320,192,116758,1,0,0:0:0:30:Ride.wav
448,192,116920,1,0,0:0:0:50:Rim.wav
64,192,117082,1,2,0:0:0:0:
192,192,117082,1,0,0:0:0:30:Ride.wav
320,192,117244,1,0,0:0:0:0:
64,192,117406,128,2,117568:0:0:0:0:
192,192,117406,128,4,117568:0:0:0:0:
448,192,117406,128,0,117568:0:0:0:0:
320,192,117731,1,2,0:0:0:0:
448,192,117731,1,0,0:0:0:0:
192,192,117893,1,0,0:0:0:0:
64,192,118055,1,2,0:0:0:0:
448,192,118055,1,0,0:0:0:0:
320,192,118217,1,8,0:0:0:20:soft-hitclap.wav
192,192,118379,1,2,0:0:0:0:
320,192,118379,1,0,0:0:0:50:Rim.wav
64,192,118541,1,8,0:0:0:20:soft-hitclap.wav
320,192,118704,1,2,0:0:0:0:
448,192,118704,1,0,0:0:0:0:
64,192,118866,1,8,0:0:0:20:soft-hitclap.wav
448,192,118947,1,0,0:0:0:50:Rim.wav
192,192,119028,1,2,0:0:0:0:
320,192,119028,1,0,0:0:0:0:
448,192,119190,1,8,0:0:0:20:soft-hitclap.wav
64,192,119352,1,2,0:0:0:0:
192,192,119352,1,0,0:0:0:0:
320,192,119514,1,8,0:0:0:20:soft-hitclap.wav
64,192,119677,1,2,0:0:0:0:
448,192,119677,1,0,0:0:0:0:
192,192,119839,1,8,0:0:0:20:soft-hitclap.wav
64,192,120001,128,2,120163:0:0:0:0:
320,192,120001,128,4,120163:0:0:0:0:
448,192,120001,128,0,120163:0:0:0:0:
192,192,120244,1,0,0:0:0:50:Rim.wav
320,192,120325,1,2,0:0:0:0:
448,192,120325,1,8,0:0:0:35:soft-hitclap.wav
64,192,120487,1,8,0:0:0:35:soft-hitclap.wav
192,192,120487,1,0,0:0:0:0:
320,192,120649,1,2,0:0:0:0:
448,192,120649,1,0,0:0:0:0:
64,192,120812,1,0,0:0:0:50:Rim.wav
64,192,120974,1,2,0:0:0:0:
448,192,120974,1,8,0:0:0:35:soft-hitclap.wav
192,192,121136,1,8,0:0:0:35:soft-hitclap.wav
320,192,121298,1,2,0:0:0:0:
448,192,121298,1,0,0:0:0:0:
64,192,121460,1,0,0:0:0:0:
320,192,121541,1,0,0:0:0:50:Rim.wav
64,192,121622,1,2,0:0:0:0:
192,192,121622,1,0,0:0:0:0:
320,192,121785,1,8,0:0:0:35:soft-hitclap.wav
448,192,121785,1,0,0:0:0:0:
64,192,121947,1,2,0:0:0:0:
192,192,121947,1,0,0:0:0:0:
448,192,122109,1,8,0:0:0:35:soft-hitclap.wav
64,192,122271,1,2,0:0:0:0:
448,192,122271,1,0,0:0:0:0:
192,192,122352,1,0,0:0:0:0:
320,192,122433,1,0,0:0:0:0:
192,192,122514,1,0,0:0:0:0:
64,192,122595,128,2,122758:0:0:0:0:
320,192,122595,128,4,122758:0:0:0:0:
448,192,122595,128,0,122758:0:0:0:0:
320,192,122920,1,2,0:0:0:0:
448,192,122920,1,0,0:0:0:0:
64,192,123082,1,8,0:0:0:35:soft-hitclap.wav
192,192,123082,1,0,0:0:0:50:Rim.wav
320,192,123244,1,2,0:0:0:0:
448,192,123244,1,0,0:0:0:0:
64,192,123406,1,0,0:0:0:50:Rim.wav
64,192,123568,1,2,0:0:0:0:
448,192,123568,1,8,0:0:0:35:soft-hitclap.wav
192,192,123731,1,0,0:0:0:0:
320,192,123893,1,2,0:0:0:0:
448,192,123893,1,8,0:0:0:35:soft-hitclap.wav
64,192,124055,1,0,0:0:0:0:
320,192,124136,1,0,0:0:0:50:Rim.wav
64,192,124217,1,2,0:0:0:0:
192,192,124217,1,0,0:0:0:0:
320,192,124379,1,8,0:0:0:35:soft-hitclap.wav
448,192,124379,1,0,0:0:0:0:
64,192,124541,1,2,0:0:0:0:
192,192,124541,1,0,0:0:0:0:
448,192,124704,1,8,0:0:0:35:soft-hitclap.wav
64,192,124866,1,2,0:0:0:0:
448,192,124866,1,8,0:0:0:35:soft-hitclap.wav
320,192,124947,1,0,0:0:0:0:
192,192,125028,1,0,0:0:0:0:
320,192,125109,1,0,0:0:0:0:
64,192,125190,128,2,125352:0:0:0:0:
192,192,125190,128,4,125352:0:0:0:0:
448,192,125190,128,0,125352:0:0:0:0:
64,192,125514,1,2,0:0:0:0:
192,192,125514,1,0,0:0:0:0:
64,192,125677,1,8,0:0:0:35:soft-hitclap.wav
320,192,125677,1,0,0:0:0:0:
448,192,125677,1,0,0:0:0:0:
192,192,125839,1,2,0:0:0:0:
320,192,125839,1,0,0:0:0:0:
64,192,126001,1,0,0:0:0:50:Rim.wav
192,192,126001,1,0,0:0:0:0:
320,192,126163,1,10,0:0:0:0:
448,192,126163,1,0,0:0:0:50:Rim.wav
64,192,126325,1,8,0:0:0:0:
320,192,126325,1,0,0:0:0:60:Hat.wav
448,192,126325,1,0,0:0:0:0:
64,192,126487,1,2,0:0:0:0:
192,192,126487,1,0,0:0:0:60:Hat.wav
192,192,126649,1,0,0:0:0:0:
320,192,126812,1,2,0:0:0:0:
448,192,126812,1,0,0:0:0:0:
320,192,126974,1,8,0:0:0:0:
64,192,127055,1,8,0:0:0:0:
192,192,127055,1,0,0:0:0:0:
320,192,127136,1,8,0:0:0:0:
448,192,127136,1,0,0:0:0:0:
64,192,127298,1,0,0:0:0:40:Tom1.wav
448,192,127298,1,0,0:0:0:0:
192,192,127460,1,0,0:0:0:40:Tom2.wav
320,192,127460,1,0,0:0:0:0:
64,192,127622,1,0,0:0:0:40:Tom3.wav
192,192,127622,1,0,0:0:0:0:
64,192,127785,1,4,0:0:0:0:
320,192,127785,1,2,0:0:0:0:
448,192,127785,128,0,128271:0:0:0:0:
64,192,128109,128,0,128433:0:0:0:0:
192,192,128271,128,0,128433:0:0:0:0:
320,192,128433,128,0,128758:0:0:0:0:
64,192,128595,1,2,0:0:0:0:
192,192,128595,1,0,0:0:0:0:
64,192,128758,128,0,128920:0:0:0:50:Rim.wav
448,192,128758,1,0,0:0:0:0:
448,192,128920,128,0,129082:0:0:0:0:
64,192,129082,1,2,0:0:0:0:
192,192,129082,128,0,129406:0:0:0:50:Rim.wav
320,192,129244,128,0,129406:0:0:0:0:
448,192,129325,1,0,0:0:0:50:Rim.wav
64,192,129406,128,0,129731:0:0:0:0:
320,192,129568,1,0,0:0:0:50:Rim.wav
448,192,129568,1,0,0:0:0:0:
192,192,129731,1,0,0:0:0:0:
320,192,129893,1,0,0:0:0:0:
64,192,130055,128,8,130217:0:0:0:0:
192,192,130055,1,0,0:0:0:0:
448,192,130055,1,0,0:0:0:0:
320,192,130217,128,0,130866:0:0:0:0:
192,192,130379,128,2,130866:0:0:0:0:
448,192,130379,1,0,0:0:0:60:Hat.wav
64,192,130541,1,0,0:0:0:0:
448,192,130704,1,0,0:0:0:0:
64,192,130866,128,0,131514:0:0:0:50:Rim.wav
448,192,131028,128,0,131514:0:0:0:0:
320,192,131190,1,2,0:0:0:0:
192,192,131352,1,0,0:0:0:50:Rim.wav
320,192,131514,128,0,131677:0:0:0:0:
192,192,131677,128,2,132001:0:0:0:0:
448,192,131677,1,0,0:0:0:50:Rim.wav
64,192,131839,128,0,132001:0:0:0:0:
320,192,131920,1,0,0:0:0:50:Rim.wav
448,192,132001,128,0,132325:0:0:0:0:
64,192,132163,1,0,0:0:0:50:Rim.wav
192,192,132163,1,0,0:0:0:0:
320,192,132325,1,0,0:0:0:0:
64,192,132487,1,2,0:0:0:0:
448,192,132487,1,0,0:0:0:0:
192,192,132649,128,8,132974:0:0:0:0:
320,192,132649,1,0,0:0:0:0:
448,192,132649,1,0,0:0:0:0:
320,192,132812,128,0,132974:0:0:0:0:
64,192,132974,128,2,133298:0:0:0:0:
448,192,132974,1,0,0:0:0:60:Hat.wav
192,192,133298,1,0,0:0:0:0:
448,192,133460,128,0,133947:0:0:0:50:Rim.wav
320,192,133622,128,0,133947:0:0:0:0:
64,192,133785,1,2,0:0:0:0:
64,192,133947,1,0,0:0:0:50:Rim.wav
192,192,133947,1,0,0:0:0:0:
192,192,134109,128,0,134271:0:0:0:0:
64,192,134271,128,2,134920:0:0:0:0:
448,192,134271,1,0,0:0:0:50:Rim.wav
320,192,134514,1,0,0:0:0:50:Rim.wav
192,192,134595,128,0,135082:0:0:0:0:
448,192,134758,1,0,0:0:0:50:Rim.wav
320,192,134920,128,0,135082:0:0:0:0:
64,192,135082,1,2,0:0:0:0:
448,192,135082,1,0,0:0:0:0:
64,192,135244,1,8,0:0:0:0:
320,192,135244,1,0,0:0:0:40:Tom2.wav
448,192,135244,128,0,135568:0:0:0:0:
192,192,135406,1,2,0:0:0:0:
320,192,135406,128,0,135568:0:0:0:0:
64,192,135568,1,2,0:0:0:0:
192,192,135568,1,0,0:0:0:60:Hat.wav
64,192,135731,1,8,0:0:0:0:
320,192,135731,1,0,0:0:0:60:Hat.wav
448,192,135731,1,0,0:0:0:0:
64,192,135893,1,8,0:0:0:0:
320,192,135893,1,0,0:0:0:60:Hat.wav
448,192,135893,1,0,0:0:0:0:
192,192,136055,1,2,0:0:0:0:
320,192,136055,1,0,0:0:0:0:
64,192,136217,1,8,0:0:0:0:
192,192,136217,1,0,0:0:0:0:
448,192,136217,1,0,0:0:0:0:
320,192,136325,1,0,0:0:0:40:Tom2.wav
192,192,136433,1,0,0:0:0:40:Tom3.wav
64,192,136541,1,0,0:0:0:40:Tom3.wav
448,192,136541,1,0,0:0:0:0:
320,192,136649,1,2,0:0:0:0:
192,192,136758,1,2,0:0:0:0:
64,192,136866,1,8,0:0:0:0:
320,192,136866,1,0,0:0:0:40:Tom3.wav
448,192,136866,1,0,0:0:0:0:
64,192,137028,1,8,0:0:0:0:
320,192,137028,1,0,0:0:0:40:Tom3.wav
448,192,137028,1,0,0:0:0:0:
64,192,137514,1,8,0:0:0:0:
192,192,137514,1,0,0:0:0:40:Tom3.wav
320,192,137514,1,0,0:0:0:0:
64,192,137677,1,8,0:0:0:0:
192,192,137677,1,0,0:0:0:40:Tom3.wav
320,192,137677,1,0,0:0:0:0:
64,192,138163,1,4,0:0:0:0:
192,192,138163,1,2,0:0:0:0:
448,192,138163,128,0,138487:0:0:0:0:
320,192,138325,128,0,138487:0:0:0:0:
64,192,138487,128,10,138812:0:0:0:0:
192,192,138487,1,0,0:0:0:60:Hat.wav
192,192,138649,128,0,138812:0:0:0:0:
320,192,138812,128,2,139298:0:0:0:0:
448,192,138812,1,0,0:0:0:60:Hat.wav
192,192,138974,1,0,0:0:0:0:
64,192,139136,128,10,139622:0:0:0:0:
448,192,139136,1,0,0:0:0:60:Hat.wav
192,192,139298,128,0,139622:0:0:0:0:
320,192,139460,1,2,0:0:0:0:
448,192,139460,1,0,0:0:0:60:Hat.wav
448,192,139622,128,0,139947:0:0:0:0:
64,192,139785,1,10,0:0:0:0:
320,192,139785,128,0,140109:0:0:0:60:Hat.wav
192,192,139947,128,0,140109:0:0:0:0:
64,192,140109,1,2,0:0:0:0:
448,192,140109,128,0,140433:0:0:0:60:Hat.wav
320,192,140271,1,0,0:0:0:0:
64,192,140433,1,8,0:0:0:0:
192,192,140433,1,2,0:0:0:0:
320,192,140433,1,0,0:0:0:60:Hat.wav
192,192,140595,1,0,0:0:0:0:
64,192,140758,128,2,141082:0:0:0:0:
320,192,140758,1,4,0:0:0:0:
448,192,140758,1,0,0:0:0:0:
192,192,140920,128,0,141082:0:0:0:0:
320,192,141082,1,10,0:0:0:0:
448,192,141082,128,0,141406:0:0:0:60:Hat.wav
320,192,141244,128,0,141406:0:0:0:0:
64,192,141406,1,2,0:0:0:0:
192,192,141406,128,0,141893:0:0:0:60:Hat.wav
320,192,141568,1,0,0:0:0:0:
64,192,141731,1,10,0:0:0:0:
448,192,141731,128,0,142217:0:0:0:60:Hat.wav
320,192,141893,128,0,142217:0:0:0:0:
64,192,142055,1,2,0:0:0:0:
192,192,142055,1,0,0:0:0:60:Hat.wav
64,192,142217,128,0,142541:0:0:0:0:
192,192,142379,128,10,142541:0:0:0:0:
448,192,142379,1,0,0:0:0:60:Hat.wav
320,192,142541,128,0,142622:0:0:0:0:
320,192,142704,128,2,142866:0:0:0:0:
448,192,142704,1,0,0:0:0:60:Hat.wav
192,192,142866,1,0,0:0:0:0:
64,192,143028,1,8,0:0:0:0:
320,192,143028,1,2,0:0:0:0:
448,192,143028,1,0,0:0:0:60:Hat.wav
64,192,143190,1,8,0:0:0:0:
192,192,143190,1,0,0:0:0:0:
320,192,143271,1,8,0:0:0:0:
64,192,143352,128,4,143677:0:0:0:0:
192,192,143352,1,2,0:0:0:0:
448,192,143352,128,0,143514:0:0:0:0:
192,192,143677,1,8,0:0:0:0:
320,192,143677,1,2,0:0:0:0:
448,192,143677,1,0,0:0:0:60:Hat.wav
320,192,143839,1,0,0:0:0:0:
64,192,144001,1,2,0:0:0:0:
448,192,144001,128,0,144325:0:0:0:60:Hat.wav
320,192,144163,128,0,144325:0:0:0:0:
64,192,144325,128,10,144649:0:0:0:0:
192,192,144325,1,0,0:0:0:60:Hat.wav
192,192,144487,128,0,144812:0:0:0:0:
320,192,144649,128,2,144812:0:0:0:0:
448,192,144649,1,0,0:0:0:60:Hat.wav
64,192,144812,1,0,0:0:0:0:
192,192,144974,1,2,0:0:0:0:
320,192,144974,1,8,0:0:0:0:
448,192,144974,128,0,145298:0:0:0:60:Hat.wav
192,192,145136,1,0,0:0:0:0:
64,192,145298,1,2,0:0:0:0:
320,192,145298,128,0,145622:0:0:0:60:Hat.wav
448,192,145460,1,0,0:0:0:0:
64,192,145622,1,10,0:0:0:0:
192,192,145622,128,0,145947:0:0:0:60:Hat.wav
320,192,145785,1,0,0:0:0:0:
64,192,145947,128,2,146109:0:0:0:0:
320,192,145947,1,4,0:0:0:0:
448,192,145947,128,0,146271:0:0:0:0:
64,192,146271,128,8,146595:0:0:0:0:
192,192,146271,1,2,0:0:0:0:
320,192,146271,1,0,0:0:0:60:Hat.wav
192,192,146433,128,0,146595:0:0:0:0:
320,192,146595,128,2,147244:0:0:0:0:
448,192,146595,1,0,0:0:0:60:Hat.wav
192,192,146758,1,0,0:0:0:0:
64,192,146920,1,10,0:0:0:0:
448,192,146920,1,0,0:0:0:60:Hat.wav
192,192,147082,128,0,147244:0:0:0:0:
64,192,147244,1,2,0:0:0:0:
448,192,147244,128,4,147406:0:0:0:0:
192,192,147406,1,8,0:0:0:0:
320,192,147406,1,0,0:0:0:0:
64,192,147487,1,8,0:0:0:0:
320,192,147568,1,2,0:0:0:0:
448,192,147568,1,8,0:0:0:0:
64,192,147731,1,8,0:0:0:0:
192,192,147731,1,0,0:0:0:0:
320,192,147812,1,8,0:0:0:0:
448,192,147812,1,0,0:0:0:0:
64,192,147893,1,8,0:0:0:0:
192,192,147893,1,2,0:0:0:0:
448,192,147974,1,8,0:0:0:0:
192,192,148055,1,8,0:0:0:0:
320,192,148055,1,0,0:0:0:0:
64,192,148136,1,8,0:0:0:0:
448,192,148136,1,0,0:0:0:0:
192,192,148217,1,8,0:0:0:0:
320,192,148217,1,2,0:0:0:0:
64,192,148298,1,8,0:0:0:0:
320,192,148379,1,0,0:0:0:40:Tom3.wav
448,192,148379,1,0,0:0:0:0:
192,192,148460,1,0,0:0:0:40:Tom3.wav
64,192,148541,128,4,148866:0:0:0:0:
320,192,148541,1,2,0:0:0:0:
448,192,148541,1,0,0:0:0:0:
192,192,148704,128,0,148866:0:0:0:0:
320,192,148866,1,10,0:0:0:0:
448,192,148866,128,0,149190:0:0:0:60:Hat.wav
320,192,149028,128,0,149190:0:0:0:0:
64,192,149190,1,2,0:0:0:0:
192,192,149190,128,0,149677:0:0:0:60:Hat.wav
320,192,149352,1,0,0:0:0:0:
64,192,149514,1,10,0:0:0:0:
448,192,149514,128,0,150001:0:0:0:60:Hat.wav
320,192,149677,128,0,150001:0:0:0:0:
64,192,149839,128,2,150163:0:0:0:0:
192,192,149839,1,0,0:0:0:60:Hat.wav
192,192,150001,128,0,150163:0:0:0:0:
320,192,150163,128,10,150325:0:0:0:0:
448,192,150163,1,0,0:0:0:60:Hat.wav
64,192,150325,1,0,0:0:0:0:
320,192,150487,128,2,150812:0:0:0:0:
448,192,150487,1,0,0:0:0:60:Hat.wav
192,192,150649,1,0,0:0:0:0:
64,192,150812,1,2,0:0:0:0:
192,192,150812,1,8,0:0:0:0:
448,192,150812,1,0,0:0:0:60:Hat.wav
320,192,150974,1,8,0:0:0:0:
448,192,150974,1,0,0:0:0:0:
192,192,151055,1,8,0:0:0:0:
64,192,151136,128,2,151460:0:0:0:0:
320,192,151136,1,4,0:0:0:0:
448,192,151136,1,0,0:0:0:0:
192,192,151298,128,0,151460:0:0:0:0:
320,192,151460,1,10,0:0:0:0:
448,192,151460,128,0,151785:0:0:0:60:Hat.wav
320,192,151622,128,0,151785:0:0:0:0:
64,192,151785,128,2,152109:0:0:0:0:
192,192,151785,1,0,0:0:0:60:Hat.wav
448,192,151947,1,0,0:0:0:0:
192,192,152109,1,8,0:0:0:0:
320,192,152109,128,2,152433:0:0:0:0:
448,192,152109,1,0,0:0:0:60:Hat.wav
192,192,152271,128,0,152433:0:0:0:0:
64,192,152433,1,2,0:0:0:0:
448,192,152433,1,0,0:0:0:60:Hat.wav
192,192,152595,128,0,152758:0:0:0:0:
64,192,152758,1,8,0:0:0:0:
320,192,152758,1,2,0:0:0:0:
448,192,152758,1,0,0:0:0:60:Hat.wav
64,192,152920,1,0,0:0:0:0:
192,192,153082,1,2,0:0:0:0:
320,192,153082,128,0,153406:0:0:0:60:Hat.wav
448,192,153244,128,0,153406:0:0:0:0:
64,192,153406,1,10,0:0:0:0:
192,192,153406,128,0,153568:0:0:0:60:Hat.wav
320,192,153568,128,0,153731:0:0:0:0:
64,192,153731,128,4,154055:0:0:0:0:
448,192,153731,1,2,0:0:0:0:
192,192,153731,128,0,153893:0:0:0:0:
192,192,154055,1,8,0:0:0:0:
320,192,154055,1,0,0:0:0:40:Tom1.wav
448,192,154055,1,0,0:0:0:0:
64,192,154217,1,2,0:0:0:0:
448,192,154217,1,0,0:0:0:0:
192,192,154379,1,0,0:0:0:40:Tom2.wav
320,192,154379,128,0,154704:0:0:0:0:
64,192,154541,1,2,0:0:0:0:
448,192,154541,128,0,154704:0:0:0:0:
64,192,154704,1,0,0:0:0:40:Tom3.wav
192,192,154704,128,0,154866:0:0:0:0:
320,192,154866,128,2,155028:0:0:0:0:
448,192,154866,1,0,0:0:0:0:
64,192,155028,128,0,155352:0:0:0:40:Tom3.wav
192,192,155028,128,0,155190:0:0:0:0:
448,192,155190,1,2,0:0:0:0:
320,192,155271,1,2,0:0:0:0:
192,192,155352,1,8,0:0:0:0:
448,192,155352,128,4,155839:0:0:0:0:
64,192,155514,128,0,156244:0:0:0:0:
320,192,155677,128,0,156244:0:0:0:0:
192,192,155839,128,0,156244:0:0:0:0:
448,192,156001,128,0,156244:0:0:0:0:
64,192,156325,128,4,157622:0:0:0:0:
192,192,156325,128,2,156649:0:0:0:0:
448,192,156325,1,0,0:0:0:0:
448,192,156649,128,0,156812:0:0:0:0:
320,192,156812,128,0,156893:0:0:0:0:
320,192,156974,128,0,157622:0:0:0:0:
192,192,157298,1,0,0:0:0:50:Rim.wav
192,192,157622,1,0,0:0:0:50:Rim.wav
448,192,157622,128,0,158920:0:0:0:0:
320,192,157866,1,0,0:0:0:50:Rim.wav
320,192,158271,128,0,158514:0:0:0:0:
64,192,158433,1,0,0:0:0:50:Rim.wav
192,192,158595,128,0,158839:0:0:0:50:Rim.wav
64,192,158920,128,4,159325:0:0:0:30:soft-hitfinish.wav
320,192,158920,128,0,160217:0:0:0:0:
192,192,159163,1,0,0:0:0:50:Rim.wav
448,192,159325,128,0,159568:0:0:0:0:
192,192,159568,128,0,159893:0:0:0:0:
64,192,159731,1,0,0:0:0:50:Rim.wav
448,192,159893,128,0,159974:0:0:0:50:Rim.wav
448,192,160055,128,0,160217:0:0:0:0:
64,192,160217,128,0,161514:0:0:0:50:Rim.wav
192,192,160217,128,0,160541:0:0:0:0:
320,192,160460,1,0,0:0:0:50:Rim.wav
192,192,160704,1,0,0:0:0:50:Rim.wav
448,192,160866,128,0,161190:0:0:0:30:Ride.wav
320,192,161028,128,0,161190:0:0:0:50:Rim.wav
192,192,161190,128,0,161271:0:0:0:50:Rim.wav
192,192,161352,128,0,161514:0:0:0:0:
320,192,161514,128,4,162812:0:0:0:0:
448,192,161514,128,0,162001:0:0:0:0:
64,192,162001,128,0,162082:0:0:0:50:Rim.wav
64,192,162163,128,0,162812:0:0:0:0:
448,192,162325,1,0,0:0:0:50:Rim.wav
192,192,162487,1,0,0:0:0:50:Rim.wav
192,192,162812,128,0,164109:0:0:0:50:Rim.wav
448,192,162812,1,0,0:0:0:0:
64,192,163055,1,0,0:0:0:50:Rim.wav
320,192,163298,1,0,0:0:0:50:Rim.wav
448,192,163460,128,0,163704:0:0:0:50:Rim.wav
64,192,163622,1,0,0:0:0:50:Rim.wav
320,192,163785,128,0,164028:0:0:0:50:Rim.wav
64,192,164109,128,4,164433:0:0:0:0:
320,192,164109,1,0,0:0:0:0:
448,192,164109,128,0,165406:0:0:0:0:
192,192,164595,128,0,164677:0:0:0:50:Rim.wav
192,192,164758,128,0,165244:0:0:0:0:
320,192,164920,1,0,0:0:0:50:Rim.wav
64,192,165082,1,0,0:0:0:50:Rim.wav
320,192,165244,128,0,165406:0:0:0:0:
64,192,165406,1,2,0:0:0:0:
192,192,165406,1,0,0:0:0:0:
64,192,165568,1,8,0:0:0:0:
320,192,165568,1,0,0:0:0:0:
448,192,165568,1,0,0:0:0:0:
192,192,165731,1,2,0:0:0:0:
320,192,165731,1,0,0:0:0:50:Rim.wav
64,192,166055,1,0,0:0:0:40:Tom2.wav
192,192,166055,1,0,0:0:0:0:
320,192,166217,1,0,0:0:0:50:Rim.wav
64,192,166298,1,0,0:0:0:40:Tom2.wav
192,192,166298,1,0,0:0:0:0:
448,192,166379,1,0,0:0:0:50:Rim.wav
64,192,166541,1,0,0:0:0:40:Tom3.wav
192,192,166541,1,0,0:0:0:0:
320,192,166622,1,0,0:0:0:40:Tom3.wav
64,192,166704,1,2,0:0:0:0:
192,192,166704,1,4,0:0:0:0:
448,192,166704,1,0,0:0:0:0:
320,192,166947,1,2,0:0:0:0:
448,192,166947,1,0,0:0:0:0:
64,192,167028,1,0,0:0:0:30:Ride.wav
320,192,167190,1,2,0:0:0:0:
448,192,167190,1,0,0:0:0:50:Rim.wav
64,192,167352,1,8,0:0:0:0:
192,192,167352,1,0,0:0:0:30:Ride.wav
448,192,167352,1,0,0:0:0:0:
320,192,167514,128,0,167677:0:0:0:0:
64,192,167677,1,0,0:0:0:50:Rim.wav
192,192,167839,128,0,168001:0:0:0:0:
320,192,168001,1,2,0:0:0:0:
448,192,168001,128,0,168163:0:0:0:30:Ride.wav
64,192,168163,1,8,0:0:0:0:
192,192,168163,1,0,0:0:0:50:Rim.wav
320,192,168325,128,0,168487:0:0:0:30:Ride.wav
64,192,168487,1,2,0:0:0:0:
448,192,168487,1,0,0:0:0:0:
64,192,168649,1,8,0:0:0:0:
192,192,168649,128,0,168812:0:0:0:30:Ride.wav
448,192,168649,1,0,0:0:0:0:
320,192,168812,128,0,168974:0:0:0:50:Rim.wav
64,192,168974,128,0,169136:0:0:0:30:Ride.wav
448,192,168974,1,0,0:0:0:0:
192,192,169136,1,0,0:0:0:40:Tom3.wav
320,192,169217,1,0,0:0:0:40:Tom3.wav
64,192,169298,1,4,0:0:0:0:
192,192,169298,1,2,0:0:0:0:
448,192,169298,1,0,0:0:0:0:
64,192,169541,1,2,0:0:0:0:
192,192,169541,1,0,0:0:0:0:
320,192,169622,128,0,169785:0:0:0:30:Ride.wav
64,192,169785,1,2,0:0:0:0:
192,192,169785,1,0,0:0:0:50:Rim.wav
64,192,169947,128,8,170109:0:0:0:0:
320,192,169947,1,0,0:0:0:30:Ride.wav
448,192,169947,1,0,0:0:0:0:
192,192,170109,1,0,0:0:0:0:
448,192,170271,128,0,170433:0:0:0:30:Ride.wav
320,192,170433,1,0,0:0:0:0:
64,192,170595,1,2,0:0:0:0:
192,192,170595,128,0,170758:0:0:0:30:Ride.wav
320,192,170758,1,8,0:0:0:0:
448,192,170758,1,0,0:0:0:50:Rim.wav
192,192,170920,1,0,0:0:0:30:Ride.wav
64,192,171082,1,2,0:0:0:0:
448,192,171082,1,0,0:0:0:50:Rim.wav
64,192,171244,1,8,0:0:0:0:
320,192,171244,1,0,0:0:0:30:Ride.wav
448,192,171244,128,0,171406:0:0:0:0:
192,192,171406,1,0,0:0:0:50:Rim.wav
64,192,171568,128,2,171731:0:0:0:0:
448,192,171568,1,0,0:0:0:30:Ride.wav
320,192,171731,1,8,0:0:0:0:
192,192,171812,1,8,0:0:0:0:
64,192,171893,1,4,0:0:0:0:
320,192,171893,1,2,0:0:0:0:
448,192,171893,1,0,0:0:0:0:
320,192,172136,1,2,0:0:0:0:
448,192,172136,1,0,0:0:0:0:
192,192,172217,1,0,0:0:0:30:Ride.wav
320,192,172379,1,2,0:0:0:0:
448,192,172379,1,0,0:0:0:50:Rim.wav
64,192,172541,1,8,0:0:0:0:
192,192,172541,128,0,172704:0:0:0:30:Ride.wav
448,192,172541,1,0,0:0:0:0:
320,192,172704,128,0,172866:0:0:0:0:
192,192,172866,128,0,173028:0:0:0:30:Ride.wav
320,192,173028,128,0,173190:0:0:0:50:Rim.wav
64,192,173190,128,2,173352:0:0:0:0:
448,192,173190,1,0,0:0:0:30:Ride.wav
192,192,173352,1,8,0:0:0:0:
320,192,173352,1,0,0:0:0:50:Rim.wav
64,192,173514,128,0,173677:0:0:0:30:Ride.wav
320,192,173677,1,2,0:0:0:0:
448,192,173677,128,0,173839:0:0:0:0:
64,192,173839,1,8,0:0:0:0:
192,192,173839,1,0,0:0:0:30:Ride.wav
320,192,173839,1,0,0:0:0:0:
448,192,174001,128,0,174163:0:0:0:50:Rim.wav
64,192,174163,1,0,0:0:0:30:Ride.wav
320,192,174325,1,0,0:0:0:40:Tom2.wav
192,192,174406,1,0,0:0:0:40:Tom2.wav
64,192,174487,1,4,0:0:0:0:
320,192,174487,1,2,0:0:0:0:
448,192,174487,1,0,0:0:0:0:
320,192,174812,1,0,0:0:0:30:Ride.wav
64,192,174974,1,2,0:0:0:0:
192,192,174974,1,0,0:0:0:0:
64,192,175136,1,8,0:0:0:0:
320,192,175136,1,0,0:0:0:30:Ride.wav
448,192,175136,1,0,0:0:0:0:
192,192,175298,128,0,175460:0:0:0:0:
320,192,175460,128,0,175622:0:0:0:30:Ride.wav
64,192,175622,128,8,175785:0:0:0:20:soft-hitclap.wav
320,192,175785,1,2,0:0:0:0:
448,192,175785,1,0,0:0:0:30:Ride.wav
64,192,175947,1,8,0:0:0:0:
192,192,175947,1,0,0:0:0:0:
448,192,175947,1,0,0:0:0:0:
320,192,176109,1,0,0:0:0:30:Ride.wav
64,192,176271,1,2,0:0:0:0:
192,192,176271,1,0,0:0:0:0:
64,192,176433,128,4,176514:0:0:0:0:
320,192,176433,128,8,176595:0:0:0:0:
448,192,176433,128,0,176514:0:0:0:0:
64,192,176595,128,0,176677:0:0:0:0:
192,192,176677,128,4,176839:0:0:0:0:
320,192,176677,128,8,176758:0:0:0:0:
448,192,176758,128,0,176839:0:0:0:0:
64,192,176920,128,4,177082:0:0:0:0:
192,192,176920,128,8,177001:0:0:0:0:
448,192,176920,128,0,177001:0:0:0:0:
64,192,179190,1,2,0:0:0:0:
192,192,179190,1,0,0:0:0:0:
320,192,179271,1,2,0:0:0:0:
64,192,179352,1,8,0:0:0:0:
192,192,179352,1,0,0:0:0:40:Tom2.wav
448,192,179352,1,0,0:0:0:0:
64,192,179677,128,4,180001:0:0:0:0:
320,192,179677,1,2,0:0:0:0:
448,192,179677,1,0,0:0:0:0:
192,192,179839,128,0,180163:0:0:0:0:
320,192,180001,128,10,180325:0:0:0:0:
448,192,180001,1,0,0:0:0:60:Hat.wav
64,192,180163,128,0,180325:0:0:0:0:
192,192,180325,1,2,0:0:0:0:
448,192,180325,128,0,180812:0:0:0:60:Hat.wav
64,192,180487,1,0,0:0:0:0:
192,192,180649,1,10,0:0:0:0:
320,192,180649,128,0,180974:0:0:0:60:Hat.wav
192,192,180812,128,0,181298:0:0:0:0:
64,192,180974,1,2,0:0:0:0:
448,192,180974,1,0,0:0:0:60:Hat.wav
320,192,181136,128,0,181298:0:0:0:0:
64,192,181298,1,10,0:0:0:0:
448,192,181298,128,0,181622:0:0:0:60:Hat.wav
64,192,181460,128,0,181947:0:0:0:0:
192,192,181622,128,2,181947:0:0:0:0:
320,192,181622,1,0,0:0:0:60:Hat.wav
448,192,181785,1,0,0:0:0:0:
320,192,181947,1,10,0:0:0:0:
448,192,181947,1,0,0:0:0:60:Hat.wav
320,192,182109,1,0,0:0:0:0:
64,192,182271,1,4,0:0:0:0:
192,192,182271,1,2,0:0:0:0:
448,192,182271,128,0,182595:0:0:0:0:
320,192,182433,128,0,182758:0:0:0:0:
64,192,182595,1,10,0:0:0:0:
192,192,182595,128,0,182920:0:0:0:60:Hat.wav
448,192,182758,128,0,182920:0:0:0:0:
64,192,182920,128,2,183244:0:0:0:0:
320,192,182920,128,0,183082:0:0:0:60:Hat.wav
448,192,183082,1,0,0:0:0:0:
192,192,183244,1,8,0:0:0:0:
320,192,183244,128,2,183406:0:0:0:0:
448,192,183244,1,0,0:0:0:60:Hat.wav
192,192,183406,128,0,183731:0:0:0:0:
64,192,183568,128,2,183731:0:0:0:0:
320,192,183568,1,0,0:0:0:60:Hat.wav
448,192,183731,128,0,183893:0:0:0:0:
64,192,183893,1,8,0:0:0:0:
192,192,183893,128,2,184217:0:0:0:0:
320,192,183893,1,0,0:0:0:60:Hat.wav
320,192,184055,128,0,184379:0:0:0:0:
64,192,184217,1,2,0:0:0:0:
448,192,184217,128,0,184379:0:0:0:60:Hat.wav
64,192,184379,1,8,0:0:0:0:
192,192,184379,1,0,0:0:0:0:
320,192,184460,1,8,0:0:0:0:
448,192,184460,1,0,0:0:0:0:
64,192,184541,1,2,0:0:0:0:
192,192,184541,1,8,0:0:0:0:
320,192,184704,1,8,0:0:0:0:
448,192,184704,1,0,0:0:0:0:
192,192,184785,1,8,0:0:0:0:
64,192,184866,128,4,185190:0:0:0:0:
320,192,184866,128,2,185028:0:0:0:0:
448,192,184866,128,0,185028:0:0:0:0:
192,192,185190,1,8,0:0:0:0:
320,192,185190,1,2,0:0:0:0:
448,192,185190,1,0,0:0:0:60:Hat.wav
192,192,185352,1,0,0:0:0:0:
320,192,185514,128,2,185839:0:0:0:0:
448,192,185514,1,0,0:0:0:60:Hat.wav
64,192,185677,1,0,0:0:0:0:
64,192,185839,128,8,186082:0:0:0:0:
192,192,185839,1,2,0:0:0:0:
448,192,185839,1,0,0:0:0:60:Hat.wav
192,192,186001,128,0,186082:0:0:0:0:
192,192,186163,128,2,186487:0:0:0:0:
320,192,186163,128,0,186325:0:0:0:60:Hat.wav
64,192,186487,1,2,0:0:0:0:
320,192,186487,1,8,0:0:0:0:
448,192,186487,128,0,186974:0:0:0:60:Hat.wav
64,192,186649,1,0,0:0:0:0:
192,192,186812,1,2,0:0:0:0:
320,192,186812,128,0,187298:0:0:0:60:Hat.wav
64,192,186974,1,0,0:0:0:0:
192,192,187136,128,10,187622:0:0:0:0:
448,192,187136,1,0,0:0:0:60:Hat.wav
64,192,187298,1,0,0:0:0:0:
64,192,187460,128,2,187622:0:0:0:0:
320,192,187460,128,4,187622:0:0:0:0:
448,192,187460,128,0,187785:0:0:0:0:
64,192,187785,1,8,0:0:0:0:
192,192,187785,1,2,0:0:0:0:
320,192,187785,1,0,0:0:0:60:Hat.wav
192,192,187947,128,0,188028:0:0:0:0:
64,192,188109,1,2,0:0:0:0:
192,192,188109,128,0,188433:0:0:0:60:Hat.wav
320,192,188271,1,8,0:0:0:0:
448,192,188271,1,0,0:0:0:0:
64,192,188352,1,8,0:0:0:0:
320,192,188433,1,8,0:0:0:0:
448,192,188433,1,2,0:0:0:0:
192,192,188514,1,8,0:0:0:0:
64,192,188595,1,8,0:0:0:0:
448,192,188595,1,0,0:0:0:0:
320,192,188677,1,8,0:0:0:0:
64,192,188758,1,2,0:0:0:0:
192,192,188758,1,8,0:0:0:0:
320,192,188839,1,8,0:0:0:0:
64,192,188920,1,8,0:0:0:0:
448,192,188920,1,0,0:0:0:0:
192,192,189001,1,8,0:0:0:0:
320,192,189082,1,2,0:0:0:0:
448,192,189082,1,8,0:0:0:0:
64,192,189163,1,8,0:0:0:0:
192,192,189163,1,0,0:0:0:0:
320,192,189244,1,8,0:0:0:0:
448,192,189244,1,0,0:0:0:0:
64,192,189325,1,8,0:0:0:0:
192,192,189325,1,0,0:0:0:0:
320,192,189406,1,2,0:0:0:0:
448,192,189406,1,0,0:0:0:40:Tom1.wav
64,192,189568,1,0,0:0:0:40:Tom1.wav
192,192,189568,1,0,0:0:0:0:
320,192,189649,1,0,0:0:0:40:Tom1.wav
64,192,189731,1,2,0:0:0:0:
448,192,189731,1,0,0:0:0:40:Tom2.wav
192,192,189812,1,0,0:0:0:40:Tom2.wav
320,192,189812,1,0,0:0:0:0:
64,192,189893,1,0,0:0:0:40:Tom3.wav
448,192,189893,1,0,0:0:0:0:
192,192,189974,1,0,0:0:0:40:Tom3.wav
64,192,190055,128,4,190379:0:0:0:0:
320,192,190055,1,2,0:0:0:0:
448,192,190055,1,0,0:0:0:0:
192,192,190217,128,0,190704:0:0:0:0:
320,192,190379,1,6,0:0:0:0:
448,192,190379,1,8,0:0:0:0:
64,192,190541,128,0,190704:0:0:0:0:
320,192,190704,128,2,191190:0:0:0:0:
448,192,190704,128,0,190866:0:0:0:60:Hat.wav
192,192,190866,1,0,0:0:0:0:
64,192,191028,128,10,191352:0:0:0:0:
448,192,191028,1,0,0:0:0:60:Hat.wav
192,192,191190,128,0,191677:0:0:0:0:
320,192,191352,1,2,0:0:0:0:
448,192,191352,128,0,191514:0:0:0:60:Hat.wav
64,192,191514,128,0,191677:0:0:0:0:
320,192,191677,1,10,0:0:0:0:
448,192,191677,128,0,192001:0:0:0:60:Hat.wav
64,192,191839,128,0,192325:0:0:0:0:
192,192,192001,128,2,192325:0:0:0:0:
320,192,192001,1,0,0:0:0:60:Hat.wav
448,192,192163,1,0,0:0:0:0:
320,192,192325,1,10,0:0:0:0:
448,192,192325,1,0,0:0:0:60:Hat.wav
320,192,192487,1,0,0:0:0:0:
64,192,192649,1,2,0:0:0:0:
192,192,192649,1,4,0:0:0:0:
448,192,192649,128,0,192974:0:0:0:0:
320,192,192812,128,0,193136:0:0:0:0:
64,192,192974,1,10,0:0:0:0:
192,192,192974,128,0,193298:0:0:0:60:Hat.wav
448,192,193136,128,0,193460:0:0:0:0:
64,192,193298,128,2,193622:0:0:0:0:
320,192,193298,128,0,193460:0:0:0:60:Hat.wav
192,192,193460,128,0,193622:0:0:0:0:
320,192,193622,1,10,0:0:0:0:
448,192,193622,128,0,193947:0:0:0:60:Hat.wav
192,192,193785,128,0,194271:0:0:0:0:
64,192,193947,1,2,0:0:0:0:
320,192,193947,1,0,0:0:0:60:Hat.wav
448,192,194109,128,0,194271:0:0:0:0:
64,192,194271,1,10,0:0:0:0:
320,192,194271,1,0,0:0:0:60:Hat.wav
64,192,194433,1,0,0:0:0:0:
320,192,194595,1,2,0:0:0:0:
448,192,194595,128,0,194758:0:0:0:60:Hat.wav
192,192,194758,128,8,194920:0:0:0:0:
64,192,194839,1,8,0:0:0:0:
320,192,194920,128,8,195082:0:0:0:0:
448,192,194920,1,2,0:0:0:0:
192,192,195001,1,8,0:0:0:0:
64,192,195082,1,8,0:0:0:0:
448,192,195082,128,0,195244:0:0:0:0:
320,192,195163,1,8,0:0:0:0:
64,192,195244,128,4,195568:0:0:0:0:
192,192,195244,128,2,195406:0:0:0:0:
192,192,195568,1,2,0:0:0:0:
320,192,195568,1,8,0:0:0:0:
448,192,195568,1,0,0:0:0:60:Hat.wav
192,192,195731,1,0,0:0:0:0:
64,192,195893,1,2,0:0:0:0:
448,192,195893,128,0,196217:0:0:0:60:Hat.wav
320,192,196055,128,0,196217:0:0:0:0:
64,192,196217,1,10,0:0:0:0:
192,192,196217,128,0,196541:0:0:0:60:Hat.wav
320,192,196379,128,0,196541:0:0:0:0:
64,192,196541,128,2,196866:0:0:0:0:
448,192,196541,128,0,196704:0:0:0:60:Hat.wav
192,192,196866,1,8,0:0:0:0:
320,192,196866,1,2,0:0:0:0:
448,192,196866,128,0,197190:0:0:0:60:Hat.wav
320,192,197028,128,0,197190:0:0:0:0:
64,192,197190,128,2,197677:0:0:0:0:
192,192,197190,1,0,0:0:0:60:Hat.wav
192,192,197352,128,0,197677:0:0:0:0:
320,192,197514,128,10,197677:0:0:0:0:
448,192,197514,1,0,0:0:0:60:Hat.wav
448,192,197677,1,0,0:0:0:0:
64,192,197839,1,2,0:0:0:0:
192,192,197839,128,4,198001:0:0:0:0:
320,192,197839,128,0,198163:0:0:0:0:
64,192,198163,1,2,0:0:0:0:
192,192,198163,1,8,0:0:0:0:
448,192,198163,1,0,0:0:0:60:Hat.wav
448,192,198325,128,0,198406:0:0:0:0:
64,192,198487,1,2,0:0:0:0:
448,192,198487,128,0,198974:0:0:0:60:Hat.wav
192,192,198649,1,0,0:0:0:0:
64,192,198812,1,2,0:0:0:0:
192,192,198812,1,8,0:0:0:0:
320,192,198812,1,0,0:0:0:60:Hat.wav
320,192,198974,1,0,0:0:0:0:
64,192,199136,1,2,0:0:0:0:
192,192,199136,1,0,0:0:0:60:Hat.wav
192,192,199298,1,2,0:0:0:0:
320,192,199298,1,0,0:0:0:0:
64,192,199460,1,8,0:0:0:0:
320,192,199460,1,0,0:0:0:60:Hat.wav
448,192,199460,1,0,0:0:0:0:
64,192,199622,1,2,0:0:0:0:
192,192,199622,1,0,0:0:0:0:
320,192,199785,1,0,0:0:0:40:Tom2.wav
448,192,199785,1,0,0:0:0:0:
192,192,199947,1,2,0:0:0:0:
320,192,199947,1,0,0:0:0:0:
64,192,200109,1,8,0:0:0:0:
192,192,200109,128,4,200433:0:0:0:0:
448,192,200109,1,0,0:0:0:0:
64,192,200433,1,4,0:0:0:0:
320,192,200433,128,2,200758:0:0:0:0:
448,192,200433,1,0,0:0:0:0:
64,192,200758,1,8,0:0:0:0:
192,192,200758,1,0,0:0:0:0:
320,192,200839,1,8,0:0:0:0:
448,192,200839,1,0,0:0:0:0:
192,192,200920,1,2,0:0:0:0:
320,192,201001,1,2,0:0:0:0:
64,192,201082,1,0,0:0:0:40:Tom2.wav
448,192,201082,1,0,0:0:0:0:
192,192,201163,1,0,0:0:0:40:Tom3.wav
320,192,201163,1,0,0:0:0:0:
64,192,201244,1,2,0:0:0:0:
192,192,201325,1,2,0:0:0:0:
320,192,201406,1,0,0:0:0:40:Tom2.wav
448,192,201406,1,0,0:0:0:0:
64,192,201487,1,0,0:0:0:40:Tom2.wav
192,192,201487,1,0,0:0:0:0:
448,192,201568,1,0,0:0:0:40:Tom3.wav
320,192,201649,1,0,0:0:0:40:Tom3.wav
64,192,201731,1,8,0:0:0:0:
192,192,201731,1,0,0:0:0:0:
448,192,201731,1,0,0:0:0:0:
192,192,201893,1,2,0:0:0:0:
320,192,201893,1,0,0:0:0:0:
64,192,202055,128,8,202947:0:0:0:0:
320,192,202055,1,4,0:0:0:0:
448,192,202055,1,0,0:0:0:0:
192,192,202704,128,0,202947:0:0:0:0:
64,192,203028,1,2,0:0:0:0:
320,192,203028,1,4,0:0:0:0:
448,192,203028,128,0,203190:0:0:0:0:
448,192,203514,128,0,203677:0:0:0:0:
448,192,203839,128,0,204325:0:0:0:0:
320,192,204001,128,0,204325:0:0:0:0:
64,192,204325,1,0,0:0:0:0:
192,192,204325,128,0,204487:0:0:0:0:
192,192,204812,128,0,204974:0:0:0:0:
192,192,205136,128,0,205622:0:0:0:0:
320,192,205298,128,0,205622:0:0:0:30:Ride.wav
448,192,205460,128,0,205622:0:0:0:30:Ride.wav
64,192,205622,128,0,205785:0:0:0:30:Ride.wav
64,192,206109,128,0,206271:0:0:0:0:
64,192,206433,128,0,206920:0:0:0:0:
192,192,206595,128,0,206920:0:0:0:0:
320,192,206920,128,0,207082:0:0:0:0:
320,192,207406,128,0,207568:0:0:0:0:
192,192,207731,128,0,207893:0:0:0:0:
320,192,207731,128,0,208217:0:0:0:0:
448,192,207893,128,0,208217:0:0:0:30:Ride.wav
64,192,208217,128,0,208379:0:0:0:0:
64,192,208704,128,0,208866:0:0:0:0:
64,192,209028,128,0,209514:0:0:0:0:
192,192,209190,128,0,209514:0:0:0:0:
320,192,209514,128,0,209677:0:0:0:0:
320,192,210001,128,0,210163:0:0:0:0:
320,192,210325,128,0,210812:0:0:0:0:
192,192,210487,128,0,210812:0:0:0:0:
448,192,210812,128,0,210974:0:0:0:30:Ride.wav
448,192,211298,128,0,211460:0:0:0:0:
448,192,211622,128,0,212109:0:0:0:0:
320,192,211785,128,0,212109:0:0:0:0:
192,192,212109,128,0,212271:0:0:0:0:
192,192,212433,128,0,213325:0:0:0:0:
320,192,212433,128,0,213244:0:0:0:0:
448,192,213244,128,0,215514:0:0:0:0:
320,192,213325,128,0,215474:0:0:0:0:
64,192,213406,128,0,215393:0:0:0:0:
192,192,213406,128,0,215433:0:0:0:0:
