osu file format v14

[General]
AudioFilename: audio.ogg
AudioLeadIn: 0
PreviewTime: 137183
Countdown: 0
SampleSet: Soft
StackLeniency: 0.7
Mode: 3
LetterboxInBreaks: 0
SpecialStyle: 0
WidescreenStoryboard: 1

[Editor]
Bookmarks: 21399,42156,62913,107021,127778
DistanceSpacing: 0.7
BeatDivisor: 4
GridSize: 4
TimelineZoom: 1.3

[Metadata]
Title:Mada, Aoi
TitleUnicode:未だ、青い
Artist:Minato Aqua
ArtistUnicode:湊あくあ
Creator:DenYi
Version:ArtZone's Normal
Source:あくありうむ。
Tags:Artzone ML-ysg lami- j-pop jpop pop hololive ホロライブ virtual youtuber vtuber バーチャル japanese original 8th single vn visual novel video game aquarium akuarium Stay Blue op opening Full version
BeatmapID:3748545
BeatmapSetID:1826609

[Difficulty]
HPDrainRate:7
CircleSize:4
OverallDifficulty:7
ApproachRate:5
SliderMultiplier:1.4
SliderTickRate:1

[Events]
//Background and Video events
0,0,"mada aoi2.jpg",0,0
Video,-40,"imada aoi.mp4"
//Break Periods
//Storyboard Layer 0 (Background)
//Storyboard Layer 1 (Fail)
//Storyboard Layer 2 (Pass)
//Storyboard Layer 3 (Foreground)
//Storyboard Layer 4 (Overlay)
//Storyboard Sound Samples
Sample,1136,0,"Rim.wav",25
Sample,1460,0,"Rim.wav",25
Sample,1622,0,"Rim.wav",25
Sample,1785,0,"Hat Open.wav",15
Sample,1947,0,"Rim.wav",25
Sample,2190,0,"Rim.wav",25
Sample,2433,0,"Rim.wav",25
Sample,2758,0,"Rim.wav",25
Sample,2920,0,"Rim.wav",25
Sample,3082,0,"Hat Open.wav",15
Sample,3244,0,"Rim.wav",25
Sample,3487,0,"Rim.wav",25
Sample,3731,0,"Rim.wav",25
Sample,4055,0,"Rim.wav",25
Sample,4217,0,"Rim.wav",25
Sample,4379,0,"Hat Open.wav",15
Sample,4541,0,"Rim.wav",25
Sample,5028,0,"Rim.wav",25
Sample,5352,0,"Rim.wav",25
Sample,5514,0,"Rim.wav",25
Sample,5839,0,"Rim.wav",25
Sample,5839,0,"Ride.wav",30
Sample,6812,0,"Rim.wav",25
Sample,11677,0,"Hat.wav",60
Sample,12325,0,"Hat.wav",60
Sample,12974,0,"Hat.wav",60
Sample,13622,0,"Hat.wav",60
Sample,14271,0,"Hat.wav",60
Sample,14920,0,"Hat.wav",60
Sample,15568,0,"Hat.wav",60
Sample,16866,0,"Hat.wav",60
Sample,17514,0,"Hat.wav",60
Sample,18163,0,"Hat.wav",60
Sample,18812,0,"Hat.wav",60
Sample,21082,0,"Tom2.wav",40
Sample,22379,0,"Rim.wav",50
Sample,24974,0,"Rim.wav",50
Sample,27568,0,"Rim.wav",50
Sample,30163,0,"Rim.wav",50
Sample,32758,0,"Rim.wav",50
Sample,35352,0,"Rim.wav",50
Sample,37947,0,"Rim.wav",50
Sample,45731,0,"Rim.wav",50
Sample,50920,0,"Rim.wav",50
Sample,53514,0,"Rim.wav",50
Sample,56109,0,"Rim.wav",50
Sample,58704,0,"Rim.wav",50
Sample,60001,0,"Rim.wav",50
Sample,61785,0,"Hat.wav",60
Sample,70866,0,"Hat.wav",60
Sample,71028,0,"Hat.wav",60
Sample,72163,0,"Tom3.wav",40
Sample,72812,0,"Tom3.wav",40
Sample,73947,0,"Hat.wav",60
Sample,75893,0,"Hat.wav",60
Sample,76541,0,"Hat.wav",60
Sample,77190,0,"Hat.wav",60
Sample,77839,0,"Hat.wav",60
Sample,79136,0,"Hat.wav",60
Sample,79785,0,"Hat.wav",60
Sample,80433,0,"Hat.wav",60
Sample,81731,0,"Hat.wav",60
Sample,83028,0,"Tom2.wav",40
Sample,84325,0,"Hat.wav",60
Sample,86920,0,"Hat.wav",60
Sample,88217,0,"Hat.wav",60
Sample,89514,0,"Hat.wav",60
Sample,90812,0,"Hat.wav",60
Sample,92109,0,"Hat.wav",60
Sample,92758,0,"Hat.wav",60
Sample,102812,0,"Rim.wav",50
Sample,105406,0,"Rim.wav",50
Sample,108001,0,"Rim.wav",50
Sample,111244,0,"Rim.wav",50
Sample,115785,0,"Rim.wav",50
Sample,117082,0,"Ride.wav",30
Sample,118379,0,"Rim.wav",50
Sample,119514,0,"Rim.wav",50
Sample,120325,0,"soft-hitclap.wav",35
Sample,120974,0,"Rim.wav",50
Sample,120974,0,"soft-hitclap.wav",35
Sample,122109,0,"Rim.wav",50
Sample,123568,0,"soft-hitclap.wav",35
Sample,123568,0,"Rim.wav",50
Sample,124866,0,"soft-hitclap.wav",35
Sample,126163,0,"Rim.wav",50
Sample,135731,0,"Hat.wav",60
Sample,135893,0,"Hat.wav",60
Sample,138812,0,"Hat.wav",60
Sample,141406,0,"Hat.wav",60
Sample,142704,0,"Hat.wav",60
Sample,144001,0,"Hat.wav",60
Sample,144649,0,"Hat.wav",60
Sample,145298,0,"Hat.wav",60
Sample,146595,0,"Hat.wav",60
Sample,149190,0,"Hat.wav",60
Sample,149839,0,"Hat.wav",60
Sample,151785,0,"Hat.wav",60
Sample,153082,0,"Hat.wav",60
Sample,161190,0,"Ride.wav",30
Sample,165731,0,"Rim.wav",50
Sample,167190,0,"Rim.wav",50
Sample,167677,0,"Ride.wav",30
Sample,168001,0,"Ride.wav",30
Sample,169785,0,"Rim.wav",50
Sample,170595,0,"Ride.wav",30
Sample,171082,0,"Rim.wav",50
Sample,171568,0,"Ride.wav",30
Sample,172379,0,"Rim.wav",50
Sample,173190,0,"Ride.wav",30
Sample,175785,0,"Ride.wav",30
Sample,180325,0,"Hat.wav",60
Sample,182920,0,"Hat.wav",60
Sample,183568,0,"Hat.wav",60
Sample,184217,0,"Hat.wav",60
Sample,185514,0,"Hat.wav",60
Sample,186163,0,"Hat.wav",60
Sample,186812,0,"Hat.wav",60
Sample,188109,0,"Hat.wav",60
Sample,189406,0,"Tom1.wav",40
Sample,189731,0,"Tom2.wav",40
Sample,190704,0,"Hat.wav",60
Sample,191352,0,"Hat.wav",60
Sample,193298,0,"Hat.wav",60
Sample,194595,0,"Hat.wav",60
Sample,195893,0,"Hat.wav",60
Sample,197190,0,"Hat.wav",60
Sample,198487,0,"Hat.wav",60
Sample,199136,0,"Hat.wav",60

[TimingPoints]
650,324.324324324324,4,2,1,50,1,0
73298,-100,4,2,1,50,0,1
94055,-100,4,2,1,50,0,0
138163,-100,4,2,1,50,0,1
156325,-100,4,2,1,50,0,0
179677,-100,4,2,1,50,0,1
203028,-100,4,2,1,50,0,0

[HitObjects]
192,192,650,5,2,0:0:0:0:
448,192,650,1,4,0:0:0:0:
192,192,893,1,0,0:0:0:25:Rim.wav
320,192,1136,1,0,0:0:0:35:LR3_HiHatSCD.wav
64,192,1460,1,0,0:0:0:35:LR3_HiHatSCD.wav
448,192,1622,1,0,0:0:0:35:LR3_HiHatSCD.wav
320,192,1785,1,0,0:0:0:35:LR3_HiHatSCD.wav
192,192,1947,1,0,0:0:0:35:LR3_HiHatSCD.wav
192,192,2190,1,0,0:0:0:35:LR3_HiHatSCD.wav
320,192,2433,1,0,0:0:0:35:LR3_HiHatSCD.wav
64,192,2758,1,0,0:0:0:35:LR3_HiHatSCD.wav
448,192,2920,1,0,0:0:0:35:LR3_HiHatSCD.wav
192,192,3082,1,0,0:0:0:35:LR3_HiHatSCD.wav
64,192,3244,1,0,0:0:0:35:LR3_HiHatSCD.wav
320,192,3244,1,4,0:0:0:30:soft-hitfinish.wav
320,192,3487,1,0,0:0:0:35:LR3_HiHatSCD.wav
192,192,3731,1,0,0:0:0:35:LR3_HiHatSCD.wav
448,192,4055,1,0,0:0:0:35:LR3_HiHatSCD.wav
64,192,4217,1,0,0:0:0:35:LR3_HiHatSCD.wav
192,192,4379,1,0,0:0:0:35:LR3_HiHatSCD.wav
320,192,4541,1,0,0:0:0:35:LR3_HiHatSCD.wav
320,192,4785,1,0,0:0:0:25:Rim.wav
64,192,5028,1,0,0:0:0:35:LR3_HiHatSCD.wav
192,192,5352,1,0,0:0:0:35:LR3_HiHatSCD.wav
64,192,5514,128,0,5839:0:0:0:35:LR3_HiHatSCD.wav
448,192,5514,1,0,0:0:0:15:Hat Open.wav
320,192,5839,1,0,0:0:0:35:LR3_HiHatSCD.wav
448,192,5839,128,4,6487:0:0:0:30:soft-hitfinish.wav
192,192,6163,1,0,0:0:0:0:
320,192,6487,128,0,7136:0:0:0:0:
64,192,6812,1,0,0:0:0:35:LR3_HiHatSCD.wav
192,192,7136,128,0,7785:0:0:0:35:LR3_HiHatSCD.wav
448,192,7136,1,0,0:0:0:25:Rim.wav
320,192,7460,1,0,0:0:0:0:
64,192,7785,128,0,8433:0:0:0:0:
192,192,8109,1,0,0:0:0:25:Rim.wav
320,192,8433,1,4,0:0:0:30:soft-hitfinish.wav
448,192,8433,128,0,9731:0:0:0:0:
192,192,8758,1,0,0:0:0:0:
64,192,9082,1,0,0:0:0:0:
320,192,9406,1,0,0:0:0:25:Rim.wav
64,192,9731,1,8,0:0:0:0:
192,192,9731,1,0,0:0:0:40:Tom3.wav
320,192,9893,1,8,0:0:0:0:
448,192,9893,1,0,0:0:0:40:Tom3.wav
320,192,10379,1,8,0:0:0:0:
448,192,10379,1,0,0:0:0:0:
64,192,10541,1,2,0:0:0:0:
192,192,10541,1,0,0:0:0:40:Hat Open.wav
320,192,10704,128,0,11028:0:0:0:0:
64,192,11028,1,2,0:0:0:0:
448,192,11028,1,4,0:0:0:0:
64,192,11352,1,10,0:0:0:0:
192,192,11352,1,8,0:0:0:60:Hat.wav
320,192,11677,1,2,0:0:0:0:
192,192,11839,1,0,0:0:0:0:
64,192,12001,1,10,0:0:0:0:
448,192,12001,1,8,0:0:0:60:Hat.wav
320,192,12325,1,2,0:0:0:0:
320,192,12649,1,10,0:0:0:0:
448,192,12649,1,8,0:0:0:60:Hat.wav
192,192,12974,1,2,0:0:0:0:
320,192,13136,1,0,0:0:0:0:
64,192,13298,1,10,0:0:0:0:
448,192,13298,1,8,0:0:0:60:Hat.wav
192,192,13622,1,2,0:0:0:0:
192,192,13947,1,10,0:0:0:0:
320,192,13947,1,8,0:0:0:60:Hat.wav
448,192,14271,1,2,0:0:0:0:
320,192,14433,1,0,0:0:0:0:
64,192,14595,1,10,0:0:0:0:
192,192,14595,1,8,0:0:0:60:Hat.wav
320,192,14920,1,2,0:0:0:0:
192,192,15244,1,10,0:0:0:0:
320,192,15244,1,8,0:0:0:60:Hat.wav
448,192,15568,1,2,0:0:0:0:
64,192,15731,1,8,0:0:0:0:
320,192,15893,1,10,0:0:0:0:
448,192,15893,1,0,0:0:0:0:
192,192,16055,1,8,0:0:0:0:
64,192,16217,1,6,0:0:0:0:
320,192,16217,1,2,0:0:0:0:
64,192,16541,1,10,0:0:0:0:
192,192,16541,1,8,0:0:0:60:Hat.wav
320,192,16866,1,2,0:0:0:0:
64,192,17028,1,0,0:0:0:0:
192,192,17190,1,10,0:0:0:0:
448,192,17190,1,8,0:0:0:60:Hat.wav
320,192,17514,1,2,0:0:0:0:
320,192,17839,1,10,0:0:0:0:
448,192,17839,1,8,0:0:0:60:Hat.wav
192,192,18163,1,2,0:0:0:0:
448,192,18325,1,0,0:0:0:0:
64,192,18487,1,10,0:0:0:0:
320,192,18487,1,8,0:0:0:60:Hat.wav
192,192,18812,1,2,0:0:0:0:
64,192,19136,1,10,0:0:0:0:
320,192,19298,1,8,0:0:0:0:
448,192,19298,1,4,0:0:0:0:
192,192,19460,1,2,0:0:0:0:
448,192,19785,1,10,0:0:0:0:
64,192,19947,1,8,0:0:0:0:
192,192,19947,1,4,0:0:0:0:
320,192,20109,1,2,0:0:0:0:
448,192,20271,1,8,0:0:0:0:
64,192,20433,1,10,0:0:0:0:
320,192,20595,1,0,0:0:0:40:Tom1.wav
192,192,20758,1,2,0:0:0:0:
448,192,20920,1,0,0:0:0:40:Tom2.wav
64,192,21082,1,2,0:0:0:0:
320,192,21244,1,0,0:0:0:40:Tom3.wav
192,192,21325,1,0,0:0:0:40:Tom3.wav
64,192,21406,1,4,0:0:0:0:
448,192,21406,1,2,0:0:0:0:
320,192,21568,1,0,0:0:0:0:
192,192,21731,1,2,0:0:0:0:
448,192,21893,1,0,0:0:0:0:
64,192,22055,1,2,0:0:0:0:
192,192,22055,1,0,0:0:0:0:
320,192,22379,1,2,0:0:0:0:
64,192,22541,1,0,0:0:0:0:
192,192,22704,1,2,0:0:0:0:
448,192,22704,1,0,0:0:0:0:
320,192,23028,1,2,0:0:0:0:
64,192,23190,1,0,0:0:0:50:Rim.wav
320,192,23352,1,2,0:0:0:0:
448,192,23352,1,0,0:0:0:0:
192,192,23514,1,0,0:0:0:50:Rim.wav
64,192,23677,1,2,0:0:0:0:
448,192,23839,1,0,0:0:0:0:
64,192,24001,128,2,24325:0:0:0:0:
192,192,24001,1,4,0:0:0:0:
320,192,24325,1,2,0:0:0:0:
192,192,24487,1,0,0:0:0:0:
64,192,24649,128,2,24974:0:0:0:0:
448,192,24649,1,0,0:0:0:0:
192,192,24974,1,2,0:0:0:0:
320,192,25136,1,0,0:0:0:0:
64,192,25298,1,2,0:0:0:0:
448,192,25298,128,0,26271:0:0:0:0:
192,192,25622,1,2,0:0:0:0:
64,192,25947,1,2,0:0:0:0:
320,192,26271,1,2,0:0:0:0:
64,192,26595,1,2,0:0:0:0:
448,192,26595,1,4,0:0:0:0:
192,192,26758,1,0,0:0:0:0:
320,192,26920,1,2,0:0:0:0:
64,192,27082,1,0,0:0:0:50:Rim.wav
320,192,27244,1,2,0:0:0:0:
448,192,27244,1,0,0:0:0:0:
192,192,27568,1,2,0:0:0:0:
448,192,27731,1,0,0:0:0:0:
64,192,27893,1,2,0:0:0:0:
320,192,27893,1,0,0:0:0:50:Rim.wav
192,192,28217,1,2,0:0:0:0:
448,192,28379,1,0,0:0:0:50:Rim.wav
64,192,28541,1,2,0:0:0:0:
192,192,28541,1,0,0:0:0:0:
320,192,28704,1,0,0:0:0:50:Rim.wav
448,192,28866,1,2,0:0:0:0:
192,192,29028,1,0,0:0:0:0:
64,192,29190,1,2,0:0:0:0:
448,192,29190,128,4,29514:0:0:0:0:
320,192,29514,1,2,0:0:0:0:
192,192,29677,1,0,0:0:0:0:
64,192,29839,128,2,30812:0:0:0:0:
448,192,29839,1,0,0:0:0:0:
192,192,30163,1,2,0:0:0:0:
320,192,30487,1,2,0:0:0:0:
448,192,30487,1,0,0:0:0:0:
448,192,30812,1,2,0:0:0:0:
320,192,31136,1,2,0:0:0:0:
64,192,31460,1,10,0:0:0:0:
192,192,31460,1,0,0:0:0:60:Hat.wav
320,192,31785,1,2,0:0:0:0:
448,192,31785,1,4,0:0:0:0:
64,192,31947,1,0,0:0:0:0:
448,192,32109,1,2,0:0:0:0:
192,192,32271,1,0,0:0:0:0:
64,192,32433,1,2,0:0:0:0:
320,192,32433,1,0,0:0:0:0:
192,192,32758,1,2,0:0:0:0:
320,192,32920,1,0,0:0:0:0:
64,192,33082,1,2,0:0:0:0:
448,192,33082,1,0,0:0:0:0:
192,192,33244,1,0,0:0:0:0:
448,192,33406,1,2,0:0:0:0:
64,192,33568,1,0,0:0:0:50:Rim.wav
320,192,33731,1,2,0:0:0:0:
448,192,33731,1,0,0:0:0:0:
192,192,33893,1,0,0:0:0:50:Rim.wav
448,192,34055,1,2,0:0:0:0:
64,192,34217,1,0,0:0:0:0:
320,192,34379,1,2,0:0:0:0:
448,192,34379,128,4,34704:0:0:0:0:
192,192,34704,1,2,0:0:0:0:
320,192,34866,1,0,0:0:0:50:Rim.wav
64,192,35028,1,2,0:0:0:0:
448,192,35028,128,0,35352:0:0:0:0:
320,192,35352,1,2,0:0:0:0:
192,192,35514,1,0,0:0:0:0:
64,192,35677,128,2,36001:0:0:0:0:
448,192,35677,1,0,0:0:0:0:
320,192,36001,1,2,0:0:0:0:
192,192,36325,1,2,0:0:0:0:
448,192,36325,1,0,0:0:0:0:
320,192,36487,1,0,0:0:0:50:Rim.wav
64,192,36649,1,10,0:0:0:0:
192,192,36812,1,0,0:0:0:0:
320,192,36974,128,2,37298:0:0:0:0:
448,192,36974,1,4,0:0:0:0:
192,192,37298,1,2,0:0:0:0:
64,192,37622,1,2,0:0:0:0:
320,192,37622,1,0,0:0:0:0:
192,192,37785,1,0,0:0:0:50:Rim.wav
448,192,37947,1,2,0:0:0:0:
320,192,38109,1,0,0:0:0:0:
64,192,38271,1,2,0:0:0:0:
192,192,38271,1,0,0:0:0:0:
64,192,38595,1,2,0:0:0:0:
448,192,38595,1,0,0:0:0:0:
320,192,38920,1,2,0:0:0:0:
448,192,38920,1,0,0:0:0:0:
192,192,39244,1,2,0:0:0:0:
320,192,39406,1,0,0:0:0:0:
64,192,39568,1,2,0:0:0:0:
448,192,39568,1,4,0:0:0:0:
192,192,39731,1,0,0:0:0:0:
320,192,39893,128,2,40866:0:0:0:0:
448,192,40217,1,2,0:0:0:0:
192,192,40541,1,2,0:0:0:0:
64,192,40866,1,2,0:0:0:0:
448,192,40866,1,0,0:0:0:0:
192,192,41190,1,8,0:0:0:0:
320,192,41352,1,0,0:0:0:40:Tom2.wav
64,192,41514,1,8,0:0:0:0:
192,192,41514,1,0,0:0:0:0:
320,192,41677,1,8,0:0:0:0:
448,192,41677,1,0,0:0:0:50:Hat Open.wav
64,192,42163,1,2,0:0:0:0:
320,192,42163,1,4,0:0:0:0:
192,192,42325,1,0,0:0:0:0:
448,192,42487,1,2,0:0:0:0:
64,192,42649,1,0,0:0:0:0:
320,192,42812,1,2,0:0:0:0:
448,192,42812,1,0,0:0:0:0:
192,192,43136,1,2,0:0:0:0:
320,192,43298,1,0,0:0:0:0:
64,192,43460,1,2,0:0:0:0:
448,192,43460,1,0,0:0:0:0:
192,192,43785,1,2,0:0:0:0:
320,192,43947,1,0,0:0:0:50:Rim.wav
192,192,44109,1,2,0:0:0:0:
448,192,44109,1,0,0:0:0:0:
64,192,44271,1,0,0:0:0:50:Rim.wav
320,192,44433,1,2,0:0:0:0:
192,192,44595,1,0,0:0:0:60:Hat.wav
64,192,44758,128,2,45082:0:0:0:0:
448,192,44758,1,4,0:0:0:0:
320,192,45082,1,2,0:0:0:0:
448,192,45244,1,0,0:0:0:0:
64,192,45406,128,2,45731:0:0:0:0:
192,192,45406,1,0,0:0:0:0:
320,192,45731,1,2,0:0:0:0:
192,192,45893,1,0,0:0:0:0:
64,192,46055,1,2,0:0:0:0:
448,192,46055,128,0,47028:0:0:0:0:
320,192,46379,1,2,0:0:0:0:
64,192,46704,1,2,0:0:0:0:
192,192,46704,1,0,0:0:0:0:
320,192,47028,1,2,0:0:0:0:
192,192,47352,1,2,0:0:0:0:
448,192,47352,1,4,0:0:0:0:
320,192,47514,1,0,0:0:0:0:
64,192,47677,1,2,0:0:0:0:
448,192,47839,1,0,0:0:0:0:
64,192,48001,1,2,0:0:0:0:
192,192,48001,1,0,0:0:0:0:
320,192,48325,1,2,0:0:0:0:
192,192,48487,1,0,0:0:0:0:
64,192,48649,1,2,0:0:0:0:
448,192,48649,1,0,0:0:0:0:
320,192,48974,1,2,0:0:0:0:
192,192,49136,1,0,0:0:0:0:
64,192,49298,1,2,0:0:0:0:
448,192,49298,1,0,0:0:0:0:
320,192,49460,1,0,0:0:0:60:Hat.wav
192,192,49622,1,10,0:0:0:0:
320,192,49785,1,0,0:0:0:60:Hat.wav
64,192,49947,1,2,0:0:0:0:
448,192,49947,128,4,50271:0:0:0:0:
192,192,50271,1,2,0:0:0:0:
320,192,50433,1,0,0:0:0:0:
64,192,50595,128,2,51244:0:0:0:0:
448,192,50595,1,0,0:0:0:0:
192,192,50920,1,2,0:0:0:0:
320,192,51244,1,2,0:0:0:0:
448,192,51244,1,0,0:0:0:50:Rim.wav
192,192,51568,1,2,0:0:0:0:
320,192,51731,1,0,0:0:0:40:Tom1.wav
64,192,51893,1,2,0:0:0:0:
448,192,51893,1,0,0:0:0:0:
192,192,52055,1,0,0:0:0:40:Tom2.wav
64,192,52217,1,2,0:0:0:0:
320,192,52379,1,0,0:0:0:40:Tom3.wav
64,192,52541,1,2,0:0:0:0:
448,192,52541,1,4,0:0:0:0:
192,192,52704,1,0,0:0:0:0:
448,192,52866,1,2,0:0:0:0:
320,192,53028,1,0,0:0:0:0:
64,192,53190,1,2,0:0:0:0:
192,192,53190,1,0,0:0:0:0:
320,192,53514,1,2,0:0:0:0:
64,192,53677,1,0,0:0:0:0:
192,192,53839,1,2,0:0:0:0:
448,192,53839,1,0,0:0:0:0:
320,192,54163,1,2,0:0:0:0:
192,192,54325,1,0,0:0:0:50:Rim.wav
64,192,54487,1,2,0:0:0:0:
448,192,54487,1,0,0:0:0:0:
192,192,54649,1,0,0:0:0:50:Rim.wav
320,192,54812,1,2,0:0:0:0:
64,192,54974,1,0,0:0:0:60:Hat.wav
192,192,55136,1,2,0:0:0:0:
448,192,55136,128,4,55460:0:0:0:0:
320,192,55460,1,2,0:0:0:0:
192,192,55622,1,0,0:0:0:0:
64,192,55785,1,2,0:0:0:0:
448,192,55785,128,0,56109:0:0:0:0:
192,192,56109,1,2,0:0:0:0:
320,192,56271,1,0,0:0:0:0:
64,192,56433,128,2,56758:0:0:0:0:
192,192,56433,1,0,0:0:0:0:
320,192,56758,1,2,0:0:0:0:
64,192,57082,1,2,0:0:0:0:
192,192,57082,1,0,0:0:0:0:
448,192,57244,1,0,0:0:0:60:Hat.wav
320,192,57406,1,2,0:0:0:0:
64,192,57568,1,0,0:0:0:60:Hat.wav
192,192,57731,1,2,0:0:0:0:
448,192,57731,128,4,58055:0:0:0:0:
320,192,58055,1,2,0:0:0:0:
192,192,58379,1,2,0:0:0:0:
448,192,58379,1,0,0:0:0:0:
64,192,58541,1,0,0:0:0:50:Rim.wav
448,192,58704,1,2,0:0:0:0:
320,192,58866,1,0,0:0:0:0:
64,192,59028,1,2,0:0:0:0:
192,192,59028,1,0,0:0:0:0:
64,192,59352,1,2,0:0:0:0:
448,192,59352,1,0,0:0:0:0:
320,192,59677,1,2,0:0:0:0:
448,192,59677,1,0,0:0:0:0:
192,192,60001,1,2,0:0:0:0:
320,192,60163,1,0,0:0:0:60:Hat.wav
64,192,60325,1,2,0:0:0:0:
448,192,60325,1,4,0:0:0:0:
192,192,60487,1,0,0:0:0:0:
320,192,60649,128,2,61622:0:0:0:0:
448,192,60974,1,2,0:0:0:0:
192,192,61298,1,10,0:0:0:0:
64,192,61622,1,2,0:0:0:0:
448,192,61622,1,0,0:0:0:0:
192,192,61785,1,8,0:0:0:0:
448,192,61947,1,2,0:0:0:0:
64,192,62109,1,2,0:0:0:0:
320,192,62271,1,8,0:0:0:0:
448,192,62271,1,0,0:0:0:0:
192,192,62433,1,0,0:0:0:40:Tom1.wav
64,192,62595,1,0,0:0:0:40:Tom2.wav
320,192,62758,1,2,0:0:0:0:
64,192,62920,128,4,63244:0:0:0:0:
448,192,62920,1,2,0:0:0:0:
320,192,63406,1,0,0:0:0:50:Rim.wav
192,192,63568,1,0,0:0:0:0:
64,192,63731,1,2,0:0:0:0:
448,192,63893,1,0,0:0:0:50:Rim.wav
320,192,64055,1,0,0:0:0:0:
64,192,64217,1,2,0:0:0:0:
192,192,64217,1,0,0:0:0:50:Rim.wav
192,192,64541,1,0,0:0:0:0:
320,192,64704,1,0,0:0:0:50:Rim.wav
448,192,64866,1,0,0:0:0:0:
64,192,65028,1,2,0:0:0:0:
320,192,65190,1,8,0:0:0:0:
192,192,65352,1,0,0:0:0:40:Tom2.wav
64,192,65514,1,2,0:0:0:0:
448,192,65514,128,4,65839:0:0:0:0:
192,192,66001,1,0,0:0:0:50:Rim.wav
320,192,66163,1,0,0:0:0:0:
64,192,66325,1,2,0:0:0:0:
192,192,66487,1,0,0:0:0:50:Rim.wav
448,192,66649,1,0,0:0:0:0:
192,192,66812,1,2,0:0:0:0:
320,192,66812,1,0,0:0:0:50:Rim.wav
64,192,67136,1,0,0:0:0:0:
448,192,67298,1,0,0:0:0:50:Rim.wav
320,192,67460,1,0,0:0:0:0:
192,192,67622,1,2,0:0:0:0:
64,192,67785,1,8,0:0:0:0:
320,192,67947,1,0,0:0:0:40:Tom2.wav
64,192,68109,128,4,68433:0:0:0:0:
448,192,68109,1,2,0:0:0:0:
192,192,68595,1,0,0:0:0:50:Rim.wav
320,192,68758,128,0,69082:0:0:0:0:
64,192,69082,1,0,0:0:0:50:Rim.wav
192,192,69406,1,2,0:0:0:0:
448,192,69406,1,0,0:0:0:50:Rim.wav
320,192,69568,1,0,0:0:0:0:
64,192,69731,128,0,70055:0:0:0:0:
448,192,70055,128,0,70379:0:0:0:0:
64,192,70379,1,8,0:0:0:0:
192,192,70379,1,8,0:0:0:60:Hat.wav
320,192,70704,1,2,0:0:0:0:
448,192,70704,1,0,0:0:0:0:
64,192,70866,1,8,0:0:0:0:
64,192,71028,1,8,0:0:0:0:
320,192,71190,1,2,0:0:0:0:
64,192,71352,1,8,0:0:0:0:
192,192,71352,1,0,0:0:0:0:
448,192,71514,1,2,0:0:0:0:
320,192,71677,1,0,0:0:0:40:Tom2.wav
64,192,71839,1,2,0:0:0:0:
320,192,72001,1,8,0:0:0:0:
448,192,72001,1,0,0:0:0:40:Tom3.wav
64,192,72163,1,8,0:0:0:0:
192,192,72163,1,8,0:0:0:50:Hat Open.wav
64,192,72649,1,8,0:0:0:0:
192,192,72649,1,0,0:0:0:40:Tom3.wav
320,192,72812,1,8,0:0:0:0:
448,192,72812,1,8,0:0:0:50:Hat Open.wav
64,192,73298,1,2,0:0:0:0:
192,192,73298,1,4,0:0:0:0:
320,192,73460,1,0,0:0:0:0:
192,192,73622,1,10,0:0:0:0:
448,192,73622,1,0,0:0:0:60:Hat.wav
64,192,73785,1,0,0:0:0:0:
320,192,73947,128,2,74271:0:0:0:0:
64,192,74271,1,10,0:0:0:0:
448,192,74271,1,0,0:0:0:60:Hat.wav
192,192,74433,128,0,74758:0:0:0:0:
320,192,74758,1,0,0:0:0:0:
64,192,74920,1,10,0:0:0:0:
448,192,74920,1,0,0:0:0:60:Hat.wav
64,192,75244,128,2,75568:0:0:0:0:
192,192,75244,1,0,0:0:0:60:Hat.wav
320,192,75568,1,10,0:0:0:0:
448,192,75568,1,0,0:0:0:60:Hat.wav
320,192,75893,1,2,0:0:0:0:
192,192,76055,1,0,0:0:0:0:
64,192,76217,1,10,0:0:0:0:
448,192,76217,1,0,0:0:0:60:Hat.wav
320,192,76379,1,0,0:0:0:0:
192,192,76541,128,2,76704:0:0:0:0:
64,192,76866,1,10,0:0:0:0:
192,192,76866,1,0,0:0:0:60:Hat.wav
320,192,77028,1,0,0:0:0:0:
64,192,77190,1,2,0:0:0:0:
448,192,77352,1,0,0:0:0:0:
192,192,77514,1,10,0:0:0:0:
320,192,77514,1,0,0:0:0:60:Hat.wav
64,192,77677,1,0,0:0:0:0:
320,192,77839,128,2,78163:0:0:0:0:
64,192,78163,1,10,0:0:0:0:
448,192,78163,1,0,0:0:0:60:Hat.wav
192,192,78325,1,8,0:0:0:0:
320,192,78487,1,2,0:0:0:0:
448,192,78487,128,4,78812:0:0:0:0:
64,192,78812,1,10,0:0:0:0:
192,192,78812,1,0,0:0:0:60:Hat.wav
192,192,79136,128,2,79460:0:0:0:0:
64,192,79460,1,10,0:0:0:0:
448,192,79460,1,0,0:0:0:60:Hat.wav
320,192,79622,1,0,0:0:0:0:
64,192,79785,128,2,80109:0:0:0:0:
192,192,80109,1,10,0:0:0:0:
448,192,80109,128,0,80433:0:0:0:60:Hat.wav
192,192,80433,128,2,80758:0:0:0:0:
64,192,80758,128,10,81082:0:0:0:0:
448,192,80758,1,0,0:0:0:60:Hat.wav
320,192,81082,1,2,0:0:0:0:
448,192,81082,128,4,81406:0:0:0:0:
64,192,81406,1,10,0:0:0:0:
192,192,81406,1,0,0:0:0:60:Hat.wav
320,192,81568,1,0,0:0:0:0:
192,192,81731,128,2,82055:0:0:0:0:
64,192,82055,1,10,0:0:0:0:
448,192,82055,1,0,0:0:0:60:Hat.wav
320,192,82217,1,0,0:0:0:0:
64,192,82379,1,2,0:0:0:0:
192,192,82379,1,4,0:0:0:0:
448,192,82541,1,8,0:0:0:0:
320,192,82704,1,10,0:0:0:0:
64,192,82866,1,0,0:0:0:40:Tom1.wav
192,192,83028,1,2,0:0:0:0:
448,192,83190,1,0,0:0:0:40:Tom2.wav
64,192,83352,1,2,0:0:0:0:
320,192,83514,1,0,0:0:0:40:Tom3.wav
192,192,83595,1,0,0:0:0:40:Tom3.wav
64,192,83677,1,4,0:0:0:0:
448,192,83677,1,2,0:0:0:0:
320,192,83839,1,0,0:0:0:0:
64,192,84001,1,10,0:0:0:0:
192,192,84001,1,4,0:0:0:0:
448,192,84163,1,0,0:0:0:0:
320,192,84325,128,2,84487:0:0:0:0:
64,192,84649,1,10,0:0:0:0:
320,192,84649,1,0,0:0:0:60:Hat.wav
448,192,84812,128,0,85136:0:0:0:0:
64,192,85136,1,0,0:0:0:0:
192,192,85298,1,10,0:0:0:0:
320,192,85298,1,0,0:0:0:60:Hat.wav
64,192,85622,128,2,85947:0:0:0:0:
448,192,85622,1,0,0:0:0:60:Hat.wav
320,192,85947,1,10,0:0:0:0:
448,192,85947,1,0,0:0:0:60:Hat.wav
64,192,86271,1,2,0:0:0:0:
192,192,86271,1,4,0:0:0:0:
320,192,86433,1,0,0:0:0:0:
64,192,86595,1,10,0:0:0:0:
448,192,86595,1,0,0:0:0:60:Hat.wav
192,192,86758,1,0,0:0:0:0:
320,192,86920,128,2,87082:0:0:0:0:
64,192,87244,1,10,0:0:0:0:
192,192,87244,1,0,0:0:0:60:Hat.wav
448,192,87406,128,0,87731:0:0:0:0:
192,192,87731,1,0,0:0:0:0:
64,192,87893,1,10,0:0:0:0:
320,192,87893,1,0,0:0:0:60:Hat.wav
448,192,88217,1,2,0:0:0:0:
64,192,88379,1,0,0:0:0:0:
192,192,88541,1,2,0:0:0:0:
320,192,88541,128,8,88704:0:0:0:0:
448,192,88704,128,8,88866:0:0:0:0:
64,192,88866,128,4,89190:0:0:0:0:
192,192,88866,1,2,0:0:0:0:
320,192,89190,1,10,0:0:0:0:
448,192,89190,1,0,0:0:0:60:Hat.wav
64,192,89514,1,2,0:0:0:0:
448,192,89677,1,0,0:0:0:0:
192,192,89839,1,10,0:0:0:0:
320,192,89839,1,0,0:0:0:60:Hat.wav
64,192,90001,1,0,0:0:0:0:
320,192,90163,1,2,0:0:0:0:
448,192,90163,128,0,90487:0:0:0:60:Hat.wav
64,192,90487,1,10,0:0:0:0:
192,192,90487,1,0,0:0:0:60:Hat.wav
320,192,90649,1,0,0:0:0:0:
64,192,90812,1,2,0:0:0:0:
448,192,90974,1,0,0:0:0:0:
64,192,91136,1,10,0:0:0:0:
192,192,91136,128,0,91785:0:0:0:60:Hat.wav
320,192,91460,1,2,0:0:0:0:
448,192,91460,1,4,0:0:0:0:
64,192,91785,1,10,0:0:0:0:
448,192,91785,1,0,0:0:0:60:Hat.wav
320,192,91947,1,0,0:0:0:0:
192,192,92109,1,2,0:0:0:0:
448,192,92271,1,0,0:0:0:0:
192,192,92433,1,10,0:0:0:0:
320,192,92433,1,0,0:0:0:60:Hat.wav
64,192,92595,1,0,0:0:0:0:
320,192,92758,1,2,0:0:0:0:
192,192,92920,1,0,0:0:0:0:
64,192,93082,1,10,0:0:0:0:
448,192,93082,1,4,0:0:0:0:
64,192,93406,1,2,0:0:0:0:
320,192,93568,1,8,0:0:0:0:
192,192,93731,1,10,0:0:0:0:
448,192,93893,1,0,0:0:0:40:Tom2.wav
64,192,94055,1,4,0:0:0:0:
192,192,94055,128,2,94379:0:0:0:0:
320,192,94541,1,2,0:0:0:0:
64,192,94704,1,8,0:0:0:0:
448,192,94866,1,0,0:0:0:40:Tom2.wav
192,192,95028,1,0,0:0:0:40:Tom3.wav
64,192,95190,1,2,0:0:0:0:
320,192,95352,1,8,0:0:0:0:
448,192,95352,128,0,95677:0:0:0:40:Tom1.wav
64,192,95677,1,8,0:0:0:0:
192,192,95677,1,4,0:0:0:0:
320,192,95839,1,0,0:0:0:0:
64,192,96001,1,0,0:0:0:0:
192,192,96163,1,0,0:0:0:0:
320,192,96325,128,0,96649:0:0:0:0:
64,192,96649,1,4,0:0:0:0:
448,192,96649,1,2,0:0:0:0:
192,192,96974,1,0,0:0:0:0:
64,192,97136,1,0,0:0:0:50:Rim.wav
320,192,97298,1,0,0:0:0:0:
64,192,97460,1,0,0:0:0:50:Rim.wav
448,192,97622,128,0,97947:0:0:0:50:Rim.wav
64,192,97947,1,0,0:0:0:50:Rim.wav
192,192,97947,1,0,0:0:0:0:
320,192,98271,1,0,0:0:0:0:
192,192,98433,1,0,0:0:0:50:Rim.wav
448,192,98595,1,0,0:0:0:0:
192,192,98758,1,0,0:0:0:50:Rim.wav
64,192,98920,128,0,99244:0:0:0:50:Rim.wav
320,192,99244,1,4,0:0:0:30:soft-hitfinish.wav
448,192,99244,1,0,0:0:0:0:
192,192,99568,1,0,0:0:0:0:
320,192,99731,1,0,0:0:0:0:
64,192,99893,1,0,0:0:0:0:
320,192,100055,1,0,0:0:0:50:Rim.wav
448,192,100217,128,0,100541:0:0:0:50:Rim.wav
64,192,100541,1,0,0:0:0:50:Rim.wav
192,192,100541,1,0,0:0:0:0:
320,192,100704,1,0,0:0:0:0:
64,192,101028,128,0,101352:0:0:0:50:Rim.wav
448,192,101028,1,0,0:0:0:0:
320,192,101352,1,0,0:0:0:50:Rim.wav
192,192,101514,1,2,0:0:0:0:
64,192,101677,1,0,0:0:0:0:
320,192,101839,1,4,0:0:0:0:
448,192,101839,1,2,0:0:0:0:
192,192,102163,1,2,0:0:0:0:
320,192,102325,128,0,102649:0:0:0:0:
64,192,102487,1,2,0:0:0:0:
448,192,102649,1,0,0:0:0:50:Rim.wav
192,192,102812,128,2,103136:0:0:0:0:
64,192,103136,1,2,0:0:0:0:
448,192,103136,1,0,0:0:0:0:
320,192,103460,1,2,0:0:0:0:
448,192,103622,128,0,103947:0:0:0:0:
192,192,103785,1,2,0:0:0:0:
320,192,103947,1,0,0:0:0:50:Rim.wav
64,192,104109,128,2,104433:0:0:0:0:
192,192,104271,1,0,0:0:0:0:
320,192,104433,1,4,0:0:0:0:
448,192,104433,1,2,0:0:0:0:
448,192,104758,1,2,0:0:0:0:
192,192,104920,128,0,105244:0:0:0:0:
320,192,105082,1,2,0:0:0:0:
64,192,105244,1,0,0:0:0:50:Rim.wav
448,192,105406,1,2,0:0:0:0:
320,192,105568,1,0,0:0:0:0:
64,192,105731,1,2,0:0:0:0:
192,192,105731,1,8,0:0:0:0:
64,192,106055,1,12,0:0:0:0:
448,192,106055,1,2,0:0:0:0:
320,192,106217,1,8,0:0:0:0:
192,192,106379,1,10,0:0:0:0:
448,192,106541,1,0,0:0:0:40:Tom2.wav
64,192,106704,1,2,0:0:0:0:
320,192,106866,1,0,0:0:0:40:Tom3.wav
192,192,106947,1,0,0:0:0:40:Tom3.wav
64,192,107028,1,4,0:0:0:0:
448,192,107028,1,2,0:0:0:0:
320,192,107190,1,0,0:0:0:0:
192,192,107352,1,2,0:0:0:0:
448,192,107514,1,0,0:0:0:0:
64,192,107677,1,2,0:0:0:0:
320,192,107677,1,0,0:0:0:0:
192,192,108001,1,2,0:0:0:0:
320,192,108163,1,0,0:0:0:0:
64,192,108325,1,2,0:0:0:0:
448,192,108325,1,0,0:0:0:0:
320,192,108649,1,2,0:0:0:0:
192,192,108812,1,0,0:0:0:50:Rim.wav
64,192,108974,1,2,0:0:0:0:
320,192,108974,1,0,0:0:0:0:
448,192,109136,1,0,0:0:0:50:Rim.wav
192,192,109298,1,2,0:0:0:0:
320,192,109460,1,0,0:0:0:0:
64,192,109622,1,2,0:0:0:0:
448,192,109622,128,4,109947:0:0:0:0:
192,192,109947,1,2,0:0:0:0:
64,192,110109,1,0,0:0:0:50:Rim.wav
320,192,110271,1,2,0:0:0:0:
448,192,110271,128,0,110595:0:0:0:0:
192,192,110595,1,2,0:0:0:0:
320,192,110758,1,0,0:0:0:0:
64,192,110920,128,2,111893:0:0:0:0:
448,192,110920,1,0,0:0:0:50:Rim.wav
192,192,111244,1,2,0:0:0:0:
320,192,111568,1,2,0:0:0:0:
448,192,111568,1,0,0:0:0:0:
192,192,111893,1,2,0:0:0:0:
64,192,112217,1,2,0:0:0:0:
448,192,112217,1,4,0:0:0:0:
192,192,112379,1,0,0:0:0:0:
320,192,112541,1,2,0:0:0:0:
64,192,112704,1,0,0:0:0:50:Rim.wav
192,192,112866,1,2,0:0:0:0:
448,192,112866,1,0,0:0:0:0:
320,192,113190,1,2,0:0:0:0:
192,192,113352,1,0,0:0:0:0:
64,192,113514,1,2,0:0:0:0:
448,192,113514,1,0,0:0:0:0:
192,192,113839,1,2,0:0:0:0:
320,192,114001,1,0,0:0:0:50:Rim.wav
192,192,114163,1,2,0:0:0:0:
448,192,114163,1,0,0:0:0:0:
64,192,114325,1,0,0:0:0:50:Rim.wav
320,192,114487,1,2,0:0:0:0:
192,192,114649,1,0,0:0:0:0:
64,192,114812,1,2,0:0:0:0:
448,192,114812,128,4,115136:0:0:0:0:
192,192,115136,1,2,0:0:0:0:
320,192,115298,1,0,0:0:0:50:Rim.wav
64,192,115460,128,2,116433:0:0:0:0:
448,192,115460,1,0,0:0:0:0:
192,192,115785,1,2,0:0:0:0:
320,192,116109,1,2,0:0:0:0:
448,192,116109,1,0,0:0:0:50:Rim.wav
448,192,116433,1,2,0:0:0:0:
192,192,116758,1,2,0:0:0:0:
320,192,116758,1,0,0:0:0:30:Ride.wav
64,192,117082,1,2,0:0:0:0:
64,192,117406,1,2,0:0:0:0:
192,192,117406,1,4,0:0:0:0:
448,192,117568,1,0,0:0:0:0:
320,192,117731,1,2,0:0:0:0:
64,192,117893,1,0,0:0:0:0:
192,192,118055,1,2,0:0:0:0:
448,192,118055,1,0,0:0:0:0:
320,192,118379,1,2,0:0:0:0:
448,192,118541,1,8,0:0:0:20:soft-hitclap.wav
64,192,118704,1,2,0:0:0:0:
192,192,118704,1,0,0:0:0:0:
320,192,119028,1,2,0:0:0:0:
192,192,119190,1,8,0:0:0:20:soft-hitclap.wav
64,192,119352,1,2,0:0:0:0:
448,192,119352,1,0,0:0:0:0:
320,192,119514,1,8,0:0:0:20:soft-hitclap.wav
64,192,119677,1,2,0:0:0:0:
192,192,119839,1,8,0:0:0:20:soft-hitclap.wav
320,192,120001,128,2,120325:0:0:0:0:
448,192,120001,1,4,0:0:0:0:
64,192,120325,1,2,0:0:0:0:
192,192,120487,1,8,0:0:0:35:soft-hitclap.wav
320,192,120649,128,2,120974:0:0:0:0:
448,192,120649,1,0,0:0:0:0:
64,192,120974,1,2,0:0:0:0:
448,192,121136,1,8,0:0:0:35:soft-hitclap.wav
64,192,121298,1,2,0:0:0:0:
192,192,121298,128,0,121622:0:0:0:0:
320,192,121622,1,2,0:0:0:0:
64,192,121947,1,2,0:0:0:0:
192,192,121947,1,0,0:0:0:0:
448,192,122109,1,8,0:0:0:35:soft-hitclap.wav
320,192,122271,1,2,0:0:0:0:
192,192,122433,1,0,0:0:0:0:
64,192,122595,128,2,122920:0:0:0:0:
448,192,122595,1,4,0:0:0:0:
192,192,122920,1,2,0:0:0:0:
320,192,123244,1,2,0:0:0:0:
448,192,123244,1,0,0:0:0:0:
64,192,123406,1,0,0:0:0:50:Rim.wav
192,192,123568,1,2,0:0:0:0:
320,192,123731,1,0,0:0:0:0:
64,192,123893,1,2,0:0:0:0:
448,192,123893,128,8,124217:0:0:0:35:soft-hitclap.wav
192,192,124217,1,2,0:0:0:0:
320,192,124217,1,0,0:0:0:0:
64,192,124541,1,2,0:0:0:0:
320,192,124541,1,0,0:0:0:0:
192,192,124866,1,2,0:0:0:0:
320,192,125028,1,0,0:0:0:0:
192,192,125190,1,2,0:0:0:0:
448,192,125190,1,4,0:0:0:0:
64,192,125352,1,0,0:0:0:0:
320,192,125514,128,2,126487:0:0:0:0:
448,192,125839,1,2,0:0:0:0:
192,192,126163,1,10,0:0:0:0:
64,192,126487,1,2,0:0:0:0:
448,192,126487,1,0,0:0:0:60:Hat.wav
192,192,126812,1,2,0:0:0:0:
320,192,126974,1,8,0:0:0:0:
64,192,127136,1,8,0:0:0:0:
192,192,127136,1,0,0:0:0:0:
448,192,127298,1,0,0:0:0:40:Tom1.wav
192,192,127460,1,0,0:0:0:40:Tom2.wav
64,192,127622,1,0,0:0:0:40:Tom3.wav
320,192,127785,1,4,0:0:0:0:
448,192,127785,128,2,128109:0:0:0:0:
192,192,128109,1,0,0:0:0:0:
320,192,128271,1,0,0:0:0:0:
64,192,128433,128,0,128758:0:0:0:0:
448,192,128758,1,0,0:0:0:50:Rim.wav
192,192,128920,1,0,0:0:0:0:
320,192,129082,1,2,0:0:0:0:
448,192,129082,1,0,0:0:0:50:Rim.wav
64,192,129244,1,0,0:0:0:0:
192,192,129406,128,0,129731:0:0:0:0:
64,192,130055,1,8,0:0:0:0:
448,192,130055,1,0,0:0:0:0:
320,192,130217,1,0,0:0:0:0:
64,192,130379,128,2,130704:0:0:0:0:
192,192,130379,1,0,0:0:0:60:Hat.wav
448,192,130866,1,0,0:0:0:50:Rim.wav
320,192,131028,128,0,131514:0:0:0:0:
64,192,131514,1,0,0:0:0:0:
192,192,131677,1,2,0:0:0:0:
448,192,131677,1,0,0:0:0:50:Rim.wav
320,192,131839,1,0,0:0:0:0:
192,192,132001,128,0,132325:0:0:0:0:
320,192,132649,1,8,0:0:0:0:
448,192,132649,1,0,0:0:0:0:
192,192,132812,1,0,0:0:0:0:
64,192,132974,1,2,0:0:0:0:
448,192,132974,128,0,133298:0:0:0:60:Hat.wav
192,192,133460,1,0,0:0:0:50:Rim.wav
64,192,133622,128,0,133947:0:0:0:0:
320,192,133947,1,0,0:0:0:50:Rim.wav
192,192,134271,1,2,0:0:0:0:
448,192,134271,128,0,134595:0:0:0:50:Rim.wav
64,192,134595,128,0,134920:0:0:0:0:
320,192,134920,1,0,0:0:0:0:
192,192,135082,1,2,0:0:0:0:
64,192,135244,1,8,0:0:0:0:
448,192,135244,1,0,0:0:0:40:Tom2.wav
64,192,135568,1,2,0:0:0:0:
192,192,135568,1,0,0:0:0:60:Hat.wav
320,192,135731,1,8,0:0:0:0:
320,192,135893,1,8,0:0:0:0:
64,192,136055,1,2,0:0:0:0:
320,192,136217,1,8,0:0:0:0:
448,192,136217,1,0,0:0:0:0:
192,192,136379,1,0,0:0:0:0:
448,192,136541,1,0,0:0:0:40:Tom3.wav
320,192,136704,1,0,0:0:0:0:
64,192,136866,1,8,0:0:0:0:
192,192,136866,1,0,0:0:0:40:Tom3.wav
320,192,137028,1,8,0:0:0:0:
448,192,137028,1,0,0:0:0:40:Tom3.wav
320,192,137514,1,8,0:0:0:0:
448,192,137514,1,0,0:0:0:40:Tom3.wav
64,192,137677,1,8,0:0:0:0:
192,192,137677,1,0,0:0:0:40:Tom3.wav
320,192,138163,1,4,0:0:0:0:
448,192,138163,1,2,0:0:0:0:
192,192,138325,1,0,0:0:0:0:
64,192,138487,1,10,0:0:0:0:
320,192,138487,1,0,0:0:0:60:Hat.wav
448,192,138649,1,0,0:0:0:0:
192,192,138812,128,2,139136:0:0:0:0:
64,192,139136,1,10,0:0:0:0:
448,192,139136,1,0,0:0:0:60:Hat.wav
320,192,139298,128,0,139622:0:0:0:0:
192,192,139622,1,0,0:0:0:0:
64,192,139785,1,10,0:0:0:0:
448,192,139785,1,0,0:0:0:60:Hat.wav
320,192,140109,1,2,0:0:0:0:
448,192,140109,128,0,140433:0:0:0:60:Hat.wav
64,192,140433,1,10,0:0:0:0:
192,192,140433,1,0,0:0:0:60:Hat.wav
192,192,140758,1,6,0:0:0:0:
448,192,140920,1,0,0:0:0:0:
64,192,141082,1,10,0:0:0:0:
320,192,141082,1,0,0:0:0:60:Hat.wav
192,192,141244,1,0,0:0:0:0:
448,192,141406,128,2,141568:0:0:0:0:
320,192,141731,1,10,0:0:0:0:
448,192,141731,1,0,0:0:0:60:Hat.wav
64,192,141893,128,0,142217:0:0:0:0:
320,192,142217,1,0,0:0:0:0:
64,192,142379,1,10,0:0:0:0:
192,192,142379,1,0,0:0:0:60:Hat.wav
448,192,142541,1,0,0:0:0:0:
320,192,142704,128,2,143028:0:0:0:0:
64,192,143028,1,10,0:0:0:0:
448,192,143028,1,0,0:0:0:60:Hat.wav
320,192,143190,1,8,0:0:0:0:
64,192,143352,128,4,143677:0:0:0:0:
192,192,143352,1,2,0:0:0:0:
320,192,143677,1,10,0:0:0:0:
448,192,143677,1,0,0:0:0:60:Hat.wav
320,192,144001,128,2,144163:0:0:0:0:
64,192,144325,1,10,0:0:0:0:
448,192,144325,1,0,0:0:0:60:Hat.wav
192,192,144487,1,0,0:0:0:0:
320,192,144649,128,2,144974:0:0:0:0:
64,192,144974,128,10,145298:0:0:0:0:
448,192,144974,1,0,0:0:0:60:Hat.wav
192,192,145298,128,2,145622:0:0:0:0:
320,192,145622,1,10,0:0:0:0:
448,192,145622,128,0,145947:0:0:0:60:Hat.wav
64,192,145947,128,2,146271:0:0:0:0:
192,192,145947,1,4,0:0:0:0:
320,192,146271,1,10,0:0:0:0:
448,192,146271,1,0,0:0:0:60:Hat.wav
192,192,146433,1,0,0:0:0:0:
448,192,146595,128,2,146920:0:0:0:0:
64,192,146920,1,10,0:0:0:0:
320,192,146920,1,0,0:0:0:60:Hat.wav
192,192,147082,1,0,0:0:0:0:
320,192,147244,1,2,0:0:0:0:
448,192,147244,1,4,0:0:0:0:
64,192,147406,1,8,0:0:0:0:
448,192,147568,1,10,0:0:0:0:
192,192,147731,1,8,0:0:0:0:
320,192,147893,1,10,0:0:0:0:
64,192,148055,1,8,0:0:0:0:
448,192,148217,1,10,0:0:0:0:
192,192,148379,1,0,0:0:0:40:Tom3.wav
320,192,148460,1,0,0:0:0:40:Tom3.wav
64,192,148541,1,4,0:0:0:0:
448,192,148541,1,2,0:0:0:0:
320,192,148704,1,0,0:0:0:0:
64,192,148866,1,10,0:0:0:0:
192,192,148866,1,0,0:0:0:60:Hat.wav
448,192,149028,1,0,0:0:0:0:
320,192,149190,128,2,149352:0:0:0:0:
64,192,149514,1,10,0:0:0:0:
320,192,149514,1,0,0:0:0:60:Hat.wav
192,192,149677,1,0,0:0:0:0:
448,192,149839,1,2,0:0:0:0:
320,192,150001,1,0,0:0:0:0:
64,192,150163,128,10,150325:0:0:0:0:
192,192,150163,1,0,0:0:0:60:Hat.wav
320,192,150487,1,2,0:0:0:0:
448,192,150487,128,0,150812:0:0:0:60:Hat.wav
64,192,150812,1,10,0:0:0:0:
192,192,150812,1,0,0:0:0:60:Hat.wav
320,192,150974,1,8,0:0:0:0:
64,192,151136,1,2,0:0:0:0:
448,192,151136,1,4,0:0:0:0:
192,192,151298,1,0,0:0:0:0:
320,192,151460,1,10,0:0:0:0:
448,192,151460,1,0,0:0:0:60:Hat.wav
64,192,151622,1,0,0:0:0:0:
320,192,151785,128,2,152109:0:0:0:0:
192,192,152109,1,10,0:0:0:0:
448,192,152109,1,0,0:0:0:60:Hat.wav
64,192,152271,128,0,152595:0:0:0:0:
192,192,152595,1,0,0:0:0:0:
320,192,152758,1,10,0:0:0:0:
448,192,152758,1,0,0:0:0:60:Hat.wav
64,192,153082,1,2,0:0:0:0:
448,192,153244,1,0,0:0:0:0:
192,192,153406,1,10,0:0:0:0:
320,192,153406,1,0,0:0:0:60:Hat.wav
64,192,153568,1,0,0:0:0:0:
320,192,153731,1,4,0:0:0:0:
448,192,153731,128,2,154055:0:0:0:0:
64,192,154055,1,8,0:0:0:0:
192,192,154055,1,0,0:0:0:40:Tom1.wav
320,192,154217,1,2,0:0:0:0:
64,192,154379,1,0,0:0:0:40:Tom2.wav
448,192,154379,1,0,0:0:0:0:
192,192,154541,1,2,0:0:0:0:
320,192,154704,1,0,0:0:0:40:Tom3.wav
448,192,154704,1,0,0:0:0:0:
192,192,154866,1,2,0:0:0:0:
64,192,155028,128,0,155352:0:0:0:40:Tom3.wav
448,192,155028,1,0,0:0:0:0:
320,192,155352,1,8,0:0:0:0:
448,192,155352,1,4,0:0:0:0:
192,192,155514,1,0,0:0:0:0:
320,192,155677,1,0,0:0:0:0:
64,192,155839,1,0,0:0:0:0:
192,192,156001,1,0,0:0:0:0:
320,192,156001,128,0,156325:0:0:0:0:
64,192,156325,1,4,0:0:0:0:
448,192,156325,128,2,156649:0:0:0:0:
192,192,156812,128,0,156974:0:0:0:0:
64,192,156974,128,0,157785:0:0:0:0:
320,192,158271,128,0,158595:0:0:0:0:
448,192,158595,128,0,158920:0:0:0:50:Rim.wav
192,192,158920,128,4,159406:0:0:0:30:soft-hitfinish.wav
320,192,159406,128,0,159568:0:0:0:50:Rim.wav
64,192,159568,128,0,159893:0:0:0:0:
192,192,159893,128,0,160055:0:0:0:50:Rim.wav
448,192,160055,128,0,160217:0:0:0:0:
320,192,160217,128,0,160541:0:0:0:50:Rim.wav
64,192,160866,128,0,161028:0:0:0:30:Ride.wav
448,192,161028,128,0,161190:0:0:0:50:Rim.wav
192,192,161190,128,0,161352:0:0:0:50:Rim.wav
64,192,161352,128,0,161514:0:0:0:0:
320,192,161514,128,4,161839:0:0:0:0:
192,192,162001,128,0,162163:0:0:0:50:Rim.wav
448,192,162163,128,0,162974:0:0:0:0:
64,192,163460,128,0,163785:0:0:0:50:Rim.wav
192,192,163785,128,0,164109:0:0:0:50:Rim.wav
448,192,164109,128,4,164595:0:0:0:0:
320,192,164595,128,0,164758:0:0:0:50:Rim.wav
64,192,164758,128,0,165082:0:0:0:0:
448,192,165244,128,0,165406:0:0:0:0:
320,192,165406,1,2,0:0:0:0:
64,192,165568,1,8,0:0:0:0:
192,192,165568,1,0,0:0:0:0:
448,192,165731,1,2,0:0:0:0:
192,192,166055,1,0,0:0:0:40:Tom2.wav
320,192,166298,1,0,0:0:0:40:Tom2.wav
192,192,166541,1,0,0:0:0:40:Tom3.wav
64,192,166704,1,2,0:0:0:0:
448,192,166704,1,4,0:0:0:0:
320,192,166947,1,2,0:0:0:0:
320,192,167190,1,2,0:0:0:0:
64,192,167352,1,8,0:0:0:0:
448,192,167352,128,0,168325:0:0:0:30:Ride.wav
192,192,167677,1,0,0:0:0:50:Rim.wav
320,192,167839,1,0,0:0:0:0:
64,192,168001,1,2,0:0:0:0:
192,192,168325,1,0,0:0:0:30:Ride.wav
320,192,168487,1,2,0:0:0:0:
64,192,168649,128,8,169298:0:0:0:0:
448,192,168649,1,0,0:0:0:30:Ride.wav
192,192,168974,128,0,169298:0:0:0:30:Ride.wav
320,192,169298,1,4,0:0:0:0:
448,192,169298,1,2,0:0:0:0:
192,192,169541,1,2,0:0:0:0:
192,192,169785,1,2,0:0:0:0:
64,192,169947,1,8,0:0:0:0:
448,192,169947,128,0,170433:0:0:0:30:Ride.wav
320,192,170433,1,0,0:0:0:0:
192,192,170595,1,2,0:0:0:0:
64,192,170758,1,8,0:0:0:0:
448,192,170758,1,0,0:0:0:50:Rim.wav
192,192,171082,1,2,0:0:0:0:
320,192,171244,1,8,0:0:0:0:
448,192,171244,1,0,0:0:0:30:Ride.wav
64,192,171568,1,2,0:0:0:0:
192,192,171731,1,8,0:0:0:0:
64,192,171893,1,4,0:0:0:0:
448,192,171893,1,2,0:0:0:0:
320,192,172136,1,2,0:0:0:0:
320,192,172379,1,2,0:0:0:0:
64,192,172541,128,8,173514:0:0:0:0:
448,192,172541,1,0,0:0:0:30:Ride.wav
320,192,172866,1,0,0:0:0:30:Ride.wav
192,192,173028,1,0,0:0:0:50:Rim.wav
448,192,173190,1,2,0:0:0:0:
320,192,173514,1,0,0:0:0:30:Ride.wav
192,192,173677,1,2,0:0:0:0:
64,192,173839,1,8,0:0:0:0:
448,192,173839,128,0,174163:0:0:0:30:Ride.wav
320,192,174163,128,0,174487:0:0:0:30:Ride.wav
64,192,174487,128,4,174974:0:0:0:0:
448,192,174487,1,2,0:0:0:0:
320,192,174974,1,2,0:0:0:0:
192,192,175136,1,8,0:0:0:0:
448,192,175136,128,0,176920:0:0:0:30:Ride.wav
320,192,175785,1,2,0:0:0:0:
64,192,175947,1,8,0:0:0:0:
192,192,176271,1,2,0:0:0:0:
64,192,176433,1,12,0:0:0:0:
320,192,176677,1,12,0:0:0:0:
64,192,176920,1,4,0:0:0:0:
192,192,176920,1,8,0:0:0:0:
320,192,177082,128,0,177244:0:0:0:0:
448,192,177244,128,0,177406:0:0:0:0:
64,192,177406,128,0,177568:0:0:0:0:
192,192,177568,128,0,177731:0:0:0:0:
320,192,177731,128,0,178055:0:0:0:0:
64,192,178055,1,0,0:0:0:0:
192,192,178217,128,0,178541:0:0:0:0:
448,192,178541,1,0,0:0:0:0:
64,192,178704,128,0,178866:0:0:0:0:
320,192,178866,128,0,179028:0:0:0:0:
192,192,179028,128,0,179352:0:0:0:0:
64,192,179352,1,8,0:0:0:0:
448,192,179352,1,0,0:0:0:40:Tom2.wav
320,192,179677,1,4,0:0:0:0:
448,192,179677,1,2,0:0:0:0:
192,192,179839,1,0,0:0:0:0:
64,192,180001,1,10,0:0:0:0:
320,192,180001,1,0,0:0:0:60:Hat.wav
448,192,180163,1,0,0:0:0:0:
192,192,180325,128,2,180649:0:0:0:0:
64,192,180649,1,10,0:0:0:0:
448,192,180649,1,0,0:0:0:60:Hat.wav
320,192,180812,128,0,181136:0:0:0:0:
192,192,181136,1,0,0:0:0:0:
64,192,181298,1,10,0:0:0:0:
448,192,181298,1,0,0:0:0:60:Hat.wav
320,192,181622,1,2,0:0:0:0:
448,192,181622,128,0,181947:0:0:0:60:Hat.wav
64,192,181947,1,10,0:0:0:0:
192,192,181947,1,0,0:0:0:60:Hat.wav
64,192,182271,1,4,0:0:0:0:
448,192,182271,1,2,0:0:0:0:
320,192,182433,1,0,0:0:0:0:
64,192,182595,1,10,0:0:0:0:
192,192,182595,1,0,0:0:0:60:Hat.wav
320,192,182758,1,0,0:0:0:0:
448,192,182920,128,2,183082:0:0:0:0:
320,192,183244,1,10,0:0:0:0:
448,192,183244,1,0,0:0:0:60:Hat.wav
64,192,183406,1,0,0:0:0:0:
192,192,183568,1,2,0:0:0:0:
320,192,183731,1,0,0:0:0:0:
64,192,183893,1,10,0:0:0:0:
448,192,183893,1,0,0:0:0:60:Hat.wav
192,192,184055,1,0,0:0:0:0:
64,192,184217,128,2,184379:0:0:0:0:
448,192,184379,128,8,184541:0:0:0:0:
64,192,184541,1,2,0:0:0:0:
192,192,184541,128,8,184704:0:0:0:0:
320,192,184704,128,8,184866:0:0:0:0:
64,192,184866,128,4,185190:0:0:0:0:
448,192,184866,1,2,0:0:0:0:
320,192,185190,1,10,0:0:0:0:
448,192,185190,1,0,0:0:0:60:Hat.wav
320,192,185514,128,2,185839:0:0:0:0:
64,192,185839,1,10,0:0:0:0:
192,192,185839,1,0,0:0:0:60:Hat.wav
448,192,186001,1,0,0:0:0:0:
192,192,186163,128,2,186487:0:0:0:0:
64,192,186487,1,10,0:0:0:0:
448,192,186487,128,0,186812:0:0:0:60:Hat.wav
320,192,186812,128,2,187136:0:0:0:0:
64,192,187136,128,10,187460:0:0:0:0:
448,192,187136,1,0,0:0:0:60:Hat.wav
192,192,187460,128,2,187785:0:0:0:0:
320,192,187460,1,4,0:0:0:0:
64,192,187785,1,10,0:0:0:0:
448,192,187785,1,0,0:0:0:60:Hat.wav
320,192,187947,1,0,0:0:0:0:
64,192,188109,128,2,188433:0:0:0:0:
320,192,188433,1,8,0:0:0:0:
448,192,188433,1,2,0:0:0:0:
192,192,188595,1,8,0:0:0:0:
64,192,188758,1,2,0:0:0:0:
448,192,188758,1,8,0:0:0:0:
320,192,188920,1,8,0:0:0:0:
192,192,189082,1,10,0:0:0:0:
320,192,189244,1,8,0:0:0:0:
64,192,189406,1,2,0:0:0:0:
192,192,189568,1,0,0:0:0:40:Tom1.wav
448,192,189731,1,2,0:0:0:0:
320,192,189893,1,0,0:0:0:40:Tom3.wav
192,192,189974,1,0,0:0:0:40:Tom3.wav
64,192,190055,1,4,0:0:0:0:
448,192,190055,1,2,0:0:0:0:
320,192,190217,1,0,0:0:0:0:
192,192,190379,1,6,0:0:0:0:
448,192,190379,1,8,0:0:0:0:
64,192,190541,1,0,0:0:0:0:
320,192,190704,128,2,190866:0:0:0:0:
64,192,191028,1,10,0:0:0:0:
320,192,191028,1,0,0:0:0:60:Hat.wav
448,192,191190,1,0,0:0:0:0:
192,192,191352,1,2,0:0:0:0:
320,192,191514,1,0,0:0:0:0:
64,192,191677,128,10,191839:0:0:0:0:
448,192,191677,1,0,0:0:0:60:Hat.wav
320,192,192001,128,2,192325:0:0:0:0:
448,192,192001,1,0,0:0:0:60:Hat.wav
64,192,192325,1,10,0:0:0:0:
192,192,192325,1,0,0:0:0:60:Hat.wav
64,192,192649,1,2,0:0:0:0:
448,192,192649,1,4,0:0:0:0:
192,192,192812,1,0,0:0:0:0:
320,192,192974,1,10,0:0:0:0:
448,192,192974,1,0,0:0:0:60:Hat.wav
64,192,193136,1,0,0:0:0:0:
192,192,193298,128,2,193460:0:0:0:0:
192,192,193622,1,10,0:0:0:0:
320,192,193622,1,0,0:0:0:60:Hat.wav
448,192,193785,128,0,194109:0:0:0:0:
320,192,194109,1,0,0:0:0:0:
64,192,194271,1,10,0:0:0:0:
192,192,194271,1,0,0:0:0:60:Hat.wav
448,192,194595,1,2,0:0:0:0:
64,192,194758,1,8,0:0:0:0:
192,192,194920,1,8,0:0:0:0:
320,192,194920,128,2,195082:0:0:0:0:
448,192,195082,128,8,195244:0:0:0:0:
64,192,195244,128,4,195568:0:0:0:0:
192,192,195244,1,2,0:0:0:0:
320,192,195568,1,10,0:0:0:0:
448,192,195568,1,0,0:0:0:60:Hat.wav
192,192,195893,1,2,0:0:0:0:
448,192,196055,1,0,0:0:0:0:
192,192,196217,1,10,0:0:0:0:
320,192,196217,1,0,0:0:0:60:Hat.wav
64,192,196379,1,0,0:0:0:0:
320,192,196541,1,2,0:0:0:0:
448,192,196541,128,0,196866:0:0:0:60:Hat.wav
64,192,196866,1,10,0:0:0:0:
192,192,196866,1,0,0:0:0:60:Hat.wav
320,192,197028,1,0,0:0:0:0:
448,192,197190,1,2,0:0:0:0:
64,192,197352,1,0,0:0:0:0:
320,192,197514,128,10,198163:0:0:0:0:
448,192,197514,1,0,0:0:0:60:Hat.wav
64,192,197839,1,2,0:0:0:0:
192,192,197839,1,4,0:0:0:0:
64,192,198163,1,10,0:0:0:0:
448,192,198163,1,0,0:0:0:60:Hat.wav
320,192,198487,1,2,0:0:0:0:
192,192,198649,1,0,0:0:0:0:
64,192,198812,1,10,0:0:0:0:
320,192,198812,1,0,0:0:0:60:Hat.wav
448,192,199136,1,2,0:0:0:0:
64,192,199298,1,2,0:0:0:0:
192,192,199460,1,8,0:0:0:0:
320,192,199460,1,0,0:0:0:60:Hat.wav
448,192,199622,1,2,0:0:0:0:
192,192,199785,1,0,0:0:0:40:Tom2.wav
320,192,199947,1,2,0:0:0:0:
64,192,200109,1,8,0:0:0:0:
448,192,200109,1,4,0:0:0:0:
192,192,200433,128,4,200758:0:0:0:0:
320,192,200433,1,2,0:0:0:0:
64,192,200758,1,8,0:0:0:0:
448,192,200758,1,0,0:0:0:0:
320,192,200920,1,2,0:0:0:0:
192,192,201082,1,0,0:0:0:40:Tom2.wav
448,192,201082,1,0,0:0:0:0:
64,192,201244,1,2,0:0:0:0:
320,192,201406,1,0,0:0:0:40:Tom2.wav
448,192,201406,1,0,0:0:0:0:
192,192,201568,1,0,0:0:0:40:Tom3.wav
64,192,201731,128,8,202055:0:0:0:0:
448,192,201731,1,0,0:0:0:0:
192,192,202055,1,8,0:0:0:0:
320,192,202055,1,4,0:0:0:0:
448,192,202217,1,0,0:0:0:0:
64,192,202379,1,0,0:0:0:0:
192,192,202541,1,0,0:0:0:0:
320,192,202704,128,0,203028:0:0:0:0:
64,192,203028,1,2,0:0:0:0:
448,192,203028,1,4,0:0:0:0:
192,192,203514,1,0,0:0:0:0:
448,192,203839,1,0,0:0:0:0:
64,192,204001,128,0,204325:0:0:0:0:
192,192,204325,1,0,0:0:0:0:
320,192,204812,1,0,0:0:0:0:
192,192,205136,1,0,0:0:0:0:
448,192,205298,128,0,205622:0:0:0:30:Ride.wav
320,192,205622,1,0,0:0:0:30:Ride.wav
64,192,206109,1,0,0:0:0:0:
448,192,206433,1,0,0:0:0:0:
192,192,206595,128,0,206920:0:0:0:0:
64,192,206920,1,0,0:0:0:0:
320,192,207406,128,0,207568:0:0:0:0:
448,192,207568,1,0,0:0:0:30:Ride.wav
64,192,207731,128,0,207893:0:0:0:0:
192,192,207893,128,0,208217:0:0:0:30:Ride.wav
448,192,208217,1,0,0:0:0:0:
320,192,208704,1,0,0:0:0:0:
64,192,209028,1,0,0:0:0:0:
448,192,209190,128,0,209514:0:0:0:0:
320,192,209514,1,0,0:0:0:0:
192,192,210001,1,0,0:0:0:0:
448,192,210325,1,0,0:0:0:0:
64,192,210487,128,0,210812:0:0:0:0:
192,192,210812,1,0,0:0:0:30:Ride.wav
320,192,211298,1,0,0:0:0:0:
64,192,211622,1,0,0:0:0:0:
448,192,211785,128,0,212109:0:0:0:0:
320,192,212109,1,0,0:0:0:0:
192,192,212433,128,0,213244:0:0:0:0:
448,192,213244,128,0,213406:0:0:0:0:
64,192,213406,128,0,215352:0:0:0:0:
320,192,213406,1,0,0:0:0:0:
