osu file format v14

[General]
AudioFilename: audio.mp3
AudioLeadIn: 0
PreviewTime:72361
Countdown: 0
SampleSet: Soft
StackLeniency: 0.2
Mode: 0
LetterboxInBreaks: 0
WidescreenStoryboard: 0

[Editor]
Bookmarks:24045,47235
DistanceSpacing: 0.8
BeatDivisor: 4
GridSize: 8
TimelineZoom: 2.5

[Metadata]
Title:Mada, Aoi
TitleUnicode:未だ、青い
Artist:Minato Aqua
ArtistUnicode:湊あくあ
Creator:-Atri-
Version:Our bond is unbreakable.
Source:あくありうむ。
Tags:KuranteMelodii krt Firis Mistlud Gorou Wanpachi short ver version vn visual novel aquarium akuariumu stay blue じん jin hololive ホロライブ vtuber virtual youtuber japanese pop jpop
BeatmapID:3751672
BeatmapSetID:1827994

[Difficulty]
HPDrainRate:8
CircleSize:5
OverallDifficulty:8
ApproachRate:9.2
SliderMultiplier:2
SliderTickRate:1

[Events]
//Background and Video events
0,0,"aqua.jpg",0,0
Video,0,"aqua.mp4"
//Break Periods
//Storyboard Layer 0 (Background)
//Storyboard Layer 1 (Fail)
//Storyboard Layer 2 (Pass)
//Storyboard Layer 3 (Foreground)
//Storyboard Layer 4 (Overlay)
//Storyboard Sound Samples

[TimingPoints]
1091,324.324324324324,4,2,1,80,1,0
1091,-125,4,2,1,80,0,0
1172,-125,4,2,1,50,0,0
1253,-125,4,2,1,5,0,0
1334,-125,4,2,1,50,0,0
1496,-125,4,2,1,5,0,0
1577,-125,4,2,1,50,0,0
1739,-125,4,2,1,5,0,0
1820,-125,4,2,1,50,0,0
1982,-125,4,2,1,5,0,0
2063,-125,4,2,1,50,0,0
2145,-125,4,2,1,5,0,0
2226,-125,4,2,1,50,0,0
2307,-125,4,2,1,5,0,0
2388,-125,4,2,1,50,0,0
2550,-125,4,2,1,5,0,0
2631,-125,4,2,1,50,0,0
2793,-125,4,2,1,5,0,0
2874,-125,4,2,1,50,0,0
3036,-125,4,2,1,5,0,0
3117,-125,4,2,1,50,0,0
3279,-125,4,2,1,5,0,0
3360,-125,4,2,1,50,0,0
3442,-125,4,2,1,5,0,0
3523,-125,4,2,1,50,0,0
3604,-125,4,2,1,5,0,0
3685,-125,4,2,1,50,0,0
4090,-125,4,2,1,5,0,0
4172,-125,4,2,1,50,0,0
4577,-125,4,2,1,5,0,0
4658,-125,4,2,1,50,0,0
4739,-125,4,2,1,5,0,0
4820,-125,4,2,1,50,0,0
4901,-125,4,2,1,5,0,0
4982,-125,4,2,1,50,0,0
5388,-125,4,2,1,5,0,0
5469,-125,4,2,1,50,0,0
6036,-125,4,2,1,5,0,0
6118,-125,4,2,1,50,0,0
6280,-111.111111111111,4,2,1,80,0,0
6361,-111.111111111111,4,2,1,55,0,0
6442,-111.111111111111,4,2,1,5,0,0
6523,-111.111111111111,4,2,1,55,0,0
6928,-111.111111111111,4,2,1,5,0,0
7009,-111.111111111111,4,2,1,55,0,0
7334,-111.111111111111,4,2,1,5,0,0
7415,-111.111111111111,4,2,1,55,0,0
7496,-111.111111111111,4,2,1,5,0,0
7577,-111.111111111111,4,2,1,55,0,0
10172,-111.111111111111,4,2,1,70,0,0
11469,-100,4,2,1,70,0,0
12807,-100,4,2,1,5,0,0
12928,-100,4,2,1,70,0,0
12969,-100,4,2,1,5,0,0
13090,-100,4,2,1,70,0,0
13131,-100,4,2,1,5,0,0
13253,-100,4,2,1,70,0,0
14753,-100,4,2,1,5,0,0
14874,-100,4,2,1,70,0,0
14915,-100,4,2,1,5,0,0
15036,-100,4,2,1,70,0,0
15077,-100,4,2,1,5,0,0
15199,-100,4,2,1,70,0,0
17996,-100,4,2,1,5,0,0
18118,-100,4,2,1,70,0,0
18158,-100,4,2,1,5,0,0
18280,-100,4,2,1,70,0,0
18320,-100,4,2,1,5,0,0
18442,-100,4,2,1,70,0,0
20226,-133.333333333333,4,2,1,70,0,0
20388,-83.3333333333333,4,2,1,70,0,0
21036,-90.9090909090909,4,2,1,67,0,0
21361,-111.111111111111,4,2,1,64,0,0
21685,-111.111111111111,4,2,1,59,0,0
21847,-133.333333333333,4,2,1,80,0,0
21928,-133.333333333333,4,2,1,50,0,0
41631,-133.333333333333,4,2,1,60,0,0
41955,-133.333333333333,4,2,1,70,0,0
42604,-133.333333333333,4,2,1,60,0,0
43253,-100,4,2,1,60,0,0
61739,-133.333333333333,4,2,1,60,0,0
63361,-166.666666666667,4,2,1,80,0,0
63442,-166.666666666667,4,2,1,50,0,0
71145,-100,4,2,1,60,0,0
72442,-100,4,2,1,70,0,0
73739,-90.9090909090909,4,2,1,80,0,1
78280,-111.111111111111,4,2,1,80,0,1
78604,-100,4,2,1,80,0,1
83793,-100,4,2,1,80,0,0
84118,-90.9090909090909,4,2,1,80,0,1
94496,-133.333333333333,4,2,1,80,0,0
95145,-100,4,2,1,80,0,0
95793,-83.3333333333333,4,2,1,80,0,0
96118,-178.571428571429,4,2,1,80,0,0
96766,-178.571428571429,4,2,1,5,0,0

[Colours]
Combo1 : 43,43,255
Combo2 : 159,75,252
Combo3 : 72,159,255
Combo4 : 104,0,208

[HitObjects]
424,358,1091,6,0,P|379:327|385:284,1,80,4|0,0:1|0:0,0:0:0:0:
390,220,1334,2,0,P|408:271|379:301,1,80,2|0,0:0|0:0,0:0:0:0:
336,350,1577,2,0,P|351:298|393:291,1,80,2|0,0:0|0:0,0:0:0:0:
458,277,1820,2,0,P|415:310|376:291,1,80,2|0,0:0|0:0,0:0:0:0:
320,233,2063,6,0,L|314:184,1,40,2|0,0:0|0:0,0:0:0:0:
390,220,2226,2,0,L|385:171,1,40,2|0,0:0|0:0,0:0:0:0:
301,46,2388,6,0,P|331:90|374:85,1,80,2|0,0:0|0:0,0:0:0:0:
438,79,2631,2,0,P|386:60|355:89,1,80,2|0,0:0|0:0,0:0:0:0:
308,133,2874,2,0,P|359:116|366:74,1,80,2|0,0:0|0:0,0:0:0:0:
381,11,3117,2,0,P|347:53|366:92,1,80,2|0,0:0|0:0,0:0:0:0:
347,138,3360,6,0,L|301:132,1,40,2|0,1:2|0:0,0:0:0:0:
271,63,3523,2,0,L|225:57,1,40,10|0,0:0|0:0,0:0:0:0:
129,150,3685,5,6,0:0:0:0:
172,20,3847,1,0,0:0:0:0:
172,20,3928,2,0,P|153:70|181:103,1,80,2|0,0:0|0:0,0:0:0:0:
186,108,4172,1,2,0:0:0:0:
129,150,4334,1,0,0:0:0:0:
129,150,4415,2,0,P|181:139|194:98,1,80,2|0,0:0|0:0,0:0:0:0:
288,166,4658,6,0,L|242:168,1,40,2|0,0:0|0:0,0:0:0:0:
196,223,4820,2,0,L|150:225,1,40,2|0,0:0|0:0,0:0:0:0:
63,197,4982,5,2,0:0:0:0:
74,274,5144,1,0,0:0:0:0:
74,274,5225,2,0,P|55:324|84:355,1,80,2|0,0:0|0:0,0:0:0:0:
101,360,5469,1,2,0:0:0:0:
181,316,5631,1,0,0:0:0:0:
181,316,5712,1,2,0:0:0:0:
132,224,5874,1,0,0:0:0:0:
132,224,5955,2,0,P|157:234|178:227,1,40,2|0,1:2|0:0,0:0:0:0:
257,224,6118,5,10,0:0:0:0:
257,224,6199,1,0,0:0:0:0:
257,224,6280,6,0,B|240:280|272:256|257:336,1,89.9999972534181,4|0,3:1|0:0,0:0:0:0:
256,336,6523,1,2,3:2:0:0:
393,288,6685,1,0,0:0:0:0:
393,288,6766,2,0,P|353:264|352:216,1,89.9999972534181,2|0,3:2|0:0,0:0:0:0:
360,200,7009,1,2,3:2:0:0:
241,136,7172,1,0,0:0:0:0:
249,144,7253,6,0,L|312:136,1,44.999998626709,2|0,3:2|0:0,0:0:0:0:
344,85,7415,2,0,L|407:93,1,44.999998626709,2|0,3:2|0:0,0:0:0:0:
457,77,7577,6,0,P|456:120|426:153,1,89.9999972534181,2|0,3:2|3:2,0:0:0:0:
426,152,7820,1,2,3:2:0:0:
426,152,7901,1,0,3:2:0:0:
360,200,8063,2,0,L|357:247,1,44.999998626709,2|0,0:0|0:0,0:0:0:0:
423,258,8226,5,0,3:0:0:0:
311,298,8388,1,0,1:0:0:0:
499,361,8550,1,8,0:0:0:0:
174,276,8874,6,0,L|167:365,1,89.9999972534181,4|0,0:0|3:0,0:0:0:0:
167,365,9117,1,0,3:0:0:0:
167,365,9198,1,2,0:0:0:0:
72,261,9361,2,0,P|152:241|144:160,1,179.999994506836,2|0,0:0|1:1,0:0:0:0:
128,160,9766,1,0,0:0:0:0:
113,163,9847,1,8,0:0:0:0:
168,88,10009,1,0,1:0:0:0:
25,200,10172,5,8,1:0:0:0:
257,136,10334,1,8,1:0:0:0:
1,40,10820,5,8,1:0:0:0:
257,136,10982,1,8,1:0:0:0:
100,234,11145,5,0,0:0:0:0:
98,246,11226,1,0,0:0:0:0:
97,258,11307,1,0,0:0:0:0:
96,271,11388,1,0,0:0:0:0:
33,304,11469,6,0,B|113:296|81:360|177:352,1,150,4|0,1:0|0:0,0:0:0:0:
193,344,11793,1,8,0:0:0:0:
321,264,11955,2,0,L|313:368,1,100,0|0,0:0|1:0,0:0:0:0:
433,328,12280,1,0,0:0:0:0:
258,209,12442,2,0,P|310:183|362:193,1,100,8|0,0:0|0:0,0:0:0:0:
476,79,12766,6,0,L|507:74,1,25,2|0,1:2|0:0,0:0:0:0:
430,172,12928,2,0,L|425:141,1,25,2|0,0:2|0:0,0:0:0:0:
370,33,13090,2,0,L|373:57,1,25,10|0,0:2|0:0,0:0:0:0:
350,187,13253,6,0,B|261:186|305:126|195:136,1,150,2|0,0:2|0:0,0:0:0:0:
193,144,13577,1,0,0:0:0:0:
58,179,13739,2,0,L|1:171,1,50,8|0,0:0|0:0,0:0:0:0:
127,25,13901,1,0,0:0:0:0:
127,25,13982,1,0,0:0:0:0:
127,25,14063,6,0,P|98:71|123:121,1,100,2|0,1:2|0:0,0:0:0:0:
223,210,14388,2,0,L|211:315,1,100,8|0,0:0|0:0,0:0:0:0:
37,289,14712,6,0,L|6:284,1,25,2|0,1:2|0:0,0:0:0:0:
142,384,14874,2,0,L|147:353,1,25,2|0,0:2|0:0,0:0:0:0:
132,217,15036,2,0,L|129:241,1,25,10|0,0:2|0:0,0:0:0:0:
251,380,15199,6,0,P|297:343|281:298,1,100,2|0,0:2|1:0,0:0:0:0:
211,309,15523,1,2,0:0:0:0:
370,371,15685,1,8,0:0:0:0:
491,282,15847,2,0,B|509:266|509:266|413:276,1,100,2|0,0:0|1:0,0:0:0:0:
329,192,16172,5,0,1:0:0:0:
324,164,16253,1,0,1:0:0:0:
329,137,16334,1,8,0:0:0:0:
348,114,16415,1,8,2:0:0:0:
367,92,16496,1,8,2:0:0:0:
374,65,16577,1,8,2:0:0:0:
373,37,16658,6,0,P|359:91|444:110,1,150,4|0,1:0|0:0,0:0:0:0:
453,103,16982,1,8,0:0:0:0:
285,33,17145,2,0,L|172:39,1,100,0|0,0:0|1:0,0:0:0:0:
108,19,17469,1,0,0:0:0:0:
269,114,17631,2,0,L|156:120,1,100,8|0,0:0|0:0,0:0:0:0:
104,95,17874,1,0,0:0:0:0:
95,102,17955,6,0,P|87:126|92:141,1,25,2|0,1:2|0:0,0:0:0:0:
31,190,18118,2,0,L|71:190,1,25,2|0,0:2|0:0,0:0:0:0:
95,278,18280,2,0,P|87:254|92:239,1,25,10|0,0:2|0:0,0:0:0:0:
15,90,18442,6,0,L|22:189,1,100,2|0,0:2|1:0,0:0:0:0:
0,262,18766,1,0,0:0:0:0:
161,376,18928,2,0,P|199:351|262:361,1,100,8|0,0:0|0:0,0:0:0:0:
374,233,19253,6,0,B|408:280|393:356|393:356|374:329,1,150,2|0,1:2|0:0,0:0:0:0:
367,322,19577,1,10,0:2:0:0:
328,169,19739,6,0,B|322:111|373:52|373:52|376:85,1,150,6|0,0:2|0:0,0:0:0:0:
378,95,20063,1,2,1:2:0:0:
442,163,20226,2,0,L|388:168,1,37.5000014305115,10|0,0:2|0:0,0:0:0:0:
276,69,20388,6,0,B|204:70|232:24|140:29,1,119.999996337891,12|0,0:0|0:0,0:0:0:0:
80,180,20712,6,0,P|47:153|37:123,1,59.9999981689454,2|0,3:2|3:0,0:0:0:0:
17,13,20874,1,0,3:0:0:0:
80,180,21036,6,0,P|75:137|86:114,1,55.0000016784668,2|0,3:2|3:0,0:0:0:0:
92,54,21199,1,0,3:0:0:0:
80,180,21361,6,0,P|107:147|130:137,1,44.999998626709,2|0,3:2|3:0,0:0:0:0:
167,103,21523,1,0,3:0:0:0:
80,180,21685,6,0,P|52:213|29:222,1,44.999998626709,2|0,3:2|3:0,0:0:0:0:
41,312,21847,5,4,1:2:0:0:
113,368,22009,2,0,L|121:269,2,75.0000028610231,0|0|0,0:0|1:0|0:0,0:0:0:0:
193,352,22496,2,0,P|257:312|321:352,1,150.000005722046,0|0,1:0|1:0,0:0:0:0:
473,312,22982,5,0,0:0:0:0:
409,376,23145,1,0,1:0:0:0:
401,368,23226,2,0,L|393:269,1,75.0000028610231,0|0,0:0|3:0,0:0:0:0:
401,280,23469,1,0,1:0:0:0:
506,199,23631,6,0,L|418:210,1,75.0000028610231,0|0,3:0|1:0,0:0:0:0:
382,143,23955,1,0,3:0:0:0:
382,143,24036,1,0,0:0:0:0:
382,143,24118,2,0,L|456:133,1,75.0000028610231,8|0,0:0|0:0,0:0:0:0:
449,1,24442,6,0,P|411:37|313:33,1,150.000005722046,4|0,1:2|1:0,0:0:0:0:
299,111,24928,1,0,0:0:0:0:
382,143,25090,2,0,P|385:104|392:65,1,75.0000028610231,0|0,1:0|0:0,0:0:0:0:
465,120,25415,1,0,1:0:0:0:
215,111,25739,5,0,1:0:0:0:
130,55,25901,1,0,0:0:0:0:
127,59,25982,1,0,3:0:0:0:
122,68,26063,2,0,P|129:105|132:143,1,75.0000028610231,0|0,1:0|3:0,0:0:0:0:
49,120,26388,1,0,1:0:0:0:
49,40,26550,1,0,3:0:0:0:
73,200,26712,1,8,0:0:0:0:
153,240,26874,1,0,3:0:0:0:
153,240,26955,1,0,3:0:0:0:
153,240,27036,5,4,1:2:0:0:
84,287,27199,2,0,P|94:341|100:383,2,75.0000028610231,0|0|0,0:0|1:0|0:0,0:0:0:0:
185,320,27685,2,0,B|225:288|257:360|289:288|329:320,1,150.000005722046,0|0,1:0|1:0,0:0:0:0:
361,240,28172,5,0,0:0:0:0:
425,368,28334,1,0,1:0:0:0:
416,360,28415,2,0,P|422:323|430:287,1,75.0000028610231,0|0,0:0|3:0,0:0:0:0:
441,272,28658,1,0,1:0:0:0:
489,208,28820,1,0,3:0:0:0:
385,128,28982,5,0,1:0:0:0:
409,200,29144,1,0,3:0:0:0:
453,134,29307,2,0,P|461:98|467:60,1,75.0000028610231,8|0,0:0|0:0,0:0:0:0:
332,21,29631,6,0,P|325:94|390:127,1,150.000005722046,4|0,1:2|1:0,0:0:0:0:
453,134,30118,1,0,0:0:0:0:
349,215,30280,2,0,P|397:200|429:200,1,75.0000028610231,0|0,1:0|0:0,0:0:0:0:
507,216,30604,1,0,1:0:0:0:
222,264,30928,5,0,1:0:0:0:
177,206,31090,1,0,0:0:0:0:
171,210,31172,1,0,3:0:0:0:
165,215,31253,2,0,P|117:200|85:200,1,75.0000028610231,0|0,1:0|3:0,0:0:0:0:
111,278,31577,2,0,L|104:360,1,75.0000028610231,0|0,1:0|3:0,0:0:0:0:
7,216,31901,2,0,L|0:134,1,75.0000028610231,8|0,0:0|3:0,0:0:0:0:
156,54,32226,5,4,1:2:0:0:
105,105,32388,2,0,P|84:59|94:18,2,75.0000028610231,0|0|0,0:0|1:0|0:0,0:0:0:0:
177,120,32874,2,0,B|257:112|257:112|326:118,1,150.000005722046,0|0,1:0|1:0,0:0:0:0:
385,184,33361,1,0,0:0:0:0:
358,54,33523,5,0,1:0:0:0:
433,16,33685,1,0,0:0:0:0:
427,35,33766,2,0,P|427:72|408:104,1,75.0000028610231,0|0,3:0|0:0,0:0:0:0:
409,112,34009,1,0,3:0:0:0:
457,208,34172,1,0,1:0:0:0:
481,136,34334,1,0,3:0:0:0:
385,184,34496,2,0,L|393:272,1,75.0000028610231,8|0,0:0|0:0,0:0:0:0:
478,352,34820,6,0,P|446:312|350:320,1,150.000005722046,4|0,1:2|1:0,0:0:0:0:
304,373,35307,1,0,0:0:0:0:
416,298,35469,6,0,P|389:323|354:316,1,75.0000028610231,0|0,1:0|0:0,0:0:0:0:
290,260,35793,1,0,1:0:0:0:
304,373,35955,1,0,0:0:0:0:
170,325,36118,6,0,L|85:324,1,75.0000028610231,0|0,1:0|0:0,0:0:0:0:
95,324,36361,1,0,3:0:0:0:
95,324,36442,1,0,1:0:0:0:
33,369,36766,6,0,P|66:342|48:222,1,150.000005722046,0|8,1:0|0:0,0:0:0:0:
1,205,37253,1,0,0:0:0:0:
46,38,37415,6,0,L|36:122,2,75.0000028610231,4|0|0,1:2|0:0|1:0,0:0:0:0:
46,38,38063,1,0,1:0:0:0:
22,117,38226,1,0,0:0:0:0:
79,177,38388,2,0,L|163:187,1,75.0000028610231,0|0,1:0|0:0,0:0:0:0:
257,48,38712,6,0,P|305:32|337:48,1,75.0000028610231,4|0,1:2|0:0,0:0:0:0:
326,39,38955,1,0,0:0:0:0:
326,39,39036,1,0,1:0:0:0:
220,112,39199,1,0,0:0:0:0:
293,185,39361,2,0,L|297:110,1,75.0000028610231,0|0,1:0|0:0,0:0:0:0:
443,22,39685,2,0,B|449:90|418:59|432:148,1,112.500004291535,8|0,0:0|0:0,0:0:0:0:
441,159,40009,5,4,1:2:0:0:
441,235,40334,5,0,1:0:0:0:
451,154,40496,1,0,0:0:0:0:
354,288,40658,2,0,L|362:376,1,75.0000028610231,0|0,1:0|0:0,0:0:0:0:
360,362,40901,1,0,0:0:0:0:
360,362,40982,1,0,1:0:0:0:
430,308,41145,1,0,0:0:0:0:
360,212,41307,6,0,L|366:137,1,75.0000028610231,0|0,1:0|1:0,0:0:0:0:
453,19,41631,1,8,0:0:0:0:
425,51,41712,1,8,0:0:0:0:
448,87,41793,1,0,1:0:0:0:
490,77,41874,1,0,1:0:0:0:
492,35,41955,5,8,0:0:0:0:
257,96,42118,1,8,0:0:0:0:
48,20,42604,5,4,1:0:0:0:
122,0,42766,1,2,0:2:0:0:
127,43,42928,1,2,1:2:0:0:
102,78,43090,1,0,0:0:0:0:
163,211,43253,6,0,P|154:160|182:95,1,100,2|0,1:2|0:0,0:0:0:0:
168,114,43496,1,0,0:0:0:0:
168,114,43577,1,0,1:0:0:0:
72,180,43739,2,0,L|80:239,1,50
179,375,43901,6,0,P|162:328|67:302,1,150,2|0,1:2|0:0,0:0:0:0:
52,309,44226,1,2,1:2:0:0:
99,377,44388,1,2,0:2:0:0:
247,285,44550,2,0,L|256:384,1,100,2|0,1:2|0:0,0:0:0:0:
256,384,44793,1,0,0:0:0:0:
256,384,44874,1,2,1:2:0:0:
330,329,45036,1,2,2:2:0:0:
257,192,45199,6,0,P|239:148|248:95,1,100,6|0,1:2|0:0,0:0:0:0:
300,50,45523,1,0,1:0:0:0:
369,54,45685,2,0,L|373:105,1,50,2|0,0:0|0:0,0:0:0:0:
257,192,45847,6,0,P|304:199|345:233,1,100,2|0,1:2|0:0,0:0:0:0:
345,231,46090,1,0,0:0:0:0:
345,232,46171,1,0,1:0:0:0:
350,318,46334,2,0,L|345:367,1,50,2|0,0:0|0:0,0:0:0:0:
512,273,46496,6,0,L|404:282,1,100,2|0,2:0|0:0,0:0:0:0:
287,283,46820,1,0,1:0:0:0:
358,384,46982,2,0,L|353:334,1,50,2|0,0:0|0:0,0:0:0:0:
235,232,47145,6,0,L|127:222,1,100,2|0,1:2|0:0,0:0:0:0:
135,223,47388,1,0,0:0:0:0:
135,223,47469,1,0,1:0:0:0:
194,97,47631,2,0,L|189:146,1,50,2|0,0:0|0:0,0:0:0:0:
172,359,47793,5,4,1:2:0:0:
98,379,47955,1,2,0:2:0:0:
93,336,48117,1,2,1:2:0:0:
118,301,48279,1,0,0:0:0:0:
27,177,48442,6,0,P|23:235|52:270,1,100,2|0,1:2|0:0,0:0:0:0:
46,266,48685,1,0,0:0:0:0:
46,266,48766,1,0,1:0:0:0:
93,143,48928,2,0,L|97:89,1,50
0,26,49090,6,0,P|25:92|96:93,1,150,2|0,1:2|0:0,0:0:0:0:
117,71,49415,1,2,1:2:0:0:
12,99,49577,1,2,0:2:0:0:
161,168,49739,5,2,1:2:0:0:
321,25,49901,1,0,0:2:0:0:
191,25,50063,1,2,1:2:0:0:
351,168,50225,1,2,2:2:0:0:
96,211,50388,6,0,P|149:216|177:262,1,100,6|0,1:2|0:0,0:0:0:0:
141,323,50712,1,0,1:0:0:0:
201,363,50874,2,0,P|213:324|209:300,1,50,2|0,0:0|0:0,0:0:0:0:
352,321,51036,6,0,P|330:272|356:225,1,100,2|0,1:2|0:0,0:0:0:0:
347,232,51280,1,0,0:0:0:0:
347,232,51361,1,0,1:0:0:0:
431,154,51523,2,0,P|391:163|373:178,1,50,2|0,0:0|0:0,0:0:0:0:
197,96,51685,5,2,2:0:0:0:
277,90,51847,2,0,L|394:82,1,100,0|0,0:0|1:0,0:0:0:0:
322,162,52172,5,0,3:0:0:0:
242,166,52334,1,2,1:2:0:0:
309,8,52496,1,0,3:0:0:0:
229,10,52658,1,8,0:0:0:0:
377,60,52820,2,0,P|381:95|375:115,1,50,2|0,3:2|0:0,0:0:0:0:
318,233,52982,5,4,1:2:0:0:
372,287,53144,1,2,0:2:0:0:
397,252,53306,1,2,1:2:0:0:
393,209,53468,1,0,0:0:0:0:
408,350,53631,6,0,P|342:353|315:332,1,100,2|0,1:2|0:0,0:0:0:0:
317,334,53874,1,0,0:0:0:0:
317,334,53955,1,0,1:0:0:0:
506,287,54118,2,0,L|457:294,1,50
318,233,54280,6,0,B|324:172|296:197|309:117,1,100,2|0,1:2|0:0,0:0:0:0:
306,135,54523,1,0,0:0:0:0:
306,135,54604,1,2,1:2:0:0:
334,63,54766,1,2,0:2:0:0:
202,7,54928,6,0,P|218:63|268:71,1,100,2|0,1:2|0:0,0:0:0:0:
261,83,55172,1,0,0:0:0:0:
261,83,55253,2,0,L|368:76,1,100,2|2,1:2|2:2,0:0:0:0:
466,212,55577,5,6,1:2:0:0:
497,129,55739,1,0,0:0:0:0:
410,144,55901,1,0,1:0:0:0:
358,244,56063,1,2,0:0:0:0:
363,254,56145,1,2,0:0:0:0:
367,263,56226,5,2,1:2:0:0:
408,155,56388,1,0,0:0:0:0:
295,174,56550,1,0,1:0:0:0:
230,300,56712,1,2,0:0:0:0:
236,312,56794,1,2,0:0:0:0:
241,324,56875,5,2,2:0:0:0:
294,184,57037,1,0,0:0:0:0:
148,209,57199,1,0,1:0:0:0:
148,209,57523,6,0,P|101:171|100:125,1,100,2|2,1:2|2:0,0:0:0:0:
210,57,57847,2,0,P|200:116|161:140,1,100,2|2,2:0|2:0,0:0:0:0:
32,224,58172,5,4,1:2:0:0:
41,297,58334,1,0,0:0:0:0:
50,366,58496,1,0,1:2:0:0:
50,366,58820,2,0,P|16:317|44:278,1,100,2|0,1:2|0:0,0:0:0:0:
31,286,59063,1,0,0:0:0:0:
31,286,59145,1,2,1:2:0:0:
106,247,59307,1,2,0:0:0:0:
15,135,59469,5,6,1:2:0:0:
15,135,59550,2,0,P|74:130|94:173,1,100
92,171,59793,1,2,1:2:0:0:
129,40,59955,1,0,0:0:0:0:
15,135,60118,6,0,B|82:130|82:130|87:127|87:127|171:122,1,150,2|0,1:2|0:0,0:0:0:0:
182,129,60442,1,2,1:2:0:0:
266,15,60604,2,0,P|254:43|257:67,1,50,2|0,0:0|0:0,0:0:0:0:
432,144,60766,6,0,B|471:136|471:136|443:70|357:96,1,150,4|0,1:2|0:0,0:0:0:0:
367,97,61090,1,0,1:2:0:0:
468,233,61253,1,0,0:0:0:0:
342,259,61415,6,0,B|429:259|381:311|485:317,1,150,2|0,1:2|0:0,0:0:0:0:
480,306,61739,2,0,P|463:351|456:385,1,75.0000028610231,2|0,1:2|0:0,0:0:0:0:
352,168,62063,5,0,1:0:0:0:
384,360,62226,1,8,0:0:0:0:
256,272,62388,5,0,1:0:0:0:
342,259,62550,1,0,1:0:0:0:
160,168,62712,5,8,0:0:0:0:
128,360,62875,1,0,1:0:0:0:
256,272,63037,5,2,1:2:0:0:
170,259,63199,1,2,0:2:0:0:
42,375,63361,6,0,P|80:334|147:342,1,119.999996337891,4|0,1:2|0:0,0:0:0:0:
170,259,63847,1,0,1:0:0:0:
170,259,64009,2,0,P|214:267|234:248,1,59.9999981689454,0|0,0:0|1:0,0:0:0:0:
256,192,64334,6,0,L|249:121,1,59.9999981689454,2|0,0:0|0:0,0:0:0:0:
199,40,64658,6,0,B|154:21|114:50|114:50|153:59,1,119.999996337891,0|0,1:2|0:0,0:0:0:0:
186,95,65145,2,0,B|224:65|219:16|219:16|192:45,1,119.999996337891,0|0,1:0|1:0,0:0:0:0:
256,192,65631,5,8,0:0:0:0:
286,280,65793,5,0,3:0:0:0:
286,280,65874,1,0,3:0:0:0:
286,280,65955,2,0,P|326:262|396:294,1,119.999996337891,4|0,1:2|0:0,0:0:0:0:
404,188,66442,1,0,1:0:0:0:
404,188,66604,2,0,L|333:190,1,59.9999981689454,0|0,0:0|1:0,0:0:0:0:
256,192,66928,6,0,L|185:194,1,59.9999981689454,2|0,0:0|0:0,0:0:0:0:
114,254,67253,6,0,P|100:287|135:360,1,119.999996337891,0|0,1:2|0:0,0:0:0:0:
202,384,67739,1,0,1:0:0:0:
221,315,67901,2,0,P|210:300|169:297,1,59.9999981689454,0|0,0:0|1:0,0:0:0:0:
256,192,68226,5,8,0:0:0:0:
268,112,68388,5,0,3:0:0:0:
268,112,68469,1,0,3:0:0:0:
268,112,68550,2,0,B|337:51|406:86|406:86|381:109,1,179.999994506836,4|0,1:2|1:0,0:0:0:0:
336,173,69199,2,0,L|333:239,1,59.9999981689454,0|0,0:0|1:0,0:0:0:0:
256,192,69523,6,0,L|196:189,1,59.9999981689454,2|0,0:0|0:0,0:0:0:0:
112,135,69847,6,0,B|52:141|72:185|-4:181,1,119.999996337891,0|0,1:2|0:0,0:0:0:0:
8,111,70334,1,0,1:0:0:0:
119,207,70496,2,0,P|164:202|196:200,1,59.9999981689454,0|0,0:0|1:0,0:0:0:0:
178,200,70739,1,0,0:0:0:0:
178,200,70820,1,8,0:0:0:0:
161,278,70982,1,0,3:0:0:0:
256,192,71145,5,0,1:0:0:0:
271,73,71307,2,0,L|263:137,1,50,8|0,0:0|0:0,0:0:0:0:
241,311,71469,2,0,L|249:247,1,50,8|0,0:0|0:0,0:0:0:0:
259,96,71631,1,0,1:0:0:0:
336,226,71793,5,0,3:0:0:0:
346,202,71874,1,0,3:0:0:0:
343,176,71955,1,0,3:0:0:0:
175,156,72118,1,0,3:0:0:0:
164,180,72199,1,0,3:0:0:0:
167,206,72280,1,0,3:0:0:0:
354,104,72442,5,8,1:0:0:0:
72,176,72604,1,8,1:0:0:0:
72,176,73090,5,8,1:0:0:0:
405,267,73253,1,8,1:0:0:0:
405,267,73739,5,4,1:0:0:0:
223,230,73901,1,2,0:0:0:0:
348,366,74063,1,8,0:0:0:0:
326,183,74226,1,0,0:0:0:0:
235,341,74388,6,0,B|127:329|174:394|46:382,1,165.000005035401,2|0,1:2|0:0,0:0:0:0:
43,374,74712,1,10,0:0:0:0:
144,258,74874,6,0,B|133:275|133:275|90:216|138:135,1,165.000005035401,2|0,0:0|0:0,0:0:0:0:
150,133,75199,2,0,P|161:89|160:60,1,55.0000016784668,2|0,0:0|0:0,0:0:0:0:
0,8,75361,2,0,B|-3:66|9:46|12:124,1,110.000003356934,10|0,0:0|0:0,0:0:0:0:
6,132,75604,1,0,0:0:0:0:
1,147,75685,1,2,1:2:0:0:
217,172,75847,1,8,0:0:0:0:
83,85,76009,1,8,0:0:0:0:
83,85,76334,5,2,1:2:0:0:
265,48,76496,1,2,0:2:0:0:
140,184,76658,1,8,0:2:0:0:
162,1,76821,1,0,0:2:0:0:
253,159,76982,2,0,P|203:197|158:195,1,110.000003356934,2|0,1:2|0:0,0:0:0:0:
184,119,77307,1,10,0:2:0:0:
279,238,77469,1,2,0:2:0:0:
325,98,77631,5,2,1:2:0:0:
388,30,77793,1,2,0:0:0:0:
472,68,77955,1,8,0:0:0:0:
462,157,78118,1,0,0:0:0:0:
371,177,78280,2,0,P|324:142|324:105,1,89.9999972534181,2|0,1:2|0:0,0:0:0:0:
431,225,78604,6,0,L|422:300,1,50,8|0,0:0|0:0,0:0:0:0:
312,341,78766,1,0,3:0:0:0:
316,350,78847,1,0,3:0:0:0:
318,359,78928,6,0,B|368:370|375:324|375:324|359:299|295:299|275:349,1,200,4|8,1:2|0:0,0:0:0:0:
276,349,79577,6,0,B|362:341|319:387|435:380,1,150,2|0,1:2|0:0,0:0:0:0:
434,367,79901,1,10,0:2:0:0:
487,280,80063,1,2,0:2:0:0:
365,193,80226,6,0,B|327:184|322:219|322:219|334:237|382:237|397:200,1,150,0|0,1:0|0:0,0:0:0:0:
397,180,80550,6,0,P|341:183|330:250,1,100,10|0,0:2|0:0,0:0:0:0:
175,75,80874,2,0,P|205:122|269:98,1,100,2|0,1:2|0:0,0:0:0:0:
195,320,81198,2,0,P|221:270|168:227,1,100,10|0,0:2|0:0,0:0:0:0:
10,198,81523,5,6,1:2:0:0:
17,278,81685,1,0,0:0:0:0:
25,358,81847,1,8,0:0:0:0:
172,257,82009,2,0,P|165:231|147:201,1,50,2|0,0:0|0:0,0:0:0:0:
19,184,82172,5,0,1:0:0:0:
49,279,82334,1,0,0:0:0:0:
75,375,82496,1,8,0:0:0:0:
234,220,82658,2,0,P|227:194|209:164,1,50,2|0,0:0|0:0,0:0:0:0:
24,164,82820,5,0,1:0:0:0:
234,220,82982,2,0,L|298:213,1,50,8|0,0:0|0:0,0:0:0:0:
186,7,83145,6,0,P|149:40|163:99,1,100,8|0,0:0|1:0,0:0:0:0:
171,110,83388,1,0,0:0:0:0:
199,117,83469,1,0,3:0:0:0:
100,194,83631,1,0,3:0:0:0:
124,200,83712,1,0,0:0:0:0:
147,192,83793,1,0,3:0:0:0:
139,311,83955,2,0,P|165:282|166:252,1,50,0|0,3:0|0:0,0:0:0:0:
280,129,84118,5,4,1:0:0:0:
385,284,84280,1,2,0:0:0:0:
410,154,84442,1,8,0:0:0:0:
254,259,84604,1,0,0:0:0:0:
418,175,84766,6,0,B|431:70|392:117|412:11,1,165.000005035401,2|0,1:2|0:0,0:0:0:0:
423,37,85090,1,10,0:0:0:0:
342,219,85253,6,0,P|426:218|460:303,1,165.000005035401,2|0,0:0|0:0,0:0:0:0:
453,292,85577,2,0,P|447:325|442:368,1,55.0000016784668,2|0,0:0|0:0,0:0:0:0:
308,289,85739,6,0,P|271:252|266:196,1,110.000003356934,10|0,0:0|0:0,0:0:0:0:
278,176,85982,1,0,0:0:0:0:
288,163,86063,1,2,1:2:0:0:
385,284,86226,1,8,0:0:0:0:
240,341,86388,2,0,L|130:347,1,110.000003356934,8|2,0:0|0:0,0:0:0:0:
105,352,86631,1,0,0:0:0:0:
82,363,86712,5,6,1:2:0:0:
218,183,86874,1,2,0:0:0:0:
240,341,87036,1,8,0:2:0:0:
60,205,87199,1,0,0:0:0:0:
140,45,87361,6,0,B|104:106|130:171|130:171|142:161|151:143,1,165.000005035401,2|0,1:2|0:0,0:0:0:0:
156,127,87685,2,0,P|158:88|150:72,1,55.0000016784668,8|0,0:0|0:0,0:0:0:0:
220,29,87847,6,0,L|348:17,1,110.000003356934,2|0,0:0|1:0,0:0:0:0:
391,53,88172,1,2,0:0:0:0:
219,135,88334,2,0,L|109:124,1,110.000003356934,8|0,0:0|0:0,0:0:0:0:
309,100,88658,5,2,1:2:0:0:
399,90,88820,1,0,0:0:0:0:
436,172,88982,1,10,2:0:0:0:
404,204,89063,1,0,2:0:0:0:
369,233,89145,1,2,3:2:0:0:
329,212,89226,1,0,3:0:0:0:
291,188,89307,6,0,B|293:120|293:120|298:113|298:113|301:22,1,165.000005035401,4|0,1:2|0:0,0:0:0:0:
276,12,89631,2,0,P|225:53|245:111,1,110.000003356934,8|0,0:0|0:0,0:0:0:0:
361,160,89955,5,2,1:2:0:0:
451,150,90117,1,0,0:0:0:0:
488,232,90280,1,10,0:2:0:0:
421,293,90442,1,2,0:2:0:0:
343,248,90604,6,0,P|414:255|442:336,1,165.000005035401,0|0,1:0|0:0,0:0:0:0:
433,363,90928,1,8,0:0:0:0:
488,232,91090,1,2,0:2:0:0:
342,247,91253,2,0,P|326:200|343:144,1,110.000003356934,2|0,1:2|0:0,0:0:0:0:
500,343,91577,2,0,P|455:295|410:294,1,110.000003356934,10|0,0:2|3:0,0:0:0:0:
351,327,91820,1,0,3:0:0:0:
351,327,91901,6,0,B|266:334|299:268|196:289,1,165.000005035401,4|0,1:2|0:0,0:0:0:0:
176,304,92226,5,8,0:0:0:0:
256,192,92388,1,0,0:0:0:0:
144,112,92550,5,0,1:0:0:0:
256,192,92712,1,0,0:0:0:0:
336,80,92874,5,8,0:0:0:0:
256,192,93036,1,0,0:0:0:0:
368,272,93198,5,0,1:0:0:0:
144,112,93360,1,0,1:0:0:0:
256,272,93523,6,0,B|248:336|264:320|256:392,1,110.000003356934,12|0,0:0|0:0,0:0:0:0:
112,336,93847,5,8,0:0:0:0:
76,323,93928,1,0,1:0:0:0:
51,296,94009,1,0,1:0:0:0:
42,260,94090,1,0,1:0:0:0:
50,224,94171,5,8,0:0:0:0:
73,191,94253,1,0,0:0:0:0:
50,159,94334,1,0,1:0:0:0:
11,171,94415,1,0,0:0:0:0:
11,211,94496,6,0,B|65:229|128:208|88:128|160:120|232:135,1,225.000008583069,4|0,0:0|1:0,0:0:0:0:
256,296,95145,6,0,L|256:196,1,100,8|0,0:0|0:0,0:0:0:0:
247,23,95469,6,0,P|255:47|256:72,1,50,8|0,0:0|0:0,0:0:0:0:
264,23,95631,2,0,P|256:47|256:72,1,50,0|0,1:0|0:0,0:0:0:0:
364,203,95793,6,0,B|354:202|354:202|374:156|408:137|468:164,1,119.999996337891,8|0,0:0|1:0,0:0:0:0:
501,211,96036,1,0,1:0:0:0:
501,211,96118,6,0,B|447:229|384:208|424:128|352:120|283:136,1,224.000002734375,12|0,0:0|0:0,0:0:0:0:
