osu file format v14

[General]
AudioFilename: audio.mp3
AudioLeadIn: 0
PreviewTime: 72361
Countdown: 0
SampleSet: Soft
StackLeniency: 0.7
Mode: 0
LetterboxInBreaks: 0
WidescreenStoryboard: 1

[Editor]
Bookmarks: 23955,45847,47145
DistanceSpacing: 0.3
BeatDivisor: 4
GridSize: 8
TimelineZoom: 1.4

[Metadata]
Title:Mada, Aoi
TitleUnicode:未だ、青い
Artist:Minato Aqua
ArtistUnicode:湊あくあ
Creator:-Atri-
Version:Hard.
Source:あくありうむ。
Tags:KuranteMelodii krt Firis Mistlud Gorou Wanpachi short ver version vn visual novel aquarium akuariumu stay blue じん jin hololive ホロライブ vtuber virtual youtuber japanese pop jpop
BeatmapID:3766909
BeatmapSetID:1827994

[Difficulty]
HPDrainRate:5
CircleSize:4
OverallDifficulty:5
ApproachRate:8
SliderMultiplier:1.5
SliderTickRate:1

[Events]
//Background and Video events
0,0,"aqua.jpg",0,0
Video,0,"aqua.mp4"
//Break Periods
//Storyboard Layer 0 (Background)
//Storyboard Layer 1 (Fail)
//Storyboard Layer 2 (Pass)
//Storyboard Layer 3 (Foreground)
//Storyboard Layer 4 (Overlay)
//Storyboard Sound Samples

[TimingPoints]
1091,324.324324324324,4,2,1,80,1,0
1091,-125,4,2,1,80,0,0
1172,-125,4,2,1,50,0,0
6280,-125,4,2,1,80,0,0
6361,-125,4,2,1,55,0,0
10172,-125,4,2,1,70,0,0
11469,-100,4,2,1,70,0,0
21036,-100,4,2,1,67,0,0
21361,-100,4,2,1,64,0,0
21685,-100,4,2,1,59,0,0
21847,-133.333333333333,4,2,1,80,0,0
21928,-133.333333333333,4,2,1,50,0,0
41631,-133.333333333333,4,2,1,60,0,0
41955,-133.333333333333,4,2,1,70,0,0
42604,-100,4,2,1,60,0,0
63361,-133.333333333333,4,2,1,80,0,0
63442,-133.333333333333,4,2,1,50,0,0
71145,-100,4,2,1,60,0,0
72442,-100,4,2,1,70,0,0
73739,-90.9090909090909,4,2,1,80,0,1
77631,-90.9090909090909,4,2,1,80,0,1
78604,-90.9090909090909,4,2,1,80,0,1
83793,-90.9090909090909,4,2,1,80,0,0
84118,-90.9090909090909,4,2,1,80,0,1
94496,-90.9090909090909,4,2,1,80,0,0
95145,-100,4,2,1,80,0,0
96118,-125,4,2,1,80,0,0
96766,-125,4,2,1,5,0,0

[Colours]
Combo1 : 43,43,255
Combo2 : 159,75,252
Combo3 : 72,159,255
Combo4 : 104,0,208

[HitObjects]
34,45,1091,5,4,0:1:0:0:
88,110,1253,2,0,L|126:109,2,30,0|2|0,0:0|0:0|0:0,0:0:0:0:
37,182,1577,2,0,B|95:180|78:231|152:229,1,120,2|0,0:0|0:0,0:0:0:0:
220,209,2063,1,2,0:0:0:0:
304,331,2388,5,2,0:0:0:0:
357,265,2550,2,0,L|395:266,2,30,0|2|0,0:0|0:0|0:0,0:0:0:0:
303,192,2874,2,0,B|361:194|344:143|418:145,1,120,2|0,0:0|0:0,0:0:0:0:
488,164,3361,1,2,1:2:0:0:
367,73,3685,5,6,0:0:0:0:
294,44,3847,2,0,L|299:2,2,30,0|2|0,0:0|0:0|0:0,0:0:0:0:
230,102,4172,2,0,P|178:94|137:29,1,120,2|0,0:0|0:0,0:0:0:0:
212,29,4658,1,2,0:0:0:0:
236,185,4982,5,2,0:0:0:0:
163,214,5145,2,0,L|168:256,2,30,0|2|0,0:0|0:0|0:0,0:0:0:0:
97,171,5469,2,0,B|84:199|84:199|94:294,1,120,2|0,0:0|0:0,0:0:0:0:
59,356,5955,1,2,1:2:0:0:
144,365,6118,1,10,0:0:0:0:
144,365,6199,1,0,0:0:0:0:
144,365,6280,6,0,B|244:368|199:285|312:296,1,180,4|2,3:1|3:2,0:0:0:0:
362,344,6928,2,0,B|389:350|389:350|433:311|392:255,1,120,0|2,0:0|3:2,0:0:0:0:
465,126,7577,6,0,P|453:163|460:219,2,90,2|2|2,3:2|3:2|0:0,0:0:0:0:
497,57,8226,2,0,P|463:50|434:57,1,60,0|0,3:0|1:0,0:0:0:0:
383,115,8550,1,8,0:0:0:0:
249,28,8874,6,0,B|256:91|256:91|259:96|259:96|264:157,1,120,4|2,0:0|0:0,0:0:0:0:
329,180,9361,2,0,P|295:217|218:207,1,120,2|0,0:0|1:1,0:0:0:0:
188,150,9847,2,0,L|126:148,1,60,8|0,0:0|1:0,0:0:0:0:
32,96,10172,5,8,1:0:0:0:
49,192,10334,1,8,1:0:0:0:
49,192,10820,5,8,1:0:0:0:
32,288,10982,1,8,1:0:0:0:
32,288,11469,6,0,B|117:286|80:349|176:349,1,150,4|8,1:0|0:0,0:0:0:0:
213,285,11955,2,0,P|255:283|371:275,1,150
400,345,12442,2,0,P|433:318|442:282,1,75,8|0,0:0|0:0,0:0:0:0:
496,208,12766,5,2,1:2:0:0:
417,182,12928,2,0,L|422:102,1,75,2|10,0:2|0:2,0:0:0:0:
473,38,13253,2,0,B|392:40|431:88|336:88,1,150,2|0,0:2|0:0,0:0:0:0:
256,64,13739,1,8,0:0:0:0:
176,88,13901,1,0,0:0:0:0:
176,88,13982,1,0,0:0:0:0:
176,88,14063,6,0,B|80:88|120:40|38:38,1,150,2|8,1:2|0:0,0:0:0:0:
40,194,14712,2,0,L|45:110,2,75,2|2|10,1:2|0:2|0:2,0:0:0:0:
10,268,15199,6,0,P|31:219|122:217,1,150,2|2,0:2|0:0,0:0:0:0:
170,272,15685,1,8,0:0:0:0:
152,345,15847,2,0,B|177:354|236:358|209:299|271:298|304:312,1,150,2|0,0:0|1:0,0:0:0:0:
355,353,16334,2,0,L|395:351,3,37.5,8|8|8|8,0:0|2:0|2:0|2:0,0:0:0:0:
419,363,16658,6,0,P|458:336|468:234,1,150,4|8,1:0|0:0,0:0:0:0:
389,278,17145,2,0,B|395:210|395:210|400:200|400:200|406:118,1,150
468,81,17631,2,0,P|429:53|392:56,1,75,8|0,0:0|0:0,0:0:0:0:
297,14,17955,5,2,1:2:0:0:
305,95,18118,2,0,L|312:181,1,75,2|10,0:2|0:2,0:0:0:0:
227,141,18442,2,0,B|153:133|176:192|80:188,1,150,2|0,0:2|0:0,0:0:0:0:
98,107,18928,1,8,0:0:0:0:
119,269,19253,6,0,P|170:278|202:294,1,75,2|0,1:2|0:0,0:0:0:0:
216,360,19577,1,10,0:2:0:0:
321,287,19739,2,0,P|355:273|393:269,1,75,6|0,0:2|0:0,0:0:0:0:
471,291,20063,1,2,1:2:0:0:
482,216,20226,1,10,0:2:0:0:
384,176,20388,6,0,P|346:171|312:157,1,75,12|0,0:0|0:0,0:0:0:0:
328,80,20712,2,0,P|339:64|356:53,2,37.5,2|0|0,3:2|3:0|3:0,0:0:0:0:
256,48,21036,2,0,L|256:8,2,37.5,2|0|0,3:2|3:0|3:0,0:0:0:0:
184,80,21361,2,0,P|173:64|156:53,2,37.5,2|0|0,3:2|3:0|3:0,0:0:0:0:
256,128,21685,1,2,3:2:0:0:
168,192,21847,5,4,1:2:0:0:
88,192,22009,1,0,0:0:0:0:
88,192,22172,2,0,B|95:124|71:147|80:77,2,112.500004291535,0|0|0,1:0|1:0|1:0,0:0:0:0:
128,264,22982,1,0,0:0:0:0:
59,306,23145,6,0,P|131:346|171:334,1,112.500004291535,0|0,1:0|1:0,0:0:0:0:
216,284,23631,1,0,3:0:0:0:
215,284,23793,2,0,L|222:228,1,56.2500021457673,0|0,1:0|3:0,0:0:0:0:
308,202,24118,2,0,L|301:258,1,56.2500021457673,8|0,0:0|0:0,0:0:0:0:
361,312,24442,6,0,P|407:296|437:240,1,112.500004291535,4|0,1:2|1:0,0:0:0:0:
506,200,24928,1,0,0:0:0:0:
506,200,25090,2,0,P|469:168|405:170,1,112.500004291535,0|0,1:0|1:0,0:0:0:0:
337,131,25577,1,0,0:0:0:0:
337,131,25739,6,0,P|327:178|361:232,1,112.500004291535,0|0,1:0|1:0,0:0:0:0:
455,84,26388,2,0,L|519:81,2,56.2500021457673,0|0|8,1:0|3:0|0:0,0:0:0:0:
376,57,26874,1,0,3:0:0:0:
376,57,26955,1,0,3:0:0:0:
376,57,27036,5,4,1:2:0:0:
337,131,27199,1,0,0:0:0:0:
290,58,27361,2,0,L|167:49,2,112.500004291535,0|0|0,1:0|1:0|1:0,0:0:0:0:
376,57,28172,1,0,0:0:0:0:
420,135,28334,6,0,B|433:205|396:184|418:270,1,112.500004291535,0|0,1:0|1:0,0:0:0:0:
448,320,28820,1,0,3:0:0:0:
448,320,28982,2,0,L|509:318,2,56.2500021457673,0|0|8,1:0|3:0|0:0,0:0:0:0:
387,371,29469,1,0,0:0:0:0:
287,324,29631,6,0,B|217:337|238:300|152:322,1,112.500004291535,4|0,1:2|1:0,0:0:0:0:
112,372,30118,1,0,0:0:0:0:
112,372,30280,2,0,P|93:332|111:262,1,112.500004291535,0|0,1:0|1:0,0:0:0:0:
28,111,30928,6,0,B|98:124|77:87|163:109,1,112.500004291535,0|0,1:0|1:0,0:0:0:0:
212,143,31415,1,0,3:0:0:0:
212,143,31577,2,0,L|217:85,1,56.2500021457673,0|0,1:0|3:0,0:0:0:0:
165,20,31901,1,8,0:0:0:0:
312,144,32226,5,4,1:2:0:0:
360,80,32388,1,0,0:0:0:0:
360,80,32550,2,0,P|416:64|472:72,2,112.500004291535,0|0|0,1:0|1:0|1:0,0:0:0:0:
390,156,33361,1,0,0:0:0:0:
430,227,33523,6,0,B|419:293|456:276|441:360,1,112.500004291535,0|0,1:0|1:0,0:0:0:0:
363,323,34009,1,0,3:0:0:0:
363,323,34172,2,0,P|317:313|240:322,1,112.500004291535,0|8,1:0|0:0,0:0:0:0:
187,372,34658,1,0,0:0:0:0:
145,303,34820,6,0,P|99:287|69:231,1,112.500004291535,4|0,1:2|1:0,0:0:0:0:
0,191,35307,1,0,0:0:0:0:
0,191,35469,2,0,P|37:159|101:161,1,112.500004291535,0|0,1:0|1:0,0:0:0:0:
169,122,35955,1,0,0:0:0:0:
169,122,36118,6,0,P|179:169|145:223,1,112.500004291535,0|0,1:0|1:0,0:0:0:0:
64,32,36766,2,0,L|188:27,1,112.500004291535,0|8,1:0|0:0,0:0:0:0:
240,80,37253,1,0,0:0:0:0:
335,27,37415,6,0,L|448:32,1,112.500004291535,4|0,1:2|1:0,0:0:0:0:
512,184,38063,2,0,P|495:216|512:291,1,112.500004291535,0|0,1:0|1:0,0:0:0:0:
465,353,38550,1,0,0:0:0:0:
406,295,38712,6,0,B|348:289|357:325|282:328,2,112.500004291535,4|0|0,1:2|1:0|1:0,0:0:0:0:
512,184,39685,2,0,L|503:117,1,56.2500021457673,8|0,0:0|0:0,0:0:0:0:
510,51,40009,5,4,1:2:0:0:
342,110,40334,2,0,P|296:82|312:10,2,112.500004291535,0|0|0,1:0|1:0|1:0,0:0:0:0:
429,249,41307,5,0,1:0:0:0:
429,249,41469,1,0,1:0:0:0:
342,194,41631,2,0,L|337:233,3,28.1250010728836,8|8|0|0,0:0|0:0|1:0|1:0,0:0:0:0:
349,235,41955,1,8,0:0:0:0:
375,315,42118,1,8,0:0:0:0:
124,360,42604,5,4,1:0:0:0:
74,292,42766,2,0,L|-4:287,2,75,2|2|0,0:2|1:2|0:0,0:0:0:0:
154,285,43253,2,0,B|182:245|171:158|171:158|143:194,1,150,2|0,1:2|1:0,0:0:0:0:
110,98,43739,1,0,0:0:0:0:
110,98,43901,6,0,B|189:93|156:156|254:149,1,150,2|2,1:2|1:2,0:0:0:0:
293,84,44388,1,2,0:2:0:0:
293,84,44550,2,0,P|363:28|428:51,1,150,2|2,1:2|1:2,0:0:0:0:
476,93,45036,1,2,2:2:0:0:
432,192,45199,6,0,B|436:265|436:265|441:270|441:270|449:361,1,150,6|0,1:2|1:0,0:0:0:0:
376,366,45685,1,2,0:0:0:0:
376,366,45847,2,0,B|369:296|369:296|364:291|364:291|360:218,1,150,2|0,1:2|1:0,0:0:0:0:
370,139,46334,1,2,0:0:0:0:
432,192,46496,6,0,P|352:219|296:176,1,150,2|0,2:0|1:0,0:0:0:0:
295,105,46982,1,2,0:0:0:0:
295,105,47145,2,0,P|215:78|159:121,1,150,2|0,1:2|1:0,0:0:0:0:
87,93,47631,1,2,0:0:0:0:
87,93,47712,1,0,0:0:0:0:
87,93,47793,5,4,1:2:0:0:
71,170,47955,2,0,L|-13:164,2,75,2|2|0,0:2|1:2|0:0,0:0:0:0:
119,234,48442,2,0,B|147:274|136:361|136:361|108:325,1,150,2|0,1:2|1:0,0:0:0:0:
45,343,48928,1,0,0:0:0:0:
45,343,49090,6,0,B|124:348|91:285|189:292,1,150,2|2,1:2|1:2,0:0:0:0:
242,350,49577,1,2,0:2:0:0:
313,304,49739,1,2,1:2:0:0:
313,304,49901,2,0,L|311:220,2,75,0|2|2,0:2|1:2|2:2,0:0:0:0:
413,351,50388,6,0,B|390:323|390:323|386:196,1,150,6|0,1:2|1:0,0:0:0:0:
324,157,50874,1,2,0:0:0:0:
369,92,51036,2,0,B|452:95|423:23|502:26,1,150,2|0,1:2|1:0,0:0:0:0:
293,81,51685,6,0,P|235:45|138:61,1,150,2|0,2:0|1:0,0:0:0:0:
71,31,52172,1,0,3:0:0:0:
71,31,52334,2,0,P|71:74|102:112,1,75,2|0,1:2|3:0,0:0:0:0:
114,173,52658,2,0,P|147:156|167:125,1,75,8|2,0:0|3:2,0:0:0:0:
198,219,52982,5,4,1:2:0:0:
120,263,53145,2,0,L|34:258,2,75,2|2|0,0:2|1:2|0:0,0:0:0:0:
155,338,53631,2,0,P|193:300|181:207,1,150,2|0,1:2|1:0,0:0:0:0:
111,182,54118,1,0,0:0:0:0:
111,182,54280,6,0,B|107:109|107:109|102:104|102:104|94:13,1,150,2|2,1:2|1:2,0:0:0:0:
167,8,54766,1,2,0:2:0:0:
167,8,54928,2,0,B|173:77|173:77|178:82|178:82|182:155,1,150,2|2,1:2|1:2,0:0:0:0:
168,234,55415,1,2,2:2:0:0:
235,312,55577,6,0,P|296:292|305:207,1,150,6|0,1:2|1:0,0:0:0:0:
392,232,56063,1,2,0:0:0:0:
370,150,56226,2,0,P|322:107|244:142,1,150,2|0,1:2|1:0,0:0:0:0:
222,54,56712,1,2,0:0:0:0:
162,113,56874,6,0,P|149:176|218:226,1,150,2|0,2:0|1:0,0:0:0:0:
376,310,57523,2,0,L|378:385,1,75,2|2,1:2|2:0,0:0:0:0:
456,362,57847,2,0,L|454:287,1,75,2|2,2:0|2:0,0:0:0:0:
420,185,58172,6,0,B|419:97|478:133|469:43,2,150,4|0|2,1:2|1:2|1:2,0:0:0:0:
351,231,58982,1,0,0:0:0:0:
351,231,59145,2,0,P|301:219|264:216,1,75,2|2,1:2|0:0,0:0:0:0:
197,146,59469,6,0,P|151:105|161:11,1,150,6|2,1:2|1:2,0:0:0:0:
223,66,59955,1,0,0:0:0:0:
275,132,60118,2,0,L|266:219,1,75,2|0,1:2|0:0,0:0:0:0:
208,259,60442,2,0,L|133:251,1,75,2|2,1:2|0:0,0:0:0:0:
46,355,60766,6,0,B|58:264|-4:305|27:186,2,150,4|0|2,1:2|1:2|1:2,0:0:0:0:
94,179,61739,1,2,1:2:0:0:
7,41,62063,5,0,1:0:0:0:
56,102,62226,2,0,P|100:102|150:11,1,150,8|0,0:0|1:0,0:0:0:0:
240,31,62712,2,0,L|233:118,1,75,8|0,0:0|1:0,0:0:0:0:
174,155,63036,1,2,1:2:0:0:
319,75,63361,6,0,B|410:83|385:16|493:27,2,168.750006437302,4|0|2,1:2|1:0|0:0,0:0:0:0:
432,145,64658,2,0,P|426:185|427:266,1,112.500004291535,0|0,1:2|0:0,0:0:0:0:
472,325,65145,1,0,1:0:0:0:
472,325,65469,1,0,1:0:0:0:
407,369,65631,2,0,L|325:362,1,56.2500021457673,8|0,0:0|3:0,0:0:0:0:
220,342,65955,6,0,B|181:386|116:402|87:296|145:297|145:341,1,168.750006437302,4|0,1:2|1:0,0:0:0:0:
197,267,66604,2,0,B|201:211|156:225|170:143,1,112.500004291535,0|2,0:0|0:0,0:0:0:0:
11,75,67253,2,0,P|55:83|164:4,2,168.750006437302,0|0|8,1:2|1:0|0:0,0:0:0:0:
16,160,68388,1,0,3:0:0:0:
16,160,68469,1,0,3:0:0:0:
16,160,68550,6,0,L|35:353,1,168.750006437302,4|0,1:2|1:0,0:0:0:0:
108,378,69199,1,0,0:0:0:0:
256,320,69523,1,2,0:0:0:0:
404,378,69847,2,0,P|440:328|432:256,2,112.500004291535,0|0|0,1:2|0:0|0:0,0:0:0:0:
390,212,70820,2,0,L|400:146,1,56.2500021457673,8|0,0:0|3:0,0:0:0:0:
451,60,71145,5,0,1:0:0:0:
377,34,71307,1,8,0:0:0:0:
377,34,71469,2,0,P|337:24|253:98,1,150,8|0,0:0|3:0,0:0:0:0:
179,132,71955,1,0,3:0:0:0:
179,132,72118,2,0,P|177:91|172:49,1,75,0|0,3:0|3:0,0:0:0:0:
90,16,72442,5,8,1:0:0:0:
47,101,72604,1,8,1:0:0:0:
47,101,73090,5,8,1:0:0:0:
82,188,73253,1,8,1:0:0:0:
29,362,73739,5,4,1:0:0:0:
54,277,73901,2,0,B|143:272|101:343|205:345,1,165.000005035401,2|0,0:0|0:0,0:0:0:0:
284,382,74388,2,0,P|324:331|416:339,1,165.000005035401,2|10,1:2|0:0,0:0:0:0:
477,268,74874,6,0,P|471:222|476:98,1,165.000005035401,2|2,0:0|0:0,0:0:0:0:
421,35,75361,2,0,P|385:70|391:109,1,82.5000025177003,10|0,0:0|0:0,0:0:0:0:
431,175,75685,1,2,1:2:0:0:
483,108,75847,1,8,0:0:0:0:
483,108,76009,1,8,0:0:0:0:
294,28,76334,6,0,P|299:74|301:114,1,82.5000025177003,2|2,1:2|0:2,0:0:0:0:
214,120,76658,2,0,P|209:74|207:34,1,82.5000025177003,8|0,0:2|0:2,0:0:0:0:
133,76,76982,2,0,L|41:83,1,82.5000025177003,2|0,1:2|0:0,0:0:0:0:
0,145,77307,1,10,0:2:0:0:
40,223,77469,1,2,0:2:0:0:
40,223,77631,6,0,P|42:265|47:306,1,82.5000025177003,2|2,1:2|0:0,0:0:0:0:
133,296,77955,2,0,P|131:254|127:214,1,82.5000025177003,8|0,0:0|0:0,0:0:0:0:
213,245,78280,2,0,L|295:251,1,82.5000025177003,2|0,1:2|0:0,0:0:0:0:
354,316,78604,1,8,0:0:0:0:
416,377,78766,1,0,3:0:0:0:
416,377,78847,1,0,3:0:0:0:
416,377,78928,6,0,P|377:340|393:233,1,165.000005035401,4|8,1:2|0:0,0:0:0:0:
458,56,79577,2,0,P|497:93|481:200,1,165.000005035401,2|10,1:2|0:2,0:0:0:0:
456,273,80063,1,2,0:2:0:0:
394,222,80226,6,0,L|293:224,1,82.5000025177003,0|0,1:0|0:0,0:0:0:0:
252,168,80550,2,0,B|152:156|213:99|90:93,2,165.000005035401,10|2|10,0:2|1:2|0:2,0:0:0:0:
60,31,81523,6,0,P|31:100|78:171,1,165.000005035401,6|8,1:2|0:0,0:0:0:0:
139,234,82009,1,2,0:0:0:0:
72,298,82172,2,0,P|140:271|243:269,1,165.000005035401,0|8,1:0|0:0,0:0:0:0:
300,292,82658,1,2,0:0:0:0:
387,354,82820,6,0,L|477:346,1,82.5000025177003,0|8,1:0|0:0,0:0:0:0:
495,269,83145,2,0,L|412:276,1,82.5000025177003,8|0,0:0|1:0,0:0:0:0:
343,217,83469,2,0,P|312:184|319:136,1,82.5000025177003,0|0,3:0|3:0,0:0:0:0:
319,138,83712,1,0,0:0:0:0:
323,126,83793,1,0,3:0:0:0:
511,48,84118,5,4,1:0:0:0:
463,112,84280,2,0,B|371:110|408:45|294:48,1,165.000005035401,2|0,0:0|0:0,0:0:0:0:
238,98,84766,2,0,L|155:94,1,82.5000025177003,2|0,1:2|0:0,0:0:0:0:
78,51,85090,1,10,0:0:0:0:
87,136,85253,6,0,L|83:219,1,82.5000025177003,2|0,0:0|1:0,0:0:0:0:
40,296,85577,1,2,0:0:0:0:
125,287,85739,2,0,L|208:291,1,82.5000025177003,10|0,0:0|0:0,0:0:0:0:
281,329,86063,2,0,P|327:313|347:268,1,82.5000025177003,2|8,1:2|0:0,0:0:0:0:
276,249,86388,2,0,L|280:166,1,82.5000025177003,8|2,0:0|0:0,0:0:0:0:
276,154,86631,1,0,0:0:0:0:
272,142,86712,5,6,1:2:0:0:
320,72,86874,2,0,B|425:74|360:141|477:140,1,165.000005035401,2|0,0:2|0:0,0:0:0:0:
512,214,87361,2,0,P|462:242|473:350,1,165.000005035401,2|8,1:2|0:0,0:0:0:0:
386,370,87847,6,0,L|296:363,1,82.5000025177003,2|0,0:0|1:0,0:0:0:0:
208,363,88172,2,0,L|126:370,1,82.5000025177003,2|8,0:0|0:0,0:0:0:0:
54,330,88496,1,0,0:0:0:0:
127,286,88658,2,0,B|134:246|131:195|80:222|72:175|85:111,1,165.000005035401,2|10,1:2|2:0,0:0:0:0:
7,61,89145,1,2,3:2:0:0:
7,61,89226,1,0,3:0:0:0:
7,61,89307,6,0,B|74:82|107:16|107:16|79:21|46:20,1,165.000005035401,4|8,1:2|0:0,0:0:0:0:
242,44,89955,2,0,B|249:84|246:135|195:108|187:155|200:219,1,165.000005035401,2|10,1:2|0:2,0:0:0:0:
211,269,90442,1,2,0:2:0:0:
182,354,90604,6,0,P|273:342|363:345,1,165.000005035401,0|8,1:0|0:0,0:0:0:0:
432,356,91090,1,2,0:2:0:0:
432,356,91253,2,0,P|475:344|480:234,1,165.000005035401,2|10,1:2|0:2,0:0:0:0:
499,162,91739,1,0,3:0:0:0:
499,162,91820,1,0,3:0:0:0:
499,162,91901,6,0,B|400:155|441:220|335:210,1,165.000005035401,4|8,1:2|0:0,0:0:0:0:
298,152,92388,1,0,0:0:0:0:
256,88,92550,2,0,L|256:0,2,82.5000025177003,0|0|8,1:0|0:0|0:0,0:0:0:0:
214,152,93036,1,0,0:0:0:0:
164,210,93199,6,0,P|114:198|65:200,1,82.5000025177003,0|0,1:0|1:0,0:0:0:0:
10,247,93523,2,0,L|3:160,1,82.5000025177003,12|0,0:0|0:0,0:0:0:0:
0,52,93847,2,0,P|50:64|99:62,1,82.5000025177003,8|0,0:0|1:0,0:0:0:0:
92,62,94090,1,0,1:0:0:0:
103,57,94172,2,0,L|199:60,1,82.5000025177003,8|0,0:0|1:0,0:0:0:0:
312,31,94496,5,4,0:0:0:0:
312,31,94982,1,0,1:0:0:0:
366,96,95145,2,0,B|377:171|316:162|327:249,1,150,8|8,0:0|0:0,0:0:0:0:
379,300,95631,1,0,1:0:0:0:
292,361,95793,6,0,P|234:359|187:363,1,75,8|0,0:0|1:0,0:0:0:0:
208,366,96036,1,0,1:0:0:0:
200,368,96118,6,0,B|126:382|84:332|94:279|94:279|153:263|169:316,1,240,12|0,0:0|0:0,0:0:0:0:
