osu file format v14

[General]
AudioFilename: audio.ogg
AudioLeadIn: 0
PreviewTime: 42581
Countdown: 0
SampleSet: Soft
StackLeniency: 0.7
Mode: 3
LetterboxInBreaks: 0
SpecialStyle: 0
WidescreenStoryboard: 1

[Editor]
DistanceSpacing: 0.4
BeatDivisor: 4
GridSize: 32
TimelineZoom: 1.4

[Metadata]
Title:Kawaikute Gomen
TitleUnicode:可愛くてごめん
Artist:Minato Aqua
ArtistUnicode:湊あくあ
Creator:DenYi
Version:Easy >w<
Source:
Tags:SuzumeAyase Nicknem_ japanese j-pop jpop pop hololive ホロライブ virtual youtuber vtuber バーチャル full version ver cover honeyworks 6th Album shito i'm im i am sorry for being too cute 告白実行委員会 ~恋愛シリーズ~ kokuhaku jikkou iinkai renai series Chuu-tan Chutan Chuutan hayami saori 早見沙織 Nakamura Chizuru 中村千鶴 kawaii haniwa ハニワ ren'ai female vocalist vocals
BeatmapID:3952866
BeatmapSetID:1916008

[Difficulty]
HPDrainRate:6.5
CircleSize:4
OverallDifficulty:6.5
ApproachRate:5
SliderMultiplier:1.4
SliderTickRate:1

[Events]
//Background and Video events
0,0,"bg.jpg",0,0
Video,0,"kawai.mp4"
//Break Periods
//Storyboard Layer 0 (Background)
//Storyboard Layer 1 (Fail)
//Storyboard Layer 2 (Pass)
//Storyboard Layer 3 (Foreground)
//Storyboard Layer 4 (Overlay)
//Storyboard Sound Samples

[TimingPoints]
581,375,4,2,1,50,1,0
42581,-100,4,2,1,50,0,1
69581,-100,4,2,1,50,0,0
111581,-100,4,2,1,50,0,1
138581,-100,4,2,1,50,0,0
182831,375,4,2,1,50,1,0
188831,-100,4,2,1,50,0,1
203831,-100,4,2,1,50,0,0

[HitObjects]
64,192,581,128,0,956:0:0:0:0:
448,192,581,1,0,0:0:0:0:
320,192,1331,128,0,1706:0:0:0:0:
192,192,1331,1,0,0:0:0:0:
192,192,2081,128,0,2456:0:0:0:0:
448,192,2081,1,0,0:0:0:0:
448,192,2831,128,0,3206:0:0:0:0:
64,192,2831,1,0,0:0:0:0:
192,192,3393,1,0,0:0:0:0:
320,192,3581,128,0,3956:0:0:0:0:
448,192,3581,1,0,0:0:0:0:
64,192,4331,128,0,4706:0:0:0:0:
192,192,4331,1,0,0:0:0:0:
320,192,4706,1,0,0:0:0:0:
192,192,4893,1,0,0:0:0:0:
64,192,5081,1,0,0:0:0:0:
448,192,5081,128,0,5456:0:0:0:0:
192,192,5643,1,0,0:0:0:0:
320,192,5831,1,0,0:0:0:0:
64,192,6112,1,0,0:0:0:0:
448,192,6393,1,0,0:0:0:0:
320,192,6581,1,0,0:0:0:0:
192,192,6581,1,0,0:0:0:0:
192,192,6956,1,0,0:0:0:0:
448,192,7331,1,0,0:0:0:0:
64,192,7331,1,0,0:0:0:0:
448,192,7706,1,0,0:0:0:0:
64,192,8081,1,0,0:0:0:0:
320,192,8081,1,0,0:0:0:0:
64,192,8456,1,0,0:0:0:0:
320,192,8831,1,0,0:0:0:0:
192,192,9018,1,0,0:0:0:0:
320,192,9206,1,0,0:0:0:0:
192,192,9393,1,0,0:0:0:0:
448,192,9581,128,0,9956:0:0:0:0:
192,192,10143,1,0,0:0:0:0:
320,192,10331,128,0,10706:0:0:0:0:
64,192,10706,128,0,11081:0:0:0:0:
320,192,11081,1,0,0:0:0:0:
448,192,11081,128,0,11456:0:0:0:0:
192,192,11456,128,0,11831:0:0:0:0:
320,192,11831,128,0,12206:0:0:0:0:
64,192,12206,1,0,0:0:0:0:
192,192,12206,1,0,0:0:0:0:
320,192,12581,1,0,0:0:0:0:
448,192,12581,1,0,0:0:0:0:
64,192,12956,1,0,0:0:0:0:
320,192,13331,1,0,0:0:0:0:
192,192,13706,1,0,0:0:0:0:
448,192,14081,1,0,0:0:0:0:
320,192,14456,1,0,0:0:0:0:
64,192,14831,1,0,0:0:0:0:
192,192,15206,1,0,0:0:0:0:
320,192,15581,1,0,0:0:0:0:
448,192,15956,1,0,0:0:0:0:
192,192,16331,1,0,0:0:0:0:
320,192,16706,1,0,0:0:0:0:
64,192,17081,1,0,0:0:0:0:
192,192,17456,1,0,0:0:0:0:
448,192,17831,128,0,18206:0:0:0:0:
64,192,18206,1,0,0:0:0:0:
320,192,18581,1,0,0:0:0:0:
192,192,18956,1,0,0:0:0:0:
448,192,19331,1,0,0:0:0:0:
64,192,19706,1,0,0:0:0:0:
320,192,20081,1,0,0:0:0:0:
192,192,20456,1,0,0:0:0:0:
448,192,20831,1,0,0:0:0:0:
320,192,21206,1,0,0:0:0:0:
192,192,21581,1,0,0:0:0:0:
64,192,21956,1,0,0:0:0:0:
320,192,22331,1,0,0:0:0:0:
448,192,22706,1,0,0:0:0:0:
192,192,23081,128,0,23456:0:0:0:0:
320,192,23456,128,0,23831:0:0:0:0:
448,192,23831,128,0,24206:0:0:0:0:
64,192,24206,128,0,24581:0:0:0:0:
320,192,24581,1,0,0:0:0:0:
448,192,24581,1,0,0:0:0:0:
192,192,24956,1,0,0:0:0:0:
192,192,25143,1,0,0:0:0:0:
448,192,25518,1,0,0:0:0:0:
64,192,25706,1,0,0:0:0:0:
320,192,26081,1,0,0:0:0:0:
192,192,26456,1,0,0:0:0:0:
192,192,26643,1,0,0:0:0:0:
448,192,27018,1,0,0:0:0:0:
64,192,27206,1,0,0:0:0:0:
192,192,27581,1,0,0:0:0:0:
320,192,27956,1,0,0:0:0:0:
320,192,28143,1,0,0:0:0:0:
64,192,28518,1,0,0:0:0:0:
448,192,28706,1,0,0:0:0:0:
192,192,29081,1,0,0:0:0:0:
320,192,29456,1,0,0:0:0:0:
320,192,29643,1,0,0:0:0:0:
64,192,29831,128,0,30206:0:0:0:0:
448,192,30206,128,0,30581:0:0:0:0:
64,192,30581,1,0,0:0:0:0:
192,192,30581,128,0,30956:0:0:0:0:
448,192,30956,1,0,0:0:0:0:
64,192,31143,1,0,0:0:0:0:
320,192,31331,128,0,31706:0:0:0:0:
192,192,31706,128,0,32081:0:0:0:0:
448,192,32081,128,0,32456:0:0:0:0:
192,192,32456,1,0,0:0:0:0:
320,192,32643,1,0,0:0:0:0:
64,192,32831,128,0,33206:0:0:0:0:
448,192,33206,128,0,33581:0:0:0:0:
64,192,33581,1,0,0:0:0:0:
192,192,33581,128,0,33956:0:0:0:0:
320,192,33956,1,0,0:0:0:0:
64,192,34331,1,0,0:0:0:0:
448,192,34518,1,0,0:0:0:0:
192,192,34706,1,0,0:0:0:0:
320,192,35081,1,0,0:0:0:0:
64,192,35456,1,0,0:0:0:0:
448,192,35831,1,0,0:0:0:0:
192,192,36018,1,0,0:0:0:0:
320,192,36206,1,0,0:0:0:0:
448,192,36581,1,0,0:0:0:0:
64,192,36581,128,0,36956:0:0:0:0:
320,192,36956,1,0,0:0:0:0:
192,192,37331,1,0,0:0:0:0:
320,192,37706,1,0,0:0:0:0:
192,192,38081,128,0,38456:0:0:0:0:
448,192,38456,128,0,38831:0:0:0:0:
64,192,38831,128,0,39206:0:0:0:0:
320,192,39206,128,0,39581:0:0:0:0:
64,192,39581,1,0,0:0:0:0:
448,192,39581,1,0,0:0:0:0:
192,192,39956,1,0,0:0:0:0:
320,192,40331,1,0,0:0:0:0:
448,192,40706,1,0,0:0:0:0:
64,192,41081,128,0,41456:0:0:0:0:
320,192,41456,128,0,41831:0:0:0:0:
192,192,41831,128,0,42206:0:0:0:0:
448,192,42206,128,0,42581:0:0:0:0:
64,192,42581,128,0,42956:0:0:0:0:
320,192,42581,1,0,0:0:0:0:
448,192,42956,1,0,0:0:0:0:
192,192,43143,1,0,0:0:0:0:
320,192,43331,128,0,43706:0:0:0:0:
64,192,43706,1,0,0:0:0:0:
448,192,43893,1,0,0:0:0:0:
192,192,44081,128,0,44456:0:0:0:0:
320,192,44456,128,0,44831:0:0:0:0:
64,192,44831,128,0,45206:0:0:0:0:
320,192,45206,1,0,0:0:0:0:
192,192,45393,1,0,0:0:0:0:
448,192,45581,128,0,45956:0:0:0:0:
64,192,45956,1,0,0:0:0:0:
320,192,46143,1,0,0:0:0:0:
192,192,46331,1,0,0:0:0:0:
448,192,46518,1,0,0:0:0:0:
64,192,46706,128,0,47081:0:0:0:0:
320,192,47081,128,0,47456:0:0:0:0:
192,192,47456,128,0,47831:0:0:0:0:
448,192,47831,128,0,48206:0:0:0:0:
64,192,48206,1,0,0:0:0:0:
320,192,48581,128,0,48956:0:0:0:0:
192,192,48581,1,0,0:0:0:0:
448,192,48956,1,0,0:0:0:0:
64,192,49143,1,0,0:0:0:0:
320,192,49331,1,0,0:0:0:0:
192,192,49518,1,0,0:0:0:0:
448,192,49706,128,0,50081:0:0:0:0:
64,192,50081,128,0,50456:0:0:0:0:
320,192,50456,128,0,50831:0:0:0:0:
192,192,50831,128,0,51206:0:0:0:0:
448,192,51206,1,0,0:0:0:0:
64,192,51393,1,0,0:0:0:0:
320,192,51581,128,0,51956:0:0:0:0:
192,192,51956,1,0,0:0:0:0:
448,192,52143,1,0,0:0:0:0:
64,192,52331,128,0,52706:0:0:0:0:
192,192,52706,1,0,0:0:0:0:
320,192,52893,1,0,0:0:0:0:
448,192,53081,128,0,53456:0:0:0:0:
64,192,53456,128,0,53831:0:0:0:0:
192,192,53456,1,0,0:0:0:0:
320,192,53831,128,0,54206:0:0:0:0:
192,192,54206,128,0,54581:0:0:0:0:
64,192,54581,1,0,0:0:0:0:
448,192,54581,128,0,54956:0:0:0:0:
320,192,54956,1,0,0:0:0:0:
64,192,55143,1,0,0:0:0:0:
192,192,55331,128,0,55706:0:0:0:0:
448,192,55706,1,0,0:0:0:0:
320,192,55893,1,0,0:0:0:0:
64,192,56081,128,0,56456:0:0:0:0:
448,192,56456,128,0,56831:0:0:0:0:
192,192,56831,128,0,57206:0:0:0:0:
320,192,57206,1,0,0:0:0:0:
448,192,57393,1,0,0:0:0:0:
64,192,57581,128,0,57956:0:0:0:0:
320,192,57956,1,0,0:0:0:0:
192,192,58143,1,0,0:0:0:0:
448,192,58331,128,0,58706:0:0:0:0:
64,192,58706,1,0,0:0:0:0:
192,192,58893,1,0,0:0:0:0:
320,192,59081,128,0,59456:0:0:0:0:
192,192,59456,128,0,59831:0:0:0:0:
448,192,59831,128,0,60206:0:0:0:0:
320,192,60206,1,0,0:0:0:0:
192,192,60393,1,0,0:0:0:0:
448,192,60581,1,0,0:0:0:0:
64,192,60581,128,0,60956:0:0:0:0:
320,192,60956,1,0,0:0:0:0:
192,192,61143,1,0,0:0:0:0:
448,192,61331,1,0,0:0:0:0:
64,192,61518,1,0,0:0:0:0:
320,192,61706,128,0,62081:0:0:0:0:
192,192,62081,128,0,62456:0:0:0:0:
64,192,62456,128,0,62831:0:0:0:0:
448,192,62831,128,0,63206:0:0:0:0:
192,192,63206,1,0,0:0:0:0:
320,192,63393,1,0,0:0:0:0:
64,192,63581,128,0,63956:0:0:0:0:
448,192,63956,1,0,0:0:0:0:
192,192,64143,1,0,0:0:0:0:
320,192,64331,1,0,0:0:0:0:
64,192,64518,1,0,0:0:0:0:
448,192,64706,128,0,65081:0:0:0:0:
192,192,65081,128,0,65456:0:0:0:0:
320,192,65456,128,0,65831:0:0:0:0:
64,192,65831,1,0,0:0:0:0:
448,192,66018,1,0,0:0:0:0:
192,192,66206,1,0,0:0:0:0:
64,192,66206,128,0,66581:0:0:0:0:
448,192,66581,1,0,0:0:0:0:
192,192,67331,1,0,0:0:0:0:
320,192,68081,1,0,0:0:0:0:
320,192,68456,1,0,0:0:0:0:
320,192,68831,1,0,0:0:0:0:
64,192,69581,1,0,0:0:0:0:
448,192,69581,1,0,0:0:0:0:
192,192,69956,1,0,0:0:0:0:
448,192,70331,1,0,0:0:0:0:
64,192,70706,1,0,0:0:0:0:
320,192,71081,1,0,0:0:0:0:
192,192,71456,1,0,0:0:0:0:
448,192,71831,1,0,0:0:0:0:
64,192,72206,1,0,0:0:0:0:
192,192,72581,1,0,0:0:0:0:
320,192,72956,1,0,0:0:0:0:
64,192,73331,1,0,0:0:0:0:
448,192,73706,1,0,0:0:0:0:
192,192,74081,1,0,0:0:0:0:
64,192,74456,1,0,0:0:0:0:
448,192,74831,1,0,0:0:0:0:
320,192,75018,1,0,0:0:0:0:
192,192,75206,1,0,0:0:0:0:
64,192,75393,1,0,0:0:0:0:
448,192,75581,1,0,0:0:0:0:
320,192,75581,1,0,0:0:0:0:
192,192,75956,1,0,0:0:0:0:
448,192,76331,1,0,0:0:0:0:
64,192,76706,1,0,0:0:0:0:
320,192,77081,1,0,0:0:0:0:
192,192,77456,1,0,0:0:0:0:
448,192,77831,1,0,0:0:0:0:
320,192,78206,1,0,0:0:0:0:
64,192,78581,1,0,0:0:0:0:
192,192,78956,1,0,0:0:0:0:
448,192,79331,1,0,0:0:0:0:
64,192,79706,1,0,0:0:0:0:
192,192,79893,1,0,0:0:0:0:
448,192,80081,1,0,0:0:0:0:
320,192,80081,128,0,80456:0:0:0:0:
192,192,80456,128,0,80831:0:0:0:0:
64,192,80831,128,0,81206:0:0:0:0:
448,192,81206,128,0,81581:0:0:0:0:
64,192,81581,1,0,0:0:0:0:
320,192,81581,1,0,0:0:0:0:
192,192,81768,128,0,82143:0:0:0:0:
320,192,82143,1,0,0:0:0:0:
64,192,82331,1,0,0:0:0:0:
448,192,82518,1,0,0:0:0:0:
192,192,83081,1,0,0:0:0:0:
320,192,83362,128,0,83831:0:0:0:0:
64,192,83831,1,0,0:0:0:0:
448,192,84018,1,0,0:0:0:0:
320,192,84581,1,0,0:0:0:0:
64,192,84862,128,0,85331:0:0:0:0:
448,192,85331,1,0,0:0:0:0:
192,192,85706,1,0,0:0:0:0:
320,192,86081,1,0,0:0:0:0:
64,192,86268,1,0,0:0:0:0:
448,192,86456,1,0,0:0:0:0:
192,192,86643,1,0,0:0:0:0:
320,192,86831,128,0,87206:0:0:0:0:
192,192,87206,1,0,0:0:0:0:
64,192,87581,1,0,0:0:0:0:
448,192,87581,1,0,0:0:0:0:
320,192,87956,1,0,0:0:0:0:
64,192,88331,1,0,0:0:0:0:
448,192,88706,1,0,0:0:0:0:
192,192,89081,1,0,0:0:0:0:
320,192,89456,1,0,0:0:0:0:
64,192,89831,1,0,0:0:0:0:
192,192,90206,1,0,0:0:0:0:
448,192,90581,1,0,0:0:0:0:
64,192,90956,1,0,0:0:0:0:
320,192,91331,1,0,0:0:0:0:
192,192,91706,1,0,0:0:0:0:
64,192,92081,128,0,92456:0:0:0:0:
448,192,92456,128,0,92831:0:0:0:0:
320,192,92831,128,0,93206:0:0:0:0:
192,192,93206,128,0,93581:0:0:0:0:
64,192,93581,1,0,0:0:0:0:
448,192,93581,1,0,0:0:0:0:
320,192,93956,1,0,0:0:0:0:
320,192,94143,1,0,0:0:0:0:
64,192,94518,1,0,0:0:0:0:
448,192,94706,1,0,0:0:0:0:
192,192,95081,1,0,0:0:0:0:
320,192,95456,1,0,0:0:0:0:
320,192,95643,1,0,0:0:0:0:
64,192,96018,1,0,0:0:0:0:
448,192,96206,1,0,0:0:0:0:
320,192,96581,1,0,0:0:0:0:
192,192,96956,1,0,0:0:0:0:
192,192,97143,1,0,0:0:0:0:
448,192,97518,1,0,0:0:0:0:
64,192,97706,1,0,0:0:0:0:
320,192,98081,1,0,0:0:0:0:
192,192,98456,1,0,0:0:0:0:
192,192,98643,1,0,0:0:0:0:
448,192,98831,128,0,99206:0:0:0:0:
64,192,99206,128,0,99581:0:0:0:0:
448,192,99581,1,0,0:0:0:0:
320,192,99581,128,0,99956:0:0:0:0:
64,192,99956,1,0,0:0:0:0:
448,192,100143,1,0,0:0:0:0:
192,192,100331,128,0,100706:0:0:0:0:
320,192,100706,128,0,101081:0:0:0:0:
64,192,101081,128,0,101456:0:0:0:0:
320,192,101456,1,0,0:0:0:0:
192,192,101643,1,0,0:0:0:0:
448,192,101831,128,0,102206:0:0:0:0:
64,192,102206,128,0,102581:0:0:0:0:
448,192,102581,1,0,0:0:0:0:
320,192,102581,128,0,102956:0:0:0:0:
192,192,102956,1,0,0:0:0:0:
448,192,103331,1,0,0:0:0:0:
64,192,103518,1,0,0:0:0:0:
320,192,103706,1,0,0:0:0:0:
192,192,104081,1,0,0:0:0:0:
448,192,104456,1,0,0:0:0:0:
64,192,104831,1,0,0:0:0:0:
320,192,105018,1,0,0:0:0:0:
192,192,105206,1,0,0:0:0:0:
64,192,105581,1,0,0:0:0:0:
448,192,105581,128,0,105956:0:0:0:0:
192,192,105956,1,0,0:0:0:0:
320,192,106331,1,0,0:0:0:0:
192,192,106706,1,0,0:0:0:0:
320,192,107081,128,0,107456:0:0:0:0:
64,192,107456,128,0,107831:0:0:0:0:
448,192,107831,1,0,0:0:0:0:
192,192,108018,128,0,108581:0:0:0:0:
448,192,108581,1,0,0:0:0:0:
64,192,108581,1,0,0:0:0:0:
320,192,108956,1,0,0:0:0:0:
192,192,109331,1,0,0:0:0:0:
64,192,109706,1,0,0:0:0:0:
448,192,110081,128,0,110456:0:0:0:0:
192,192,110456,1,0,0:0:0:0:
320,192,110643,1,0,0:0:0:0:
448,192,111018,1,0,0:0:0:0:
64,192,111206,128,0,111581:0:0:0:0:
448,192,111581,128,0,111956:0:0:0:0:
192,192,111581,1,0,0:0:0:0:
64,192,111956,1,0,0:0:0:0:
320,192,112143,1,0,0:0:0:0:
192,192,112331,128,0,112706:0:0:0:0:
448,192,112706,1,0,0:0:0:0:
64,192,112893,1,0,0:0:0:0:
320,192,113081,128,0,113456:0:0:0:0:
192,192,113456,128,0,113831:0:0:0:0:
448,192,113831,128,0,114206:0:0:0:0:
192,192,114206,1,0,0:0:0:0:
320,192,114393,1,0,0:0:0:0:
64,192,114581,128,0,114956:0:0:0:0:
448,192,114956,1,0,0:0:0:0:
192,192,115143,1,0,0:0:0:0:
320,192,115331,128,0,115706:0:0:0:0:
64,192,115706,1,0,0:0:0:0:
448,192,115893,1,0,0:0:0:0:
192,192,116081,128,0,116456:0:0:0:0:
320,192,116456,128,0,116831:0:0:0:0:
64,192,116831,128,0,117206:0:0:0:0:
448,192,117206,1,0,0:0:0:0:
320,192,117581,128,0,117956:0:0:0:0:
192,192,117581,1,0,0:0:0:0:
64,192,117956,1,0,0:0:0:0:
448,192,118143,1,0,0:0:0:0:
192,192,118331,128,0,118706:0:0:0:0:
320,192,118706,1,0,0:0:0:0:
448,192,118893,1,0,0:0:0:0:
64,192,119081,128,0,119456:0:0:0:0:
448,192,119456,128,0,119831:0:0:0:0:
192,192,119831,128,0,120206:0:0:0:0:
320,192,120206,1,0,0:0:0:0:
64,192,120393,1,0,0:0:0:0:
448,192,120581,128,0,120956:0:0:0:0:
192,192,120956,1,0,0:0:0:0:
320,192,121143,1,0,0:0:0:0:
64,192,121331,128,0,121706:0:0:0:0:
448,192,121706,1,0,0:0:0:0:
192,192,121893,1,0,0:0:0:0:
320,192,122081,128,0,122456:0:0:0:0:
64,192,122456,128,0,122831:0:0:0:0:
448,192,122831,128,0,123206:0:0:0:0:
192,192,123206,128,0,123581:0:0:0:0:
448,192,123581,1,0,0:0:0:0:
320,192,123581,128,0,123956:0:0:0:0:
64,192,123956,1,0,0:0:0:0:
448,192,124143,1,0,0:0:0:0:
192,192,124331,128,0,124706:0:0:0:0:
320,192,124706,1,0,0:0:0:0:
64,192,124893,1,0,0:0:0:0:
448,192,125081,128,0,125456:0:0:0:0:
192,192,125456,128,0,125831:0:0:0:0:
320,192,125831,128,0,126206:0:0:0:0:
64,192,126206,1,0,0:0:0:0:
448,192,126393,1,0,0:0:0:0:
192,192,126581,128,0,126956:0:0:0:0:
320,192,126956,1,0,0:0:0:0:
64,192,127143,1,0,0:0:0:0:
448,192,127331,1,0,0:0:0:0:
192,192,127518,1,0,0:0:0:0:
320,192,127706,128,0,128081:0:0:0:0:
64,192,128081,128,0,128456:0:0:0:0:
192,192,128456,128,0,128831:0:0:0:0:
448,192,128831,128,0,129206:0:0:0:0:
192,192,129206,1,0,0:0:0:0:
320,192,129393,1,0,0:0:0:0:
448,192,129581,1,0,0:0:0:0:
64,192,129581,128,0,129956:0:0:0:0:
320,192,129956,1,0,0:0:0:0:
192,192,130143,1,0,0:0:0:0:
448,192,130331,128,0,130706:0:0:0:0:
64,192,130706,1,0,0:0:0:0:
320,192,130893,1,0,0:0:0:0:
192,192,131081,128,0,131456:0:0:0:0:
448,192,131456,128,0,131831:0:0:0:0:
64,192,131831,128,0,132206:0:0:0:0:
320,192,132206,1,0,0:0:0:0:
192,192,132393,1,0,0:0:0:0:
448,192,132581,128,0,132956:0:0:0:0:
64,192,132956,1,0,0:0:0:0:
320,192,133143,1,0,0:0:0:0:
192,192,133331,1,0,0:0:0:0:
448,192,133518,1,0,0:0:0:0:
64,192,133706,128,0,134081:0:0:0:0:
320,192,134081,128,0,134456:0:0:0:0:
192,192,134456,128,0,134831:0:0:0:0:
448,192,134831,128,0,135206:0:0:0:0:
192,192,135206,1,0,0:0:0:0:
64,192,135206,1,0,0:0:0:0:
320,192,135393,1,0,0:0:0:0:
192,192,135581,1,0,0:0:0:0:
448,192,136331,1,0,0:0:0:0:
64,192,137081,1,0,0:0:0:0:
64,192,137456,1,0,0:0:0:0:
64,192,137831,1,0,0:0:0:0:
320,192,138581,1,0,0:0:0:0:
448,192,138581,128,0,138956:0:0:0:0:
192,192,138956,1,0,0:0:0:0:
192,192,139143,1,0,0:0:0:0:
448,192,139518,1,0,0:0:0:0:
64,192,139706,1,0,0:0:0:0:
320,192,140081,128,0,140456:0:0:0:0:
192,192,140456,1,0,0:0:0:0:
192,192,140643,1,0,0:0:0:0:
448,192,141018,1,0,0:0:0:0:
64,192,141206,1,0,0:0:0:0:
192,192,141581,128,0,141956:0:0:0:0:
320,192,141956,1,0,0:0:0:0:
320,192,142143,1,0,0:0:0:0:
192,192,142518,1,0,0:0:0:0:
448,192,142706,1,0,0:0:0:0:
64,192,143081,128,0,143456:0:0:0:0:
320,192,143456,1,0,0:0:0:0:
320,192,143643,1,0,0:0:0:0:
192,192,144018,1,0,0:0:0:0:
448,192,144206,1,0,0:0:0:0:
320,192,144581,128,0,144956:0:0:0:0:
192,192,144956,1,0,0:0:0:0:
192,192,145143,1,0,0:0:0:0:
448,192,145518,1,0,0:0:0:0:
64,192,145706,1,0,0:0:0:0:
192,192,146081,128,0,146456:0:0:0:0:
320,192,146456,1,0,0:0:0:0:
320,192,146643,1,0,0:0:0:0:
192,192,147018,1,0,0:0:0:0:
448,192,147206,1,0,0:0:0:0:
64,192,147581,128,0,147956:0:0:0:0:
448,192,147956,1,0,0:0:0:0:
448,192,148143,1,0,0:0:0:0:
192,192,148518,1,0,0:0:0:0:
320,192,148706,1,0,0:0:0:0:
64,192,149081,1,0,0:0:0:0:
448,192,149268,1,0,0:0:0:0:
192,192,149456,1,0,0:0:0:0:
192,192,149643,1,0,0:0:0:0:
320,192,149831,128,0,150206:0:0:0:0:
64,192,150206,128,0,150581:0:0:0:0:
320,192,150581,1,0,0:0:0:0:
448,192,150581,1,0,0:0:0:0:
320,192,150956,1,0,0:0:0:0:
192,192,151331,1,0,0:0:0:0:
192,192,151706,1,0,0:0:0:0:
448,192,152081,1,0,0:0:0:0:
448,192,152456,1,0,0:0:0:0:
64,192,152831,1,0,0:0:0:0:
64,192,153206,1,0,0:0:0:0:
320,192,153581,1,0,0:0:0:0:
320,192,153956,1,0,0:0:0:0:
192,192,154331,128,0,154706:0:0:0:0:
448,192,154706,128,0,155081:0:0:0:0:
64,192,155081,128,0,155456:0:0:0:0:
320,192,155456,128,0,155831:0:0:0:0:
192,192,155831,128,0,156206:0:0:0:0:
448,192,156206,128,0,156581:0:0:0:0:
192,192,156581,1,0,0:0:0:0:
320,192,156768,1,0,0:0:0:0:
64,192,156956,128,0,157331:0:0:0:0:
448,192,157331,128,0,157706:0:0:0:0:
192,192,157706,128,0,158081:0:0:0:0:
448,192,158081,1,0,0:0:0:0:
64,192,158268,1,0,0:0:0:0:
320,192,158456,1,0,0:0:0:0:
192,192,158643,1,0,0:0:0:0:
448,192,158831,128,0,159206:0:0:0:0:
64,192,159206,1,0,0:0:0:0:
192,192,159206,1,0,0:0:0:0:
448,192,159581,1,0,0:0:0:0:
320,192,159581,1,0,0:0:0:0:
192,192,159956,1,0,0:0:0:0:
320,192,160331,1,0,0:0:0:0:
192,192,160706,1,0,0:0:0:0:
320,192,161081,1,0,0:0:0:0:
448,192,161081,128,0,161456:0:0:0:0:
64,192,161456,128,0,161831:0:0:0:0:
320,192,161831,128,0,162206:0:0:0:0:
192,192,162206,128,0,162581:0:0:0:0:
448,192,162581,1,0,0:0:0:0:
64,192,162581,1,0,0:0:0:0:
320,192,162956,1,0,0:0:0:0:
64,192,163331,1,0,0:0:0:0:
192,192,163706,1,0,0:0:0:0:
448,192,164081,1,0,0:0:0:0:
64,192,164456,1,0,0:0:0:0:
192,192,164831,1,0,0:0:0:0:
448,192,165206,1,0,0:0:0:0:
64,192,165581,1,0,0:0:0:0:
448,192,165956,1,0,0:0:0:0:
192,192,166331,1,0,0:0:0:0:
320,192,166706,1,0,0:0:0:0:
192,192,167081,1,0,0:0:0:0:
64,192,167456,1,0,0:0:0:0:
448,192,167456,1,0,0:0:0:0:
320,192,167831,1,0,0:0:0:0:
192,192,168206,1,0,0:0:0:0:
320,192,168393,1,0,0:0:0:0:
448,192,168581,1,0,0:0:0:0:
64,192,168581,128,0,168956:0:0:0:0:
320,192,168956,1,0,0:0:0:0:
192,192,169143,1,0,0:0:0:0:
448,192,169331,128,0,169706:0:0:0:0:
64,192,169706,128,0,170081:0:0:0:0:
320,192,170081,128,0,170456:0:0:0:0:
192,192,170456,128,0,170831:0:0:0:0:
448,192,170831,128,0,171206:0:0:0:0:
192,192,171206,1,0,0:0:0:0:
320,192,171393,1,0,0:0:0:0:
64,192,171581,128,0,171956:0:0:0:0:
192,192,171956,128,0,172331:0:0:0:0:
448,192,172331,128,0,172706:0:0:0:0:
320,192,172706,128,0,173081:0:0:0:0:
64,192,173081,1,0,0:0:0:0:
448,192,173268,1,0,0:0:0:0:
192,192,173456,128,0,173831:0:0:0:0:
320,192,173831,128,0,174206:0:0:0:0:
64,192,174206,1,0,0:0:0:0:
448,192,174206,1,0,0:0:0:0:
192,192,174581,128,0,174956:0:0:0:0:
320,192,175331,128,0,175706:0:0:0:0:
64,192,176081,128,0,176456:0:0:0:0:
192,192,176456,1,0,0:0:0:0:
448,192,176831,128,0,177206:0:0:0:0:
320,192,177581,128,0,177956:0:0:0:0:
64,192,178331,128,0,178706:0:0:0:0:
448,192,179081,128,0,179831:0:0:0:0:
64,192,179831,1,0,0:0:0:0:
192,192,180018,1,0,0:0:0:0:
320,192,180206,1,0,0:0:0:0:
448,192,180393,1,0,0:0:0:0:
64,192,180581,128,0,180956:0:0:0:0:
320,192,180956,1,0,0:0:0:0:
192,192,181143,1,0,0:0:0:0:
448,192,181331,128,0,181706:0:0:0:0:
192,192,181706,1,0,0:0:0:0:
320,192,181893,1,0,0:0:0:0:
64,192,182081,128,0,182456:0:0:0:0:
448,192,182456,128,0,182831:0:0:0:0:
192,192,182831,128,0,184331:0:0:0:0:
448,192,185831,128,0,186206:0:0:0:0:
320,192,186581,128,0,186956:0:0:0:0:
192,192,187331,128,0,187706:0:0:0:0:
320,192,187706,128,0,188081:0:0:0:0:
64,192,188081,128,0,188456:0:0:0:0:
448,192,188456,128,0,188831:0:0:0:0:
192,192,188831,128,0,189206:0:0:0:0:
320,192,188831,1,0,0:0:0:0:
448,192,189206,1,0,0:0:0:0:
64,192,189393,1,0,0:0:0:0:
320,192,189581,128,0,189956:0:0:0:0:
192,192,189956,1,0,0:0:0:0:
448,192,190143,1,0,0:0:0:0:
64,192,190331,128,0,190706:0:0:0:0:
320,192,190706,128,0,191456:0:0:0:0:
192,192,191081,128,0,191456:0:0:0:0:
448,192,191456,1,0,0:0:0:0:
64,192,191643,1,0,0:0:0:0:
320,192,191831,128,0,192206:0:0:0:0:
192,192,192206,1,0,0:0:0:0:
448,192,192393,1,0,0:0:0:0:
64,192,192581,128,0,192956:0:0:0:0:
320,192,192956,1,0,0:0:0:0:
320,192,193143,1,0,0:0:0:0:
192,192,193331,128,0,193706:0:0:0:0:
448,192,193706,128,0,194456:0:0:0:0:
64,192,194081,128,0,194456:0:0:0:0:
320,192,194456,1,0,0:0:0:0:
192,192,194831,128,0,195206:0:0:0:0:
64,192,194831,1,0,0:0:0:0:
448,192,195206,1,0,0:0:0:0:
64,192,195393,1,0,0:0:0:0:
320,192,195581,1,0,0:0:0:0:
192,192,195768,1,0,0:0:0:0:
448,192,195956,128,0,196331:0:0:0:0:
64,192,196331,128,0,196706:0:0:0:0:
320,192,196706,128,0,197456:0:0:0:0:
192,192,197081,128,0,197456:0:0:0:0:
448,192,197456,1,0,0:0:0:0:
64,192,197643,1,0,0:0:0:0:
320,192,197831,128,0,198206:0:0:0:0:
192,192,198206,1,0,0:0:0:0:
448,192,198393,1,0,0:0:0:0:
64,192,198581,1,0,0:0:0:0:
64,192,198768,1,0,0:0:0:0:
320,192,198956,128,0,199331:0:0:0:0:
448,192,199331,128,0,199706:0:0:0:0:
192,192,199706,128,0,200456:0:0:0:0:
320,192,200081,128,0,200456:0:0:0:0:
64,192,200456,128,0,200831:0:0:0:0:
448,192,200831,1,0,0:0:0:0:
320,192,201581,1,0,0:0:0:0:
192,192,202331,1,0,0:0:0:0:
192,192,202706,1,0,0:0:0:0:
192,192,203081,1,0,0:0:0:0:
64,192,203831,1,0,0:0:0:0:
448,192,203831,1,0,0:0:0:0:
320,192,204206,1,0,0:0:0:0:
192,192,204581,1,0,0:0:0:0:
448,192,204956,1,0,0:0:0:0:
64,192,205331,1,0,0:0:0:0:
320,192,205706,1,0,0:0:0:0:
192,192,206081,1,0,0:0:0:0:
448,192,206456,1,0,0:0:0:0:
64,192,206831,1,0,0:0:0:0:
192,192,207206,1,0,0:0:0:0:
448,192,207581,1,0,0:0:0:0:
64,192,207956,1,0,0:0:0:0:
320,192,208331,1,0,0:0:0:0:
192,192,208706,1,0,0:0:0:0:
320,192,209081,128,0,209456:0:0:0:0:
192,192,209456,128,0,209831:0:0:0:0:
64,192,209831,1,0,0:0:0:0:
448,192,209831,1,0,0:0:0:0:
320,192,210206,1,0,0:0:0:0:
192,192,210581,1,0,0:0:0:0:
448,192,210956,1,0,0:0:0:0:
64,192,211331,1,0,0:0:0:0:
448,192,211706,1,0,0:0:0:0:
320,192,212081,1,0,0:0:0:0:
64,192,212456,1,0,0:0:0:0:
192,192,212643,1,0,0:0:0:0:
448,192,212831,128,0,213206:0:0:0:0:
320,192,212831,1,0,0:0:0:0:
64,192,213206,1,0,0:0:0:0:
320,192,213393,1,0,0:0:0:0:
192,192,213581,1,0,0:0:0:0:
448,192,213956,1,0,0:0:0:0:
64,192,214143,1,0,0:0:0:0:
320,192,214331,1,0,0:0:0:0:
448,192,214331,1,0,0:0:0:0:
192,192,214706,1,0,0:0:0:0:
64,192,214706,1,0,0:0:0:0:
448,192,215081,1,0,0:0:0:0:
320,192,215081,128,0,215456:0:0:0:0:
