osu file format v14

[General]
AudioFilename: audio.mp3
AudioLeadIn: 0
PreviewTime: 194622
Countdown: 0
SampleSet: Soft
StackLeniency: 0.7
Mode: 3
LetterboxInBreaks: 0
SpecialStyle: 0
WidescreenStoryboard: 0

[Editor]
Bookmarks: 720,12427,27061,38768,50476,62183,73890,97122,103159,114866,126573,138280,152915,167549,179256,195354,201207,230476,242183,243463
DistanceSpacing: 2.9
BeatDivisor: 4
GridSize: 32
TimelineZoom: 2.4

[Metadata]
Title:Kaisou Ressha
TitleUnicode:海想列車
Artist:Minato Aqua
ArtistUnicode:湊あくあ
Creator:Sun
Version:Nabi's Normal
Source:
Tags:Kanon Matsubara Drum-Hitnormal dudehacker _Asha Nabi- vtuber virtual youtuber hololive ホロライブ aquairo あくあ色 3rd third anniversary 40mp 40meterp NNZN japanese pop jpop j-pop hmng SHIG
BeatmapID:3192843
BeatmapSetID:1563534

[Difficulty]
HPDrainRate:7
CircleSize:4
OverallDifficulty:7
ApproachRate:5
SliderMultiplier:1.4
SliderTickRate:1

[Events]
//Background and Video events
Video,450,"Kaisou Ressha.mp4"
0,0,"bg.jpg",0,0
//Break Periods
//Storyboard Layer 0 (Background)
//Storyboard Layer 1 (Fail)
//Storyboard Layer 2 (Pass)
//Storyboard Layer 3 (Foreground)
//Storyboard Layer 4 (Overlay)
//Storyboard Sound Samples
Sample,66939,0,"Tom2.wav",60
Sample,101512,0,"Crash 2.wav",65
Sample,163159,0,"Ride.wav",35

[TimingPoints]
720,365.853658536585,4,2,1,50,1,0
12427,-100,4,2,1,60,0,0
21573,-100,4,2,1,20,0,0
21939,-100,4,2,1,30,0,0
22305,-100,4,2,1,45,0,0
23951,-100,4,2,1,60,0,0
27061,-100,4,2,1,70,0,0
38768,-100,4,2,1,60,0,0
50476,-100,4,2,1,65,0,0
68037,-100,4,2,1,55,0,0
70963,-100,4,2,1,20,0,0
71329,-100,4,2,1,30,0,0
71695,-100,4,2,1,40,0,0
72061,-100,4,2,1,50,0,0
73890,-100,4,2,1,75,0,1
94744,-100,4,2,1,30,0,1
95110,-100,4,2,1,40,0,1
95476,-100,4,2,1,50,0,1
95659,-100,4,2,1,55,0,0
97122,-100,4,2,1,65,0,0
103159,-100,4,2,1,50,0,0
109012,-100,4,2,1,65,0,0
123646,-100,4,2,1,55,0,0
126573,-100,4,2,1,60,0,0
132427,-100,4,2,1,65,0,0
138280,-100,4,2,1,70,0,0
152915,-100,4,2,1,60,0,0
167549,-100,4,2,1,50,0,0
179256,-100,4,2,1,55,0,0
188037,-100,4,2,1,20,0,0
188402,-100,4,2,1,30,0,0
188768,-100,4,2,1,40,0,0
189134,-100,4,2,1,50,0,0
189500,-100,4,2,1,60,0,0
195354,-100,4,2,1,55,0,0
201207,-100,4,2,1,75,0,1
206329,-100,4,2,1,50,0,1
207427,-100,4,2,1,75,0,1
224988,-100,4,2,1,30,0,1
225354,-100,4,2,1,40,0,1
225719,-100,4,2,1,50,0,1
225902,-100,4,2,1,60,0,0
230476,-100,4,2,1,70,0,0

[HitObjects]
64,192,720,5,0,0:0:0:0:
448,192,720,1,0,0:0:0:0:
192,192,1085,1,0,0:0:0:0:
320,192,1268,1,0,0:0:0:0:
64,192,1634,1,0,0:0:0:0:
448,192,1817,1,0,0:0:0:0:
192,192,2183,1,0,0:0:0:0:
448,192,2366,1,0,0:0:0:0:
64,192,2732,1,0,0:0:0:0:
320,192,2915,1,0,0:0:0:0:
192,192,3280,1,0,0:0:0:0:
64,192,3646,1,0,0:0:0:0:
448,192,3646,1,0,0:0:0:0:
320,192,4012,1,0,0:0:0:0:
192,192,4195,1,0,0:0:0:0:
448,192,4561,1,0,0:0:0:0:
64,192,4744,1,0,0:0:0:0:
320,192,5110,1,0,0:0:0:0:
64,192,5293,1,0,0:0:0:0:
448,192,5659,1,0,0:0:0:0:
192,192,5841,1,0,0:0:0:0:
320,192,6207,1,0,0:0:0:0:
64,192,6573,1,0,0:0:0:0:
448,192,6573,1,0,0:0:0:0:
192,192,6939,1,0,0:0:0:0:
320,192,7122,1,0,0:0:0:0:
64,192,7488,1,0,0:0:0:0:
448,192,7671,1,0,0:0:0:0:
192,192,8037,1,0,0:0:0:0:
448,192,8219,1,0,0:0:0:0:
64,192,8585,1,0,0:0:0:0:
320,192,8768,1,0,0:0:0:0:
192,192,9134,1,0,0:0:0:0:
64,192,9500,1,0,0:0:0:0:
448,192,9500,128,0,11695:0:0:0:0:
192,192,11695,128,0,12061:0:0:0:0:
320,192,12061,128,0,12427:0:0:0:0:
64,192,12427,128,2,13707:0:0:0:0:
192,192,12427,1,0,0:0:0:60:Crash 2.wav
448,192,12793,1,0,0:0:0:0:
320,192,13159,1,0,0:0:0:0:
192,192,13524,1,0,0:0:0:0:
320,192,13707,1,2,0:0:0:0:
448,192,13707,128,4,15354:0:0:0:0:
64,192,14622,1,8,0:0:0:0:
192,192,14805,1,0,0:0:0:50:Tom1.wav
320,192,14988,1,0,0:0:0:60:Tom3.wav
64,192,15354,128,2,16451:0:0:0:0:
192,192,15354,1,4,0:0:0:0:
320,192,16085,128,0,16451:0:0:0:60:Crash 2.wav
192,192,16451,1,0,0:0:0:0:
320,192,16634,1,2,0:0:0:0:
448,192,16634,128,0,17000:0:0:0:0:
64,192,17183,1,0,0:0:0:50:Tom1.wav
320,192,17366,1,0,0:0:0:20:soft-hitclap.wav
192,192,17457,1,0,0:0:0:30:soft-hitclap.wav
64,192,17549,1,8,0:0:0:0:
192,192,17823,1,0,0:0:0:60:Tom2.wav
320,192,18098,1,2,0:0:0:0:
448,192,18098,128,0,18646:0:0:0:60:Crash 2.wav
192,192,18646,1,0,0:0:0:70:Splash.wav
320,192,18829,1,0,0:0:0:0:
64,192,19012,1,0,0:0:0:0:
448,192,19287,1,0,0:0:0:0:
64,192,19561,128,2,20110:0:0:0:0:
192,192,19561,1,4,0:0:0:0:
320,192,20110,1,0,0:0:0:60:Crash 2.wav
192,192,20476,1,0,0:0:0:0:
320,192,20750,1,0,0:0:0:60:Tom3.wav
64,192,21024,1,2,0:0:0:0:
448,192,21024,128,4,21573:0:0:0:0:
192,192,21573,1,8,0:0:0:0:
320,192,21756,1,8,0:0:0:0:
64,192,21939,1,8,0:0:0:0:
320,192,22122,1,8,0:0:0:0:
192,192,22305,1,8,0:0:0:0:
320,192,22488,128,2,22854:0:0:0:0:
448,192,22488,128,8,22854:0:0:0:0:
192,192,23402,128,0,23768:0:0:0:0:
320,192,23768,1,0,0:0:0:0:
64,192,23951,128,2,25598:0:0:0:0:
448,192,23951,1,0,0:0:0:0:
192,192,24500,1,2,0:0:0:0:
448,192,24866,1,2,0:0:0:0:
192,192,25232,1,2,0:0:0:0:
320,192,25598,1,10,0:0:0:0:
320,192,25780,1,10,0:0:0:0:
192,192,25963,1,10,0:0:0:0:
192,192,26146,1,10,0:0:0:0:
320,192,26512,128,0,26695:0:0:0:0:
448,192,26512,128,0,26695:0:0:0:0:
64,192,27061,128,2,27427:0:0:0:0:
192,192,27061,1,4,0:0:0:0:
320,192,27427,1,8,0:0:0:0:
448,192,27427,1,2,0:0:0:0:
192,192,27610,128,0,27793:0:0:0:0:
448,192,27793,1,2,0:0:0:0:
320,192,27976,128,0,28159:0:0:0:0:
64,192,28159,1,8,0:0:0:0:
192,192,28159,1,2,0:0:0:0:
448,192,28341,128,0,28707:0:0:0:0:
192,192,28524,1,2,0:0:0:0:
64,192,28707,128,0,28890:0:0:0:0:
320,192,28890,128,8,29073:0:0:0:0:
448,192,28890,1,2,0:0:0:0:
192,192,29073,128,0,29439:0:0:0:0:
448,192,29256,1,2,0:0:0:0:
320,192,29439,128,0,29622:0:0:0:0:
64,192,29622,128,8,29805:0:0:0:0:
192,192,29622,1,2,0:0:0:0:
448,192,29988,128,2,30354:0:0:0:0:
64,192,30354,1,8,0:0:0:0:
192,192,30354,1,2,0:0:0:0:
320,192,30537,128,0,30719:0:0:0:0:
64,192,30719,1,2,0:0:0:0:
448,192,30902,128,0,31085:0:0:0:0:
192,192,31085,1,8,0:0:0:0:
320,192,31085,1,2,0:0:0:0:
64,192,31268,128,0,31634:0:0:0:0:
320,192,31451,1,2,0:0:0:0:
192,192,31634,128,0,31817:0:0:0:0:
64,192,31817,1,8,0:0:0:0:
448,192,31817,128,2,32000:0:0:0:0:
320,192,32000,128,0,32366:0:0:0:0:
64,192,32183,1,2,0:0:0:0:
192,192,32366,128,0,32549:0:0:0:50:Tom1.wav
64,192,32549,1,8,0:0:0:0:
448,192,32549,128,2,32915:0:0:0:0:
320,192,32732,1,8,0:0:0:0:
64,192,32915,128,2,33280:0:0:0:0:
192,192,32915,1,4,0:0:0:0:
320,192,33280,1,8,0:0:0:0:
448,192,33280,1,2,0:0:0:0:
192,192,33463,128,0,33646:0:0:0:0:
448,192,33646,1,2,0:0:0:0:
320,192,33829,128,0,34012:0:0:0:0:
64,192,34012,1,8,0:0:0:0:
192,192,34012,1,2,0:0:0:0:
448,192,34195,128,0,34561:0:0:0:0:
192,192,34378,1,2,0:0:0:0:
64,192,34561,128,0,34744:0:0:0:0:
320,192,34744,128,8,34927:0:0:0:0:
448,192,34744,1,2,0:0:0:0:
192,192,34927,128,0,35293:0:0:0:0:
448,192,35110,1,2,0:0:0:0:
320,192,35293,128,8,35476:0:0:0:0:
64,192,35476,128,8,35841:0:0:0:0:
448,192,35476,1,2,0:0:0:0:
192,192,35659,1,8,0:0:0:0:
320,192,35841,1,2,0:0:0:0:
448,192,35841,128,4,36024:0:0:0:0:
192,192,36024,128,0,36207:0:0:0:0:
64,192,36207,1,8,0:0:0:0:
320,192,36207,128,0,36390:0:0:0:0:
192,192,36390,128,2,36573:0:0:0:0:
448,192,36390,128,0,36573:0:0:0:70:Splash.wav
192,192,36756,128,2,36939:0:0:0:0:
320,192,36756,128,0,36939:0:0:0:70:Splash.wav
64,192,37122,128,2,38768:0:0:0:0:
448,192,37122,128,4,37488:0:0:0:0:
448,192,37671,128,0,37854:0:0:0:0:
448,192,38037,128,0,38768:0:0:0:0:
192,192,38768,1,2,0:0:0:0:
192,192,39134,1,2,0:0:0:0:
448,192,39317,1,0,0:0:0:0:
320,192,39500,1,2,0:0:0:0:
320,192,39866,1,2,0:0:0:0:
192,192,40049,1,0,0:0:0:0:
448,192,40232,1,2,0:0:0:0:
448,192,40598,1,2,0:0:0:0:
320,192,40780,1,0,0:0:0:0:
192,192,40963,1,2,0:0:0:0:
192,192,41329,1,2,0:0:0:0:
320,192,41512,1,0,0:0:0:0:
64,192,41695,1,2,0:0:0:0:
192,192,41695,1,0,0:0:0:0:
64,192,42061,1,2,0:0:0:0:
448,192,42244,1,0,0:0:0:0:
320,192,42427,1,2,0:0:0:0:
320,192,42793,1,2,0:0:0:0:
192,192,42976,1,0,0:0:0:0:
448,192,43159,1,2,0:0:0:0:
448,192,43524,1,2,0:0:0:0:
192,192,43890,1,2,0:0:0:0:
320,192,44073,1,0,0:0:0:0:
192,192,44256,1,2,0:0:0:0:
64,192,44622,1,2,0:0:0:0:
448,192,44622,1,0,0:0:0:0:
64,192,44988,1,2,0:0:0:0:
320,192,45171,1,0,0:0:0:0:
192,192,45354,1,2,0:0:0:0:
192,192,45719,1,2,0:0:0:0:
448,192,45902,1,0,0:0:0:0:
320,192,46085,1,2,0:0:0:0:
320,192,46451,1,2,0:0:0:0:
64,192,46634,1,0,0:0:0:0:
192,192,46817,1,2,0:0:0:0:
192,192,47183,1,2,0:0:0:0:
320,192,47366,1,0,0:0:0:0:
64,192,47549,1,2,0:0:0:0:
448,192,47549,1,0,0:0:0:0:
448,192,47915,1,2,0:0:0:0:
192,192,48098,1,0,0:0:0:0:
64,192,48280,1,2,0:0:0:0:
64,192,48646,1,2,0:0:0:0:
320,192,48829,1,2,0:0:0:0:
448,192,48829,1,8,0:0:0:0:
64,192,49195,1,8,0:0:0:0:
192,192,49195,1,2,0:0:0:0:
448,192,49378,1,0,0:0:0:0:
64,192,49561,1,0,0:0:0:0:
320,192,49744,128,0,49927:0:0:0:0:
192,192,49927,128,0,50110:0:0:0:0:
448,192,50110,128,0,50476:0:0:0:0:
64,192,50476,1,2,0:0:0:0:
192,192,50476,1,4,0:0:0:0:
320,192,50841,1,8,0:0:0:0:
448,192,50841,1,0,0:0:0:0:
192,192,51207,1,2,0:0:0:0:
320,192,51390,1,2,0:0:0:0:
64,192,51573,1,8,0:0:0:0:
192,192,51573,1,0,0:0:0:0:
320,192,51939,1,2,0:0:0:0:
64,192,52305,1,8,0:0:0:0:
448,192,52305,1,0,0:0:0:0:
320,192,52671,1,2,0:0:0:0:
192,192,52854,1,2,0:0:0:0:
320,192,53037,1,8,0:0:0:0:
448,192,53037,1,0,0:0:0:0:
192,192,53402,1,2,0:0:0:0:
320,192,53768,1,8,0:0:0:0:
448,192,53768,1,0,0:0:0:0:
64,192,54134,1,2,0:0:0:0:
320,192,54317,1,2,0:0:0:0:
64,192,54500,1,8,0:0:0:0:
192,192,54500,1,0,0:0:0:0:
320,192,54866,1,2,0:0:0:0:
64,192,55232,1,8,0:0:0:0:
448,192,55232,1,0,0:0:0:0:
320,192,55598,1,2,0:0:0:0:
192,192,55780,1,2,0:0:0:0:
320,192,55963,1,8,0:0:0:0:
448,192,55963,1,0,0:0:0:0:
64,192,56329,1,2,0:0:0:0:
192,192,56695,1,8,0:0:0:0:
320,192,56695,1,0,0:0:0:0:
448,192,57061,1,2,0:0:0:0:
192,192,57244,1,2,0:0:0:0:
320,192,57427,1,8,0:0:0:0:
448,192,57427,1,0,0:0:0:0:
192,192,57793,1,2,0:0:0:0:
64,192,58159,1,8,0:0:0:0:
448,192,58159,1,0,0:0:0:0:
320,192,58524,1,2,0:0:0:0:
192,192,58707,1,2,0:0:0:0:
64,192,58890,1,8,0:0:0:0:
320,192,58890,1,0,0:0:0:0:
192,192,59256,1,2,0:0:0:0:
320,192,59622,1,8,0:0:0:0:
448,192,59622,1,0,0:0:0:0:
64,192,59988,1,2,0:0:0:0:
192,192,60171,1,2,0:0:0:0:
64,192,60354,1,8,0:0:0:0:
320,192,60354,1,0,0:0:0:0:
192,192,60719,1,2,0:0:0:0:
64,192,61085,1,8,0:0:0:0:
448,192,61085,1,4,0:0:0:0:
320,192,61268,1,8,0:0:0:35:soft-hitclap.wav
192,192,61451,1,2,0:0:0:0:
192,192,61634,1,2,0:0:0:0:
64,192,61817,1,8,0:0:0:0:
448,192,61817,1,0,0:0:0:0:
448,192,62000,1,8,0:0:0:0:
320,192,62091,1,8,0:0:0:0:
64,192,62183,128,2,62549:0:0:0:0:
192,192,62183,1,0,0:0:0:60:Crash 2.wav
320,192,62549,1,0,0:0:0:0:
192,192,62732,1,2,0:0:0:0:
320,192,62915,1,8,0:0:0:0:
448,192,62915,128,4,63280:0:0:0:0:
64,192,63280,1,2,0:0:0:0:
320,192,63463,1,8,0:0:0:0:
448,192,63463,1,0,0:0:0:0:
64,192,63646,1,2,0:0:0:0:
192,192,63646,128,0,64012:0:0:0:45:Crash 2.wav
448,192,63829,1,8,0:0:0:0:
320,192,64012,1,2,0:0:0:0:
64,192,64195,1,0,0:0:0:60:Tom2.wav
320,192,64378,128,8,64744:0:0:0:0:
448,192,64378,1,4,0:0:0:0:
64,192,64744,1,2,0:0:0:0:
320,192,64927,1,8,0:0:0:0:
448,192,64927,1,0,0:0:0:0:
64,192,65110,128,2,65476:0:0:0:0:
192,192,65110,1,0,0:0:0:60:Crash 2.wav
320,192,65476,1,0,0:0:0:0:
192,192,65659,1,2,0:0:0:0:
320,192,65841,1,8,0:0:0:0:
448,192,65841,128,4,66207:0:0:0:0:
64,192,66207,1,2,0:0:0:0:
320,192,66390,1,8,0:0:0:0:
448,192,66390,1,0,0:0:0:0:
64,192,66573,1,2,0:0:0:0:
192,192,66573,128,0,66939:0:0:0:45:Crash 2.wav
448,192,66756,1,8,0:0:0:0:
320,192,66939,1,2,0:0:0:0:
64,192,67122,1,0,0:0:0:20:soft-hitclap.wav
320,192,67305,1,8,0:0:0:0:
448,192,67305,1,0,0:0:0:0:
192,192,67579,1,2,0:0:0:0:
320,192,67854,1,2,0:0:0:0:
64,192,68037,1,2,0:0:0:0:
448,192,68037,128,0,69500:0:0:0:60:Crash 2.wav
64,192,68951,1,0,0:0:0:0:
192,192,69134,1,0,0:0:0:0:
320,192,69317,1,0,0:0:0:35:Ride.wav
64,192,69500,128,0,70049:0:0:0:35:Ride.wav
192,192,70049,1,0,0:0:0:35:Ride.wav
320,192,70232,128,0,70598:0:0:0:0:
448,192,70598,128,0,70963:0:0:0:0:
64,192,70963,1,2,0:0:0:0:
192,192,70963,1,8,0:0:0:0:
320,192,71146,1,8,0:0:0:0:
192,192,71329,1,8,0:0:0:0:
448,192,71512,1,8,0:0:0:0:
64,192,71695,1,8,0:0:0:0:
192,192,71695,1,0,0:0:0:0:
320,192,71878,1,8,0:0:0:0:
64,192,72061,1,8,0:0:0:0:
320,192,72244,1,2,0:0:0:0:
448,192,72244,1,0,0:0:0:0:
192,192,72610,1,0,0:0:0:0:
64,192,72793,1,2,0:0:0:0:
448,192,72793,1,0,0:0:0:0:
320,192,73159,128,0,73524:0:0:0:0:
192,192,73524,128,0,73890:0:0:0:0:
64,192,73890,1,2,0:0:0:0:
448,192,73890,1,4,0:0:0:0:
192,192,74256,1,10,0:0:0:0:
320,192,74256,1,0,0:0:0:70:Crash 2.wav
448,192,74622,1,2,0:0:0:0:
64,192,74988,1,8,0:0:0:0:
192,192,74988,1,2,0:0:0:0:
320,192,75171,1,0,0:0:0:0:
64,192,75354,1,2,0:0:0:0:
448,192,75537,1,0,0:0:0:0:
192,192,75719,1,8,0:0:0:0:
320,192,75719,1,2,0:0:0:0:
64,192,75902,1,0,0:0:0:0:
320,192,76085,1,2,0:0:0:0:
64,192,76451,1,8,0:0:0:0:
448,192,76451,1,2,0:0:0:0:
192,192,76634,1,0,0:0:0:0:
320,192,76817,1,2,0:0:0:0:
64,192,77183,1,8,0:0:0:0:
192,192,77183,1,2,0:0:0:0:
320,192,77366,1,0,0:0:0:0:
64,192,77549,1,2,0:0:0:0:
192,192,77732,1,0,0:0:0:0:
320,192,77915,1,8,0:0:0:0:
448,192,77915,1,2,0:0:0:0:
64,192,78098,1,0,0:0:0:0:
192,192,78280,1,2,0:0:0:0:
448,192,78463,1,0,0:0:0:0:
64,192,78646,1,8,0:0:0:0:
320,192,78646,1,2,0:0:0:0:
448,192,78829,1,0,0:0:0:0:
192,192,79195,1,0,0:0:0:0:
64,192,79378,1,8,0:0:0:0:
448,192,79378,1,2,0:0:0:0:
320,192,79561,1,0,0:0:0:40:soft-hitclap.wav
64,192,79744,1,2,0:0:0:0:
192,192,80110,1,8,0:0:0:0:
320,192,80110,1,2,0:0:0:0:
64,192,80476,1,2,0:0:0:0:
192,192,80659,1,0,0:0:0:0:
320,192,80841,1,8,0:0:0:0:
448,192,80841,1,2,0:0:0:0:
64,192,81024,1,0,0:0:0:0:
320,192,81390,1,0,0:0:0:0:
64,192,81573,1,8,0:0:0:0:
192,192,81573,1,2,0:0:0:0:
448,192,81756,1,0,0:0:0:0:
192,192,82122,1,0,0:0:0:0:
64,192,82305,1,8,0:0:0:0:
448,192,82305,1,2,0:0:0:0:
192,192,82671,1,2,0:0:0:0:
320,192,83037,1,8,0:0:0:0:
448,192,83037,1,2,0:0:0:0:
192,192,83402,1,2,0:0:0:0:
64,192,83585,1,8,0:0:0:0:
448,192,83585,1,0,0:0:0:0:
320,192,83768,1,8,0:0:0:0:
64,192,83951,1,2,0:0:0:0:
192,192,83951,1,0,0:0:0:60:Crash 2.wav
320,192,84317,1,8,0:0:0:0:
64,192,84500,1,8,0:0:0:0:
448,192,84683,1,2,0:0:0:0:
64,192,84866,1,8,0:0:0:0:
192,192,85049,1,2,0:0:0:0:
320,192,85232,1,8,0:0:0:0:
448,192,85232,1,0,0:0:0:0:
448,192,85415,1,8,0:0:0:0:
320,192,85506,1,8,0:0:0:0:
64,192,85598,1,2,0:0:0:0:
192,192,85598,1,4,0:0:0:0:
320,192,85963,1,10,0:0:0:0:
448,192,85963,1,0,0:0:0:70:Crash 2.wav
192,192,86329,1,2,0:0:0:0:
64,192,86695,1,8,0:0:0:0:
448,192,86695,1,2,0:0:0:0:
320,192,86878,1,0,0:0:0:0:
64,192,87061,1,2,0:0:0:0:
192,192,87244,1,0,0:0:0:0:
320,192,87427,1,8,0:0:0:0:
448,192,87427,1,2,0:0:0:0:
64,192,87610,1,0,0:0:0:0:
320,192,87793,1,2,0:0:0:0:
64,192,88159,1,8,0:0:0:0:
192,192,88159,1,2,0:0:0:0:
448,192,88341,1,0,0:0:0:0:
320,192,88524,1,2,0:0:0:0:
64,192,88890,1,8,0:0:0:0:
448,192,88890,1,2,0:0:0:0:
192,192,89073,1,0,0:0:0:0:
320,192,89439,1,0,0:0:0:0:
64,192,89622,1,8,0:0:0:0:
448,192,89622,1,2,0:0:0:0:
192,192,89805,128,2,90171:0:0:0:0:
320,192,89805,1,4,0:0:0:0:
448,192,90171,1,2,0:0:0:0:
64,192,90354,1,8,0:0:0:0:
192,192,90354,1,0,0:0:0:70:Splash.wav
320,192,90537,128,8,90719:0:0:0:0:
64,192,90719,1,8,0:0:0:0:
448,192,90719,1,0,0:0:0:0:
192,192,90994,1,0,0:0:0:60:Tom2.wav
320,192,90994,1,0,0:0:0:0:
320,192,91268,1,2,0:0:0:0:
448,192,91268,128,0,91726:0:0:0:60:Crash 2.wav
320,192,92000,1,0,0:0:0:0:
64,192,92183,1,0,0:0:0:0:
192,192,92183,1,0,0:0:0:0:
192,192,92457,1,0,0:0:0:0:
320,192,92457,1,0,0:0:0:0:
64,192,92732,128,2,93098:0:0:0:0:
448,192,92732,1,4,0:0:0:0:
320,192,93463,1,8,0:0:0:0:
448,192,93463,1,0,0:0:0:0:
64,192,93646,1,0,0:0:0:50:Tom1.wav
192,192,93646,1,0,0:0:0:0:
320,192,93921,1,0,0:0:0:60:Tom3.wav
448,192,93921,1,0,0:0:0:0:
64,192,94195,1,2,0:0:0:0:
448,192,94195,128,4,94744:0:0:0:0:
192,192,94744,1,8,0:0:0:0:
320,192,94927,1,8,0:0:0:0:
64,192,95110,1,8,0:0:0:0:
320,192,95293,1,8,0:0:0:0:
192,192,95476,1,8,0:0:0:0:
64,192,95659,128,2,96024:0:0:0:0:
448,192,95659,1,8,0:0:0:0:
320,192,96207,1,0,0:0:0:0:
192,192,96390,1,0,0:0:0:0:
448,192,96756,1,0,0:0:0:0:
64,192,96939,1,8,0:0:0:0:
192,192,96939,1,0,0:0:0:0:
320,192,97122,1,2,0:0:0:0:
448,192,97122,1,4,0:0:0:0:
64,192,97488,128,0,97671:0:0:0:0:
320,192,97671,128,2,97854:0:0:0:0:
64,192,97854,128,0,98037:0:0:0:0:
448,192,98219,128,0,98402:0:0:0:0:
320,192,98402,128,0,98585:0:0:0:60:Tom2.wav
64,192,98585,128,0,98768:0:0:0:60:Tom2.wav
448,192,98951,128,0,99134:0:0:0:60:Tom3.wav
192,192,99134,128,2,99317:0:0:0:0:
448,192,99317,128,0,99500:0:0:0:60:Tom2.wav
64,192,99683,128,8,99866:0:0:0:0:
192,192,99683,1,0,0:0:0:0:
320,192,99866,128,0,100049:0:0:0:60:Tom3.wav
64,192,100049,1,2,0:0:0:0:
448,192,100049,128,4,100232:0:0:0:0:
320,192,100415,128,0,100598:0:0:0:60:Tom2.wav
192,192,100598,128,2,100780:0:0:0:0:
64,192,100780,128,0,100963:0:0:0:50:Tom1.wav
448,192,101146,128,0,101329:0:0:0:60:Tom2.wav
320,192,101329,128,0,101512:0:0:0:60:Tom3.wav
192,192,101512,128,2,102976:0:0:0:0:
64,192,101878,1,8,0:0:0:0:
448,192,102061,1,2,0:0:0:0:
320,192,102244,1,0,0:0:0:50:Tom1.wav
64,192,102427,1,8,0:0:0:0:
448,192,102610,1,8,0:0:0:0:
64,192,102793,1,8,0:0:0:0:
448,192,102976,1,8,0:0:0:0:
320,192,103159,1,0,0:0:0:0:
192,192,103524,1,0,0:0:0:0:
64,192,103890,1,0,0:0:0:0:
448,192,104256,1,0,0:0:0:0:
448,192,104439,128,0,104988:0:0:0:0:
192,192,105171,1,0,0:0:0:0:
320,192,105354,1,0,0:0:0:0:
192,192,105537,128,0,105902:0:0:0:0:
448,192,105902,128,0,106451:0:0:0:0:
64,192,106085,1,0,0:0:0:0:
192,192,106451,1,0,0:0:0:0:
320,192,106634,128,0,107000:0:0:0:0:
64,192,107000,128,0,107366:0:0:0:0:
448,192,107366,128,0,107549:0:0:0:0:
192,192,107549,128,0,108646:0:0:0:0:
320,192,108646,1,8,0:0:0:0:
448,192,108646,1,0,0:0:0:60:Tom3.wav
64,192,109012,1,2,0:0:0:0:
192,192,109378,1,8,0:0:0:0:
320,192,109378,1,0,0:0:0:0:
448,192,109744,1,2,0:0:0:0:
448,192,109927,1,2,0:0:0:0:
64,192,110110,1,8,0:0:0:0:
192,192,110110,1,0,0:0:0:0:
320,192,110293,128,0,110476:0:0:0:0:
192,192,110476,1,2,0:0:0:0:
64,192,110659,128,0,110841:0:0:0:0:
320,192,110841,1,8,0:0:0:0:
448,192,110841,128,0,111024:0:0:0:0:
192,192,111024,128,0,111207:0:0:0:0:
320,192,111207,1,2,0:0:0:0:
320,192,111390,128,2,111573:0:0:0:0:
64,192,111573,1,8,0:0:0:0:
448,192,111573,1,0,0:0:0:0:
192,192,111756,128,0,111939:0:0:0:0:
320,192,111939,1,2,0:0:0:0:
64,192,112305,1,8,0:0:0:0:
448,192,112305,1,0,0:0:0:0:
192,192,112671,1,2,0:0:0:0:
192,192,112854,1,2,0:0:0:0:
64,192,113037,1,8,0:0:0:0:
448,192,113037,1,0,0:0:0:0:
192,192,113219,128,2,113402:0:0:0:0:
320,192,113219,128,0,113402:0:0:0:0:
320,192,113585,128,2,113768:0:0:0:0:
448,192,113585,128,0,113768:0:0:0:0:
64,192,113768,1,8,0:0:0:0:
320,192,113951,1,0,0:0:0:50:Tom1.wav
64,192,114134,1,8,0:0:0:0:
192,192,114134,1,0,0:0:0:0:
448,192,114317,1,0,0:0:0:60:Tom2.wav
192,192,114500,1,8,0:0:0:0:
320,192,114500,1,0,0:0:0:0:
192,192,114683,1,8,0:0:0:0:
320,192,114774,1,8,0:0:0:0:
64,192,114866,1,2,0:0:0:0:
448,192,114866,1,4,0:0:0:0:
192,192,115232,1,8,0:0:0:0:
320,192,115232,1,0,0:0:0:0:
448,192,115598,1,2,0:0:0:0:
192,192,115780,1,2,0:0:0:0:
320,192,115963,1,8,0:0:0:0:
448,192,115963,1,0,0:0:0:0:
64,192,116146,1,2,0:0:0:0:
192,192,116329,1,0,0:0:0:0:
64,192,116695,1,8,0:0:0:0:
448,192,116695,1,0,0:0:0:0:
192,192,117061,1,2,0:0:0:0:
320,192,117244,1,2,0:0:0:0:
64,192,117427,1,8,0:0:0:0:
192,192,117427,1,0,0:0:0:0:
448,192,117610,1,0,0:0:0:0:
320,192,117793,1,2,0:0:0:0:
64,192,118159,1,8,0:0:0:0:
192,192,118159,1,0,0:0:0:0:
448,192,118524,1,2,0:0:0:0:
192,192,118707,1,2,0:0:0:0:
320,192,118890,1,8,0:0:0:0:
448,192,118890,1,0,0:0:0:0:
64,192,119073,1,2,0:0:0:0:
192,192,119256,1,0,0:0:0:0:
64,192,119622,1,8,0:0:0:0:
448,192,119622,1,0,0:0:0:0:
192,192,119988,1,2,0:0:0:0:
320,192,120171,1,2,0:0:0:0:
64,192,120354,1,8,0:0:0:0:
192,192,120354,1,4,0:0:0:0:
448,192,120537,1,0,0:0:0:0:
320,192,120719,1,2,0:0:0:0:
64,192,121085,1,8,0:0:0:0:
448,192,121085,1,0,0:0:0:0:
320,192,121451,1,2,0:0:0:0:
192,192,121634,1,2,0:0:0:0:
320,192,121817,1,8,0:0:0:0:
448,192,121817,1,0,0:0:0:0:
64,192,122000,1,2,0:0:0:0:
192,192,122183,1,0,0:0:0:0:
64,192,122549,1,8,0:0:0:0:
448,192,122549,1,0,0:0:0:0:
320,192,122915,1,2,0:0:0:0:
64,192,123098,1,8,0:0:0:0:
192,192,123098,1,0,0:0:0:0:
448,192,123280,1,0,0:0:0:50:Tom1.wav
192,192,123646,128,2,124561:0:0:0:0:
320,192,123646,1,4,0:0:0:0:
64,192,124561,1,0,0:0:0:0:
320,192,124744,1,8,0:0:0:0:
192,192,124927,1,8,0:0:0:0:
64,192,125110,1,2,0:0:0:0:
448,192,125110,1,0,0:0:0:0:
320,192,125476,128,0,126207:0:0:0:0:
64,192,126207,1,8,0:0:0:0:
192,192,126207,1,0,0:0:0:60:Tom2.wav
320,192,126573,1,2,0:0:0:0:
448,192,126573,128,0,126939:0:0:0:60:Crash 2.wav
192,192,126939,1,0,0:0:0:0:
320,192,127122,1,2,0:0:0:0:
64,192,127305,128,8,127671:0:0:0:0:
192,192,127305,1,4,0:0:0:0:
448,192,127671,1,0,0:0:0:0:
192,192,127854,1,0,0:0:0:30:soft-hitclap.wav
320,192,128037,128,2,128402:0:0:0:0:
448,192,128037,1,0,0:0:0:0:
64,192,128219,1,8,0:0:0:0:
192,192,128402,1,2,0:0:0:0:
448,192,128585,1,0,0:0:0:0:
64,192,128768,1,8,0:0:0:0:
192,192,128768,128,4,129134:0:0:0:0:
448,192,129134,1,2,0:0:0:0:
64,192,129317,1,8,0:0:0:0:
192,192,129317,1,0,0:0:0:0:
320,192,129500,1,2,0:0:0:0:
448,192,129500,128,0,129866:0:0:0:60:Crash 2.wav
192,192,129866,1,0,0:0:0:0:
320,192,130049,1,2,0:0:0:0:
64,192,130232,128,8,130598:0:0:0:0:
192,192,130232,1,4,0:0:0:0:
448,192,130598,1,0,0:0:0:0:
192,192,130780,1,0,0:0:0:30:soft-hitclap.wav
320,192,130963,128,2,131329:0:0:0:0:
448,192,130963,1,0,0:0:0:0:
64,192,131146,1,8,0:0:0:0:
192,192,131329,1,2,0:0:0:0:
448,192,131512,1,0,0:0:0:20:soft-hitclap.wav
64,192,131695,1,8,0:0:0:0:
192,192,131695,1,4,0:0:0:0:
320,192,131969,1,0,0:0:0:60:Tom2.wav
192,192,132244,1,0,0:0:0:60:Tom3.wav
64,192,132427,128,2,132793:0:0:0:0:
448,192,132427,1,0,0:0:0:60:Crash 2.wav
320,192,132793,1,8,0:0:0:0:
448,192,132793,1,0,0:0:0:0:
192,192,133159,1,2,0:0:0:0:
192,192,133341,1,2,0:0:0:0:
64,192,133524,1,8,0:0:0:0:
448,192,133524,1,0,0:0:0:0:
320,192,133890,1,2,0:0:0:0:
64,192,134256,1,8,0:0:0:0:
192,192,134256,1,0,0:0:0:0:
320,192,134622,1,2,0:0:0:0:
320,192,134805,1,2,0:0:0:0:
64,192,134988,1,8,0:0:0:0:
448,192,134988,1,0,0:0:0:0:
192,192,135354,1,2,0:0:0:0:
320,192,135719,1,8,0:0:0:0:
448,192,135719,1,0,0:0:0:0:
192,192,136085,1,2,0:0:0:0:
192,192,136268,1,2,0:0:0:0:
320,192,136451,1,8,0:0:0:0:
448,192,136451,1,0,0:0:0:0:
64,192,136634,1,2,0:0:0:0:
320,192,136817,1,0,0:0:0:0:
192,192,137000,1,2,0:0:0:0:
64,192,137183,1,8,0:0:0:0:
448,192,137183,1,0,0:0:0:0:
320,192,137366,1,2,0:0:0:0:
64,192,137549,1,0,0:0:0:60:Tom2.wav
448,192,137732,1,10,0:0:0:0:
192,192,137915,1,8,0:0:0:0:
320,192,137915,1,0,0:0:0:0:
192,192,138098,1,8,0:0:0:0:
320,192,138189,1,8,0:0:0:0:
64,192,138280,1,2,0:0:0:0:
448,192,138280,1,4,0:0:0:0:
192,192,138463,128,0,138646:0:0:0:0:
64,192,138646,1,8,0:0:0:0:
448,192,138646,128,0,138829:0:0:0:0:
320,192,138829,128,0,139195:0:0:0:0:
64,192,139195,128,2,139378:0:0:0:0:
320,192,139378,1,8,0:0:0:0:
448,192,139378,1,0,0:0:0:0:
192,192,139561,128,2,140110:0:0:0:0:
320,192,139927,1,2,0:0:0:0:
64,192,140110,1,8,0:0:0:0:
448,192,140110,1,0,0:0:0:0:
320,192,140293,1,2,0:0:0:0:
192,192,140384,1,0,0:0:0:0:
64,192,140476,1,0,0:0:0:0:
448,192,140750,1,0,0:0:0:0:
192,192,140841,1,8,0:0:0:0:
320,192,141024,1,0,0:0:0:0:
64,192,141207,1,2,0:0:0:0:
192,192,141482,1,0,0:0:0:0:
448,192,141573,1,8,0:0:0:0:
64,192,141756,1,0,0:0:0:0:
320,192,141939,1,2,0:0:0:0:
192,192,142122,1,2,0:0:0:0:
64,192,142305,1,8,0:0:0:0:
320,192,142488,1,2,0:0:0:0:
448,192,142579,1,0,0:0:0:0:
64,192,142671,1,0,0:0:0:0:
192,192,142945,1,0,0:0:0:0:
320,192,143037,1,8,0:0:0:0:
448,192,143219,128,2,143768:0:0:0:0:
64,192,143402,1,0,0:0:0:60:Tom2.wav
320,192,143585,1,2,0:0:0:0:
64,192,143768,1,8,0:0:0:0:
192,192,143768,1,0,0:0:0:0:
64,192,143951,1,8,0:0:0:0:
192,192,144043,1,8,0:0:0:0:
320,192,144134,1,8,0:0:0:0:
448,192,144134,1,0,0:0:0:0:
192,192,144317,1,2,0:0:0:0:
320,192,144500,1,0,0:0:0:60:Tom3.wav
64,192,144683,128,2,145049:0:0:0:0:
192,192,144683,1,0,0:0:0:60:Crash 2.wav
320,192,145049,1,10,0:0:0:0:
64,192,145232,1,8,0:0:0:0:
448,192,145232,1,0,0:0:0:0:
192,192,145415,1,2,0:0:0:0:
320,192,145598,1,0,0:0:0:0:
64,192,145780,1,2,0:0:0:0:
448,192,145780,128,0,146146:0:0:0:60:Crash 2.wav
192,192,146146,1,2,0:0:0:0:
320,192,146329,1,8,0:0:0:0:
448,192,146329,1,0,0:0:0:0:
192,192,146604,1,2,0:0:0:0:
320,192,146878,1,2,0:0:0:0:
64,192,147061,1,2,0:0:0:0:
448,192,147061,1,4,0:0:0:0:
192,192,147427,1,8,0:0:0:0:
320,192,147427,1,0,0:0:0:0:
64,192,147610,1,0,0:0:0:0:
448,192,147793,1,2,0:0:0:0:
192,192,147976,1,2,0:0:0:0:
64,192,148159,1,8,0:0:0:0:
448,192,148159,1,0,0:0:0:0:
320,192,148341,1,0,0:0:0:0:
192,192,148524,1,2,0:0:0:0:
320,192,148707,1,0,0:0:0:0:
64,192,148890,1,8,0:0:0:0:
448,192,148890,1,0,0:0:0:0:
192,192,149073,1,0,0:0:0:0:
448,192,149256,1,2,0:0:0:0:
64,192,149439,1,2,0:0:0:0:
320,192,149530,1,0,0:0:0:0:
192,192,149622,1,8,0:0:0:0:
64,192,149805,1,0,0:0:0:0:
320,192,149988,1,2,0:0:0:0:
448,192,149988,128,0,150354:0:0:0:60:Crash 2.wav
64,192,150354,1,8,0:0:0:0:
192,192,150354,1,0,0:0:0:0:
320,192,150537,128,0,150719:0:0:0:0:
448,192,150719,1,2,0:0:0:0:
320,192,150902,1,2,0:0:0:0:
64,192,151085,1,8,0:0:0:0:
192,192,151085,1,0,0:0:0:0:
64,192,151268,1,8,0:0:0:0:
192,192,151360,1,8,0:0:0:0:
320,192,151451,1,8,0:0:0:0:
448,192,151451,1,0,0:0:0:0:
192,192,151726,1,2,0:0:0:0:
320,192,152000,1,2,0:0:0:0:
64,192,152183,1,8,0:0:0:0:
448,192,152183,128,4,152549:0:0:0:0:
192,192,152549,1,0,0:0:0:0:
320,192,152915,1,2,0:0:0:0:
448,192,152915,1,0,0:0:0:0:
192,192,153280,1,2,0:0:0:0:
320,192,153280,1,0,0:0:0:0:
64,192,153646,1,2,0:0:0:0:
192,192,153646,1,0,0:0:0:0:
320,192,154012,1,8,0:0:0:0:
448,192,154012,1,0,0:0:0:0:
64,192,154195,1,2,0:0:0:0:
192,192,154195,1,4,0:0:0:0:
192,192,154561,1,2,0:0:0:0:
320,192,154561,1,0,0:0:0:0:
64,192,154744,1,8,0:0:0:0:
320,192,154927,1,2,0:0:0:0:
448,192,154927,1,0,0:0:0:60:Crash 2.wav
192,192,155293,1,2,0:0:0:0:
320,192,155476,1,8,0:0:0:0:
448,192,155476,1,0,0:0:0:0:
448,192,155659,1,8,0:0:0:0:
320,192,155750,1,8,0:0:0:0:
64,192,155841,128,2,156207:0:0:0:0:
192,192,155841,1,4,0:0:0:0:
320,192,156207,1,8,0:0:0:0:
448,192,156207,1,0,0:0:0:0:
192,192,156390,1,2,0:0:0:0:
320,192,156390,128,0,156573:0:0:0:0:
192,192,156756,128,2,156939:0:0:0:0:
448,192,156756,1,0,0:0:0:0:
64,192,156939,1,8,0:0:0:0:
320,192,157122,1,2,0:0:0:0:
448,192,157122,128,4,157488:0:0:0:0:
64,192,157488,1,2,0:0:0:0:
192,192,157671,1,8,0:0:0:0:
320,192,157671,1,0,0:0:0:0:
448,192,157854,1,2,0:0:0:0:
64,192,158037,1,8,0:0:0:0:
192,192,158037,1,0,0:0:0:0:
320,192,158219,1,0,0:0:0:50:Tom1.wav
64,192,158402,128,0,158585:0:0:0:60:Tom2.wav
448,192,158585,128,0,158768:0:0:0:60:Tom3.wav
64,192,158768,1,2,0:0:0:0:
192,192,158768,1,0,0:0:0:0:
192,192,159134,1,2,0:0:0:0:
320,192,159134,1,0,0:0:0:0:
320,192,159500,1,2,0:0:0:0:
448,192,159500,1,0,0:0:0:0:
64,192,159866,1,8,0:0:0:0:
192,192,159866,1,0,0:0:0:0:
320,192,160049,1,2,0:0:0:0:
448,192,160049,1,4,0:0:0:0:
192,192,160415,1,2,0:0:0:0:
320,192,160415,1,0,0:0:0:0:
448,192,160598,1,8,0:0:0:0:
64,192,160780,1,2,0:0:0:0:
192,192,160780,1,0,0:0:0:60:Crash 2.wav
320,192,161146,1,2,0:0:0:0:
64,192,161329,1,8,0:0:0:0:
192,192,161329,1,0,0:0:0:0:
320,192,161512,1,0,0:0:0:0:
64,192,161695,1,2,0:0:0:0:
448,192,161695,128,4,162244:0:0:0:0:
320,192,162061,1,0,0:0:0:0:
64,192,162244,1,2,0:0:0:0:
64,192,162427,128,8,163159:0:0:0:0:
448,192,162427,1,0,0:0:0:35:Ride.wav
192,192,162793,1,2,0:0:0:0:
320,192,162976,1,8,0:0:0:0:
448,192,163159,1,2,0:0:0:0:
64,192,163341,1,8,0:0:0:0:
192,192,163341,1,0,0:0:0:0:
320,192,163524,1,2,0:0:0:0:
192,192,163707,1,0,0:0:0:0:
64,192,163890,1,8,0:0:0:0:
448,192,163890,1,4,0:0:0:0:
320,192,164165,1,0,0:0:0:0:
192,192,164439,1,8,0:0:0:0:
448,192,164439,1,0,0:0:0:0:
64,192,164622,128,2,165537:0:0:0:0:
320,192,164622,1,0,0:0:0:60:Crash 2.wav
448,192,165354,1,0,0:0:0:70:Splash.wav
320,192,165537,128,0,165719:0:0:0:0:
192,192,165719,128,0,165902:0:0:0:0:
320,192,165902,1,2,0:0:0:0:
448,192,165902,128,0,166085:0:0:0:0:
64,192,166268,128,0,166451:0:0:0:0:
192,192,166817,128,0,167183:0:0:0:0:
320,192,167183,128,0,167549:0:0:0:0:
64,192,167549,128,0,167915:0:0:0:0:
448,192,167915,128,0,168098:0:0:0:0:
192,192,168280,128,0,168646:0:0:0:0:
320,192,168646,128,0,168829:0:0:0:0:
64,192,168829,128,0,169195:0:0:0:0:
192,192,169195,128,0,169378:0:0:0:0:
448,192,169378,128,0,169561:0:0:0:0:
320,192,169561,128,0,169744:0:0:0:0:
192,192,169744,128,0,170110:0:0:0:0:
64,192,170293,128,0,170476:0:0:0:0:
448,192,170476,128,0,170841:0:0:0:0:
192,192,170841,1,0,0:0:0:0:
192,192,171024,128,0,171207:0:0:0:0:
320,192,171390,128,0,171573:0:0:0:0:
64,192,171756,128,0,172671:0:0:0:0:
448,192,172122,1,0,0:0:0:0:
320,192,172488,1,0,0:0:0:0:
192,192,172671,1,0,0:0:0:0:
448,192,172854,128,0,173037:0:0:0:0:
64,192,173037,128,0,173219:0:0:0:0:
192,192,173219,128,0,173402:0:0:0:0:
320,192,173402,128,0,173768:0:0:0:0:
64,192,173768,128,0,174134:0:0:0:0:
320,192,174134,128,0,174500:0:0:0:0:
192,192,174500,128,0,174683:0:0:0:0:
448,192,174683,128,0,175232:0:0:0:0:
320,192,175049,1,0,0:0:0:0:
192,192,175232,128,0,175415:0:0:0:0:
64,192,175415,128,0,175780:0:0:0:0:
320,192,175780,128,0,176146:0:0:0:0:
192,192,176146,128,0,176329:0:0:0:0:
448,192,176329,128,0,177061:0:0:0:0:
64,192,177244,128,0,177427:0:0:0:0:
192,192,177427,128,0,177610:0:0:0:30:soft-hitfinish.wav
320,192,177610,1,4,0:0:0:0:
448,192,177610,1,0,0:0:0:0:
64,192,178341,1,0,0:0:0:0:
64,192,178524,1,0,0:0:0:0:
320,192,178707,128,0,178890:0:0:0:0:
192,192,178890,128,0,179073:0:0:0:0:
448,192,178890,1,0,0:0:0:0:
64,192,179073,128,0,179256:0:0:0:0:
320,192,179256,1,2,0:0:0:0:
448,192,179256,1,4,0:0:0:0:
320,192,179622,1,2,0:0:0:0:
64,192,179805,1,0,0:0:0:0:
192,192,179896,1,0,0:0:0:0:
320,192,179988,1,2,0:0:0:0:
448,192,180171,1,0,0:0:0:0:
320,192,180354,1,2,0:0:0:0:
64,192,180537,1,0,0:0:0:0:
192,192,180719,1,2,0:0:0:0:
320,192,180902,1,0,0:0:0:0:
192,192,181085,1,2,0:0:0:0:
448,192,181268,1,0,0:0:0:0:
320,192,181360,1,0,0:0:0:0:
192,192,181451,1,2,0:0:0:0:
64,192,181634,1,8,0:0:0:0:
64,192,181817,1,2,0:0:0:0:
320,192,181817,1,8,0:0:0:0:
192,192,182000,1,0,0:0:0:0:
448,192,182183,1,2,0:0:0:0:
320,192,182366,1,0,0:0:0:0:
448,192,182549,1,2,0:0:0:0:
64,192,182732,1,0,0:0:0:0:
192,192,182823,1,0,0:0:0:0:
320,192,182915,1,2,0:0:0:0:
448,192,183098,1,0,0:0:0:0:
320,192,183280,1,2,0:0:0:0:
64,192,183463,128,2,183829:0:0:0:0:
192,192,183463,1,0,0:0:0:60:Crash 2.wav
320,192,183829,1,8,0:0:0:0:
448,192,183829,1,0,0:0:0:0:
192,192,184195,1,2,0:0:0:0:
64,192,184378,1,8,0:0:0:0:
448,192,184378,1,0,0:0:0:0:
320,192,184652,1,0,0:0:0:60:Tom2.wav
64,192,184927,128,2,185293:0:0:0:0:
192,192,184927,1,4,0:0:0:0:
448,192,185293,1,0,0:0:0:50:Crash 2.wav
448,192,185476,1,4,0:0:0:0:
64,192,185841,1,8,0:0:0:0:
192,192,185841,1,0,0:0:0:0:
192,192,186116,1,8,0:0:0:0:
320,192,186116,1,0,0:0:0:0:
320,192,186390,1,2,0:0:0:0:
448,192,186390,128,4,186756:0:0:0:0:
192,192,186756,1,0,0:0:0:50:Tom1.wav
320,192,186939,1,0,0:0:0:50:Tom1.wav
64,192,187122,1,2,0:0:0:0:
192,192,187305,1,0,0:0:0:60:Tom2.wav
320,192,187579,1,0,0:0:0:60:Tom3.wav
64,192,187854,128,2,188219:0:0:0:0:
448,192,187854,1,0,0:0:0:0:
320,192,188219,1,8,0:0:0:0:
192,192,188402,1,8,0:0:0:0:
448,192,188585,1,8,0:0:0:0:
192,192,188768,1,8,0:0:0:0:
320,192,188951,1,8,0:0:0:0:
64,192,189134,1,8,0:0:0:0:
320,192,189317,1,8,0:0:0:0:
192,192,189409,1,8,0:0:0:0:
64,192,189500,1,2,0:0:0:0:
448,192,189500,128,8,189683:0:0:0:0:
64,192,190049,128,8,190232:0:0:0:0:
448,192,190049,1,2,0:0:0:0:
64,192,190598,1,8,0:0:0:0:
448,192,190598,128,2,190963:0:0:0:0:
64,192,190963,1,8,0:0:0:0:
192,192,190963,1,0,0:0:0:0:
320,192,191146,1,0,0:0:0:50:Tom1.wav
192,192,191512,1,2,0:0:0:0:
64,192,191695,1,8,0:0:0:0:
448,192,191695,1,0,0:0:0:0:
320,192,191878,128,0,192061:0:0:0:50:Tom1.wav
64,192,192061,1,8,0:0:0:0:
192,192,192061,128,0,192244:0:0:0:0:
320,192,192244,128,0,192427:0:0:0:0:
64,192,192427,128,2,192610:0:0:0:0:
448,192,192427,1,0,0:0:0:60:Crash 2.wav
64,192,192976,1,2,0:0:0:0:
448,192,192976,128,4,193159:0:0:0:0:
64,192,193524,128,2,194622:0:0:0:0:
448,192,193524,128,0,194622:0:0:0:60:Crash 2.wav
320,192,194622,128,0,194988:0:0:0:0:
192,192,194988,128,0,195354:0:0:0:0:
64,192,195354,1,2,0:0:0:0:
448,192,195354,1,0,0:0:0:0:
320,192,195719,1,0,0:0:0:0:
320,192,196085,1,4,0:0:0:0:
192,192,196085,1,0,0:0:0:0:
448,192,196451,1,2,0:0:0:0:
64,192,196634,128,2,197549:0:0:0:0:
192,192,196634,1,0,0:0:0:60:Crash 2.wav
448,192,197000,1,0,0:0:0:0:
320,192,197183,1,0,0:0:0:0:
192,192,197366,1,2,0:0:0:0:
448,192,197549,1,8,0:0:0:0:
64,192,197732,1,2,0:0:0:0:
192,192,197732,128,4,198098:0:0:0:0:
320,192,198098,1,2,0:0:0:0:
64,192,198280,1,2,0:0:0:0:
448,192,198280,128,0,198646:0:0:0:0:
192,192,198646,1,0,0:0:0:0:
320,192,198829,1,0,0:0:0:20:soft-hitclap.wav
448,192,198829,1,0,0:0:0:0:
64,192,199012,1,8,0:0:0:0:
192,192,199012,1,0,0:0:0:0:
320,192,199195,1,0,0:0:0:50:Tom1.wav
64,192,199378,1,8,0:0:0:0:
192,192,199378,1,0,0:0:0:0:
320,192,199561,1,8,0:0:0:0:
448,192,199561,128,0,200293:0:0:0:0:
64,192,200293,128,0,200841:0:0:0:0:
320,192,200659,1,0,0:0:0:0:
192,192,200841,1,0,0:0:0:0:
320,192,201024,1,0,0:0:0:0:
64,192,201207,1,2,0:0:0:0:
448,192,201207,1,4,0:0:0:0:
192,192,201573,1,8,0:0:0:0:
320,192,201573,1,2,0:0:0:0:
64,192,201939,1,2,0:0:0:0:
192,192,202122,1,0,0:0:0:0:
320,192,202305,1,8,0:0:0:0:
448,192,202305,1,2,0:0:0:0:
64,192,202488,1,0,0:0:0:0:
448,192,202671,1,2,0:0:0:0:
320,192,202854,1,0,0:0:0:0:
64,192,203037,1,8,0:0:0:0:
192,192,203037,1,2,0:0:0:0:
448,192,203219,1,0,0:0:0:0:
192,192,203402,1,2,0:0:0:0:
320,192,203585,1,0,0:0:0:0:
64,192,203768,1,8,0:0:0:0:
448,192,203768,1,2,0:0:0:0:
192,192,203951,1,0,0:0:0:60:Tom2.wav
320,192,204134,1,2,0:0:0:0:
448,192,204134,128,4,204683:0:0:0:0:
192,192,204683,1,2,0:0:0:0:
320,192,204683,128,0,205049:0:0:0:60:Crash 2.wav
64,192,205232,128,2,205598:0:0:0:0:
192,192,205232,1,4,0:0:0:0:
192,192,205598,128,2,205963:0:0:0:0:
320,192,205598,1,0,0:0:0:60:Crash 2.wav
448,192,205963,1,0,0:0:0:50:Tom1.wav
320,192,206146,1,0,0:0:0:60:Tom2.wav
64,192,206329,1,8,0:0:0:0:
192,192,206329,1,0,0:0:0:0:
320,192,206512,1,8,0:0:0:0:
64,192,206695,1,8,0:0:0:0:
448,192,206695,1,0,0:0:0:0:
192,192,206878,1,8,0:0:0:0:
320,192,207061,1,0,0:0:0:60:Tom3.wav
448,192,207061,1,0,0:0:0:0:
64,192,207427,1,6,0:0:0:0:
448,192,207427,1,8,0:0:0:0:
192,192,207793,1,2,0:0:0:0:
320,192,207976,1,0,0:0:0:0:
64,192,208159,1,8,0:0:0:0:
192,192,208159,1,2,0:0:0:0:
448,192,208341,128,0,208707:0:0:0:0:
320,192,208524,1,2,0:0:0:0:
192,192,208707,128,0,208890:0:0:0:0:
320,192,208890,128,8,209073:0:0:0:0:
448,192,208890,1,2,0:0:0:0:
64,192,209073,128,0,209256:0:0:0:0:
192,192,209256,128,2,209439:0:0:0:0:
64,192,209439,1,0,0:0:0:0:
320,192,209622,1,8,0:0:0:0:
448,192,209622,1,2,0:0:0:0:
192,192,209805,128,0,209988:0:0:0:0:
448,192,209988,128,2,210354:0:0:0:0:
320,192,210171,1,0,0:0:0:0:
64,192,210354,1,8,0:0:0:0:
192,192,210354,1,2,0:0:0:0:
320,192,210537,128,0,210902:0:0:0:0:
64,192,210719,1,2,0:0:0:0:
448,192,210902,128,0,211085:0:0:0:0:
192,192,211085,128,10,211268:0:0:0:0:
64,192,211268,128,2,211634:0:0:0:0:
448,192,211268,1,4,0:0:0:0:
320,192,211634,1,8,0:0:0:0:
192,192,211817,1,8,0:0:0:0:
448,192,211817,1,0,0:0:0:0:
64,192,212000,1,0,0:0:0:50:Tom1.wav
320,192,212183,1,0,0:0:0:60:Tom2.wav
448,192,212183,1,0,0:0:0:0:
192,192,212457,1,0,0:0:0:60:Tom3.wav
64,192,212732,1,2,0:0:0:0:
448,192,212732,128,4,213098:0:0:0:0:
192,192,213098,1,0,0:0:0:60:Tom3.wav
64,192,213280,1,10,0:0:0:0:
320,192,213280,1,0,0:0:0:60:Crash 2.wav
192,192,213463,1,0,0:0:0:0:
448,192,213646,1,2,0:0:0:0:
192,192,213829,1,0,0:0:0:35:Ride.wav
320,192,213921,1,0,0:0:0:0:
64,192,214012,1,10,0:0:0:0:
192,192,214195,1,0,0:0:0:35:Ride.wav
448,192,214378,1,2,0:0:0:0:
320,192,214561,1,0,0:0:0:35:Ride.wav
64,192,214744,1,2,0:0:0:0:
192,192,214744,1,8,0:0:0:0:
320,192,214927,1,0,0:0:0:35:Ride.wav
64,192,215110,1,2,0:0:0:0:
320,192,215293,1,0,0:0:0:35:Ride.wav
192,192,215384,1,0,0:0:0:0:
64,192,215476,1,2,0:0:0:0:
448,192,215476,1,8,0:0:0:0:
320,192,215659,1,0,0:0:0:35:Ride.wav
64,192,215841,1,2,0:0:0:0:
192,192,216024,1,0,0:0:0:35:Ride.wav
320,192,216207,1,8,0:0:0:0:
448,192,216207,1,2,0:0:0:0:
64,192,216390,1,0,0:0:0:35:Ride.wav
320,192,216573,1,2,0:0:0:0:
64,192,216756,1,8,0:0:0:0:
192,192,216756,1,0,0:0:0:0:
448,192,216939,1,2,0:0:0:0:
192,192,217122,128,2,217488:0:0:0:0:
320,192,217122,1,4,0:0:0:0:
64,192,217488,1,2,0:0:0:0:
320,192,217671,1,8,0:0:0:0:
448,192,217671,1,0,0:0:0:60:Crash 2.wav
64,192,217854,128,2,218037:0:0:0:0:
192,192,218037,1,8,0:0:0:0:
320,192,218037,1,0,0:0:0:0:
448,192,218219,128,8,218402:0:0:0:0:
192,192,218402,1,0,0:0:0:60:Tom2.wav
64,192,218585,128,2,219500:0:0:0:0:
320,192,218585,1,4,0:0:0:0:
320,192,219134,1,4,0:0:0:0:
192,192,219317,1,2,0:0:0:0:
320,192,219500,1,8,0:0:0:0:
448,192,219500,1,0,0:0:0:0:
192,192,219866,1,2,0:0:0:0:
64,192,220049,1,2,0:0:0:0:
448,192,220049,128,0,220415:0:0:0:0:
192,192,220415,1,0,0:0:0:70:Splash.wav
320,192,220415,1,0,0:0:0:0:
64,192,220780,1,0,0:0:0:60:Tom3.wav
320,192,220963,1,8,0:0:0:0:
448,192,220963,1,0,0:0:0:0:
192,192,221238,1,2,0:0:0:0:
320,192,221238,1,0,0:0:0:0:
64,192,221512,128,2,222061:0:0:0:0:
192,192,221512,1,0,0:0:0:60:Crash 2.wav
320,192,222244,1,0,0:0:0:0:
320,192,222427,1,0,0:0:0:0:
192,192,222701,1,0,0:0:0:0:
64,192,222976,1,2,0:0:0:0:
448,192,222976,128,4,223524:0:0:0:0:
320,192,223524,1,0,0:0:0:50:Crash 2.wav
192,192,223890,1,0,0:0:0:0:
320,192,224165,1,0,0:0:0:0:
64,192,224439,128,2,224805:0:0:0:0:
448,192,224439,1,4,0:0:0:0:
320,192,224988,1,8,0:0:0:0:
192,192,225171,1,8,0:0:0:0:
320,192,225354,1,8,0:0:0:0:
64,192,225537,1,8,0:0:0:0:
448,192,225719,1,8,0:0:0:0:
64,192,225902,128,2,226451:0:0:0:0:
192,192,225902,1,8,0:0:0:0:
320,192,226451,1,0,0:0:0:0:
192,192,226634,1,0,0:0:0:0:
448,192,227000,1,0,0:0:0:0:
64,192,227366,128,2,229012:0:0:0:0:
320,192,227366,1,0,0:0:0:0:
320,192,227915,1,2,0:0:0:0:
320,192,228280,1,2,0:0:0:0:
320,192,228646,128,2,229012:0:0:0:0:
448,192,229012,1,10,0:0:0:0:
448,192,229195,1,10,0:0:0:0:
192,192,229378,1,10,0:0:0:0:
192,192,229561,1,10,0:0:0:0:
320,192,229927,128,0,230110:0:0:0:0:
448,192,229927,128,0,230110:0:0:0:0:
64,192,230476,128,2,230841:0:0:0:0:
192,192,230476,1,4,0:0:0:0:
320,192,230841,1,8,0:0:0:0:
448,192,230841,1,2,0:0:0:0:
192,192,231024,128,0,231207:0:0:0:0:
448,192,231207,1,2,0:0:0:0:
320,192,231390,128,0,231573:0:0:0:0:
64,192,231573,1,8,0:0:0:0:
192,192,231573,1,2,0:0:0:0:
448,192,231756,128,0,232122:0:0:0:0:
192,192,231939,1,2,0:0:0:0:
64,192,232122,128,0,232305:0:0:0:0:
320,192,232305,128,8,232488:0:0:0:0:
448,192,232305,1,2,0:0:0:0:
192,192,232488,128,0,232854:0:0:0:0:
448,192,232671,1,2,0:0:0:0:
320,192,232854,128,0,233037:0:0:0:0:
64,192,233037,128,8,233219:0:0:0:0:
192,192,233037,1,2,0:0:0:0:
448,192,233402,128,2,233768:0:0:0:0:
64,192,233768,1,8,0:0:0:0:
192,192,233768,1,2,0:0:0:0:
320,192,233951,128,0,234134:0:0:0:0:
64,192,234134,1,2,0:0:0:0:
448,192,234317,128,0,234500:0:0:0:0:
192,192,234500,1,8,0:0:0:0:
320,192,234500,1,2,0:0:0:0:
64,192,234683,128,0,235049:0:0:0:0:
320,192,234866,1,2,0:0:0:0:
192,192,235049,128,0,235232:0:0:0:0:
64,192,235232,1,10,0:0:0:0:
448,192,235232,128,4,235415:0:0:0:0:
320,192,235415,128,0,235780:0:0:0:0:
64,192,235598,1,8,0:0:0:0:
192,192,235780,128,0,235963:0:0:0:50:Tom1.wav
64,192,235963,1,8,0:0:0:0:
448,192,235963,128,0,236329:0:0:0:0:
320,192,236146,1,8,0:0:0:0:
64,192,236329,128,2,236695:0:0:0:0:
192,192,236329,1,4,0:0:0:0:
320,192,236695,1,10,0:0:0:0:
448,192,236695,1,0,0:0:0:60:Crash 2.wav
192,192,236878,128,0,237061:0:0:0:0:
448,192,237061,1,2,0:0:0:0:
320,192,237244,128,0,237427:0:0:0:35:Ride.wav
64,192,237427,1,8,0:0:0:0:
192,192,237427,1,2,0:0:0:0:
448,192,237610,128,0,237976:0:0:0:35:Ride.wav
192,192,237793,1,2,0:0:0:0:
64,192,237976,128,0,238159:0:0:0:35:Ride.wav
320,192,238159,128,8,238341:0:0:0:0:
448,192,238159,1,2,0:0:0:0:
192,192,238341,128,0,238707:0:0:0:35:Ride.wav
448,192,238524,1,2,0:0:0:0:
320,192,238707,128,0,238890:0:0:0:35:Ride.wav
64,192,238890,128,2,239256:0:0:0:0:
448,192,238890,1,4,0:0:0:0:
192,192,239073,1,8,0:0:0:0:
320,192,239256,1,2,0:0:0:0:
448,192,239256,128,0,239439:0:0:0:60:Crash 2.wav
192,192,239439,128,0,239622:0:0:0:0:
64,192,239622,1,8,0:0:0:0:
320,192,239622,128,0,239805:0:0:0:0:
192,192,239805,128,2,239988:0:0:0:0:
448,192,239805,128,4,239988:0:0:0:0:
192,192,240171,128,2,240354:0:0:0:0:
320,192,240171,128,0,240354:0:0:0:0:
64,192,240537,128,2,242183:0:0:0:0:
448,192,240537,128,4,240902:0:0:0:0:
448,192,241085,128,0,241268:0:0:0:0:
448,192,241451,128,0,242183:0:0:0:0:
192,192,242183,1,10,0:0:0:0:
192,192,242366,1,10,0:0:0:0:
320,192,242549,1,10,0:0:0:0:
320,192,242732,1,10,0:0:0:0:
64,192,242915,1,10,0:0:0:0:
64,192,243098,1,10,0:0:0:0:
448,192,243280,1,10,0:0:0:0:
448,192,243463,1,10,0:0:0:0:
192,192,243921,1,0,0:0:0:0:
320,192,244012,1,0,0:0:0:0:
