osu file format v14

[General]
AudioFilename: audio.mp3
AudioLeadIn: 0
PreviewTime: 194622
Countdown: 0
SampleSet: Soft
StackLeniency: 0.7
Mode: 3
LetterboxInBreaks: 0
SpecialStyle: 0
WidescreenStoryboard: 0

[Editor]
Bookmarks: 720,12427,27061,38768,50476,62183,73890,97122,103159,114866,126573,138280,152915,167549,179256,195354,201207,230476,242183,243463
DistanceSpacing: 2.9
BeatDivisor: 4
GridSize: 32
TimelineZoom: 2.5

[Metadata]
Title:Kaisou Ressha
TitleUnicode:海想列車
Artist:Minato Aqua
ArtistUnicode:湊あくあ
Creator:Sun
Version:Dreaming
Source:
Tags:Kanon Matsubara Drum-Hitnormal dudehacker _Asha Nabi- vtuber virtual youtuber hololive ホロライブ aquairo あくあ色 3rd third anniversary 40mp 40meterp NNZN japanese pop jpop j-pop hmng SHIG
BeatmapID:3192842
BeatmapSetID:1563534

[Difficulty]
HPDrainRate:8
CircleSize:4
OverallDifficulty:8
ApproachRate:5
SliderMultiplier:1.4
SliderTickRate:1

[Events]
//Background and Video events
Video,450,"Kaisou Ressha.mp4"
0,0,"bg.jpg",0,0
//Break Periods
//Storyboard Layer 0 (Background)
//Storyboard Layer 1 (Fail)
//Storyboard Layer 2 (Pass)
//Storyboard Layer 3 (Foreground)
//Storyboard Layer 4 (Overlay)
//Storyboard Sound Samples

[TimingPoints]
720,365.853658536585,4,2,1,50,1,0
12427,-100,4,2,1,60,0,0
21573,-100,4,2,1,20,0,0
21939,-100,4,2,1,30,0,0
22305,-100,4,2,1,45,0,0
23951,-100,4,2,1,60,0,0
27061,-100,4,2,1,70,0,0
38768,-100,4,2,1,60,0,0
50476,-100,4,2,1,65,0,0
68037,-100,4,2,1,55,0,0
70963,-100,4,2,1,20,0,0
71329,-100,4,2,1,30,0,0
71695,-100,4,2,1,40,0,0
72061,-100,4,2,1,50,0,0
72244,-33.3333333333333,4,2,1,50,0,0
72267,-133.333333333333,4,2,1,50,0,0
72427,-100,4,2,1,50,0,0
72610,-66.6666666666667,4,2,1,50,0,0
72701,-200,4,2,1,50,0,0
72793,-100,4,2,1,50,0,0
73890,-100,4,2,1,75,0,1
94744,-100,4,2,1,30,0,1
95110,-100,4,2,1,40,0,1
95476,-100,4,2,1,50,0,1
95659,-100,4,2,1,55,0,0
97122,-100,4,2,1,65,0,0
103159,-125,4,2,1,50,0,0
108280,-200,4,2,1,50,0,0
108372,-133.333333333333,4,2,1,50,0,0
108463,-100,4,2,1,50,0,0
108509,-90.9090909090909,4,2,1,50,0,0
108555,-83.3333333333333,4,2,1,50,0,0
108577,-76.9230769230769,4,2,1,50,0,0
108600,-71.4285714285714,4,2,1,50,0,0
108623,-66.6666666666667,4,2,1,50,0,0
108646,-33.3333333333333,4,2,1,50,0,0
108669,-133.333333333333,4,2,1,50,0,0
108829,-100,4,2,1,50,0,0
113219,-200,4,2,1,65,0,0
113311,-133.333333333333,4,2,1,65,0,0
113402,-100,4,2,1,65,0,0
113448,-90.9090909090909,4,2,1,65,0,0
113494,-83.3333333333333,4,2,1,65,0,0
113516,-76.9230769230769,4,2,1,65,0,0
113539,-71.4285714285714,4,2,1,65,0,0
113562,-66.6666666666667,4,2,1,65,0,0
113585,-100,4,2,1,65,0,0
123280,-200,4,2,1,65,0,0
123372,-133.333333333333,4,2,1,65,0,0
123463,-100,4,2,1,65,0,0
123509,-90.9090909090909,4,2,1,65,0,0
123555,-83.3333333333333,4,2,1,65,0,0
123577,-76.9230769230769,4,2,1,65,0,0
123600,-71.4285714285714,4,2,1,65,0,0
123623,-66.6666666666667,4,2,1,65,0,0
123646,-100,4,2,1,55,0,0
126573,-100,4,2,1,60,0,0
131695,-66.6666666666667,4,2,1,60,0,0
131787,-200,4,2,1,60,0,0
131878,-100,4,2,1,60,0,0
131969,-66.6666666666667,4,2,1,60,0,0
132061,-200,4,2,1,60,0,0
132152,-100,4,2,1,60,0,0
132244,-66.6666666666667,4,2,1,60,0,0
132335,-200,4,2,1,60,0,0
132427,-100,4,2,1,65,0,0
138280,-100,4,2,1,70,0,0
146329,-66.6666666666667,4,2,1,70,0,0
146421,-200,4,2,1,70,0,0
146512,-100,4,2,1,70,0,0
146603,-66.6666666666667,4,2,1,70,0,0
146695,-200,4,2,1,70,0,0
146786,-100,4,2,1,70,0,0
146878,-66.6666666666667,4,2,1,70,0,0
146969,-200,4,2,1,70,0,0
147061,-100,4,2,1,70,0,0
151451,-66.6666666666667,4,2,1,70,0,0
151543,-200,4,2,1,70,0,0
151634,-100,4,2,1,70,0,0
151725,-66.6666666666667,4,2,1,70,0,0
151817,-200,4,2,1,70,0,0
151908,-100,4,2,1,70,0,0
152000,-66.6666666666667,4,2,1,70,0,0
152091,-200,4,2,1,70,0,0
152183,-100,4,2,1,70,0,0
152915,-100,4,2,1,60,0,0
167549,-125,4,2,1,50,0,0
178890,-200,4,2,1,50,0,0
178982,-133.333333333333,4,2,1,50,0,0
179073,-100,4,2,1,50,0,0
179119,-90.9090909090909,4,2,1,50,0,0
179165,-83.3333333333333,4,2,1,50,0,0
179187,-76.9230769230769,4,2,1,50,0,0
179210,-71.4285714285714,4,2,1,50,0,0
179233,-66.6666666666667,4,2,1,50,0,0
179256,-100,4,2,1,55,0,0
188037,-100,4,2,1,20,0,0
188402,-100,4,2,1,30,0,0
188768,-100,4,2,1,40,0,0
189134,-100,4,2,1,50,0,0
189500,-100,4,2,1,60,0,0
195354,-100,4,2,1,55,0,0
201207,-100,4,2,1,75,0,1
206329,-100,4,2,1,50,0,1
207061,-200,4,2,1,50,0,1
207153,-133.333333333333,4,2,1,50,0,1
207244,-100,4,2,1,50,0,1
207290,-90.9090909090909,4,2,1,50,0,1
207336,-83.3333333333333,4,2,1,50,0,1
207358,-76.9230769230769,4,2,1,50,0,1
207381,-71.4285714285714,4,2,1,50,0,1
207404,-66.6666666666667,4,2,1,50,0,1
207427,-100,4,2,1,75,0,1
224988,-100,4,2,1,30,0,1
225354,-100,4,2,1,40,0,1
225719,-100,4,2,1,50,0,1
225902,-100,4,2,1,60,0,0
230476,-100,4,2,1,70,0,0

[HitObjects]
64,192,720,5,0,0:0:0:0:
448,192,720,128,0,1085:0:0:0:0:
320,192,1085,1,0,0:0:0:0:
64,192,1268,1,0,0:0:0:0:
448,192,1268,128,0,1634:0:0:0:0:
192,192,1634,1,0,0:0:0:0:
64,192,1817,1,0,0:0:0:0:
448,192,1817,128,0,2183:0:0:0:0:
192,192,2183,1,0,0:0:0:0:
64,192,2366,1,0,0:0:0:0:
448,192,2366,128,0,2732:0:0:0:0:
320,192,2732,1,0,0:0:0:0:
64,192,2915,1,0,0:0:0:0:
448,192,2915,128,0,3280:0:0:0:0:
64,192,3280,1,0,0:0:0:0:
320,192,3280,128,0,3646:0:0:0:0:
64,192,3646,128,0,4012:0:0:0:0:
448,192,3646,1,0,0:0:0:0:
192,192,4012,1,0,0:0:0:0:
64,192,4195,128,0,4561:0:0:0:0:
448,192,4195,1,0,0:0:0:0:
320,192,4561,1,0,0:0:0:0:
64,192,4744,128,0,5110:0:0:0:0:
448,192,4744,1,0,0:0:0:0:
320,192,5110,1,0,0:0:0:0:
64,192,5293,128,0,5659:0:0:0:0:
448,192,5293,1,0,0:0:0:0:
192,192,5659,1,0,0:0:0:0:
64,192,5841,128,0,6207:0:0:0:0:
448,192,5841,1,0,0:0:0:0:
192,192,6207,128,0,6573:0:0:0:0:
448,192,6207,1,0,0:0:0:0:
320,192,6573,128,0,6939:0:0:0:0:
448,192,6573,1,0,0:0:0:0:
64,192,6939,1,0,0:0:0:0:
320,192,7122,128,0,7488:0:0:0:0:
448,192,7122,1,0,0:0:0:0:
192,192,7488,1,0,0:0:0:0:
320,192,7671,128,0,8037:0:0:0:0:
448,192,7671,1,0,0:0:0:0:
192,192,8037,1,0,0:0:0:0:
320,192,8219,128,0,8585:0:0:0:0:
448,192,8219,1,0,0:0:0:0:
64,192,8585,1,0,0:0:0:0:
320,192,8768,128,0,9134:0:0:0:0:
448,192,8768,1,0,0:0:0:0:
64,192,9134,1,0,0:0:0:0:
192,192,9134,128,0,9500:0:0:0:0:
320,192,9454,1,0,0:0:0:0:
64,192,9500,128,0,11695:0:0:0:0:
448,192,9500,1,0,0:0:0:0:
448,192,11695,128,0,12335:0:0:0:0:
320,192,12061,128,0,12335:0:0:0:0:
64,192,12427,128,2,12793:0:0:0:0:
320,192,12427,1,0,0:0:0:60:Crash 2.wav
448,192,12427,1,0,0:0:0:0:
320,192,12793,128,0,13159:0:0:0:0:
192,192,13159,128,0,13524:0:0:0:0:
320,192,13524,128,0,13707:0:0:0:0:
64,192,13707,128,2,14073:0:0:0:0:
192,192,13707,1,4,0:0:0:0:
448,192,13707,1,0,0:0:0:0:
448,192,14073,128,0,14256:0:0:0:0:
320,192,14256,128,0,14439:0:0:0:0:
64,192,14439,1,8,0:0:0:20:soft-hitclap.wav
192,192,14500,1,8,0:0:0:20:soft-hitclap.wav
320,192,14561,1,8,0:0:0:20:soft-hitclap.wav
64,192,14622,128,8,14988:0:0:0:0:
448,192,14622,1,0,0:0:0:0:
192,192,14805,1,0,0:0:0:50:Tom1.wav
320,192,14988,1,0,0:0:0:60:Tom3.wav
448,192,14988,1,0,0:0:0:0:
192,192,15171,128,0,15354:0:0:0:0:
64,192,15354,1,2,0:0:0:0:
320,192,15354,1,4,0:0:0:0:
448,192,15354,128,0,15719:0:0:0:0:
64,192,15719,128,0,15902:0:0:0:0:
192,192,15902,128,0,16268:0:0:0:0:
64,192,16085,1,0,0:0:0:60:Crash 2.wav
448,192,16085,1,0,0:0:0:0:
320,192,16268,128,0,16634:0:0:0:0:
64,192,16634,128,2,17000:0:0:0:0:
192,192,16634,1,0,0:0:0:0:
448,192,16634,128,0,17000:0:0:0:0:
64,192,17183,1,0,0:0:0:50:Tom1.wav
448,192,17183,1,0,0:0:0:0:
64,192,17366,1,0,0:0:0:20:soft-hitclap.wav
320,192,17366,1,0,0:0:0:0:
448,192,17366,1,0,0:0:0:0:
192,192,17457,1,0,0:0:0:30:soft-hitclap.wav
64,192,17549,128,8,17732:0:0:0:0:
320,192,17549,128,0,17732:0:0:0:0:
448,192,17549,128,0,17732:0:0:0:0:
64,192,17823,128,0,18006:0:0:0:60:Tom2.wav
320,192,17823,128,0,18006:0:0:0:0:
448,192,17823,128,0,18006:0:0:0:0:
64,192,18098,128,2,18646:0:0:0:0:
192,192,18098,128,0,18463:0:0:0:60:Crash 2.wav
448,192,18098,128,0,19012:0:0:0:0:
192,192,18646,1,0,0:0:0:70:Splash.wav
320,192,18646,1,0,0:0:0:0:
192,192,18829,128,0,19287:0:0:0:0:
64,192,19012,128,0,19287:0:0:0:0:
320,192,19287,128,0,19561:0:0:0:0:
64,192,19561,1,2,0:0:0:0:
192,192,19561,128,4,20110:0:0:0:0:
448,192,19561,1,0,0:0:0:0:
320,192,20110,1,0,0:0:0:60:Crash 2.wav
448,192,20110,1,0,0:0:0:0:
192,192,20293,128,0,20476:0:0:0:50:Tom1.wav
64,192,20476,1,0,0:0:0:0:
448,192,20476,128,0,20750:0:0:0:0:
192,192,20750,1,0,0:0:0:60:Tom3.wav
320,192,20750,128,0,21024:0:0:0:0:
64,192,21024,1,2,0:0:0:0:
192,192,21024,128,4,21573:0:0:0:0:
448,192,21024,1,0,0:0:0:0:
64,192,21573,1,8,0:0:0:0:
448,192,21573,1,0,0:0:0:0:
320,192,21665,1,8,0:0:0:0:
64,192,21756,1,8,0:0:0:0:
192,192,21756,1,0,0:0:0:0:
320,192,21848,1,8,0:0:0:0:
192,192,21939,1,8,0:0:0:0:
448,192,21939,1,0,0:0:0:0:
64,192,22030,1,8,0:0:0:0:
320,192,22122,1,8,0:0:0:0:
448,192,22122,1,0,0:0:0:0:
64,192,22213,1,8,0:0:0:0:
192,192,22213,1,0,0:0:0:0:
320,192,22305,1,8,0:0:0:0:
448,192,22305,1,0,0:0:0:0:
192,192,22396,1,8,0:0:0:0:
64,192,22488,1,2,0:0:0:0:
320,192,22488,128,8,22854:0:0:0:0:
448,192,22488,128,0,22854:0:0:0:0:
64,192,23402,1,0,0:0:0:0:
192,192,23463,1,0,0:0:0:0:
320,192,23524,1,0,0:0:0:0:
448,192,23585,1,0,0:0:0:0:
64,192,23646,1,0,0:0:0:0:
192,192,23707,1,0,0:0:0:0:
320,192,23768,1,0,0:0:0:0:
448,192,23768,1,0,0:0:0:0:
192,192,23860,1,0,0:0:0:0:
64,192,23951,1,2,0:0:0:0:
320,192,23951,1,0,0:0:0:0:
448,192,23951,1,0,0:0:0:0:
64,192,24500,1,2,0:0:0:0:
192,192,24500,1,0,0:0:0:0:
320,192,24683,1,0,0:0:0:0:
448,192,24774,1,0,0:0:0:0:
64,192,24866,1,2,0:0:0:0:
192,192,24866,1,0,0:0:0:0:
192,192,25049,1,0,0:0:0:0:
64,192,25232,1,2,0:0:0:0:
320,192,25232,1,0,0:0:0:0:
448,192,25232,1,0,0:0:0:0:
64,192,25415,1,0,0:0:0:0:
320,192,25598,1,2,0:0:0:0:
192,192,25598,1,8,0:0:0:0:
448,192,25598,1,0,0:0:0:0:
192,192,25780,1,8,0:0:0:0:
320,192,25780,1,2,0:0:0:0:
448,192,25780,1,0,0:0:0:0:
192,192,25963,1,8,0:0:0:0:
320,192,25963,1,2,0:0:0:0:
448,192,25963,1,0,0:0:0:0:
192,192,26146,1,8,0:0:0:0:
320,192,26146,1,2,0:0:0:0:
448,192,26146,1,0,0:0:0:0:
64,192,26512,1,0,0:0:0:0:
192,192,26512,1,0,0:0:0:0:
448,192,26512,1,0,0:0:0:0:
320,192,26604,1,0,0:0:0:0:
64,192,26695,1,0,0:0:0:0:
192,192,26787,1,0,0:0:0:0:
448,192,26878,1,0,0:0:0:0:
320,192,26969,1,0,0:0:0:0:
64,192,27061,1,2,0:0:0:0:
192,192,27061,1,4,0:0:0:0:
448,192,27061,128,0,27427:0:0:0:0:
64,192,27427,128,8,27518:0:0:0:0:
192,192,27427,1,2,0:0:0:0:
320,192,27427,1,0,0:0:0:0:
64,192,27610,128,0,27793:0:0:0:0:
320,192,27793,1,2,0:0:0:0:
448,192,27793,1,0,0:0:0:0:
320,192,27976,128,0,28159:0:0:0:0:
64,192,28159,1,8,0:0:0:0:
192,192,28159,1,2,0:0:0:0:
448,192,28159,1,0,0:0:0:0:
192,192,28341,128,0,28707:0:0:0:0:
64,192,28524,1,2,0:0:0:0:
448,192,28524,1,0,0:0:0:0:
448,192,28707,128,0,28799:0:0:0:0:
64,192,28890,1,8,0:0:0:0:
192,192,28890,1,2,0:0:0:0:
320,192,28890,128,0,28982:0:0:0:0:
192,192,29073,128,0,29439:0:0:0:0:
64,192,29256,1,2,0:0:0:0:
448,192,29256,1,0,0:0:0:0:
448,192,29439,128,0,29530:0:0:0:0:
192,192,29622,1,8,0:0:0:0:
320,192,29622,1,2,0:0:0:0:
448,192,29622,128,0,29805:0:0:0:0:
64,192,29805,1,0,0:0:0:0:
64,192,29988,128,2,30354:0:0:0:0:
448,192,29988,1,0,0:0:0:0:
320,192,30171,1,0,0:0:0:0:
192,192,30354,1,8,0:0:0:0:
320,192,30354,128,2,30445:0:0:0:0:
448,192,30354,1,0,0:0:0:0:
320,192,30537,128,0,30719:0:0:0:0:
64,192,30719,1,2,0:0:0:0:
192,192,30719,1,0,0:0:0:0:
192,192,30902,128,0,31085:0:0:0:0:
64,192,31085,1,8,0:0:0:0:
320,192,31085,1,2,0:0:0:0:
448,192,31085,1,0,0:0:0:0:
448,192,31268,128,0,31634:0:0:0:0:
64,192,31451,1,2,0:0:0:0:
320,192,31451,1,0,0:0:0:0:
64,192,31634,128,0,31726:0:0:0:0:
192,192,31817,128,8,31909:0:0:0:0:
320,192,31817,1,2,0:0:0:0:
448,192,31817,1,0,0:0:0:0:
320,192,32000,128,0,32366:0:0:0:0:
64,192,32183,1,2,0:0:0:0:
448,192,32183,1,0,0:0:0:0:
192,192,32366,1,0,0:0:0:50:Tom1.wav
448,192,32366,128,0,32457:0:0:0:0:
64,192,32549,1,8,0:0:0:0:
320,192,32549,1,2,0:0:0:0:
448,192,32549,128,0,32732:0:0:0:0:
64,192,32732,1,8,0:0:0:0:
192,192,32732,1,0,0:0:0:0:
320,192,32823,1,8,0:0:0:0:
448,192,32823,1,0,0:0:0:0:
64,192,32915,128,2,33280:0:0:0:0:
192,192,32915,1,4,0:0:0:0:
448,192,32915,1,0,0:0:0:0:
192,192,33280,1,8,0:0:0:0:
320,192,33280,128,2,33372:0:0:0:0:
448,192,33280,1,0,0:0:0:0:
320,192,33463,128,0,33646:0:0:0:0:
64,192,33646,1,2,0:0:0:0:
192,192,33646,1,0,0:0:0:0:
64,192,33829,128,0,34012:0:0:0:0:
192,192,34012,1,8,0:0:0:0:
320,192,34012,1,2,0:0:0:0:
448,192,34012,1,0,0:0:0:0:
448,192,34195,128,0,34561:0:0:0:0:
64,192,34378,1,2,0:0:0:0:
192,192,34378,1,0,0:0:0:0:
64,192,34561,128,0,34652:0:0:0:0:
192,192,34744,128,8,34835:0:0:0:0:
320,192,34744,1,2,0:0:0:0:
448,192,34744,1,0,0:0:0:0:
320,192,34927,128,0,35293:0:0:0:0:
64,192,35110,1,2,0:0:0:0:
192,192,35110,1,0,0:0:0:0:
192,192,35293,128,8,35384:0:0:0:0:
448,192,35293,1,0,0:0:0:0:
64,192,35476,1,8,0:0:0:0:
192,192,35476,128,2,35659:0:0:0:0:
320,192,35476,1,0,0:0:0:0:
320,192,35659,1,8,0:0:0:0:
448,192,35659,1,0,0:0:0:0:
64,192,35750,1,8,0:0:0:0:
192,192,35750,1,0,0:0:0:0:
64,192,35841,1,2,0:0:0:0:
320,192,35841,1,4,0:0:0:0:
448,192,35841,128,0,36024:0:0:0:0:
192,192,36024,128,0,36207:0:0:0:0:
64,192,36207,1,8,0:0:0:0:
320,192,36207,1,0,0:0:0:0:
448,192,36207,1,0,0:0:0:0:
64,192,36390,128,2,36573:0:0:0:0:
192,192,36390,128,0,36573:0:0:0:70:Splash.wav
448,192,36390,128,0,36573:0:0:0:0:
64,192,36756,128,2,36939:0:0:0:0:
320,192,36756,128,0,36939:0:0:0:70:Splash.wav
448,192,36756,128,0,36939:0:0:0:0:
192,192,36939,1,0,0:0:0:0:
64,192,37122,128,2,37579:0:0:0:0:
192,192,37122,128,4,37945:0:0:0:0:
448,192,37122,128,0,38768:0:0:0:0:
64,192,37671,128,0,38585:0:0:0:0:
192,192,38037,128,0,38585:0:0:0:0:
320,192,38585,128,0,38768:0:0:0:0:
64,192,38768,1,2,0:0:0:0:
192,192,38768,1,0,0:0:0:0:
64,192,38951,1,0,0:0:0:0:
448,192,39043,1,0,0:0:0:0:
64,192,39134,1,2,0:0:0:0:
192,192,39134,1,0,0:0:0:0:
320,192,39134,1,0,0:0:0:0:
192,192,39317,1,0,0:0:0:0:
320,192,39409,1,0,0:0:0:0:
64,192,39500,1,2,0:0:0:0:
192,192,39500,1,0,0:0:0:0:
448,192,39500,1,0,0:0:0:0:
448,192,39683,1,0,0:0:0:0:
192,192,39866,1,2,0:0:0:0:
320,192,39866,1,0,0:0:0:0:
448,192,39866,1,0,0:0:0:0:
320,192,40049,1,0,0:0:0:0:
192,192,40140,1,0,0:0:0:0:
64,192,40232,1,2,0:0:0:0:
320,192,40232,1,0,0:0:0:0:
448,192,40232,1,0,0:0:0:0:
64,192,40415,1,0,0:0:0:0:
64,192,40598,1,2,0:0:0:0:
192,192,40598,1,0,0:0:0:0:
320,192,40598,1,0,0:0:0:0:
320,192,40780,1,0,0:0:0:0:
192,192,40872,1,0,0:0:0:0:
64,192,40963,1,2,0:0:0:0:
320,192,40963,1,0,0:0:0:0:
448,192,40963,1,0,0:0:0:0:
448,192,41146,1,0,0:0:0:0:
192,192,41329,1,2,0:0:0:0:
320,192,41329,1,0,0:0:0:0:
448,192,41329,1,0,0:0:0:0:
192,192,41512,1,0,0:0:0:0:
320,192,41604,1,0,0:0:0:0:
64,192,41695,1,2,0:0:0:0:
192,192,41695,1,0,0:0:0:0:
448,192,41695,1,0,0:0:0:0:
64,192,41878,1,0,0:0:0:0:
64,192,42061,1,2,0:0:0:0:
192,192,42061,1,0,0:0:0:0:
320,192,42061,1,0,0:0:0:0:
320,192,42244,1,0,0:0:0:0:
64,192,42335,1,0,0:0:0:0:
192,192,42427,1,2,0:0:0:0:
320,192,42427,1,0,0:0:0:0:
448,192,42427,1,0,0:0:0:0:
192,192,42610,1,0,0:0:0:0:
64,192,42793,1,2,0:0:0:0:
192,192,42793,1,0,0:0:0:0:
448,192,42793,1,0,0:0:0:0:
448,192,42976,1,0,0:0:0:0:
192,192,43067,1,0,0:0:0:0:
64,192,43159,1,2,0:0:0:0:
320,192,43159,1,0,0:0:0:0:
448,192,43159,1,0,0:0:0:0:
320,192,43341,1,0,0:0:0:0:
192,192,43524,1,2,0:0:0:0:
320,192,43524,1,0,0:0:0:0:
448,192,43524,1,0,0:0:0:0:
192,192,43707,1,0,0:0:0:0:
448,192,43799,1,0,0:0:0:0:
64,192,43890,1,2,0:0:0:0:
192,192,43890,1,0,0:0:0:0:
320,192,43890,1,0,0:0:0:0:
64,192,44073,1,0,0:0:0:0:
64,192,44256,1,2,0:0:0:0:
192,192,44256,1,0,0:0:0:0:
448,192,44256,1,0,0:0:0:0:
192,192,44439,1,0,0:0:0:0:
448,192,44530,1,0,0:0:0:0:
64,192,44622,1,2,0:0:0:0:
192,192,44622,1,0,0:0:0:0:
320,192,44622,1,0,0:0:0:0:
320,192,44805,1,0,0:0:0:0:
192,192,44988,1,2,0:0:0:0:
320,192,44988,1,0,0:0:0:0:
448,192,44988,1,0,0:0:0:0:
448,192,45171,1,0,0:0:0:0:
64,192,45354,1,2,0:0:0:0:
320,192,45354,1,0,0:0:0:0:
448,192,45354,1,0,0:0:0:0:
64,192,45537,1,0,0:0:0:0:
64,192,45719,1,2,0:0:0:0:
192,192,45719,1,0,0:0:0:0:
448,192,45719,1,0,0:0:0:0:
192,192,45902,1,0,0:0:0:0:
64,192,45994,1,0,0:0:0:0:
192,192,46085,1,2,0:0:0:0:
320,192,46085,1,0,0:0:0:0:
448,192,46085,1,0,0:0:0:0:
320,192,46268,1,0,0:0:0:0:
64,192,46451,1,2,0:0:0:0:
320,192,46451,1,0,0:0:0:0:
448,192,46451,1,0,0:0:0:0:
64,192,46634,1,0,0:0:0:0:
448,192,46726,1,0,0:0:0:0:
64,192,46817,1,2,0:0:0:0:
192,192,46817,1,0,0:0:0:0:
320,192,46817,1,0,0:0:0:0:
320,192,47000,1,0,0:0:0:0:
64,192,47183,1,2,0:0:0:0:
320,192,47183,1,0,0:0:0:0:
448,192,47183,1,0,0:0:0:0:
448,192,47366,1,0,0:0:0:0:
320,192,47457,1,0,0:0:0:0:
64,192,47549,1,2,0:0:0:0:
192,192,47549,1,0,0:0:0:0:
448,192,47549,1,0,0:0:0:0:
192,192,47732,1,0,0:0:0:0:
192,192,47915,1,2,0:0:0:0:
320,192,47915,1,0,0:0:0:0:
448,192,47915,1,0,0:0:0:0:
320,192,48098,1,0,0:0:0:0:
448,192,48189,1,0,0:0:0:0:
64,192,48280,1,2,0:0:0:0:
192,192,48280,1,0,0:0:0:0:
320,192,48280,1,0,0:0:0:0:
64,192,48463,1,0,0:0:0:0:
64,192,48646,1,2,0:0:0:0:
320,192,48646,1,0,0:0:0:0:
448,192,48646,1,0,0:0:0:0:
64,192,48829,128,2,49012:0:0:0:0:
192,192,48829,128,8,49012:0:0:0:0:
448,192,48829,128,0,49012:0:0:0:0:
64,192,49195,128,8,49561:0:0:0:0:
192,192,49195,128,2,49561:0:0:0:0:
320,192,49195,1,0,0:0:0:0:
320,192,49378,128,0,49561:0:0:0:0:
448,192,49561,128,0,49927:0:0:0:0:
320,192,49744,128,0,49927:0:0:0:0:
192,192,49835,128,0,49927:0:0:0:0:
64,192,49927,128,0,50110:0:0:0:0:
192,192,50110,1,0,0:0:0:0:
192,192,50293,128,0,50476:0:0:0:0:
64,192,50476,1,2,0:0:0:0:
320,192,50476,128,4,50841:0:0:0:0:
448,192,50476,1,0,0:0:0:0:
64,192,50841,1,8,0:0:0:0:
192,192,50841,1,0,0:0:0:0:
448,192,50841,1,0,0:0:0:0:
192,192,51024,1,0,0:0:0:0:
320,192,51207,1,2,0:0:0:0:
448,192,51207,1,0,0:0:0:0:
64,192,51390,1,2,0:0:0:0:
192,192,51390,1,0,0:0:0:0:
64,192,51573,1,8,0:0:0:0:
320,192,51573,1,0,0:0:0:0:
448,192,51573,1,0,0:0:0:0:
320,192,51756,1,0,0:0:0:0:
64,192,51939,128,2,52305:0:0:0:0:
192,192,51939,1,0,0:0:0:0:
192,192,52305,1,8,0:0:0:0:
320,192,52305,1,0,0:0:0:0:
448,192,52305,1,0,0:0:0:0:
320,192,52488,1,0,0:0:0:0:
64,192,52671,1,2,0:0:0:0:
192,192,52671,1,0,0:0:0:0:
320,192,52854,1,2,0:0:0:0:
448,192,52854,1,0,0:0:0:0:
64,192,53037,1,8,0:0:0:0:
192,192,53037,1,0,0:0:0:0:
448,192,53037,1,0,0:0:0:0:
192,192,53219,1,0,0:0:0:0:
64,192,53402,1,2,0:0:0:0:
320,192,53402,128,0,53768:0:0:0:0:
64,192,53768,1,8,0:0:0:0:
192,192,53768,1,0,0:0:0:0:
448,192,53768,1,0,0:0:0:0:
448,192,53951,1,0,0:0:0:0:
192,192,54134,1,2,0:0:0:0:
320,192,54134,1,0,0:0:0:0:
64,192,54317,1,2,0:0:0:0:
448,192,54317,1,0,0:0:0:0:
64,192,54500,1,8,0:0:0:0:
192,192,54500,1,0,0:0:0:0:
320,192,54500,1,0,0:0:0:0:
320,192,54683,1,0,0:0:0:0:
192,192,54866,128,2,55232:0:0:0:0:
448,192,54866,1,0,0:0:0:0:
64,192,55232,1,8,0:0:0:0:
320,192,55232,1,0,0:0:0:0:
448,192,55232,1,0,0:0:0:0:
64,192,55415,1,0,0:0:0:0:
192,192,55598,1,2,0:0:0:0:
320,192,55598,1,0,0:0:0:0:
64,192,55780,1,2,0:0:0:0:
448,192,55780,1,0,0:0:0:0:
64,192,55963,1,8,0:0:0:0:
192,192,55963,1,0,0:0:0:0:
320,192,55963,1,0,0:0:0:0:
192,192,56146,1,0,0:0:0:0:
64,192,56329,1,2,0:0:0:0:
448,192,56329,128,0,56695:0:0:0:0:
64,192,56695,1,8,0:0:0:0:
192,192,56695,1,0,0:0:0:0:
320,192,56695,1,0,0:0:0:0:
320,192,56878,1,0,0:0:0:0:
64,192,57061,1,2,0:0:0:0:
448,192,57061,1,0,0:0:0:0:
192,192,57244,1,2,0:0:0:0:
320,192,57244,1,0,0:0:0:0:
64,192,57427,1,8,0:0:0:0:
320,192,57427,1,0,0:0:0:0:
448,192,57427,1,0,0:0:0:0:
64,192,57610,1,0,0:0:0:0:
192,192,57793,128,2,58159:0:0:0:0:
320,192,57793,1,0,0:0:0:0:
64,192,58159,1,8,0:0:0:0:
320,192,58159,1,0,0:0:0:0:
448,192,58159,1,0,0:0:0:0:
448,192,58341,1,0,0:0:0:0:
192,192,58524,1,2,0:0:0:0:
320,192,58524,1,0,0:0:0:0:
64,192,58707,1,2,0:0:0:0:
448,192,58707,1,0,0:0:0:0:
64,192,58890,1,8,0:0:0:0:
192,192,58890,1,0,0:0:0:0:
320,192,58890,1,0,0:0:0:0:
192,192,59073,1,0,0:0:0:0:
320,192,59256,128,2,59622:0:0:0:0:
448,192,59256,1,0,0:0:0:0:
64,192,59622,1,8,0:0:0:0:
192,192,59622,1,0,0:0:0:0:
448,192,59622,1,0,0:0:0:0:
64,192,59805,1,0,0:0:0:0:
192,192,59988,1,2,0:0:0:0:
448,192,59988,1,0,0:0:0:0:
64,192,60171,1,2,0:0:0:0:
320,192,60171,1,0,0:0:0:0:
192,192,60354,1,8,0:0:0:0:
320,192,60354,1,0,0:0:0:0:
448,192,60354,1,0,0:0:0:0:
448,192,60537,1,0,0:0:0:0:
320,192,60628,1,0,0:0:0:0:
64,192,60719,1,2,0:0:0:0:
192,192,60719,128,0,61085:0:0:0:0:
64,192,61085,1,8,0:0:0:0:
320,192,61085,1,4,0:0:0:0:
448,192,61085,1,0,0:0:0:0:
64,192,61268,1,8,0:0:0:35:soft-hitclap.wav
448,192,61360,1,8,0:0:0:35:soft-hitclap.wav
192,192,61451,1,2,0:0:0:0:
320,192,61451,1,0,0:0:0:0:
192,192,61634,1,2,0:0:0:0:
320,192,61634,1,0,0:0:0:0:
64,192,61817,1,8,0:0:0:0:
192,192,61817,1,0,0:0:0:0:
448,192,61817,1,0,0:0:0:0:
64,192,62000,1,8,0:0:0:0:
320,192,62000,1,0,0:0:0:0:
448,192,62000,1,0,0:0:0:0:
192,192,62091,1,8,0:0:0:0:
64,192,62183,128,2,62732:0:0:0:0:
320,192,62183,128,0,62549:0:0:0:60:Crash 2.wav
448,192,62183,128,0,62549:0:0:0:0:
192,192,62549,128,0,62732:0:0:0:0:
320,192,62732,1,2,0:0:0:0:
448,192,62732,1,0,0:0:0:0:
64,192,62915,1,8,0:0:0:0:
192,192,62915,128,4,63098:0:0:0:0:
448,192,62915,128,0,63280:0:0:0:0:
320,192,63098,128,0,63280:0:0:0:0:
64,192,63280,1,2,0:0:0:0:
192,192,63280,1,0,0:0:0:0:
64,192,63463,1,8,0:0:0:0:
320,192,63463,1,0,0:0:0:0:
448,192,63463,1,0,0:0:0:0:
64,192,63646,1,2,0:0:0:0:
192,192,63646,1,0,0:0:0:45:Crash 2.wav
448,192,63646,1,0,0:0:0:0:
192,192,63829,128,8,63921:0:0:0:0:
320,192,63829,128,0,63921:0:0:0:0:
64,192,64012,1,2,0:0:0:0:
192,192,64012,1,0,0:0:0:0:
320,192,64195,1,0,0:0:0:60:Tom2.wav
448,192,64195,1,0,0:0:0:0:
64,192,64378,128,8,64744:0:0:0:0:
192,192,64378,1,4,0:0:0:0:
448,192,64378,128,0,64561:0:0:0:0:
320,192,64561,128,0,64744:0:0:0:0:
192,192,64744,128,2,64927:0:0:0:0:
448,192,64744,1,0,0:0:0:0:
64,192,64927,1,8,0:0:0:0:
320,192,64927,1,0,0:0:0:0:
448,192,64927,1,0,0:0:0:0:
64,192,65110,128,2,65476:0:0:0:0:
192,192,65110,128,0,65476:0:0:0:60:Crash 2.wav
448,192,65110,128,0,65659:0:0:0:0:
320,192,65476,128,0,65659:0:0:0:0:
64,192,65659,1,2,0:0:0:0:
192,192,65659,1,0,0:0:0:0:
64,192,65841,128,8,66207:0:0:0:0:
320,192,65841,1,4,0:0:0:0:
448,192,65841,128,0,66024:0:0:0:0:
192,192,66024,128,0,66207:0:0:0:0:
320,192,66207,1,2,0:0:0:0:
448,192,66207,1,0,0:0:0:0:
64,192,66390,1,8,0:0:0:0:
192,192,66390,1,0,0:0:0:0:
320,192,66390,1,0,0:0:0:0:
192,192,66573,1,2,0:0:0:0:
320,192,66573,1,0,0:0:0:45:Crash 2.wav
448,192,66573,1,0,0:0:0:0:
64,192,66756,128,8,66848:0:0:0:0:
448,192,66756,128,0,66848:0:0:0:0:
64,192,66939,1,2,0:0:0:0:
192,192,66939,1,0,0:0:0:60:Tom2.wav
448,192,67122,1,0,0:0:0:20:soft-hitclap.wav
192,192,67213,1,0,0:0:0:30:soft-hitclap.wav
64,192,67213,1,0,0:0:0:0:
64,192,67305,1,8,0:0:0:0:
320,192,67305,1,0,0:0:0:0:
448,192,67305,128,0,67579:0:0:0:0:
64,192,67579,1,2,0:0:0:0:
320,192,67579,128,0,67854:0:0:0:0:
64,192,67854,1,2,0:0:0:0:
192,192,67854,128,0,68037:0:0:0:0:
64,192,68037,1,2,0:0:0:0:
320,192,68037,1,0,0:0:0:60:Crash 2.wav
448,192,68037,128,0,68585:0:0:0:0:
192,192,68585,128,0,68768:0:0:0:0:
320,192,68768,128,0,69500:0:0:0:0:
64,192,68951,128,0,69043:0:0:0:0:
192,192,69134,128,0,69226:0:0:0:0:
448,192,69317,128,0,69409:0:0:0:35:Ride.wav
64,192,69409,1,0,0:0:0:35:Ride.wav
192,192,69500,128,0,69866:0:0:0:35:Ride.wav
448,192,69500,1,0,0:0:0:0:
448,192,69866,128,0,70049:0:0:0:0:
192,192,70049,1,0,0:0:0:35:Ride.wav
320,192,70049,128,0,70232:0:0:0:0:
64,192,70232,128,0,70415:0:0:0:0:
192,192,70415,128,0,70780:0:0:0:0:
320,192,70780,128,0,70963:0:0:0:0:
192,192,70872,1,0,0:0:0:0:
64,192,70963,1,2,0:0:0:0:
448,192,70963,1,8,0:0:0:0:
320,192,71055,1,8,0:0:0:0:
64,192,71146,1,8,0:0:0:0:
192,192,71146,1,0,0:0:0:0:
320,192,71238,1,8,0:0:0:0:
448,192,71238,1,0,0:0:0:0:
64,192,71329,1,8,0:0:0:0:
192,192,71329,1,0,0:0:0:0:
320,192,71421,1,8,0:0:0:0:
448,192,71421,1,0,0:0:0:0:
64,192,71512,1,8,0:0:0:0:
192,192,71512,1,0,0:0:0:0:
320,192,71604,1,8,0:0:0:0:
64,192,71695,1,8,0:0:0:0:
448,192,71695,1,0,0:0:0:0:
192,192,71787,1,8,0:0:0:0:
320,192,71787,1,0,0:0:0:0:
64,192,71878,1,8,0:0:0:0:
448,192,71878,1,0,0:0:0:0:
192,192,71969,1,8,0:0:0:0:
320,192,71969,1,0,0:0:0:0:
64,192,72061,1,8,0:0:0:0:
448,192,72061,1,0,0:0:0:0:
192,192,72152,1,8,0:0:0:0:
64,192,72244,1,2,0:0:0:0:
320,192,72244,1,0,0:0:0:0:
448,192,72244,1,0,0:0:0:0:
192,192,72610,1,0,0:0:0:0:
64,192,72793,1,2,0:0:0:0:
192,192,72793,1,0,0:0:0:0:
448,192,72793,1,0,0:0:0:0:
64,192,73159,1,0,0:0:0:0:
320,192,73159,1,0,0:0:0:0:
192,192,73524,1,0,0:0:0:0:
448,192,73524,1,0,0:0:0:0:
64,192,73890,1,2,0:0:0:0:
192,192,73890,128,4,74256:0:0:0:0:
448,192,73890,1,0,0:0:0:0:
320,192,74073,1,0,0:0:0:0:
64,192,74256,1,8,0:0:0:0:
320,192,74256,1,2,0:0:0:0:
448,192,74256,128,0,74622:0:0:0:70:Crash 2.wav
192,192,74439,1,0,0:0:0:0:
64,192,74622,128,2,74988:0:0:0:0:
192,192,74622,1,0,0:0:0:0:
448,192,74805,1,0,0:0:0:0:
192,192,74988,1,8,0:0:0:0:
320,192,74988,128,2,75354:0:0:0:0:
448,192,74988,1,0,0:0:0:0:
64,192,75171,128,0,75537:0:0:0:0:
192,192,75354,1,2,0:0:0:0:
448,192,75354,1,0,0:0:0:0:
320,192,75537,128,0,75902:0:0:0:0:
64,192,75719,128,8,75902:0:0:0:0:
192,192,75719,1,2,0:0:0:0:
448,192,75719,1,0,0:0:0:0:
448,192,75902,128,0,76268:0:0:0:0:
64,192,76085,1,2,0:0:0:0:
192,192,76085,128,0,76451:0:0:0:0:
320,192,76268,1,0,0:0:0:0:
64,192,76451,1,8,0:0:0:0:
320,192,76451,1,2,0:0:0:0:
448,192,76451,1,0,0:0:0:0:
192,192,76634,128,0,77000:0:0:0:0:
64,192,76817,1,2,0:0:0:0:
448,192,76817,128,0,77183:0:0:0:0:
320,192,77000,1,0,0:0:0:0:
64,192,77183,1,8,0:0:0:0:
192,192,77183,1,2,0:0:0:0:
320,192,77183,128,0,77549:0:0:0:0:
64,192,77366,128,0,77732:0:0:0:0:
192,192,77549,1,2,0:0:0:0:
448,192,77549,1,0,0:0:0:0:
192,192,77732,128,0,78098:0:0:0:0:
64,192,77915,1,8,0:0:0:0:
320,192,77915,1,2,0:0:0:0:
448,192,77915,1,0,0:0:0:0:
320,192,78098,1,0,0:0:0:0:
448,192,78098,128,0,79012:0:0:0:0:
64,192,78280,1,2,0:0:0:0:
192,192,78280,1,0,0:0:0:0:
64,192,78463,128,0,78646:0:0:0:0:
192,192,78646,1,8,0:0:0:0:
320,192,78646,1,2,0:0:0:0:
192,192,78829,128,0,79012:0:0:0:0:
64,192,79012,1,2,0:0:0:0:
320,192,79012,1,0,0:0:0:0:
320,192,79195,128,0,79378:0:0:0:0:
64,192,79378,128,8,79561:0:0:0:0:
192,192,79378,1,2,0:0:0:0:
448,192,79378,1,0,0:0:0:0:
192,192,79561,1,0,0:0:0:40:soft-hitclap.wav
448,192,79561,128,0,79744:0:0:0:0:
320,192,79652,1,0,0:0:0:40:soft-hitclap.wav
64,192,79744,1,2,0:0:0:0:
192,192,79744,128,0,79927:0:0:0:0:
320,192,79927,128,0,80110:0:0:0:0:
64,192,80110,128,8,80476:0:0:0:0:
192,192,80110,1,2,0:0:0:0:
448,192,80110,1,0,0:0:0:0:
320,192,80293,1,0,0:0:0:0:
320,192,80476,1,2,0:0:0:0:
448,192,80476,128,0,80841:0:0:0:0:
192,192,80659,1,0,0:0:0:0:
64,192,80841,128,8,81207:0:0:0:0:
192,192,80841,1,2,0:0:0:0:
320,192,80841,1,0,0:0:0:0:
448,192,81024,128,0,81573:0:0:0:0:
192,192,81207,1,2,0:0:0:0:
320,192,81207,1,0,0:0:0:0:
64,192,81390,1,0,0:0:0:0:
64,192,81573,128,8,81939:0:0:0:0:
192,192,81573,1,2,0:0:0:0:
320,192,81573,1,0,0:0:0:0:
320,192,81756,128,0,82305:0:0:0:0:
192,192,81939,1,2,0:0:0:0:
448,192,81939,1,0,0:0:0:0:
64,192,82122,1,0,0:0:0:0:
64,192,82305,128,8,82671:0:0:0:0:
192,192,82305,1,2,0:0:0:0:
448,192,82305,1,0,0:0:0:0:
320,192,82488,1,0,0:0:0:0:
192,192,82671,1,2,0:0:0:0:
320,192,82671,128,0,83402:0:0:0:0:
448,192,82854,1,0,0:0:0:0:
64,192,83037,1,8,0:0:0:0:
192,192,83037,1,2,0:0:0:0:
448,192,83037,1,0,0:0:0:0:
64,192,83219,1,0,0:0:0:0:
64,192,83402,1,2,0:0:0:0:
448,192,83402,1,0,0:0:0:0:
192,192,83585,1,8,0:0:0:0:
320,192,83585,1,0,0:0:0:0:
448,192,83585,1,0,0:0:0:0:
192,192,83768,1,8,0:0:0:0:
320,192,83768,1,0,0:0:0:0:
448,192,83768,1,0,0:0:0:0:
64,192,83951,1,2,0:0:0:0:
320,192,83951,128,0,84226:0:0:0:60:Crash 2.wav
448,192,83951,128,0,84226:0:0:0:0:
64,192,84317,1,8,0:0:0:0:
192,192,84317,1,0,0:0:0:0:
448,192,84317,1,0,0:0:0:0:
64,192,84500,1,8,0:0:0:0:
192,192,84500,1,0,0:0:0:0:
320,192,84500,1,0,0:0:0:0:
64,192,84683,1,2,0:0:0:0:
448,192,84683,1,0,0:0:0:0:
192,192,84866,1,8,0:0:0:0:
320,192,84866,1,0,0:0:0:0:
448,192,84866,1,0,0:0:0:0:
64,192,85049,1,2,0:0:0:0:
320,192,85049,1,0,0:0:0:0:
64,192,85232,1,8,0:0:0:0:
192,192,85232,1,0,0:0:0:0:
448,192,85232,1,0,0:0:0:0:
64,192,85415,1,8,0:0:0:0:
320,192,85415,1,0,0:0:0:0:
448,192,85415,1,0,0:0:0:0:
192,192,85506,1,8,0:0:0:0:
64,192,85598,1,2,0:0:0:0:
320,192,85598,128,4,85963:0:0:0:0:
448,192,85598,1,0,0:0:0:0:
192,192,85780,1,0,0:0:0:0:
64,192,85963,128,8,86329:0:0:0:0:
192,192,85963,1,2,0:0:0:0:
448,192,85963,1,0,0:0:0:70:Crash 2.wav
320,192,86146,1,0,0:0:0:0:
320,192,86329,1,2,0:0:0:0:
448,192,86329,128,0,86695:0:0:0:0:
64,192,86512,1,0,0:0:0:0:
64,192,86695,1,8,0:0:0:0:
192,192,86695,128,2,87061:0:0:0:0:
320,192,86695,1,0,0:0:0:0:
448,192,86878,128,0,87244:0:0:0:0:
64,192,87061,1,2,0:0:0:0:
320,192,87061,1,0,0:0:0:0:
192,192,87244,128,0,87610:0:0:0:0:
64,192,87427,1,8,0:0:0:0:
320,192,87427,1,2,0:0:0:0:
448,192,87427,128,0,87610:0:0:0:0:
64,192,87610,128,0,87976:0:0:0:0:
320,192,87793,128,2,88159:0:0:0:0:
448,192,87793,1,0,0:0:0:0:
192,192,87976,1,0,0:0:0:0:
64,192,88159,1,8,0:0:0:0:
192,192,88159,1,2,0:0:0:0:
448,192,88159,1,0,0:0:0:0:
320,192,88341,128,0,88707:0:0:0:0:
64,192,88524,128,2,88890:0:0:0:0:
448,192,88524,1,0,0:0:0:0:
192,192,88707,1,0,0:0:0:0:
192,192,88890,128,8,89256:0:0:0:0:
320,192,88890,1,2,0:0:0:0:
448,192,88890,1,0,0:0:0:0:
448,192,89073,128,0,89439:0:0:0:0:
64,192,89256,1,2,0:0:0:0:
320,192,89256,1,0,0:0:0:0:
192,192,89439,128,0,89622:0:0:0:0:
64,192,89622,1,8,0:0:0:0:
320,192,89622,128,2,89805:0:0:0:0:
448,192,89622,1,0,0:0:0:0:
64,192,89805,128,2,90171:0:0:0:0:
192,192,89805,1,4,0:0:0:0:
448,192,89805,128,0,90171:0:0:0:0:
192,192,90171,1,2,0:0:0:0:
320,192,90171,1,0,0:0:0:0:
64,192,90354,1,8,0:0:0:0:
192,192,90354,1,0,0:0:0:70:Splash.wav
448,192,90354,1,0,0:0:0:0:
64,192,90537,1,8,0:0:0:0:
320,192,90537,1,0,0:0:0:0:
448,192,90537,1,0,0:0:0:0:
192,192,90628,1,8,0:0:0:0:
64,192,90719,128,8,90902:0:0:0:0:
320,192,90719,128,0,90902:0:0:0:0:
448,192,90719,128,0,90902:0:0:0:0:
64,192,90994,128,0,91177:0:0:0:60:Tom2.wav
192,192,90994,128,0,91177:0:0:0:0:
320,192,90994,128,0,91177:0:0:0:0:
64,192,91268,128,2,91634:0:0:0:0:
192,192,91268,128,0,91634:0:0:0:60:Crash 2.wav
448,192,91268,128,0,91634:0:0:0:0:
320,192,92000,1,0,0:0:0:0:
64,192,92183,1,0,0:0:0:0:
192,192,92183,1,0,0:0:0:0:
320,192,92457,1,0,0:0:0:0:
448,192,92457,1,0,0:0:0:0:
64,192,92732,128,2,93098:0:0:0:0:
192,192,92732,128,4,93098:0:0:0:0:
448,192,92732,128,0,93098:0:0:0:0:
64,192,93463,1,8,0:0:0:0:
320,192,93463,1,0,0:0:0:0:
448,192,93463,1,0,0:0:0:0:
192,192,93646,128,0,93829:0:0:0:50:Tom1.wav
320,192,93646,128,0,93829:0:0:0:0:
448,192,93646,128,0,93829:0:0:0:0:
64,192,93921,128,0,94104:0:0:0:60:Tom3.wav
192,192,93921,128,0,94104:0:0:0:0:
448,192,93921,128,0,94104:0:0:0:0:
64,192,94195,128,2,94561:0:0:0:0:
192,192,94195,128,4,94561:0:0:0:0:
320,192,94195,128,0,94561:0:0:0:0:
320,192,94744,1,8,0:0:0:0:
448,192,94744,1,0,0:0:0:0:
64,192,94744,1,0,0:0:0:0:
192,192,94835,1,8,0:0:0:0:
64,192,94927,1,8,0:0:0:0:
320,192,94927,1,0,0:0:0:0:
448,192,95018,1,8,0:0:0:0:
64,192,95110,1,8,0:0:0:0:
192,192,95110,1,0,0:0:0:0:
320,192,95201,1,8,0:0:0:0:
64,192,95293,1,8,0:0:0:0:
448,192,95293,1,0,0:0:0:0:
192,192,95384,1,8,0:0:0:0:
320,192,95384,1,0,0:0:0:0:
64,192,95476,1,8,0:0:0:0:
448,192,95476,1,0,0:0:0:0:
192,192,95567,1,8,0:0:0:0:
64,192,95659,128,2,96024:0:0:0:0:
320,192,95659,128,8,96024:0:0:0:0:
448,192,95659,128,0,96024:0:0:0:0:
64,192,96939,1,8,0:0:0:0:
192,192,96939,1,0,0:0:0:0:
448,192,96939,1,0,0:0:0:0:
192,192,97122,128,2,97488:0:0:0:0:
320,192,97122,128,4,97488:0:0:0:0:
448,192,97122,1,0,0:0:0:0:
64,192,97488,128,0,97671:0:0:0:0:
448,192,97488,1,0,0:0:0:0:
192,192,97671,1,2,0:0:0:0:
448,192,97671,128,0,97854:0:0:0:0:
192,192,97854,128,0,98037:0:0:0:0:
64,192,98037,1,0,0:0:0:50:Tom1.wav
448,192,98037,1,0,0:0:0:0:
320,192,98128,1,0,0:0:0:0:
192,192,98219,128,0,98402:0:0:0:0:
64,192,98402,1,0,0:0:0:60:Tom2.wav
448,192,98402,128,0,98585:0:0:0:0:
64,192,98585,128,0,98768:0:0:0:60:Tom2.wav
320,192,98585,1,0,0:0:0:0:
192,192,98677,1,0,0:0:0:0:
448,192,98768,1,0,0:0:0:0:
64,192,98951,128,0,99134:0:0:0:60:Tom3.wav
192,192,98951,1,0,0:0:0:0:
192,192,99134,128,2,99317:0:0:0:0:
320,192,99134,1,0,0:0:0:0:
64,192,99317,1,0,0:0:0:60:Tom2.wav
320,192,99317,128,0,99500:0:0:0:0:
448,192,99409,1,0,0:0:0:60:Tom2.wav
64,192,99500,1,0,0:0:0:50:Tom1.wav
192,192,99591,1,0,0:0:0:30:soft-hitclap.wav
448,192,99591,1,0,0:0:0:0:
64,192,99683,1,8,0:0:0:0:
320,192,99683,128,0,99866:0:0:0:0:
64,192,99866,128,0,100232:0:0:0:60:Tom3.wav
448,192,99866,1,0,0:0:0:0:
192,192,100049,1,2,0:0:0:0:
320,192,100049,128,4,100232:0:0:0:0:
448,192,100049,128,0,100232:0:0:0:0:
192,192,100415,1,0,0:0:0:60:Tom2.wav
448,192,100415,128,0,100598:0:0:0:0:
192,192,100598,128,2,100780:0:0:0:0:
320,192,100598,1,0,0:0:0:0:
64,192,100780,1,0,0:0:0:50:Tom1.wav
320,192,100780,128,0,100963:0:0:0:0:
192,192,100872,1,0,0:0:0:50:Tom1.wav
64,192,100963,1,0,0:0:0:50:Tom1.wav
448,192,100963,1,0,0:0:0:0:
320,192,101146,1,0,0:0:0:60:Tom2.wav
448,192,101146,128,0,101329:0:0:0:0:
192,192,101329,1,0,0:0:0:60:Tom3.wav
320,192,101329,128,0,101512:0:0:0:0:
64,192,101512,1,2,0:0:0:0:
192,192,101512,128,0,102976:0:0:0:60:Crash 2.wav
448,192,101512,1,0,0:0:0:0:
64,192,101878,1,8,0:0:0:0:
320,192,101878,1,0,0:0:0:0:
448,192,101878,1,0,0:0:0:0:
320,192,102061,1,2,0:0:0:0:
448,192,102061,1,0,0:0:0:0:
64,192,102244,1,0,0:0:0:50:Tom1.wav
448,192,102244,1,0,0:0:0:0:
64,192,102427,1,8,0:0:0:0:
320,192,102427,1,0,0:0:0:0:
448,192,102427,1,0,0:0:0:0:
64,192,102610,1,8,0:0:0:0:
320,192,102610,1,0,0:0:0:0:
448,192,102610,1,0,0:0:0:0:
64,192,102793,1,8,0:0:0:0:
320,192,102793,1,0,0:0:0:0:
448,192,102793,1,0,0:0:0:0:
64,192,102976,1,8,0:0:0:0:
320,192,102976,1,0,0:0:0:0:
448,192,102976,1,0,0:0:0:0:
192,192,103159,1,0,0:0:0:0:
448,192,103159,128,0,106085:0:0:0:0:
192,192,103524,1,0,0:0:0:0:
320,192,103890,1,0,0:0:0:0:
320,192,104256,1,0,0:0:0:0:
64,192,104439,1,0,0:0:0:0:
320,192,104530,1,0,0:0:0:0:
192,192,104622,1,0,0:0:0:0:
64,192,104805,1,0,0:0:0:0:
320,192,105171,1,0,0:0:0:0:
64,192,105354,1,0,0:0:0:0:
192,192,105537,1,0,0:0:0:0:
64,192,105719,1,0,0:0:0:0:
320,192,105902,1,0,0:0:0:0:
64,192,106085,1,0,0:0:0:0:
192,192,106085,128,0,108646:0:0:0:0:
320,192,106451,1,0,0:0:0:0:
64,192,106634,1,0,0:0:0:0:
448,192,107000,1,0,0:0:0:0:
320,192,107183,1,0,0:0:0:0:
448,192,107366,1,0,0:0:0:0:
320,192,107732,1,0,0:0:0:0:
320,192,108098,1,0,0:0:0:0:
64,192,108280,1,0,0:0:0:0:
64,192,108646,1,8,0:0:0:0:
320,192,108646,1,0,0:0:0:60:Tom3.wav
448,192,108646,1,0,0:0:0:0:
192,192,109012,1,2,0:0:0:0:
448,192,109012,128,0,109195:0:0:0:0:
192,192,109195,1,0,0:0:0:0:
64,192,109378,128,8,109561:0:0:0:0:
320,192,109378,1,0,0:0:0:0:
448,192,109378,1,0,0:0:0:0:
320,192,109561,1,0,0:0:0:0:
64,192,109744,1,2,0:0:0:0:
192,192,109744,128,0,109927:0:0:0:0:
320,192,109927,128,2,110110:0:0:0:0:
448,192,109927,1,0,0:0:0:0:
64,192,110110,1,8,0:0:0:0:
192,192,110110,1,0,0:0:0:0:
448,192,110110,1,0,0:0:0:0:
192,192,110293,128,0,110659:0:0:0:0:
64,192,110476,1,2,0:0:0:0:
448,192,110476,1,0,0:0:0:0:
448,192,110659,1,0,0:0:0:0:
64,192,110841,1,8,0:0:0:0:
192,192,110841,1,0,0:0:0:0:
320,192,110841,1,0,0:0:0:0:
320,192,111024,128,0,111207:0:0:0:0:
64,192,111207,128,2,111390:0:0:0:0:
192,192,111207,1,0,0:0:0:0:
320,192,111390,128,2,111573:0:0:0:0:
448,192,111390,1,0,0:0:0:0:
64,192,111573,1,8,0:0:0:0:
192,192,111573,1,0,0:0:0:0:
448,192,111573,1,0,0:0:0:0:
64,192,111756,128,0,112122:0:0:0:0:
320,192,111939,1,2,0:0:0:0:
448,192,111939,1,0,0:0:0:0:
320,192,112122,1,0,0:0:0:0:
64,192,112305,1,8,0:0:0:0:
192,192,112305,1,0,0:0:0:0:
448,192,112305,128,0,112488:0:0:0:0:
64,192,112488,128,0,112671:0:0:0:0:
192,192,112671,1,2,0:0:0:0:
320,192,112671,1,0,0:0:0:0:
64,192,112854,128,2,113037:0:0:0:0:
448,192,112854,1,0,0:0:0:0:
192,192,113037,1,8,0:0:0:0:
320,192,113037,1,0,0:0:0:0:
448,192,113037,1,0,0:0:0:0:
64,192,113219,1,2,0:0:0:0:
192,192,113219,1,0,0:0:0:0:
448,192,113219,1,0,0:0:0:0:
64,192,113585,1,2,0:0:0:0:
192,192,113585,1,0,0:0:0:0:
320,192,113585,1,0,0:0:0:0:
64,192,113768,1,8,0:0:0:0:
320,192,113768,1,0,0:0:0:0:
448,192,113768,1,0,0:0:0:0:
64,192,113951,1,0,0:0:0:50:Tom1.wav
192,192,113951,1,0,0:0:0:0:
320,192,114043,1,0,0:0:0:30:soft-hitclap.wav
64,192,114134,1,8,0:0:0:0:
192,192,114134,1,0,0:0:0:0:
448,192,114134,1,0,0:0:0:0:
320,192,114317,1,0,0:0:0:60:Tom2.wav
448,192,114317,1,0,0:0:0:0:
192,192,114409,1,0,0:0:0:0:
64,192,114500,1,8,0:0:0:0:
320,192,114500,1,0,0:0:0:0:
448,192,114500,1,0,0:0:0:0:
64,192,114683,1,8,0:0:0:0:
192,192,114683,1,0,0:0:0:0:
448,192,114683,1,0,0:0:0:0:
320,192,114774,1,8,0:0:0:0:
64,192,114866,1,2,0:0:0:0:
192,192,114866,128,4,115232:0:0:0:0:
448,192,114866,1,0,0:0:0:0:
64,192,115232,1,8,0:0:0:0:
320,192,115232,1,0,0:0:0:0:
448,192,115232,1,0,0:0:0:0:
448,192,115415,1,0,0:0:0:0:
192,192,115598,1,2,0:0:0:0:
320,192,115598,1,0,0:0:0:0:
64,192,115780,1,2,0:0:0:0:
320,192,115780,1,0,0:0:0:0:
64,192,115963,1,8,0:0:0:0:
192,192,115963,1,0,0:0:0:0:
448,192,115963,1,0,0:0:0:0:
192,192,116146,1,2,0:0:0:0:
320,192,116146,128,0,116512:0:0:0:0:
448,192,116329,1,0,0:0:0:0:
64,192,116512,1,2,0:0:0:0:
192,192,116512,1,0,0:0:0:0:
64,192,116695,1,8,0:0:0:0:
320,192,116695,1,0,0:0:0:0:
448,192,116695,1,0,0:0:0:0:
320,192,116878,1,0,0:0:0:0:
192,192,117061,1,2,0:0:0:0:
448,192,117061,1,0,0:0:0:0:
64,192,117244,1,2,0:0:0:0:
192,192,117244,1,0,0:0:0:0:
64,192,117427,1,8,0:0:0:0:
320,192,117427,1,0,0:0:0:0:
448,192,117427,1,0,0:0:0:0:
448,192,117610,1,0,0:0:0:0:
64,192,117793,1,2,0:0:0:0:
320,192,117793,128,0,118159:0:0:0:0:
64,192,118159,1,8,0:0:0:0:
192,192,118159,1,0,0:0:0:0:
448,192,118159,1,0,0:0:0:0:
448,192,118341,1,0,0:0:0:0:
64,192,118524,1,2,0:0:0:0:
192,192,118524,1,0,0:0:0:0:
192,192,118707,1,2,0:0:0:0:
320,192,118707,1,0,0:0:0:0:
64,192,118890,1,8,0:0:0:0:
320,192,118890,1,0,0:0:0:0:
448,192,118890,1,0,0:0:0:0:
64,192,119073,1,2,0:0:0:0:
192,192,119073,128,0,119439:0:0:0:0:
448,192,119256,1,0,0:0:0:0:
64,192,119439,1,2,0:0:0:0:
320,192,119439,1,0,0:0:0:0:
64,192,119622,1,8,0:0:0:0:
192,192,119622,1,0,0:0:0:0:
448,192,119622,1,0,0:0:0:0:
192,192,119805,1,0,0:0:0:0:
320,192,119988,1,2,0:0:0:0:
448,192,119988,1,0,0:0:0:0:
64,192,120171,1,2,0:0:0:0:
320,192,120171,1,0,0:0:0:0:
64,192,120354,1,8,0:0:0:0:
192,192,120354,1,4,0:0:0:0:
448,192,120354,1,0,0:0:0:0:
448,192,120537,1,0,0:0:0:0:
64,192,120719,128,2,121085:0:0:0:0:
320,192,120719,1,0,0:0:0:0:
192,192,121085,1,8,0:0:0:0:
320,192,121085,1,0,0:0:0:0:
448,192,121085,1,0,0:0:0:0:
320,192,121268,1,0,0:0:0:0:
64,192,121451,1,2,0:0:0:0:
448,192,121451,1,0,0:0:0:0:
192,192,121634,1,2,0:0:0:0:
448,192,121634,1,0,0:0:0:0:
64,192,121817,1,8,0:0:0:0:
192,192,121817,1,0,0:0:0:0:
320,192,121817,1,0,0:0:0:0:
64,192,122000,1,2,0:0:0:0:
448,192,122000,128,0,122366:0:0:0:0:
192,192,122183,1,0,0:0:0:0:
64,192,122366,1,2,0:0:0:0:
320,192,122366,1,0,0:0:0:0:
192,192,122549,1,8,0:0:0:0:
320,192,122549,1,0,0:0:0:0:
448,192,122549,1,0,0:0:0:0:
192,192,122732,1,0,0:0:0:0:
320,192,122915,1,2,0:0:0:0:
448,192,122915,1,0,0:0:0:0:
64,192,123098,1,8,0:0:0:0:
192,192,123098,1,0,0:0:0:0:
448,192,123098,1,0,0:0:0:0:
64,192,123280,1,0,0:0:0:50:Tom1.wav
192,192,123280,1,0,0:0:0:0:
320,192,123280,1,0,0:0:0:0:
64,192,123646,128,2,124561:0:0:0:0:
192,192,123646,128,4,124378:0:0:0:0:
448,192,123646,128,0,124561:0:0:0:0:
320,192,124561,128,0,124744:0:0:0:0:
64,192,124744,1,8,0:0:0:0:
192,192,124744,128,0,124927:0:0:0:0:
448,192,124835,1,8,0:0:0:0:
64,192,124927,128,8,125110:0:0:0:0:
320,192,124927,1,0,0:0:0:0:
192,192,125018,1,8,0:0:0:0:
320,192,125110,128,2,125476:0:0:0:0:
448,192,125110,128,0,125476:0:0:0:0:
192,192,125476,128,0,126024:0:0:0:0:
448,192,126024,128,0,126207:0:0:0:0:
64,192,126207,1,8,0:0:0:0:
192,192,126207,1,0,0:0:0:60:Tom2.wav
320,192,126207,128,0,126390:0:0:0:0:
192,192,126390,128,0,126573:0:0:0:0:
64,192,126573,128,2,126939:0:0:0:0:
320,192,126573,128,0,126939:0:0:0:60:Crash 2.wav
448,192,126573,128,0,127122:0:0:0:0:
192,192,126939,128,0,127122:0:0:0:0:
64,192,127122,1,2,0:0:0:0:
320,192,127122,1,0,0:0:0:0:
64,192,127305,128,8,127671:0:0:0:0:
192,192,127305,1,4,0:0:0:0:
448,192,127305,128,0,127488:0:0:0:0:
320,192,127488,128,0,127671:0:0:0:0:
192,192,127671,1,0,0:0:0:0:
448,192,127671,1,0,0:0:0:0:
64,192,127762,1,0,0:0:0:0:
320,192,127854,1,0,0:0:0:30:soft-hitclap.wav
448,192,127854,1,0,0:0:0:0:
192,192,127945,1,0,0:0:0:30:soft-hitclap.wav
64,192,128037,1,2,0:0:0:0:
448,192,128037,1,0,0:0:0:0:
64,192,128219,128,8,128311:0:0:0:0:
192,192,128219,128,0,128311:0:0:0:0:
320,192,128219,128,0,128311:0:0:0:0:
64,192,128402,1,2,0:0:0:0:
448,192,128402,1,0,0:0:0:0:
192,192,128585,1,0,0:0:0:0:
320,192,128585,1,0,0:0:0:0:
64,192,128768,128,8,128951:0:0:0:0:
192,192,128768,1,4,0:0:0:0:
448,192,128768,128,0,129134:0:0:0:0:
192,192,128951,128,0,129134:0:0:0:0:
64,192,129134,1,2,0:0:0:0:
320,192,129134,128,0,129317:0:0:0:0:
64,192,129317,1,8,0:0:0:0:
192,192,129317,1,0,0:0:0:0:
448,192,129317,1,0,0:0:0:0:
64,192,129500,128,2,129866:0:0:0:0:
320,192,129500,128,0,129866:0:0:0:60:Crash 2.wav
448,192,129500,128,0,130049:0:0:0:0:
192,192,129866,128,0,130049:0:0:0:0:
64,192,130049,1,2,0:0:0:0:
320,192,130049,1,0,0:0:0:0:
64,192,130232,128,8,130415:0:0:0:0:
192,192,130232,1,4,0:0:0:0:
448,192,130232,128,0,130598:0:0:0:0:
192,192,130415,128,0,130598:0:0:0:0:
64,192,130598,1,0,0:0:0:0:
320,192,130598,1,0,0:0:0:0:
448,192,130689,1,0,0:0:0:0:
64,192,130780,1,0,0:0:0:30:soft-hitclap.wav
192,192,130780,1,0,0:0:0:0:
320,192,130872,1,0,0:0:0:30:soft-hitclap.wav
64,192,130963,1,2,0:0:0:0:
448,192,130963,1,0,0:0:0:0:
64,192,131146,128,8,131238:0:0:0:0:
192,192,131146,128,0,131238:0:0:0:0:
320,192,131146,128,0,131238:0:0:0:0:
64,192,131329,1,2,0:0:0:0:
448,192,131329,1,0,0:0:0:0:
64,192,131512,1,0,0:0:0:20:soft-hitclap.wav
192,192,131512,1,0,0:0:0:0:
320,192,131604,1,0,0:0:0:30:soft-hitclap.wav
64,192,131695,1,8,0:0:0:0:
192,192,131695,1,4,0:0:0:0:
448,192,131695,1,0,0:0:0:0:
64,192,131969,1,0,0:0:0:60:Tom2.wav
192,192,131969,1,0,0:0:0:0:
320,192,131969,1,0,0:0:0:0:
192,192,132244,1,0,0:0:0:60:Tom3.wav
320,192,132244,1,0,0:0:0:0:
448,192,132244,1,0,0:0:0:0:
64,192,132427,1,2,0:0:0:0:
320,192,132427,128,0,132701:0:0:0:60:Crash 2.wav
448,192,132427,128,0,132701:0:0:0:0:
64,192,132793,1,8,0:0:0:0:
192,192,132793,1,0,0:0:0:0:
448,192,132793,128,0,132976:0:0:0:0:
64,192,132976,128,0,133159:0:0:0:0:
320,192,133159,128,2,133524:0:0:0:0:
448,192,133159,1,0,0:0:0:0:
64,192,133341,1,2,0:0:0:0:
192,192,133341,1,0,0:0:0:0:
64,192,133524,1,8,0:0:0:0:
192,192,133524,1,0,0:0:0:0:
448,192,133524,1,0,0:0:0:0:
448,192,133707,128,0,133890:0:0:0:0:
64,192,133890,1,2,0:0:0:0:
320,192,133890,1,0,0:0:0:0:
64,192,134073,128,0,134256:0:0:0:0:
192,192,134256,1,8,0:0:0:0:
320,192,134256,128,0,134439:0:0:0:0:
448,192,134256,1,0,0:0:0:0:
448,192,134439,128,0,134622:0:0:0:0:
64,192,134622,1,2,0:0:0:0:
192,192,134622,128,0,134988:0:0:0:0:
320,192,134805,1,2,0:0:0:0:
448,192,134805,1,0,0:0:0:0:
64,192,134988,1,8,0:0:0:0:
320,192,134988,1,0,0:0:0:0:
448,192,134988,1,0,0:0:0:0:
64,192,135171,128,0,135354:0:0:0:0:
192,192,135354,1,2,0:0:0:0:
448,192,135354,128,0,135537:0:0:0:0:
320,192,135537,1,0,0:0:0:0:
64,192,135719,1,8,0:0:0:0:
192,192,135719,1,0,0:0:0:0:
448,192,135719,128,0,135902:0:0:0:0:
64,192,135902,128,0,136085:0:0:0:0:
320,192,136085,1,2,0:0:0:0:
448,192,136085,1,0,0:0:0:0:
64,192,136268,1,2,0:0:0:0:
192,192,136268,128,0,136451:0:0:0:0:
64,192,136451,1,8,0:0:0:0:
320,192,136451,1,0,0:0:0:0:
448,192,136451,1,0,0:0:0:0:
192,192,136634,1,2,0:0:0:0:
320,192,136634,128,0,137000:0:0:0:0:
448,192,136817,1,0,0:0:0:0:
64,192,137000,1,2,0:0:0:0:
192,192,137000,1,0,0:0:0:0:
64,192,137183,1,8,0:0:0:0:
320,192,137183,1,0,0:0:0:0:
448,192,137183,1,0,0:0:0:0:
192,192,137366,1,2,0:0:0:0:
448,192,137366,1,0,0:0:0:0:
64,192,137549,1,0,0:0:0:60:Tom2.wav
320,192,137549,1,0,0:0:0:0:
192,192,137732,1,8,0:0:0:0:
448,192,137732,1,2,0:0:0:0:
64,192,137732,1,0,0:0:0:0:
192,192,137915,1,8,0:0:0:0:
320,192,137915,1,0,0:0:0:0:
448,192,137915,1,0,0:0:0:0:
64,192,138098,1,8,0:0:0:0:
320,192,138098,1,0,0:0:0:0:
448,192,138098,1,0,0:0:0:0:
192,192,138189,1,8,0:0:0:0:
64,192,138280,128,2,138372:0:0:0:0:
320,192,138280,1,4,0:0:0:0:
448,192,138280,1,0,0:0:0:0:
64,192,138463,128,0,138829:0:0:0:0:
192,192,138646,1,8,0:0:0:0:
320,192,138646,1,0,0:0:0:0:
448,192,138646,128,0,138738:0:0:0:0:
448,192,138829,128,0,139195:0:0:0:0:
64,192,139012,1,2,0:0:0:0:
192,192,139012,1,0,0:0:0:0:
64,192,139195,1,2,0:0:0:0:
192,192,139195,128,0,139378:0:0:0:0:
64,192,139378,1,8,0:0:0:0:
320,192,139378,1,0,0:0:0:0:
448,192,139378,1,0,0:0:0:0:
192,192,139561,1,2,0:0:0:0:
320,192,139561,128,0,140110:0:0:0:0:
64,192,139927,1,2,0:0:0:0:
192,192,139927,1,0,0:0:0:0:
64,192,140110,1,8,0:0:0:0:
192,192,140110,1,0,0:0:0:0:
448,192,140110,1,0,0:0:0:0:
64,192,140293,1,2,0:0:0:0:
448,192,140293,128,0,140384:0:0:0:0:
320,192,140384,128,0,140476:0:0:0:0:
192,192,140476,128,0,140750:0:0:0:0:
64,192,140659,1,2,0:0:0:0:
448,192,140659,1,0,0:0:0:0:
320,192,140750,128,0,141024:0:0:0:0:
64,192,140841,1,8,0:0:0:0:
192,192,140841,1,0,0:0:0:0:
448,192,140841,1,0,0:0:0:0:
64,192,141024,128,0,141116:0:0:0:0:
192,192,141116,128,0,141207:0:0:0:0:
320,192,141207,128,2,141482:0:0:0:0:
448,192,141207,1,0,0:0:0:0:
64,192,141482,128,0,141756:0:0:0:0:
192,192,141573,1,8,0:0:0:0:
320,192,141573,1,0,0:0:0:0:
448,192,141573,1,0,0:0:0:0:
192,192,141756,128,0,142122:0:0:0:0:
320,192,141939,1,2,0:0:0:0:
448,192,141939,1,0,0:0:0:0:
320,192,142122,128,2,142488:0:0:0:0:
448,192,142122,1,0,0:0:0:0:
64,192,142305,1,8,0:0:0:0:
192,192,142305,1,0,0:0:0:0:
448,192,142305,1,0,0:0:0:0:
64,192,142488,1,2,0:0:0:0:
192,192,142488,128,0,142579:0:0:0:0:
320,192,142579,128,0,142671:0:0:0:0:
448,192,142671,128,0,142945:0:0:0:0:
64,192,142854,1,2,0:0:0:0:
320,192,142854,1,0,0:0:0:0:
192,192,142945,128,0,143219:0:0:0:0:
64,192,143037,1,8,0:0:0:0:
320,192,143037,1,0,0:0:0:0:
448,192,143037,1,0,0:0:0:0:
320,192,143219,128,2,143768:0:0:0:0:
448,192,143219,1,0,0:0:0:0:
64,192,143402,1,0,0:0:0:60:Tom2.wav
192,192,143402,1,0,0:0:0:0:
448,192,143585,1,2,0:0:0:0:
192,192,143585,1,0,0:0:0:0:
64,192,143768,1,8,0:0:0:0:
192,192,143768,1,0,0:0:0:0:
448,192,143768,1,0,0:0:0:0:
64,192,143951,1,8,0:0:0:0:
320,192,143951,1,0,0:0:0:0:
448,192,143951,1,0,0:0:0:0:
192,192,144043,1,8,0:0:0:0:
64,192,144134,128,8,144317:0:0:0:0:
320,192,144134,1,0,0:0:0:0:
448,192,144134,1,0,0:0:0:0:
192,192,144317,128,2,144500:0:0:0:0:
448,192,144317,1,0,0:0:0:0:
64,192,144500,1,0,0:0:0:60:Tom3.wav
320,192,144500,128,0,145049:0:0:0:0:
64,192,144683,128,2,145049:0:0:0:0:
192,192,144683,1,0,0:0:0:60:Crash 2.wav
448,192,144683,128,0,145049:0:0:0:0:
192,192,145049,1,10,0:0:0:0:
320,192,145140,1,8,0:0:0:0:
64,192,145232,1,8,0:0:0:0:
448,192,145232,128,0,145415:0:0:0:0:
64,192,145415,1,2,0:0:0:0:
320,192,145415,128,0,145598:0:0:0:0:
192,192,145598,128,0,146146:0:0:0:0:
448,192,145598,1,0,0:0:0:0:
64,192,145780,128,2,146146:0:0:0:0:
320,192,145780,1,0,0:0:0:60:Crash 2.wav
448,192,145780,128,0,146146:0:0:0:0:
320,192,146146,1,2,0:0:0:0:
64,192,146329,1,8,0:0:0:0:
192,192,146329,1,0,0:0:0:0:
448,192,146329,1,0,0:0:0:0:
64,192,146604,1,2,0:0:0:0:
192,192,146604,1,0,0:0:0:0:
320,192,146604,1,0,0:0:0:0:
192,192,146878,1,2,0:0:0:0:
320,192,146878,1,0,0:0:0:0:
448,192,146878,1,0,0:0:0:0:
64,192,147061,1,2,0:0:0:0:
320,192,147061,128,4,147335:0:0:0:0:
448,192,147061,128,0,147335:0:0:0:0:
64,192,147427,1,8,0:0:0:0:
192,192,147427,1,0,0:0:0:0:
448,192,147427,1,0,0:0:0:0:
64,192,147610,128,0,147701:0:0:0:0:
320,192,147610,128,0,147701:0:0:0:0:
64,192,147793,1,2,0:0:0:0:
192,192,147793,1,0,0:0:0:0:
192,192,147976,128,2,148067:0:0:0:0:
448,192,147976,128,0,148067:0:0:0:0:
64,192,148159,1,8,0:0:0:0:
320,192,148159,1,0,0:0:0:0:
448,192,148159,1,0,0:0:0:0:
192,192,148341,128,0,148433:0:0:0:0:
320,192,148341,128,0,148433:0:0:0:0:
64,192,148524,1,2,0:0:0:0:
192,192,148524,1,0,0:0:0:0:
64,192,148707,128,0,148799:0:0:0:0:
448,192,148707,128,0,148799:0:0:0:0:
192,192,148890,1,8,0:0:0:0:
320,192,148890,1,0,0:0:0:0:
448,192,148890,1,0,0:0:0:0:
64,192,149073,128,0,149165:0:0:0:0:
192,192,149073,128,0,149165:0:0:0:0:
320,192,149256,128,2,149348:0:0:0:0:
448,192,149256,128,0,149348:0:0:0:0:
64,192,149439,1,2,0:0:0:0:
320,192,149439,1,0,0:0:0:0:
192,192,149530,128,0,149622:0:0:0:0:
64,192,149622,1,8,0:0:0:0:
320,192,149622,1,0,0:0:0:0:
448,192,149622,1,0,0:0:0:0:
64,192,149805,128,0,149896:0:0:0:0:
320,192,149805,128,0,149896:0:0:0:0:
64,192,149988,128,2,150902:0:0:0:0:
192,192,149988,1,0,0:0:0:60:Crash 2.wav
448,192,149988,1,0,0:0:0:0:
192,192,150354,1,8,0:0:0:0:
320,192,150354,1,0,0:0:0:0:
448,192,150537,1,0,0:0:0:0:
320,192,150598,1,0,0:0:0:0:
192,192,150659,1,0,0:0:0:0:
320,192,150719,1,2,0:0:0:0:
448,192,150719,1,0,0:0:0:0:
192,192,150902,1,2,0:0:0:0:
448,192,150902,1,0,0:0:0:0:
320,192,150994,1,0,0:0:0:0:
64,192,151085,1,8,0:0:0:0:
192,192,151085,1,0,0:0:0:0:
448,192,151085,1,0,0:0:0:0:
64,192,151268,1,8,0:0:0:0:
320,192,151268,1,0,0:0:0:0:
448,192,151268,1,0,0:0:0:0:
192,192,151360,1,8,0:0:0:0:
64,192,151451,1,8,0:0:0:0:
320,192,151451,1,0,0:0:0:0:
448,192,151451,1,0,0:0:0:0:
192,192,151726,1,2,0:0:0:0:
320,192,151726,1,0,0:0:0:0:
448,192,151726,1,0,0:0:0:0:
64,192,152000,1,2,0:0:0:0:
192,192,152000,1,0,0:0:0:0:
320,192,152000,1,0,0:0:0:0:
64,192,152183,1,8,0:0:0:0:
192,192,152183,1,4,0:0:0:0:
448,192,152183,1,0,0:0:0:0:
448,192,152503,1,0,0:0:0:0:
320,192,152549,1,0,0:0:0:0:
64,192,152594,1,0,0:0:0:0:
192,192,152640,1,0,0:0:0:0:
320,192,152686,1,0,0:0:0:0:
448,192,152732,1,0,0:0:0:0:
64,192,152915,128,2,153189:0:0:0:0:
320,192,152915,128,0,153189:0:0:0:0:
448,192,152915,128,0,153189:0:0:0:0:
64,192,153280,128,2,153555:0:0:0:0:
192,192,153280,128,0,153555:0:0:0:0:
448,192,153280,128,0,153555:0:0:0:0:
64,192,153646,128,2,153921:0:0:0:0:
192,192,153646,128,0,153921:0:0:0:0:
320,192,153646,128,0,153921:0:0:0:0:
64,192,154012,1,8,0:0:0:0:
192,192,154012,1,0,0:0:0:0:
320,192,154012,1,0,0:0:0:0:
64,192,154195,128,2,154469:0:0:0:0:
320,192,154195,128,4,154469:0:0:0:0:
448,192,154195,128,0,154469:0:0:0:0:
64,192,154561,1,2,0:0:0:0:
320,192,154561,1,0,0:0:0:0:
448,192,154561,1,0,0:0:0:0:
64,192,154744,1,8,0:0:0:0:
192,192,154744,1,0,0:0:0:0:
320,192,154744,1,0,0:0:0:0:
192,192,154927,128,2,155201:0:0:0:0:
320,192,154927,128,0,155201:0:0:0:60:Crash 2.wav
448,192,154927,128,0,155201:0:0:0:0:
192,192,155293,1,2,0:0:0:0:
320,192,155293,1,0,0:0:0:0:
448,192,155293,1,0,0:0:0:0:
64,192,155476,1,8,0:0:0:0:
320,192,155476,1,0,0:0:0:0:
448,192,155476,1,0,0:0:0:0:
64,192,155659,1,8,0:0:0:0:
192,192,155659,1,0,0:0:0:0:
448,192,155659,1,0,0:0:0:0:
320,192,155750,1,8,0:0:0:0:
64,192,155841,128,2,156116:0:0:0:0:
192,192,155841,128,4,156116:0:0:0:0:
448,192,155841,128,0,156116:0:0:0:0:
64,192,156207,1,8,0:0:0:0:
192,192,156207,1,0,0:0:0:0:
448,192,156207,1,0,0:0:0:0:
64,192,156390,128,2,156665:0:0:0:0:
320,192,156390,128,0,156665:0:0:0:0:
448,192,156390,128,0,156665:0:0:0:0:
64,192,156756,1,2,0:0:0:0:
320,192,156756,1,0,0:0:0:0:
448,192,156756,1,0,0:0:0:0:
192,192,156939,1,8,0:0:0:0:
320,192,156939,1,0,0:0:0:0:
448,192,156939,1,0,0:0:0:0:
64,192,157122,128,2,157396:0:0:0:0:
192,192,157122,128,4,157396:0:0:0:0:
320,192,157122,128,0,157396:0:0:0:0:
64,192,157488,1,2,0:0:0:0:
192,192,157488,1,0,0:0:0:0:
320,192,157488,1,0,0:0:0:0:
64,192,157671,1,8,0:0:0:0:
320,192,157671,1,0,0:0:0:0:
448,192,157671,1,0,0:0:0:0:
64,192,157854,1,2,0:0:0:0:
192,192,157854,1,0,0:0:0:0:
320,192,157854,1,0,0:0:0:0:
64,192,158037,1,8,0:0:0:0:
192,192,158037,1,0,0:0:0:0:
448,192,158037,1,0,0:0:0:0:
448,192,158219,1,0,0:0:0:50:Tom1.wav
192,192,158219,1,0,0:0:0:0:
320,192,158219,1,0,0:0:0:0:
64,192,158402,1,0,0:0:0:60:Tom2.wav
320,192,158402,1,0,0:0:0:0:
448,192,158402,1,0,0:0:0:0:
192,192,158494,1,0,0:0:0:60:Tom2.wav
64,192,158585,1,0,0:0:0:60:Tom3.wav
448,192,158585,1,0,0:0:0:0:
320,192,158677,1,0,0:0:0:60:Tom3.wav
64,192,158768,128,2,159043:0:0:0:0:
192,192,158768,128,0,159043:0:0:0:0:
448,192,158768,128,0,159043:0:0:0:0:
192,192,159134,128,2,159409:0:0:0:0:
320,192,159134,128,0,159409:0:0:0:0:
448,192,159134,128,0,159409:0:0:0:0:
64,192,159500,128,2,159774:0:0:0:0:
320,192,159500,128,0,159774:0:0:0:0:
448,192,159500,128,0,159774:0:0:0:0:
64,192,159866,1,8,0:0:0:0:
320,192,159866,1,0,0:0:0:0:
448,192,159866,1,0,0:0:0:0:
192,192,160049,128,2,160323:0:0:0:0:
320,192,160049,128,4,160323:0:0:0:0:
448,192,160049,128,0,160323:0:0:0:0:
192,192,160415,1,2,0:0:0:0:
320,192,160415,1,0,0:0:0:0:
448,192,160415,1,0,0:0:0:0:
64,192,160598,1,8,0:0:0:0:
192,192,160598,1,0,0:0:0:0:
320,192,160598,1,0,0:0:0:0:
64,192,160780,128,2,161055:0:0:0:0:
320,192,160780,128,0,161055:0:0:0:60:Crash 2.wav
448,192,160780,128,0,161055:0:0:0:0:
64,192,161146,1,2,0:0:0:0:
320,192,161146,1,0,0:0:0:0:
448,192,161146,1,0,0:0:0:0:
448,192,161329,1,8,0:0:0:0:
320,192,161329,1,0,0:0:0:0:
192,192,161329,1,0,0:0:0:0:
64,192,161512,1,0,0:0:0:0:
64,192,161695,128,2,162793:0:0:0:0:
192,192,161695,1,4,0:0:0:0:
448,192,161695,1,0,0:0:0:0:
320,192,162244,1,2,0:0:0:0:
448,192,162244,1,0,0:0:0:0:
192,192,162427,1,8,0:0:0:0:
448,192,162427,128,0,162793:0:0:0:35:Ride.wav
320,192,162793,1,2,0:0:0:0:
448,192,162976,1,8,0:0:0:0:
320,192,163037,1,0,0:0:0:0:
192,192,163098,1,0,0:0:0:0:
64,192,163159,1,2,0:0:0:0:
448,192,163159,128,0,164256:0:0:0:35:Ride.wav
192,192,163341,1,8,0:0:0:0:
320,192,163341,1,0,0:0:0:0:
64,192,163524,1,2,0:0:0:0:
320,192,163707,1,0,0:0:0:0:
64,192,163890,128,8,164256:0:0:0:0:
192,192,163890,1,4,0:0:0:0:
192,192,164256,1,2,0:0:0:0:
320,192,164256,1,0,0:0:0:0:
64,192,164439,1,8,0:0:0:0:
320,192,164439,1,0,0:0:0:0:
448,192,164439,1,0,0:0:0:0:
64,192,164622,128,2,165719:0:0:0:0:
192,192,164622,1,0,0:0:0:60:Crash 2.wav
448,192,164622,1,0,0:0:0:0:
192,192,165354,1,0,0:0:0:70:Splash.wav
448,192,165354,1,0,0:0:0:0:
448,192,165537,128,0,165719:0:0:0:0:
192,192,165719,1,0,0:0:0:0:
320,192,165719,128,0,165902:0:0:0:0:
64,192,165902,1,2,0:0:0:0:
192,192,165902,128,0,166268:0:0:0:0:
448,192,165902,1,0,0:0:0:0:
448,192,166268,1,0,0:0:0:0:
320,192,166314,1,0,0:0:0:0:
192,192,166817,1,0,0:0:0:0:
448,192,166817,1,0,0:0:0:0:
320,192,167183,1,0,0:0:0:0:
64,192,167183,1,0,0:0:0:0:
64,192,167549,128,0,167915:0:0:0:0:
448,192,167549,1,0,0:0:0:0:
192,192,167732,1,0,0:0:0:0:
320,192,167823,1,0,0:0:0:0:
448,192,167915,128,0,168280:0:0:0:0:
64,192,168098,1,0,0:0:0:0:
192,192,168280,128,0,168646:0:0:0:0:
448,192,168463,1,0,0:0:0:0:
64,192,168646,1,0,0:0:0:0:
320,192,168646,128,0,168738:0:0:0:0:
64,192,168829,128,0,169195:0:0:0:0:
320,192,168829,1,0,0:0:0:0:
192,192,169195,1,0,0:0:0:0:
448,192,169195,128,0,169378:0:0:0:0:
320,192,169378,128,0,169561:0:0:0:0:
192,192,169561,128,0,169744:0:0:0:0:
448,192,169561,1,0,0:0:0:0:
64,192,169744,128,0,170110:0:0:0:0:
192,192,169927,1,0,0:0:0:0:
448,192,170110,1,0,0:0:0:0:
64,192,170293,128,0,170476:0:0:0:0:
448,192,170476,128,0,170841:0:0:0:0:
320,192,170659,1,0,0:0:0:0:
192,192,170841,128,0,171024:0:0:0:0:
320,192,171024,128,0,171207:0:0:0:0:
448,192,171024,1,0,0:0:0:0:
192,192,171390,128,0,171573:0:0:0:0:
320,192,171390,1,0,0:0:0:0:
448,192,171573,1,0,0:0:0:0:
64,192,171756,128,0,172488:0:0:0:0:
192,192,171756,1,0,0:0:0:0:
448,192,172122,1,0,0:0:0:0:
192,192,172488,1,0,0:0:0:0:
448,192,172671,1,0,0:0:0:0:
64,192,172854,128,0,173037:0:0:0:0:
320,192,172854,1,0,0:0:0:0:
192,192,173037,128,0,173219:0:0:0:0:
448,192,173037,1,0,0:0:0:0:
64,192,173219,1,0,0:0:0:0:
320,192,173219,128,0,173402:0:0:0:0:
192,192,173402,1,0,0:0:0:0:
448,192,173402,128,0,173768:0:0:0:0:
320,192,173585,1,0,0:0:0:0:
64,192,173768,128,0,174134:0:0:0:0:
448,192,173951,1,0,0:0:0:0:
320,192,174134,128,0,174500:0:0:0:0:
64,192,174317,1,0,0:0:0:0:
192,192,174500,128,0,174591:0:0:0:0:
192,192,174683,128,0,175232:0:0:0:0:
448,192,174683,1,0,0:0:0:0:
320,192,175049,1,0,0:0:0:0:
64,192,175232,128,0,175415:0:0:0:0:
320,192,175415,128,0,175780:0:0:0:0:
448,192,175415,1,0,0:0:0:0:
64,192,175780,128,0,176146:0:0:0:0:
192,192,175780,1,0,0:0:0:0:
448,192,176146,128,0,176329:0:0:0:0:
64,192,176329,1,0,0:0:0:0:
320,192,176329,128,0,177244:0:0:0:0:
192,192,177244,128,0,177427:0:0:0:0:
64,192,177427,128,0,177610:0:0:0:30:soft-hitfinish.wav
448,192,177427,1,0,0:0:0:0:
448,192,177610,1,4,0:0:0:0:
320,192,177701,1,0,0:0:0:0:
64,192,177793,128,0,178159:0:0:0:0:
192,192,177793,128,0,177976:0:0:0:0:
320,192,177976,128,0,178341:0:0:0:0:
192,192,178159,128,0,178341:0:0:0:0:
64,192,178341,128,0,178890:0:0:0:0:
448,192,178341,1,0,0:0:0:0:
448,192,178524,1,0,0:0:0:0:
192,192,178890,1,0,0:0:0:0:
320,192,178890,128,0,179256:0:0:0:0:
64,192,179256,1,2,0:0:0:0:
192,192,179256,1,4,0:0:0:0:
448,192,179256,1,0,0:0:0:0:
64,192,179622,1,2,0:0:0:0:
448,192,179622,1,0,0:0:0:0:
192,192,179805,1,0,0:0:0:0:
320,192,179896,1,0,0:0:0:0:
64,192,179988,1,2,0:0:0:0:
448,192,179988,1,0,0:0:0:0:
192,192,180171,1,0,0:0:0:0:
64,192,180354,1,2,0:0:0:0:
448,192,180354,1,0,0:0:0:0:
320,192,180537,1,0,0:0:0:0:
448,192,180537,1,0,0:0:0:0:
64,192,180719,1,2,0:0:0:0:
448,192,180719,1,0,0:0:0:0:
192,192,180902,1,0,0:0:0:0:
64,192,181085,1,2,0:0:0:0:
448,192,181085,1,0,0:0:0:0:
320,192,181268,1,0,0:0:0:0:
192,192,181360,1,0,0:0:0:0:
64,192,181451,1,2,0:0:0:0:
448,192,181451,1,0,0:0:0:0:
192,192,181634,1,8,0:0:0:0:
320,192,181634,1,0,0:0:0:0:
64,192,181817,1,2,0:0:0:0:
320,192,181817,1,8,0:0:0:0:
448,192,181817,1,0,0:0:0:0:
192,192,182000,1,0,0:0:0:0:
320,192,182091,1,0,0:0:0:0:
64,192,182183,1,2,0:0:0:0:
448,192,182183,1,0,0:0:0:0:
320,192,182366,1,0,0:0:0:0:
64,192,182549,1,2,0:0:0:0:
448,192,182549,1,0,0:0:0:0:
320,192,182732,1,0,0:0:0:0:
192,192,182823,1,0,0:0:0:0:
64,192,182915,1,2,0:0:0:0:
448,192,182915,1,0,0:0:0:0:
320,192,183098,1,0,0:0:0:0:
64,192,183280,1,2,0:0:0:0:
448,192,183280,1,0,0:0:0:0:
64,192,183463,1,2,0:0:0:0:
320,192,183463,1,0,0:0:0:60:Crash 2.wav
448,192,183463,1,0,0:0:0:0:
64,192,183829,1,8,0:0:0:0:
192,192,183829,1,0,0:0:0:0:
448,192,183829,1,0,0:0:0:0:
192,192,184195,1,2,0:0:0:0:
320,192,184195,1,0,0:0:0:0:
320,192,184378,128,0,184561:0:0:0:0:
448,192,184378,128,0,184561:0:0:0:0:
64,192,184378,128,8,184561:0:0:0:0:
64,192,184652,128,0,184835:0:0:0:60:Tom2.wav
192,192,184652,128,0,184835:0:0:0:0:
320,192,184652,128,0,184835:0:0:0:0:
64,192,184927,128,2,185476:0:0:0:0:
192,192,184927,128,4,185476:0:0:0:0:
448,192,184927,128,0,185476:0:0:0:0:
320,192,185293,1,0,0:0:0:50:Crash 2.wav
320,192,185476,1,4,0:0:0:0:
64,192,185841,128,8,186024:0:0:0:0:
192,192,185841,128,0,186024:0:0:0:0:
448,192,185841,128,0,186024:0:0:0:0:
64,192,186116,128,8,186299:0:0:0:0:
192,192,186116,128,0,186299:0:0:0:0:
320,192,186116,128,0,186299:0:0:0:0:
448,192,186390,128,0,186756:0:0:0:0:
320,192,186390,128,4,186756:0:0:0:0:
192,192,186390,128,2,186756:0:0:0:0:
64,192,186756,1,0,0:0:0:50:Tom1.wav
320,192,186848,1,0,0:0:0:50:Tom1.wav
64,192,186939,1,0,0:0:0:50:Tom1.wav
192,192,187122,1,2,0:0:0:0:
448,192,187122,1,0,0:0:0:0:
64,192,187305,1,0,0:0:0:60:Tom2.wav
320,192,187305,1,0,0:0:0:0:
64,192,187579,1,0,0:0:0:60:Tom3.wav
448,192,187579,1,0,0:0:0:0:
192,192,187671,1,2,0:0:0:0:
320,192,187671,1,0,0:0:0:0:
320,192,187854,128,0,188128:0:0:0:0:
448,192,187854,128,0,188128:0:0:0:0:
64,192,187854,128,2,188128:0:0:0:0:
64,192,188219,1,8,0:0:0:0:
192,192,188219,1,0,0:0:0:0:
448,192,188219,1,0,0:0:0:0:
320,192,188311,1,8,0:0:0:0:
64,192,188402,1,8,0:0:0:0:
448,192,188402,1,0,0:0:0:0:
192,192,188494,1,8,0:0:0:0:
320,192,188585,1,8,0:0:0:0:
448,192,188585,1,0,0:0:0:0:
64,192,188677,1,8,0:0:0:0:
192,192,188677,1,0,0:0:0:0:
320,192,188768,1,8,0:0:0:0:
448,192,188768,1,0,0:0:0:0:
64,192,188860,1,8,0:0:0:0:
192,192,188860,1,0,0:0:0:0:
320,192,188951,1,8,0:0:0:0:
448,192,188951,1,0,0:0:0:0:
64,192,189043,1,8,0:0:0:0:
192,192,189043,1,0,0:0:0:0:
320,192,189134,1,8,0:0:0:0:
448,192,189134,1,0,0:0:0:0:
64,192,189226,1,8,0:0:0:0:
192,192,189226,1,0,0:0:0:0:
320,192,189317,1,8,0:0:0:0:
448,192,189317,1,0,0:0:0:0:
192,192,189409,1,8,0:0:0:0:
64,192,189500,1,2,0:0:0:0:
320,192,189500,128,8,189866:0:0:0:0:
448,192,189500,128,0,189866:0:0:0:0:
64,192,190049,1,8,0:0:0:0:
320,192,190049,128,2,190415:0:0:0:0:
448,192,190049,128,0,190415:0:0:0:0:
64,192,190598,1,8,0:0:0:0:
320,192,190598,128,2,190872:0:0:0:0:
448,192,190598,128,0,190872:0:0:0:0:
64,192,190963,1,8,0:0:0:0:
192,192,190963,1,0,0:0:0:0:
448,192,190963,1,0,0:0:0:0:
64,192,191146,1,0,0:0:0:50:Tom1.wav
192,192,191146,1,0,0:0:0:0:
320,192,191238,1,0,0:0:0:0:
448,192,191329,1,0,0:0:0:0:
192,192,191512,1,2,0:0:0:0:
320,192,191512,1,0,0:0:0:0:
64,192,191695,1,8,0:0:0:0:
192,192,191695,1,0,0:0:0:0:
448,192,191695,1,0,0:0:0:0:
320,192,191878,1,0,0:0:0:50:Tom1.wav
448,192,191878,1,0,0:0:0:0:
192,192,191969,1,0,0:0:0:50:Tom1.wav
64,192,192061,1,8,0:0:0:0:
320,192,192061,1,0,0:0:0:0:
448,192,192061,1,0,0:0:0:0:
192,192,192152,1,0,0:0:0:0:
320,192,192244,1,0,0:0:0:0:
448,192,192335,1,0,0:0:0:0:
64,192,192427,128,2,192793:0:0:0:0:
192,192,192427,128,0,192793:0:0:0:60:Crash 2.wav
320,192,192427,128,0,192793:0:0:0:0:
64,192,192976,128,2,193341:0:0:0:0:
192,192,192976,128,4,193341:0:0:0:0:
320,192,192976,128,0,193341:0:0:0:0:
64,192,193524,128,2,194256:0:0:0:0:
192,192,193524,128,0,194348:0:0:0:60:Crash 2.wav
320,192,193524,128,0,194439:0:0:0:0:
448,192,193524,128,0,194530:0:0:0:0:
192,192,194622,128,0,194988:0:0:0:0:
320,192,194988,128,0,195354:0:0:0:0:
64,192,195354,128,2,195719:0:0:0:0:
192,192,195354,128,0,195719:0:0:0:0:
448,192,195354,1,0,0:0:0:0:
448,192,195719,128,0,196085:0:0:0:0:
192,192,196085,128,4,196451:0:0:0:0:
320,192,196085,128,0,196451:0:0:0:0:
64,192,196451,1,2,0:0:0:0:
448,192,196451,1,0,0:0:0:0:
64,192,196634,128,2,197000:0:0:0:0:
192,192,196634,1,0,0:0:0:60:Crash 2.wav
320,192,196634,1,0,0:0:0:0:
192,192,197000,128,0,197183:0:0:0:0:
320,192,197183,128,0,197366:0:0:0:0:
192,192,197366,1,2,0:0:0:0:
448,192,197366,1,0,0:0:0:0:
64,192,197457,1,2,0:0:0:0:
320,192,197457,1,0,0:0:0:0:
192,192,197549,1,8,0:0:0:0:
448,192,197549,1,0,0:0:0:0:
64,192,197732,128,2,198098:0:0:0:0:
320,192,197732,1,4,0:0:0:0:
448,192,197732,128,0,198098:0:0:0:0:
192,192,198098,1,2,0:0:0:0:
320,192,198098,1,0,0:0:0:0:
64,192,198280,128,2,198646:0:0:0:0:
192,192,198280,128,0,198646:0:0:0:0:
448,192,198280,1,0,0:0:0:0:
320,192,198646,128,0,198829:0:0:0:0:
64,192,198829,1,0,0:0:0:20:soft-hitclap.wav
192,192,198829,1,0,0:0:0:0:
448,192,198829,1,0,0:0:0:0:
320,192,198921,1,0,0:0:0:30:soft-hitclap.wav
64,192,199012,1,8,0:0:0:0:
192,192,199012,1,0,0:0:0:0:
448,192,199012,1,0,0:0:0:0:
64,192,199195,1,0,0:0:0:50:Tom1.wav
448,192,199195,1,0,0:0:0:0:
192,192,199287,1,0,0:0:0:25:soft-hitclap.wav
64,192,199378,1,8,0:0:0:0:
320,192,199378,1,0,0:0:0:0:
448,192,199378,1,0,0:0:0:0:
64,192,199561,128,8,200293:0:0:0:0:
192,192,199561,1,0,0:0:0:0:
448,192,199561,128,0,201024:0:0:0:0:
320,192,200659,128,0,201024:0:0:0:0:
192,192,200841,128,0,201024:0:0:0:0:
64,192,201024,1,0,0:0:0:0:
192,192,201085,1,0,0:0:0:0:
320,192,201146,1,0,0:0:0:0:
64,192,201207,1,2,0:0:0:0:
192,192,201207,128,4,201573:0:0:0:0:
448,192,201207,1,0,0:0:0:0:
64,192,201573,128,8,201939:0:0:0:0:
320,192,201573,1,2,0:0:0:0:
448,192,201573,1,0,0:0:0:0:
192,192,201756,1,0,0:0:0:0:
192,192,201939,1,2,0:0:0:0:
320,192,201939,128,0,202305:0:0:0:0:
64,192,202122,1,0,0:0:0:0:
64,192,202305,1,8,0:0:0:0:
448,192,202305,128,2,202671:0:0:0:0:
192,192,202305,1,0,0:0:0:0:
192,192,202488,128,0,202854:0:0:0:0:
64,192,202671,1,2,0:0:0:0:
320,192,202671,1,0,0:0:0:0:
448,192,202854,1,0,0:0:0:0:
64,192,203037,128,8,203402:0:0:0:0:
320,192,203037,1,2,0:0:0:0:
448,192,203037,1,0,0:0:0:0:
320,192,203219,128,0,203585:0:0:0:0:
192,192,203402,1,2,0:0:0:0:
448,192,203402,1,0,0:0:0:0:
64,192,203585,1,0,0:0:0:0:
64,192,203768,1,8,0:0:0:0:
320,192,203768,128,2,203951:0:0:0:0:
448,192,203768,128,0,203951:0:0:0:0:
192,192,203951,1,0,0:0:0:60:Tom2.wav
64,192,204134,128,2,204500:0:0:0:0:
320,192,204134,128,4,204500:0:0:0:0:
448,192,204134,128,0,204500:0:0:0:0:
64,192,204683,128,2,205049:0:0:0:0:
192,192,204683,128,0,205049:0:0:0:60:Crash 2.wav
320,192,204683,128,0,205049:0:0:0:0:
64,192,205232,128,2,205415:0:0:0:0:
320,192,205232,128,4,205415:0:0:0:0:
448,192,205232,128,0,205415:0:0:0:0:
64,192,205598,128,2,205963:0:0:0:0:
192,192,205598,128,0,205963:0:0:0:60:Crash 2.wav
320,192,205598,1,0,0:0:0:0:
448,192,205598,1,0,0:0:0:0:
448,192,205780,1,0,0:0:0:50:Tom1.wav
320,192,205963,1,0,0:0:0:50:Tom1.wav
64,192,206146,1,0,0:0:0:60:Tom2.wav
192,192,206146,1,0,0:0:0:0:
64,192,206329,1,8,0:0:0:0:
320,192,206329,1,0,0:0:0:0:
448,192,206375,1,0,0:0:0:0:
192,192,206421,1,8,0:0:0:0:
64,192,206466,1,0,0:0:0:0:
448,192,206512,1,8,0:0:0:0:
320,192,206558,1,0,0:0:0:0:
64,192,206604,1,8,0:0:0:0:
192,192,206649,1,0,0:0:0:0:
320,192,206695,1,8,0:0:0:0:
448,192,206695,1,0,0:0:0:0:
64,192,206787,1,8,0:0:0:0:
192,192,206787,1,0,0:0:0:0:
320,192,206878,1,8,0:0:0:0:
448,192,206878,1,0,0:0:0:0:
192,192,206969,1,8,0:0:0:0:
64,192,206969,1,0,0:0:0:0:
320,192,207061,1,0,0:0:0:60:Tom3.wav
448,192,207061,1,0,0:0:0:0:
64,192,207427,128,2,207793:0:0:0:0:
192,192,207427,1,4,0:0:0:0:
448,192,207427,1,8,0:0:0:0:
320,192,207610,1,0,0:0:0:0:
320,192,207793,1,2,0:0:0:0:
448,192,207793,128,0,208159:0:0:0:0:
64,192,207976,1,0,0:0:0:0:
64,192,208159,1,8,0:0:0:0:
192,192,208159,128,2,208524:0:0:0:0:
320,192,208159,1,0,0:0:0:0:
448,192,208341,128,0,208707:0:0:0:0:
64,192,208524,1,2,0:0:0:0:
320,192,208524,1,0,0:0:0:0:
192,192,208707,128,0,209073:0:0:0:0:
64,192,208890,1,8,0:0:0:0:
320,192,208890,1,2,0:0:0:0:
448,192,208890,128,0,209073:0:0:0:0:
64,192,209073,128,0,209439:0:0:0:0:
320,192,209256,128,2,209622:0:0:0:0:
448,192,209256,1,0,0:0:0:0:
192,192,209439,1,0,0:0:0:0:
64,192,209622,1,8,0:0:0:0:
192,192,209622,1,2,0:0:0:0:
448,192,209622,1,0,0:0:0:0:
320,192,209805,128,0,210171:0:0:0:0:
64,192,209988,128,2,210354:0:0:0:0:
448,192,209988,1,0,0:0:0:0:
192,192,210171,1,0,0:0:0:0:
192,192,210354,128,8,210719:0:0:0:0:
320,192,210354,1,2,0:0:0:0:
448,192,210354,1,0,0:0:0:0:
448,192,210537,128,0,210902:0:0:0:0:
64,192,210719,1,2,0:0:0:0:
320,192,210719,1,0,0:0:0:0:
64,192,210902,128,0,211268:0:0:0:0:
192,192,211085,1,8,0:0:0:0:
320,192,211085,1,2,0:0:0:0:
448,192,211085,1,0,0:0:0:0:
192,192,211268,1,2,0:0:0:0:
320,192,211268,128,4,211817:0:0:0:0:
448,192,211268,1,0,0:0:0:0:
64,192,211634,1,8,0:0:0:0:
192,192,211634,1,0,0:0:0:0:
448,192,211634,1,0,0:0:0:0:
64,192,211817,1,8,0:0:0:0:
192,192,211817,1,0,0:0:0:0:
448,192,211817,1,0,0:0:0:0:
320,192,211909,1,0,0:0:0:0:
64,192,212000,1,0,0:0:0:50:Tom1.wav
448,192,212000,1,0,0:0:0:0:
192,192,212091,1,0,0:0:0:0:
64,192,212183,128,0,212366:0:0:0:60:Tom2.wav
320,192,212183,128,0,212366:0:0:0:0:
448,192,212183,128,0,212366:0:0:0:0:
64,192,212457,128,0,212640:0:0:0:60:Tom3.wav
192,192,212457,128,0,212640:0:0:0:0:
448,192,212457,128,0,212640:0:0:0:0:
192,192,212732,128,2,213098:0:0:0:0:
320,192,212732,128,4,213098:0:0:0:0:
448,192,212732,128,0,213098:0:0:0:0:
64,192,213098,1,0,0:0:0:60:Tom3.wav
64,192,213280,1,8,0:0:0:0:
192,192,213280,1,2,0:0:0:0:
448,192,213280,1,0,0:0:0:60:Crash 2.wav
320,192,213463,1,0,0:0:0:0:
64,192,213646,1,2,0:0:0:0:
320,192,213646,1,0,0:0:0:0:
192,192,213829,1,0,0:0:0:35:Ride.wav
448,192,213921,1,0,0:0:0:0:
64,192,214012,1,8,0:0:0:0:
192,192,214012,1,2,0:0:0:0:
320,192,214012,1,0,0:0:0:0:
320,192,214195,128,0,214744:0:0:0:35:Ride.wav
64,192,214378,1,2,0:0:0:0:
192,192,214378,1,0,0:0:0:0:
448,192,214561,1,0,0:0:0:35:Ride.wav
64,192,214744,1,2,0:0:0:0:
192,192,214744,1,8,0:0:0:0:
448,192,214744,1,0,0:0:0:0:
320,192,214927,1,0,0:0:0:35:Ride.wav
192,192,215110,1,2,0:0:0:0:
448,192,215110,1,0,0:0:0:0:
320,192,215293,1,0,0:0:0:35:Ride.wav
64,192,215384,1,0,0:0:0:0:
192,192,215476,1,2,0:0:0:0:
320,192,215476,1,8,0:0:0:0:
448,192,215476,1,0,0:0:0:0:
192,192,215659,128,0,216207:0:0:0:35:Ride.wav
320,192,215841,1,2,0:0:0:0:
448,192,215841,1,0,0:0:0:0:
64,192,216024,1,0,0:0:0:35:Ride.wav
64,192,216207,1,8,0:0:0:0:
320,192,216207,1,2,0:0:0:0:
448,192,216207,1,0,0:0:0:0:
320,192,216390,128,0,216573:0:0:0:35:Ride.wav
192,192,216573,1,2,0:0:0:0:
64,192,216573,1,0,0:0:0:0:
320,192,216756,1,0,0:0:0:0:
192,192,216756,128,8,216939:0:0:0:0:
448,192,216756,1,0,0:0:0:0:
64,192,216939,1,2,0:0:0:0:
448,192,216939,1,0,0:0:0:0:
64,192,217122,128,2,217488:0:0:0:0:
192,192,217122,1,4,0:0:0:0:
320,192,217122,1,0,0:0:0:0:
320,192,217488,1,2,0:0:0:0:
448,192,217488,1,0,0:0:0:0:
64,192,217671,1,8,0:0:0:0:
192,192,217671,1,0,0:0:0:60:Crash 2.wav
448,192,217671,1,0,0:0:0:0:
64,192,217854,1,2,0:0:0:0:
320,192,217854,1,0,0:0:0:0:
64,192,218037,1,8,0:0:0:0:
192,192,218037,1,0,0:0:0:0:
448,192,218037,1,0,0:0:0:0:
320,192,218128,1,8,0:0:0:0:
64,192,218219,1,8,0:0:0:0:
192,192,218311,1,8,0:0:0:0:
320,192,218402,1,0,0:0:0:60:Tom2.wav
448,192,218402,1,0,0:0:0:0:
64,192,218585,1,2,0:0:0:0:
192,192,218585,128,4,219500:0:0:0:0:
448,192,218585,1,0,0:0:0:0:
64,192,219134,1,4,0:0:0:0:
320,192,219134,1,0,0:0:0:0:
448,192,219134,1,0,0:0:0:0:
320,192,219317,1,2,0:0:0:0:
448,192,219317,1,0,0:0:0:0:
64,192,219500,1,8,0:0:0:0:
320,192,219500,128,0,219866:0:0:0:0:
448,192,219500,1,0,0:0:0:0:
192,192,219683,1,0,0:0:0:0:
64,192,219866,1,2,0:0:0:0:
448,192,219866,128,0,220415:0:0:0:0:
64,192,220049,128,2,220415:0:0:0:0:
320,192,220049,1,0,0:0:0:0:
192,192,220415,128,0,220780:0:0:0:70:Splash.wav
320,192,220415,128,0,220780:0:0:0:0:
64,192,220780,1,0,0:0:0:60:Tom3.wav
448,192,220780,1,0,0:0:0:0:
64,192,220963,128,8,221146:0:0:0:0:
192,192,220963,128,0,221146:0:0:0:0:
320,192,220963,128,0,221146:0:0:0:0:
192,192,221238,128,2,221421:0:0:0:0:
320,192,221238,128,0,221421:0:0:0:0:
448,192,221238,128,0,221421:0:0:0:0:
64,192,221512,128,2,222427:0:0:0:0:
320,192,221512,128,0,222244:0:0:0:60:Crash 2.wav
448,192,221512,128,0,221878:0:0:0:0:
448,192,222244,1,0,0:0:0:0:
192,192,222427,1,0,0:0:0:0:
448,192,222427,128,0,222701:0:0:0:0:
192,192,222701,128,0,222976:0:0:0:0:
64,192,222976,1,2,0:0:0:0:
320,192,222976,128,4,223890:0:0:0:0:
448,192,222976,1,0,0:0:0:0:
64,192,223524,1,0,0:0:0:50:Crash 2.wav
192,192,223524,1,0,0:0:0:0:
64,192,223890,128,0,224165:0:0:0:0:
192,192,224165,128,0,224439:0:0:0:0:
64,192,224439,128,2,224805:0:0:0:0:
320,192,224439,128,4,224805:0:0:0:0:
448,192,224439,128,0,224805:0:0:0:0:
64,192,224988,1,8,0:0:0:0:
192,192,224988,1,0,0:0:0:0:
448,192,224988,1,0,0:0:0:0:
320,192,225079,1,8,0:0:0:0:
64,192,225171,1,8,0:0:0:0:
448,192,225171,1,0,0:0:0:0:
192,192,225262,1,8,0:0:0:0:
320,192,225354,1,8,0:0:0:0:
448,192,225354,1,0,0:0:0:0:
192,192,225445,1,8,0:0:0:0:
64,192,225537,1,8,0:0:0:0:
448,192,225537,1,0,0:0:0:0:
192,192,225628,1,8,0:0:0:0:
320,192,225628,1,0,0:0:0:0:
64,192,225719,1,8,0:0:0:0:
448,192,225719,1,0,0:0:0:0:
320,192,225811,1,8,0:0:0:0:
64,192,225902,128,2,226451:0:0:0:0:
192,192,225902,128,8,226451:0:0:0:0:
448,192,225902,128,0,226451:0:0:0:0:
64,192,227183,1,0,0:0:0:0:
192,192,227244,1,0,0:0:0:0:
320,192,227305,1,0,0:0:0:0:
64,192,227366,1,2,0:0:0:0:
192,192,227366,1,0,0:0:0:0:
448,192,227366,1,0,0:0:0:0:
64,192,227732,1,0,0:0:0:0:
192,192,227823,1,0,0:0:0:0:
64,192,227915,1,2,0:0:0:0:
320,192,227915,1,0,0:0:0:0:
448,192,227915,1,0,0:0:0:0:
64,192,228098,1,0,0:0:0:0:
192,192,228280,1,2,0:0:0:0:
320,192,228280,1,0,0:0:0:0:
448,192,228280,1,0,0:0:0:0:
448,192,228463,1,0,0:0:0:0:
320,192,228555,1,0,0:0:0:0:
64,192,228646,1,2,0:0:0:0:
192,192,228646,1,0,0:0:0:0:
448,192,228646,1,0,0:0:0:0:
448,192,228829,1,0,0:0:0:0:
64,192,229012,1,2,0:0:0:0:
192,192,229012,1,8,0:0:0:0:
320,192,229012,1,0,0:0:0:0:
64,192,229195,1,8,0:0:0:0:
192,192,229195,1,2,0:0:0:0:
320,192,229195,1,0,0:0:0:0:
64,192,229378,1,8,0:0:0:0:
192,192,229378,1,2,0:0:0:0:
320,192,229378,1,0,0:0:0:0:
64,192,229561,1,8,0:0:0:0:
192,192,229561,1,2,0:0:0:0:
320,192,229561,1,0,0:0:0:0:
64,192,229927,1,0,0:0:0:0:
320,192,229927,1,0,0:0:0:0:
448,192,229927,1,0,0:0:0:0:
192,192,230018,1,0,0:0:0:0:
448,192,230110,1,0,0:0:0:0:
320,192,230201,1,0,0:0:0:0:
64,192,230293,1,0,0:0:0:0:
192,192,230384,1,0,0:0:0:0:
64,192,230476,128,2,230841:0:0:0:0:
320,192,230476,1,4,0:0:0:0:
448,192,230476,1,0,0:0:0:0:
192,192,230841,1,8,0:0:0:0:
320,192,230841,1,2,0:0:0:0:
448,192,230841,128,0,230933:0:0:0:0:
448,192,231024,128,0,231207:0:0:0:0:
64,192,231207,1,2,0:0:0:0:
192,192,231207,1,0,0:0:0:0:
192,192,231390,128,0,231573:0:0:0:0:
64,192,231573,1,8,0:0:0:0:
320,192,231573,1,2,0:0:0:0:
448,192,231573,1,0,0:0:0:0:
320,192,231756,128,0,232122:0:0:0:0:
64,192,231939,1,2,0:0:0:0:
448,192,231939,1,0,0:0:0:0:
64,192,232122,128,0,232213:0:0:0:0:
192,192,232305,128,8,232396:0:0:0:0:
320,192,232305,1,2,0:0:0:0:
448,192,232305,1,0,0:0:0:0:
320,192,232488,128,0,232854:0:0:0:0:
64,192,232671,1,2,0:0:0:0:
448,192,232671,1,0,0:0:0:0:
64,192,232854,128,0,232945:0:0:0:0:
64,192,233037,128,8,233219:0:0:0:0:
192,192,233037,1,2,0:0:0:0:
320,192,233037,1,0,0:0:0:0:
448,192,233219,1,0,0:0:0:0:
64,192,233402,1,2,0:0:0:0:
448,192,233402,128,0,233768:0:0:0:0:
192,192,233585,1,0,0:0:0:0:
64,192,233768,1,8,0:0:0:0:
192,192,233768,128,2,233860:0:0:0:0:
320,192,233768,1,0,0:0:0:0:
192,192,233951,128,0,234134:0:0:0:0:
320,192,234134,1,2,0:0:0:0:
448,192,234134,1,0,0:0:0:0:
320,192,234317,128,0,234500:0:0:0:0:
64,192,234500,1,8,0:0:0:0:
192,192,234500,1,2,0:0:0:0:
448,192,234500,1,0,0:0:0:0:
64,192,234683,128,0,235049:0:0:0:0:
192,192,234866,1,2,0:0:0:0:
448,192,234866,1,0,0:0:0:0:
448,192,235049,128,0,235140:0:0:0:0:
64,192,235232,1,8,0:0:0:0:
192,192,235232,1,2,0:0:0:0:
320,192,235232,128,4,235323:0:0:0:0:
192,192,235415,128,0,235780:0:0:0:0:
64,192,235598,1,8,0:0:0:0:
448,192,235598,1,0,0:0:0:0:
320,192,235689,1,8,0:0:0:0:
64,192,235780,128,0,235872:0:0:0:50:Tom1.wav
64,192,235963,128,8,236146:0:0:0:0:
192,192,235963,1,0,0:0:0:0:
448,192,235963,1,0,0:0:0:0:
320,192,236146,1,8,0:0:0:0:
448,192,236146,1,0,0:0:0:0:
64,192,236238,1,8,0:0:0:0:
192,192,236238,1,0,0:0:0:0:
64,192,236329,1,2,0:0:0:0:
320,192,236329,1,4,0:0:0:0:
448,192,236329,128,0,236695:0:0:0:0:
64,192,236695,1,8,0:0:0:0:
192,192,236695,128,2,236787:0:0:0:0:
320,192,236695,1,0,0:0:0:60:Crash 2.wav
192,192,236878,128,0,237061:0:0:0:0:
320,192,237061,1,2,0:0:0:0:
448,192,237061,1,0,0:0:0:0:
448,192,237244,128,0,237427:0:0:0:35:Ride.wav
64,192,237427,1,8,0:0:0:0:
192,192,237427,1,2,0:0:0:0:
320,192,237427,1,0,0:0:0:0:
64,192,237610,128,0,237976:0:0:0:35:Ride.wav
320,192,237793,1,2,0:0:0:0:
448,192,237793,1,0,0:0:0:0:
448,192,237976,128,0,238067:0:0:0:35:Ride.wav
64,192,238159,1,8,0:0:0:0:
192,192,238159,1,2,0:0:0:0:
320,192,238159,128,0,238250:0:0:0:0:
192,192,238341,128,0,238707:0:0:0:35:Ride.wav
320,192,238524,1,2,0:0:0:0:
448,192,238524,1,0,0:0:0:0:
64,192,238707,1,0,0:0:0:35:Ride.wav
320,192,238707,128,0,238799:0:0:0:0:
192,192,238890,1,2,0:0:0:0:
320,192,238890,128,4,239073:0:0:0:0:
448,192,238890,1,0,0:0:0:0:
64,192,239073,1,8,0:0:0:0:
192,192,239073,1,0,0:0:0:0:
320,192,239165,1,0,0:0:0:0:
64,192,239256,128,2,239439:0:0:0:0:
192,192,239256,1,0,0:0:0:60:Crash 2.wav
448,192,239256,1,0,0:0:0:0:
320,192,239439,128,0,239622:0:0:0:0:
64,192,239622,1,8,0:0:0:0:
192,192,239622,1,0,0:0:0:0:
448,192,239622,1,0,0:0:0:0:
64,192,239805,128,2,239988:0:0:0:0:
320,192,239805,128,4,239988:0:0:0:0:
448,192,239805,128,0,239988:0:0:0:0:
64,192,240171,128,2,240354:0:0:0:0:
192,192,240171,128,0,240354:0:0:0:0:
448,192,240171,128,0,240354:0:0:0:0:
320,192,240354,1,8,0:0:0:0:
64,192,240537,128,2,241360:0:0:0:0:
192,192,240537,128,4,242000:0:0:0:0:
320,192,240537,128,0,240994:0:0:0:0:
448,192,240537,128,0,242000:0:0:0:0:
320,192,241085,128,0,242000:0:0:0:0:
64,192,241451,128,0,242000:0:0:0:0:
64,192,242183,1,8,0:0:0:0:
192,192,242183,1,2,0:0:0:0:
448,192,242183,1,0,0:0:0:0:
64,192,242366,1,8,0:0:0:0:
192,192,242366,1,2,0:0:0:0:
320,192,242366,1,0,0:0:0:0:
64,192,242549,1,8,0:0:0:0:
192,192,242549,1,2,0:0:0:0:
320,192,242549,1,0,0:0:0:0:
64,192,242732,1,8,0:0:0:0:
192,192,242732,1,2,0:0:0:0:
320,192,242732,1,0,0:0:0:0:
64,192,242915,1,8,0:0:0:0:
320,192,242915,1,2,0:0:0:0:
448,192,242915,1,0,0:0:0:0:
64,192,243098,1,8,0:0:0:0:
320,192,243098,1,2,0:0:0:0:
448,192,243098,1,0,0:0:0:0:
192,192,243280,1,8,0:0:0:0:
320,192,243280,1,2,0:0:0:0:
448,192,243280,1,0,0:0:0:0:
192,192,243463,1,8,0:0:0:0:
320,192,243463,1,2,0:0:0:0:
448,192,243463,1,0,0:0:0:0:
192,192,243921,1,0,0:0:0:0:
320,192,243951,1,0,0:0:0:0:
448,192,243982,1,0,0:0:0:0:
64,192,244012,1,0,0:0:0:0:
