osu file format v14

[General]
AudioFilename: audio.mp3
AudioLeadIn: 0
PreviewTime: 194622
Countdown: 0
SampleSet: Soft
StackLeniency: 0.7
Mode: 3
LetterboxInBreaks: 0
SpecialStyle: 0
WidescreenStoryboard: 0

[Editor]
Bookmarks: 720,12427,27061,38768,50476,62183,73890,85598,97122,103159,114866,126573,138280,152915,167549,179256,195354,201207,230476,242183,243463
DistanceSpacing: 2.9
BeatDivisor: 4
GridSize: 32
TimelineZoom: 2.4

[Metadata]
Title:Kaisou Ressha
TitleUnicode:海想列車
Artist:Minato Aqua
ArtistUnicode:湊あくあ
Creator:Sun
Version:DH's Easy
Source:
Tags:Kanon Matsubara Drum-Hitnormal dudehacker _Asha Nabi- vtuber virtual youtuber hololive ホロライブ aquairo あくあ色 3rd third anniversary 40mp 40meterp NNZN japanese pop jpop j-pop hmng SHIG
BeatmapID:3192906
BeatmapSetID:1563534

[Difficulty]
HPDrainRate:6.5
CircleSize:4
OverallDifficulty:6.5
ApproachRate:5
SliderMultiplier:1.4
SliderTickRate:1

[Events]
//Background and Video events
Video,450,"Kaisou Ressha.mp4"
0,0,"bg.jpg",0,0
//Break Periods
//Storyboard Layer 0 (Background)
//Storyboard Layer 1 (Fail)
//Storyboard Layer 2 (Pass)
//Storyboard Layer 3 (Foreground)
//Storyboard Layer 4 (Overlay)
//Storyboard Sound Samples
Sample,63646,0,"Crash 2.wav",45
Sample,66573,0,"Crash 2.wav",45
Sample,66939,0,"Tom2.wav",60
Sample,108646,0,"Tom3.wav",60
Sample,154927,0,"Crash 2.wav",60
Sample,160780,0,"Crash 2.wav",60
Sample,162427,0,"Ride.wav",35
Sample,163159,0,"Ride.wav",35
Sample,213280,0,"Crash 2.wav",60

[TimingPoints]
720,365.853658536585,4,2,1,50,1,0
12427,-100,4,2,1,60,0,0
21573,-100,4,2,1,20,0,0
21939,-100,4,2,1,30,0,0
22305,-100,4,2,1,45,0,0
23951,-100,4,2,1,60,0,0
27061,-100,4,2,1,70,0,0
38768,-100,4,2,1,60,0,0
50476,-100,4,2,1,65,0,0
68037,-100,4,2,1,55,0,0
70963,-100,4,2,1,20,0,0
71329,-100,4,2,1,30,0,0
71695,-100,4,2,1,40,0,0
72061,-100,4,2,1,50,0,0
73890,-100,4,2,1,75,0,1
94744,-100,4,2,1,30,0,1
95110,-100,4,2,1,40,0,1
95476,-100,4,2,1,50,0,1
95659,-100,4,2,1,55,0,0
97122,-100,4,2,1,65,0,0
103159,-100,4,2,1,50,0,0
109012,-100,4,2,1,65,0,0
123646,-100,4,2,1,55,0,0
126573,-100,4,2,1,60,0,0
132427,-100,4,2,1,65,0,0
138280,-100,4,2,1,70,0,0
152915,-100,4,2,1,60,0,0
167549,-100,4,2,1,50,0,0
179256,-100,4,2,1,55,0,0
188037,-100,4,2,1,20,0,0
188402,-100,4,2,1,30,0,0
188768,-100,4,2,1,40,0,0
189134,-100,4,2,1,50,0,0
189500,-100,4,2,1,60,0,0
195354,-100,4,2,1,55,0,0
201207,-100,4,2,1,75,0,1
206329,-100,4,2,1,50,0,1
207427,-100,4,2,1,75,0,1
224988,-100,4,2,1,30,0,1
225354,-100,4,2,1,40,0,1
225719,-100,4,2,1,50,0,1
225902,-100,4,2,1,60,0,0
230476,-100,4,2,1,70,0,0

[HitObjects]
320,192,720,5,0,0:0:0:0:
448,192,720,1,0,0:0:0:0:
64,192,1268,1,0,0:0:0:0:
192,192,1817,1,0,0:0:0:0:
320,192,2366,1,0,0:0:0:0:
64,192,2915,1,0,0:0:0:0:
192,192,3280,1,0,0:0:0:0:
320,192,3646,1,0,0:0:0:0:
64,192,4195,1,0,0:0:0:0:
192,192,4744,1,0,0:0:0:0:
320,192,5293,1,0,0:0:0:0:
64,192,5841,1,0,0:0:0:0:
192,192,6207,1,0,0:0:0:0:
320,192,6573,1,0,0:0:0:0:
448,192,6573,1,0,0:0:0:0:
64,192,7122,1,0,0:0:0:0:
192,192,7671,1,0,0:0:0:0:
320,192,8219,1,0,0:0:0:0:
64,192,8768,1,0,0:0:0:0:
192,192,9134,1,0,0:0:0:0:
448,192,9500,128,0,11695:0:0:0:0:
64,192,11695,1,0,0:0:0:0:
320,192,12061,1,0,0:0:0:0:
64,192,12427,1,2,0:0:0:0:
192,192,12427,1,0,0:0:0:60:Crash 2.wav
320,192,12793,1,0,0:0:0:0:
448,192,13159,1,0,0:0:0:0:
320,192,13524,1,0,0:0:0:0:
64,192,13707,1,2,0:0:0:0:
192,192,13707,1,4,0:0:0:0:
192,192,14622,1,8,0:0:0:0:
320,192,14805,1,0,0:0:0:50:Tom1.wav
448,192,14988,1,0,0:0:0:60:Tom3.wav
64,192,15354,1,2,0:0:0:0:
192,192,15354,1,4,0:0:0:0:
320,192,16085,1,0,0:0:0:60:Crash 2.wav
64,192,16634,1,2,0:0:0:0:
192,192,16634,1,0,0:0:0:0:
320,192,17183,1,0,0:0:0:50:Tom1.wav
192,192,17549,1,8,0:0:0:0:
320,192,17823,1,0,0:0:0:60:Tom2.wav
64,192,18098,1,2,0:0:0:0:
448,192,18098,128,0,19012:0:0:0:60:Crash 2.wav
320,192,19012,128,0,19561:0:0:0:0:
64,192,19561,1,2,0:0:0:0:
192,192,19561,128,4,20476:0:0:0:0:
64,192,20476,1,0,0:0:0:0:
192,192,20750,1,0,0:0:0:60:Tom3.wav
448,192,21024,128,2,21756:0:0:0:0:
320,192,21024,1,4,0:0:0:0:
64,192,21756,128,8,22488:0:0:0:0:
448,192,22488,1,10,0:0:0:0:
192,192,23402,128,0,23951:0:0:0:0:
320,192,23951,1,2,0:0:0:0:
448,192,23951,1,0,0:0:0:0:
64,192,24500,1,2,0:0:0:0:
320,192,24866,1,2,0:0:0:0:
192,192,25232,1,2,0:0:0:0:
448,192,25598,1,10,0:0:0:0:
320,192,25780,1,10,0:0:0:0:
64,192,25963,1,10,0:0:0:0:
192,192,26146,1,10,0:0:0:0:
448,192,26512,1,0,0:0:0:0:
64,192,27061,1,2,0:0:0:0:
192,192,27061,1,4,0:0:0:0:
448,192,27427,1,10,0:0:0:0:
192,192,27610,1,0,0:0:0:0:
320,192,27976,1,0,0:0:0:0:
64,192,28341,1,0,0:0:0:0:
448,192,28707,1,0,0:0:0:0:
320,192,28890,1,10,0:0:0:0:
192,192,29073,1,0,0:0:0:0:
64,192,29439,1,0,0:0:0:0:
448,192,29622,1,10,0:0:0:0:
64,192,29988,1,2,0:0:0:0:
448,192,30354,1,10,0:0:0:0:
192,192,30537,1,0,0:0:0:0:
320,192,30902,1,0,0:0:0:0:
448,192,31268,1,0,0:0:0:0:
64,192,31634,1,0,0:0:0:0:
192,192,31817,1,10,0:0:0:0:
320,192,32000,1,0,0:0:0:0:
448,192,32366,1,0,0:0:0:50:Tom1.wav
192,192,32549,1,10,0:0:0:0:
64,192,32915,1,2,0:0:0:0:
192,192,32915,1,4,0:0:0:0:
448,192,33280,1,10,0:0:0:0:
192,192,33463,1,0,0:0:0:0:
320,192,33829,1,0,0:0:0:0:
64,192,34195,1,0,0:0:0:0:
448,192,34561,1,0,0:0:0:0:
320,192,34744,1,10,0:0:0:0:
192,192,34927,1,0,0:0:0:0:
64,192,35293,1,8,0:0:0:0:
448,192,35476,1,10,0:0:0:0:
448,192,35841,1,2,0:0:0:0:
64,192,35841,1,4,0:0:0:0:
192,192,36024,1,0,0:0:0:0:
448,192,36207,1,8,0:0:0:0:
320,192,36390,1,2,0:0:0:0:
64,192,36390,1,0,0:0:0:70:Splash.wav
64,192,36756,1,2,0:0:0:0:
448,192,36756,1,0,0:0:0:70:Splash.wav
448,192,37122,1,2,0:0:0:0:
192,192,37122,1,4,0:0:0:0:
320,192,37671,1,0,0:0:0:0:
448,192,38037,128,0,38768:0:0:0:0:
64,192,38768,1,2,0:0:0:0:
64,192,39134,1,2,0:0:0:0:
320,192,39500,1,2,0:0:0:0:
320,192,39866,1,2,0:0:0:0:
192,192,40232,1,2,0:0:0:0:
192,192,40598,1,2,0:0:0:0:
448,192,40963,1,2,0:0:0:0:
448,192,41329,1,2,0:0:0:0:
64,192,41695,1,2,0:0:0:0:
64,192,42061,1,2,0:0:0:0:
448,192,42427,1,2,0:0:0:0:
448,192,42793,1,2,0:0:0:0:
192,192,43159,1,2,0:0:0:0:
192,192,43524,1,2,0:0:0:0:
320,192,43890,1,2,0:0:0:0:
320,192,44256,1,2,0:0:0:0:
64,192,44622,1,2,0:0:0:0:
64,192,44988,1,2,0:0:0:0:
320,192,45354,1,2,0:0:0:0:
320,192,45719,1,2,0:0:0:0:
192,192,46085,1,2,0:0:0:0:
192,192,46451,1,2,0:0:0:0:
448,192,46817,1,2,0:0:0:0:
448,192,47183,1,2,0:0:0:0:
64,192,47549,1,2,0:0:0:0:
64,192,47915,1,2,0:0:0:0:
448,192,48280,1,2,0:0:0:0:
448,192,48646,1,2,0:0:0:0:
192,192,48829,1,2,0:0:0:0:
320,192,48829,1,8,0:0:0:0:
192,192,49195,1,8,0:0:0:0:
320,192,49195,1,2,0:0:0:0:
448,192,49744,1,0,0:0:0:0:
320,192,49927,1,0,0:0:0:0:
192,192,50110,1,0,0:0:0:0:
320,192,50476,1,2,0:0:0:0:
448,192,50476,1,4,0:0:0:0:
64,192,50841,1,8,0:0:0:0:
320,192,51207,1,2,0:0:0:0:
192,192,51390,1,2,0:0:0:0:
448,192,51573,1,8,0:0:0:0:
64,192,51939,1,2,0:0:0:0:
448,192,52305,1,8,0:0:0:0:
192,192,52671,1,2,0:0:0:0:
320,192,52854,1,2,0:0:0:0:
64,192,53037,1,8,0:0:0:0:
448,192,53402,1,2,0:0:0:0:
64,192,53768,1,8,0:0:0:0:
320,192,54134,1,2,0:0:0:0:
192,192,54317,1,2,0:0:0:0:
448,192,54500,1,8,0:0:0:0:
64,192,54866,1,2,0:0:0:0:
448,192,55232,1,8,0:0:0:0:
192,192,55598,1,2,0:0:0:0:
320,192,55780,1,2,0:0:0:0:
64,192,55963,1,8,0:0:0:0:
320,192,56329,1,2,0:0:0:0:
192,192,56695,1,8,0:0:0:0:
448,192,57061,1,2,0:0:0:0:
64,192,57244,1,2,0:0:0:0:
320,192,57427,1,8,0:0:0:0:
192,192,57793,1,2,0:0:0:0:
320,192,58159,1,8,0:0:0:0:
64,192,58524,1,2,0:0:0:0:
448,192,58707,1,2,0:0:0:0:
192,192,58890,1,8,0:0:0:0:
320,192,59256,1,2,0:0:0:0:
192,192,59622,1,8,0:0:0:0:
448,192,59988,1,2,0:0:0:0:
64,192,60171,1,2,0:0:0:0:
320,192,60354,1,8,0:0:0:0:
192,192,60719,1,2,0:0:0:0:
448,192,61085,1,8,0:0:0:0:
320,192,61085,1,4,0:0:0:0:
64,192,61451,1,2,0:0:0:0:
448,192,61634,1,2,0:0:0:0:
192,192,61817,1,8,0:0:0:0:
320,192,62000,1,8,0:0:0:0:
64,192,62183,1,2,0:0:0:0:
192,192,62183,1,0,0:0:0:60:Crash 2.wav
320,192,62732,1,2,0:0:0:0:
64,192,62915,1,8,0:0:0:0:
448,192,62915,1,4,0:0:0:0:
192,192,63280,1,2,0:0:0:0:
64,192,63463,1,8,0:0:0:0:
448,192,63646,1,2,0:0:0:0:
320,192,63829,1,8,0:0:0:0:
192,192,64195,1,0,0:0:0:60:Tom2.wav
320,192,64378,1,8,0:0:0:0:
448,192,64378,1,4,0:0:0:0:
64,192,64744,1,2,0:0:0:0:
320,192,64927,1,8,0:0:0:0:
64,192,65110,1,2,0:0:0:0:
192,192,65110,1,0,0:0:0:60:Crash 2.wav
320,192,65659,1,2,0:0:0:0:
64,192,65841,1,8,0:0:0:0:
448,192,65841,1,4,0:0:0:0:
320,192,66207,1,2,0:0:0:0:
192,192,66390,1,8,0:0:0:0:
448,192,66573,1,2,0:0:0:0:
320,192,66756,1,8,0:0:0:0:
64,192,66939,1,2,0:0:0:0:
448,192,67305,1,8,0:0:0:0:
192,192,67579,1,2,0:0:0:0:
320,192,67854,1,2,0:0:0:0:
64,192,68037,1,2,0:0:0:0:
192,192,68037,1,0,0:0:0:60:Crash 2.wav
64,192,68951,1,0,0:0:0:0:
192,192,69134,1,0,0:0:0:0:
320,192,69317,1,0,0:0:0:35:Ride.wav
448,192,69500,1,0,0:0:0:35:Ride.wav
192,192,70049,1,0,0:0:0:35:Ride.wav
320,192,70780,1,0,0:0:0:0:
64,192,70963,128,10,71329:0:0:0:0:
448,192,71329,128,8,71695:0:0:0:0:
192,192,71695,128,8,72244:0:0:0:0:
320,192,72244,1,2,0:0:0:0:
64,192,72793,1,2,0:0:0:0:
448,192,72793,1,0,0:0:0:0:
192,192,73159,128,0,73524:0:0:0:0:
320,192,73524,1,0,0:0:0:0:
64,192,73890,1,2,0:0:0:0:
448,192,73890,1,4,0:0:0:0:
64,192,74256,1,10,0:0:0:0:
320,192,74256,1,0,0:0:0:70:Crash 2.wav
192,192,74622,1,2,0:0:0:0:
448,192,74988,1,10,0:0:0:0:
64,192,75171,1,0,0:0:0:0:
448,192,75537,1,0,0:0:0:0:
320,192,75719,1,10,0:0:0:0:
64,192,75902,1,0,0:0:0:0:
192,192,76085,1,2,0:0:0:0:
64,192,76634,1,0,0:0:0:0:
320,192,76817,1,2,0:0:0:0:
192,192,77183,1,10,0:0:0:0:
448,192,77366,1,0,0:0:0:0:
320,192,77732,1,0,0:0:0:0:
64,192,78098,128,0,78829:0:0:0:0:
320,192,79195,1,0,0:0:0:0:
448,192,79378,1,10,0:0:0:0:
64,192,79561,1,0,0:0:0:40:soft-hitclap.wav
192,192,79744,1,2,0:0:0:0:
320,192,80110,1,10,0:0:0:0:
64,192,80476,1,2,0:0:0:0:
448,192,80841,1,10,0:0:0:0:
192,192,81024,128,0,81573:0:0:0:0:
320,192,81573,1,10,0:0:0:0:
64,192,81756,128,0,82305:0:0:0:0:
448,192,82305,1,10,0:0:0:0:
320,192,82671,128,2,83402:0:0:0:0:
64,192,83585,1,8,0:0:0:0:
448,192,83768,1,8,0:0:0:0:
64,192,83951,1,2,0:0:0:0:
192,192,83951,1,0,0:0:0:60:Crash 2.wav
320,192,84317,1,8,0:0:0:0:
448,192,84683,1,2,0:0:0:0:
64,192,84866,128,8,85232:0:0:0:0:
320,192,85232,128,8,85598:0:0:0:0:
64,192,85598,1,2,0:0:0:0:
448,192,85598,1,4,0:0:0:0:
64,192,85963,1,10,0:0:0:0:
320,192,85963,1,0,0:0:0:70:Crash 2.wav
192,192,86329,1,2,0:0:0:0:
448,192,86695,1,10,0:0:0:0:
64,192,86878,1,0,0:0:0:0:
448,192,87244,1,0,0:0:0:0:
320,192,87427,1,10,0:0:0:0:
64,192,87610,1,0,0:0:0:0:
192,192,87793,1,2,0:0:0:0:
64,192,88341,1,0,0:0:0:0:
320,192,88524,1,2,0:0:0:0:
192,192,88890,1,10,0:0:0:0:
448,192,89073,1,0,0:0:0:0:
320,192,89439,1,0,0:0:0:0:
192,192,89622,1,10,0:0:0:0:
64,192,89805,128,2,90354:0:0:0:0:
448,192,89805,1,4,0:0:0:0:
320,192,90354,1,8,0:0:0:0:
448,192,90354,1,0,0:0:0:70:Splash.wav
192,192,90719,1,8,0:0:0:0:
320,192,90994,1,0,0:0:0:60:Tom2.wav
64,192,91268,1,2,0:0:0:0:
448,192,91268,1,0,0:0:0:60:Crash 2.wav
320,192,92183,1,0,0:0:0:0:
192,192,92457,1,0,0:0:0:0:
64,192,92732,1,2,0:0:0:0:
448,192,92732,1,4,0:0:0:0:
448,192,93463,1,8,0:0:0:0:
192,192,93646,1,0,0:0:0:50:Tom1.wav
320,192,93921,1,0,0:0:0:60:Tom3.wav
64,192,94195,1,2,0:0:0:0:
448,192,94195,1,4,0:0:0:0:
320,192,94744,1,8,0:0:0:0:
192,192,94927,1,8,0:0:0:0:
448,192,95293,1,8,0:0:0:0:
64,192,95659,1,10,0:0:0:0:
320,192,96207,1,0,0:0:0:0:
448,192,96390,1,0,0:0:0:0:
192,192,96756,1,0,0:0:0:0:
320,192,96939,1,8,0:0:0:0:
64,192,97122,1,2,0:0:0:0:
192,192,97122,1,4,0:0:0:0:
448,192,97488,1,0,0:0:0:0:
192,192,97671,1,2,0:0:0:0:
448,192,97854,1,0,0:0:0:0:
320,192,98219,1,0,0:0:0:0:
64,192,98402,1,0,0:0:0:60:Tom2.wav
320,192,98585,1,0,0:0:0:60:Tom2.wav
192,192,98951,1,0,0:0:0:60:Tom3.wav
448,192,99134,1,2,0:0:0:0:
192,192,99317,1,0,0:0:0:60:Tom2.wav
320,192,99683,1,8,0:0:0:0:
192,192,99866,1,0,0:0:0:60:Tom3.wav
320,192,100049,1,2,0:0:0:0:
448,192,100049,1,4,0:0:0:0:
64,192,100415,1,0,0:0:0:60:Tom2.wav
192,192,100598,1,2,0:0:0:0:
320,192,100780,1,0,0:0:0:50:Tom1.wav
192,192,101146,1,0,0:0:0:60:Tom2.wav
320,192,101329,1,0,0:0:0:60:Tom3.wav
64,192,101512,1,2,0:0:0:0:
448,192,101512,1,0,0:0:0:60:Crash 2.wav
320,192,101878,1,8,0:0:0:0:
192,192,102061,1,2,0:0:0:0:
64,192,102244,1,0,0:0:0:50:Tom1.wav
448,192,102427,128,8,102793:0:0:0:0:
320,192,102793,128,8,103159:0:0:0:0:
192,192,103159,1,0,0:0:0:0:
448,192,103524,1,0,0:0:0:0:
64,192,103890,1,0,0:0:0:0:
320,192,104256,1,0,0:0:0:0:
192,192,104439,128,0,104988:0:0:0:0:
448,192,105171,1,0,0:0:0:0:
320,192,105354,1,0,0:0:0:0:
64,192,105537,1,0,0:0:0:0:
448,192,105902,1,0,0:0:0:0:
192,192,106085,1,0,0:0:0:0:
320,192,106451,1,0,0:0:0:0:
64,192,106634,1,0,0:0:0:0:
192,192,107000,1,0,0:0:0:0:
320,192,107366,128,0,108280:0:0:0:0:
448,192,108280,128,0,108646:0:0:0:0:
64,192,108646,1,8,0:0:0:0:
320,192,109012,1,2,0:0:0:0:
192,192,109378,1,8,0:0:0:0:
448,192,109744,1,2,0:0:0:0:
64,192,109927,1,2,0:0:0:0:
320,192,110110,1,8,0:0:0:0:
192,192,110476,1,2,0:0:0:0:
448,192,110841,1,8,0:0:0:0:
64,192,111207,1,2,0:0:0:0:
320,192,111390,1,2,0:0:0:0:
192,192,111573,1,8,0:0:0:0:
448,192,111939,1,2,0:0:0:0:
64,192,112305,1,8,0:0:0:0:
320,192,112671,1,2,0:0:0:0:
192,192,112854,1,2,0:0:0:0:
448,192,113037,1,8,0:0:0:0:
64,192,113219,1,2,0:0:0:0:
192,192,113219,1,0,0:0:0:0:
320,192,113585,1,2,0:0:0:0:
448,192,113585,1,0,0:0:0:0:
64,192,113768,128,8,114134:0:0:0:0:
448,192,114134,128,8,114500:0:0:0:0:
192,192,114500,128,8,114866:0:0:0:0:
320,192,114866,1,2,0:0:0:0:
448,192,114866,1,4,0:0:0:0:
64,192,115232,1,8,0:0:0:0:
320,192,115598,1,2,0:0:0:0:
192,192,115780,1,2,0:0:0:0:
448,192,115963,1,8,0:0:0:0:
64,192,116146,1,2,0:0:0:0:
320,192,116512,1,2,0:0:0:0:
192,192,116695,1,8,0:0:0:0:
64,192,117061,1,2,0:0:0:0:
320,192,117244,1,2,0:0:0:0:
448,192,117427,1,8,0:0:0:0:
192,192,117793,1,2,0:0:0:0:
320,192,118159,1,8,0:0:0:0:
64,192,118524,1,2,0:0:0:0:
448,192,118707,1,2,0:0:0:0:
192,192,118890,1,8,0:0:0:0:
320,192,119073,1,2,0:0:0:0:
64,192,119439,1,2,0:0:0:0:
448,192,119622,1,8,0:0:0:0:
320,192,119988,1,2,0:0:0:0:
192,192,120171,1,2,0:0:0:0:
64,192,120354,1,8,0:0:0:0:
448,192,120354,1,4,0:0:0:0:
320,192,120719,1,2,0:0:0:0:
192,192,121085,1,8,0:0:0:0:
448,192,121451,1,2,0:0:0:0:
64,192,121634,1,2,0:0:0:0:
320,192,121817,1,8,0:0:0:0:
192,192,122000,1,2,0:0:0:0:
448,192,122366,1,2,0:0:0:0:
64,192,122549,1,8,0:0:0:0:
320,192,122915,1,2,0:0:0:0:
192,192,123098,1,8,0:0:0:0:
64,192,123280,1,0,0:0:0:50:Tom1.wav
320,192,123646,1,2,0:0:0:0:
448,192,123646,128,4,124744:0:0:0:0:
192,192,124744,128,8,125110:0:0:0:0:
320,192,125110,1,2,0:0:0:0:
64,192,125476,128,0,126207:0:0:0:0:
320,192,126207,1,8,0:0:0:0:
448,192,126207,1,0,0:0:0:60:Tom2.wav
64,192,126573,1,2,0:0:0:0:
192,192,126573,1,0,0:0:0:60:Crash 2.wav
320,192,127122,1,2,0:0:0:0:
64,192,127305,1,8,0:0:0:0:
448,192,127305,1,4,0:0:0:0:
192,192,127854,1,0,0:0:0:30:soft-hitclap.wav
64,192,128037,1,2,0:0:0:0:
320,192,128219,1,8,0:0:0:0:
448,192,128219,1,0,0:0:0:0:
64,192,128768,1,8,0:0:0:0:
192,192,128768,1,4,0:0:0:0:
320,192,129134,1,2,0:0:0:0:
192,192,129317,1,8,0:0:0:0:
64,192,129500,1,2,0:0:0:0:
448,192,129500,1,0,0:0:0:60:Crash 2.wav
192,192,130049,1,2,0:0:0:0:
320,192,130232,1,8,0:0:0:0:
448,192,130232,1,4,0:0:0:0:
320,192,130963,1,2,0:0:0:0:
64,192,131146,1,8,0:0:0:0:
192,192,131146,1,0,0:0:0:0:
64,192,131695,1,8,0:0:0:0:
448,192,131695,1,4,0:0:0:0:
320,192,131969,1,0,0:0:0:60:Tom2.wav
192,192,132244,1,0,0:0:0:60:Tom3.wav
64,192,132427,1,2,0:0:0:0:
448,192,132427,1,0,0:0:0:60:Crash 2.wav
320,192,132793,1,8,0:0:0:0:
192,192,133159,1,2,0:0:0:0:
448,192,133341,1,2,0:0:0:0:
64,192,133524,1,8,0:0:0:0:
320,192,133890,1,2,0:0:0:0:
192,192,134256,1,8,0:0:0:0:
320,192,134622,1,2,0:0:0:0:
64,192,134805,1,2,0:0:0:0:
448,192,134988,1,8,0:0:0:0:
192,192,135354,1,2,0:0:0:0:
320,192,135719,1,8,0:0:0:0:
64,192,136085,1,2,0:0:0:0:
448,192,136268,1,2,0:0:0:0:
192,192,136451,1,8,0:0:0:0:
320,192,136634,1,2,0:0:0:0:
64,192,137183,1,8,0:0:0:0:
192,192,137183,1,0,0:0:0:0:
320,192,137366,1,2,0:0:0:0:
192,192,137732,1,10,0:0:0:0:
64,192,138098,1,8,0:0:0:0:
448,192,138280,1,6,0:0:0:0:
192,192,138463,1,0,0:0:0:0:
320,192,138646,1,8,0:0:0:0:
64,192,138829,1,0,0:0:0:0:
192,192,139195,1,2,0:0:0:0:
320,192,139561,128,2,140110:0:0:0:0:
64,192,140293,1,2,0:0:0:0:
448,192,140476,1,0,0:0:0:0:
320,192,140750,1,0,0:0:0:0:
192,192,141024,1,0,0:0:0:0:
448,192,141207,1,2,0:0:0:0:
64,192,141482,1,0,0:0:0:0:
320,192,141756,1,0,0:0:0:0:
192,192,142122,1,2,0:0:0:0:
448,192,142488,1,2,0:0:0:0:
320,192,142945,1,0,0:0:0:0:
64,192,143219,128,2,144134:0:0:0:0:
448,192,144134,1,8,0:0:0:0:
192,192,144317,1,2,0:0:0:0:
320,192,144500,1,0,0:0:0:60:Tom3.wav
64,192,144683,1,2,0:0:0:0:
448,192,144683,1,0,0:0:0:60:Crash 2.wav
320,192,145049,1,10,0:0:0:0:
192,192,145232,1,8,0:0:0:0:
448,192,145415,1,2,0:0:0:0:
192,192,145598,1,0,0:0:0:0:
320,192,145780,1,2,0:0:0:0:
448,192,145780,1,0,0:0:0:60:Crash 2.wav
64,192,146146,1,2,0:0:0:0:
320,192,146329,1,8,0:0:0:0:
192,192,146604,1,2,0:0:0:0:
320,192,146878,1,2,0:0:0:0:
64,192,147061,1,2,0:0:0:0:
448,192,147061,1,4,0:0:0:0:
320,192,147610,1,0,0:0:0:0:
192,192,147976,1,2,0:0:0:0:
64,192,148341,1,0,0:0:0:0:
64,192,148707,1,0,0:0:0:0:
320,192,149073,1,0,0:0:0:0:
448,192,149256,1,2,0:0:0:0:
192,192,149530,1,0,0:0:0:0:
320,192,149805,1,0,0:0:0:0:
64,192,149988,1,2,0:0:0:0:
448,192,149988,1,0,0:0:0:60:Crash 2.wav
320,192,150354,1,8,0:0:0:0:
192,192,150537,1,0,0:0:0:0:
448,192,150719,1,2,0:0:0:0:
64,192,150994,1,0,0:0:0:0:
192,192,151268,1,8,0:0:0:0:
320,192,151451,1,8,0:0:0:0:
64,192,151726,1,2,0:0:0:0:
448,192,152000,1,2,0:0:0:0:
192,192,152183,128,8,152549:0:0:0:0:
320,192,152183,1,4,0:0:0:0:
192,192,152915,1,2,0:0:0:0:
448,192,152915,1,0,0:0:0:0:
64,192,153280,1,2,0:0:0:0:
320,192,153280,1,0,0:0:0:0:
64,192,153646,1,2,0:0:0:0:
192,192,153646,1,0,0:0:0:0:
448,192,154012,1,8,0:0:0:0:
64,192,154195,1,6,0:0:0:0:
192,192,154561,1,2,0:0:0:0:
320,192,154744,1,8,0:0:0:0:
64,192,154927,1,2,0:0:0:0:
448,192,155293,1,2,0:0:0:0:
192,192,155476,1,8,0:0:0:0:
320,192,155659,1,8,0:0:0:0:
64,192,155841,1,2,0:0:0:0:
448,192,155841,1,4,0:0:0:0:
448,192,156207,1,8,0:0:0:0:
64,192,156390,1,2,0:0:0:0:
192,192,156390,1,0,0:0:0:0:
320,192,156756,1,2,0:0:0:0:
448,192,156756,1,0,0:0:0:0:
64,192,157122,1,2,0:0:0:0:
192,192,157122,1,4,0:0:0:0:
448,192,157488,1,2,0:0:0:0:
192,192,157671,1,8,0:0:0:0:
320,192,157854,1,2,0:0:0:0:
64,192,158037,128,8,158402:0:0:0:0:
192,192,158402,128,0,158768:0:0:0:60:Tom2.wav
320,192,158768,1,2,0:0:0:0:
448,192,158768,1,0,0:0:0:0:
192,192,159134,1,2,0:0:0:0:
320,192,159134,1,0,0:0:0:0:
64,192,159500,1,2,0:0:0:0:
192,192,159500,1,0,0:0:0:0:
448,192,159866,1,8,0:0:0:0:
64,192,160049,1,6,0:0:0:0:
320,192,160415,1,2,0:0:0:0:
192,192,160598,1,8,0:0:0:0:
448,192,160780,1,2,0:0:0:0:
64,192,161146,1,2,0:0:0:0:
320,192,161329,1,8,0:0:0:0:
192,192,161512,1,0,0:0:0:0:
64,192,161695,1,2,0:0:0:0:
448,192,161695,1,4,0:0:0:0:
192,192,162244,1,2,0:0:0:0:
320,192,162427,1,8,0:0:0:0:
64,192,162793,1,2,0:0:0:0:
192,192,162976,1,8,0:0:0:0:
320,192,163159,1,2,0:0:0:0:
448,192,163524,1,2,0:0:0:0:
192,192,163707,1,0,0:0:0:0:
320,192,163890,1,8,0:0:0:0:
448,192,163890,1,4,0:0:0:0:
64,192,164165,1,0,0:0:0:0:
320,192,164439,1,8,0:0:0:0:
64,192,164622,128,2,165354:0:0:0:0:
192,192,164622,1,0,0:0:0:60:Crash 2.wav
448,192,165354,1,0,0:0:0:70:Splash.wav
192,192,165537,1,0,0:0:0:0:
320,192,165719,1,0,0:0:0:0:
64,192,165902,1,2,0:0:0:0:
448,192,165902,1,0,0:0:0:0:
192,192,166268,1,0,0:0:0:0:
448,192,166817,1,0,0:0:0:0:
320,192,167183,1,0,0:0:0:0:
64,192,167549,1,0,0:0:0:0:
192,192,167915,1,0,0:0:0:0:
448,192,168280,1,0,0:0:0:0:
64,192,168646,1,0,0:0:0:0:
320,192,168829,1,0,0:0:0:0:
192,192,169195,1,0,0:0:0:0:
448,192,169378,1,0,0:0:0:0:
320,192,169561,1,0,0:0:0:0:
192,192,169744,1,0,0:0:0:0:
320,192,170293,1,0,0:0:0:0:
64,192,170476,1,0,0:0:0:0:
448,192,170841,1,0,0:0:0:0:
192,192,171024,1,0,0:0:0:0:
320,192,171390,1,0,0:0:0:0:
448,192,171756,1,0,0:0:0:0:
64,192,172122,1,0,0:0:0:0:
320,192,172488,1,0,0:0:0:0:
192,192,172854,1,0,0:0:0:0:
320,192,173037,1,0,0:0:0:0:
448,192,173219,1,0,0:0:0:0:
64,192,173402,1,0,0:0:0:0:
320,192,173768,1,0,0:0:0:0:
192,192,174134,1,0,0:0:0:0:
448,192,174500,1,0,0:0:0:0:
64,192,174683,128,0,175232:0:0:0:0:
320,192,175232,1,0,0:0:0:0:
192,192,175415,1,0,0:0:0:0:
448,192,175780,1,0,0:0:0:0:
192,192,176146,1,0,0:0:0:0:
320,192,176329,128,0,177061:0:0:0:0:
64,192,177244,1,0,0:0:0:0:
192,192,177427,1,0,0:0:0:30:soft-hitfinish.wav
320,192,177610,1,4,0:0:0:0:
448,192,177610,1,0,0:0:0:0:
192,192,178341,1,0,0:0:0:0:
320,192,178524,1,0,0:0:0:0:
64,192,178890,1,0,0:0:0:0:
448,192,179073,1,0,0:0:0:0:
64,192,179256,1,2,0:0:0:0:
192,192,179256,1,4,0:0:0:0:
192,192,179622,1,2,0:0:0:0:
320,192,179988,1,2,0:0:0:0:
320,192,180354,1,2,0:0:0:0:
64,192,180719,1,2,0:0:0:0:
64,192,181085,1,2,0:0:0:0:
448,192,181451,1,2,0:0:0:0:
192,192,181634,1,8,0:0:0:0:
448,192,181817,1,10,0:0:0:0:
64,192,182183,1,2,0:0:0:0:
64,192,182549,1,2,0:0:0:0:
320,192,182915,1,2,0:0:0:0:
320,192,183280,1,2,0:0:0:0:
64,192,183463,1,2,0:0:0:0:
192,192,183463,1,0,0:0:0:60:Crash 2.wav
448,192,183829,1,8,0:0:0:0:
192,192,184195,1,2,0:0:0:0:
320,192,184378,1,8,0:0:0:0:
192,192,184652,1,0,0:0:0:60:Tom2.wav
64,192,184927,1,2,0:0:0:0:
448,192,184927,1,4,0:0:0:0:
192,192,185841,1,8,0:0:0:0:
320,192,186116,1,8,0:0:0:0:
64,192,186390,1,2,0:0:0:0:
448,192,186390,1,4,0:0:0:0:
320,192,187305,1,0,0:0:0:60:Tom2.wav
192,192,187579,1,0,0:0:0:60:Tom3.wav
64,192,187854,1,2,0:0:0:0:
448,192,187854,1,0,0:0:0:0:
192,192,188402,1,8,0:0:0:0:
320,192,188585,1,8,0:0:0:0:
192,192,188951,1,8,0:0:0:0:
64,192,189317,1,8,0:0:0:0:
320,192,189500,1,2,0:0:0:0:
448,192,189500,1,8,0:0:0:0:
192,192,190049,1,8,0:0:0:0:
320,192,190049,1,2,0:0:0:0:
64,192,190598,1,8,0:0:0:0:
192,192,190598,1,2,0:0:0:0:
448,192,190963,1,8,0:0:0:0:
192,192,191146,1,0,0:0:0:50:Tom1.wav
320,192,191329,1,0,0:0:0:0:
64,192,191512,1,2,0:0:0:0:
448,192,191695,128,8,192061:0:0:0:0:
320,192,192061,128,8,192427:0:0:0:0:
64,192,192427,1,2,0:0:0:0:
192,192,192427,1,0,0:0:0:60:Crash 2.wav
320,192,192976,1,2,0:0:0:0:
448,192,192976,1,4,0:0:0:0:
64,192,193524,1,2,0:0:0:0:
192,192,193524,1,0,0:0:0:60:Crash 2.wav
448,192,193890,128,0,194622:0:0:0:0:
192,192,194622,1,0,0:0:0:0:
320,192,194988,1,0,0:0:0:0:
64,192,195354,1,2,0:0:0:0:
448,192,195354,1,0,0:0:0:0:
192,192,195719,1,0,0:0:0:0:
320,192,196085,128,4,196451:0:0:0:0:
64,192,196451,1,2,0:0:0:0:
320,192,196634,1,2,0:0:0:0:
448,192,196634,1,0,0:0:0:60:Crash 2.wav
192,192,197000,1,0,0:0:0:0:
320,192,197183,1,0,0:0:0:0:
448,192,197366,1,2,0:0:0:0:
64,192,197549,1,8,0:0:0:0:
192,192,197732,1,2,0:0:0:0:
320,192,197732,1,4,0:0:0:0:
448,192,198098,1,2,0:0:0:0:
64,192,198280,1,2,0:0:0:0:
192,192,198280,1,0,0:0:0:0:
320,192,198646,1,0,0:0:0:0:
448,192,198829,1,0,0:0:0:20:soft-hitclap.wav
192,192,199195,1,0,0:0:0:50:Tom1.wav
320,192,199561,128,8,200293:0:0:0:0:
448,192,200293,128,0,200841:0:0:0:0:
192,192,200841,1,0,0:0:0:0:
320,192,201024,1,0,0:0:0:0:
64,192,201207,1,2,0:0:0:0:
192,192,201207,1,4,0:0:0:0:
448,192,201573,1,10,0:0:0:0:
192,192,201939,1,2,0:0:0:0:
320,192,202305,1,10,0:0:0:0:
64,192,202488,128,0,203037:0:0:0:0:
192,192,203037,1,10,0:0:0:0:
448,192,203219,128,0,203768:0:0:0:0:
192,192,203768,1,10,0:0:0:0:
320,192,204134,1,2,0:0:0:0:
448,192,204134,1,4,0:0:0:0:
192,192,204683,1,2,0:0:0:0:
320,192,204683,1,0,0:0:0:60:Crash 2.wav
64,192,205232,1,2,0:0:0:0:
192,192,205232,1,4,0:0:0:0:
320,192,205598,1,2,0:0:0:0:
448,192,205598,128,0,206329:0:0:0:60:Crash 2.wav
64,192,206329,128,8,206695:0:0:0:0:
192,192,206695,128,8,207061:0:0:0:0:
320,192,207061,1,0,0:0:0:60:Tom3.wav
64,192,207427,1,6,0:0:0:0:
448,192,207427,1,8,0:0:0:0:
192,192,207793,1,2,0:0:0:0:
320,192,208159,1,10,0:0:0:0:
64,192,208341,1,0,0:0:0:0:
448,192,208707,1,0,0:0:0:0:
192,192,208890,1,10,0:0:0:0:
320,192,209073,1,0,0:0:0:0:
64,192,209256,1,2,0:0:0:0:
448,192,209805,1,0,0:0:0:0:
192,192,209988,1,2,0:0:0:0:
320,192,210354,1,10,0:0:0:0:
64,192,210537,1,0,0:0:0:0:
192,192,210902,1,0,0:0:0:0:
320,192,211085,1,10,0:0:0:0:
64,192,211268,1,2,0:0:0:0:
448,192,211268,1,4,0:0:0:0:
320,192,211634,1,8,0:0:0:0:
192,192,211817,1,8,0:0:0:0:
320,192,212000,1,0,0:0:0:50:Tom1.wav
64,192,212183,1,0,0:0:0:60:Tom2.wav
192,192,212457,1,0,0:0:0:60:Tom3.wav
320,192,212732,1,2,0:0:0:0:
448,192,212732,128,4,213098:0:0:0:0:
192,192,213098,1,0,0:0:0:60:Tom3.wav
64,192,213280,1,10,0:0:0:0:
320,192,213463,1,0,0:0:0:0:
192,192,213646,1,2,0:0:0:0:
320,192,213921,1,0,0:0:0:0:
448,192,214195,128,0,214744:0:0:0:35:Ride.wav
64,192,214744,1,10,0:0:0:0:
320,192,215110,1,2,0:0:0:0:
192,192,215384,1,0,0:0:0:0:
64,192,215659,128,0,216207:0:0:0:35:Ride.wav
448,192,216207,1,10,0:0:0:0:
192,192,216390,1,0,0:0:0:35:Ride.wav
320,192,216756,1,8,0:0:0:0:
64,192,217122,1,2,0:0:0:0:
192,192,217122,1,4,0:0:0:0:
320,192,217671,1,8,0:0:0:0:
448,192,217671,1,0,0:0:0:60:Crash 2.wav
192,192,217854,1,2,0:0:0:0:
320,192,218219,1,8,0:0:0:0:
64,192,218585,1,2,0:0:0:0:
448,192,218585,128,4,219500:0:0:0:0:
320,192,219500,1,8,0:0:0:0:
192,192,219866,1,2,0:0:0:0:
448,192,220049,128,2,220415:0:0:0:0:
64,192,220415,1,0,0:0:0:70:Splash.wav
320,192,220963,1,8,0:0:0:0:
192,192,221238,1,2,0:0:0:0:
64,192,221512,1,2,0:0:0:0:
448,192,221512,1,0,0:0:0:60:Crash 2.wav
320,192,222244,1,0,0:0:0:0:
192,192,222427,1,0,0:0:0:0:
320,192,222701,1,0,0:0:0:0:
64,192,222976,1,2,0:0:0:0:
448,192,222976,1,4,0:0:0:0:
320,192,223524,1,0,0:0:0:50:Crash 2.wav
192,192,223890,1,0,0:0:0:0:
320,192,224165,1,0,0:0:0:0:
64,192,224439,1,2,0:0:0:0:
448,192,224439,1,4,0:0:0:0:
320,192,224988,1,8,0:0:0:0:
192,192,225171,1,8,0:0:0:0:
320,192,225537,1,8,0:0:0:0:
64,192,225902,1,2,0:0:0:0:
448,192,225902,1,8,0:0:0:0:
192,192,226451,1,0,0:0:0:0:
320,192,226634,1,0,0:0:0:0:
64,192,227000,1,0,0:0:0:0:
320,192,227366,1,2,0:0:0:0:
448,192,227366,1,0,0:0:0:0:
192,192,227915,1,2,0:0:0:0:
64,192,228280,1,2,0:0:0:0:
320,192,228646,1,2,0:0:0:0:
448,192,229012,1,10,0:0:0:0:
192,192,229195,1,10,0:0:0:0:
320,192,229378,1,10,0:0:0:0:
64,192,229561,1,10,0:0:0:0:
448,192,229927,1,0,0:0:0:0:
64,192,230476,1,2,0:0:0:0:
192,192,230476,1,4,0:0:0:0:
448,192,230841,1,10,0:0:0:0:
192,192,231024,1,0,0:0:0:0:
320,192,231390,1,0,0:0:0:0:
64,192,231756,1,0,0:0:0:0:
448,192,232122,1,0,0:0:0:0:
192,192,232305,1,10,0:0:0:0:
320,192,232488,1,0,0:0:0:0:
64,192,232854,1,0,0:0:0:0:
448,192,233037,1,10,0:0:0:0:
192,192,233402,1,2,0:0:0:0:
320,192,233768,1,10,0:0:0:0:
64,192,233951,1,0,0:0:0:0:
192,192,234317,1,0,0:0:0:0:
448,192,234683,1,0,0:0:0:0:
64,192,235049,1,0,0:0:0:0:
320,192,235232,1,14,0:0:0:0:
192,192,235415,1,0,0:0:0:0:
448,192,235780,1,0,0:0:0:50:Tom1.wav
64,192,235963,1,8,0:0:0:0:
320,192,236329,1,2,0:0:0:0:
448,192,236329,1,4,0:0:0:0:
64,192,236695,1,10,0:0:0:0:
192,192,236695,1,0,0:0:0:60:Crash 2.wav
448,192,236878,1,0,0:0:0:0:
64,192,237244,1,0,0:0:0:35:Ride.wav
320,192,237610,1,0,0:0:0:35:Ride.wav
448,192,237976,1,0,0:0:0:35:Ride.wav
192,192,238159,1,10,0:0:0:0:
64,192,238341,1,0,0:0:0:35:Ride.wav
320,192,238707,1,0,0:0:0:35:Ride.wav
64,192,238890,1,2,0:0:0:0:
192,192,238890,1,4,0:0:0:0:
64,192,239256,1,2,0:0:0:0:
448,192,239256,1,0,0:0:0:60:Crash 2.wav
192,192,239439,1,0,0:0:0:0:
448,192,239622,1,8,0:0:0:0:
64,192,239805,1,2,0:0:0:0:
320,192,239805,1,4,0:0:0:0:
64,192,240171,1,2,0:0:0:0:
448,192,240171,1,0,0:0:0:0:
192,192,240537,1,2,0:0:0:0:
448,192,240537,1,4,0:0:0:0:
320,192,241085,1,0,0:0:0:0:
448,192,241451,128,0,242183:0:0:0:0:
64,192,242183,128,10,242549:0:0:0:0:
320,192,242549,128,10,242915:0:0:0:0:
192,192,242915,1,10,0:0:0:0:
448,192,243098,1,10,0:0:0:0:
192,192,243280,1,10,0:0:0:0:
448,192,243463,1,10,0:0:0:0:
64,192,244012,1,0,0:0:0:0:
