osu file format v14

[General]
AudioFilename: audio.mp3
AudioLeadIn: 0
PreviewTime: 150608
Countdown: 0
SampleSet: Soft
StackLeniency: 0.7
Mode: 3
LetterboxInBreaks: 0
SpecialStyle: 0
WidescreenStoryboard: 1

[Editor]
DistanceSpacing: 1
BeatDivisor: 4
GridSize: 32
TimelineZoom: 1.4

[Metadata]
Title:Indoor Kei Nara Trackmaker
TitleUnicode:インドア系ならトラックメイカー
Artist:Minato Aqua
ArtistUnicode:湊あくあ
Creator:DenYi
Version:keksik's Normal * Maker
Source:
Tags:keksikosu drum-hitnormal dudehacker vtuber hololive ホロライブ virtual youtuber バーチャル electronic japanese Yunomi nicamoq らずのん Luz_non Jpop J-pop Pop 宮村
BeatmapID:3621680
BeatmapSetID:1765293

[Difficulty]
HPDrainRate:7.5
CircleSize:4
OverallDifficulty:7.5
ApproachRate:5
SliderMultiplier:1.4
SliderTickRate:1

[Events]
//Background and Video events
0,0,"nm bg.jpg",0,0
Video,9,"vd.mp4"
//Break Periods
//Storyboard Layer 0 (Background)
//Storyboard Layer 1 (Fail)
//Storyboard Layer 2 (Pass)
//Storyboard Layer 3 (Foreground)
//Storyboard Layer 4 (Overlay)
//Storyboard Sound Samples
Sample,30608,0,"LR_Clap Reverb.wav",40
Sample,46076,0,"LR_Snare Hat.wav",50
Sample,47014,0,"LR_Snare Hat.wav",50
Sample,47951,0,"LR_Snare Hat.wav",50
Sample,49826,0,"LR_Snare Hat.wav",50
Sample,50764,0,"LR_Snare Hat.wav",50
Sample,51701,0,"LR_Snare Hat.wav",50
Sample,52170,0,"LR_Snare Hat.wav",50
Sample,52639,0,"LR_Snare Hat.wav",50
Sample,76076,0,"clap2.wav",40
Sample,87092,0,"LR_Snare Drum .wav",15
Sample,87326,0,"LR_Snare Drum .wav",15
Sample,87561,0,"LR_Snare Drum 2.wav",25
Sample,88029,0,"LR_Snare Drum 3.wav",35
Sample,88264,0,"LR_Snare Drum 3.wav",35
Sample,88498,0,"LR_Snare Drum 3.wav",45
Sample,164201,0,"clap2.wav",40
Sample,164670,0,"clap2.wav",40

[TimingPoints]
608,468.75,4,2,1,50,1,0

[HitObjects]
320,192,608,5,0,0:0:0:0:
192,192,1076,1,0,0:0:0:0:
64,192,1545,1,0,0:0:0:0:
448,192,1779,1,0,0:0:0:0:
64,192,2014,1,0,0:0:0:0:
192,192,2483,1,0,0:0:0:0:
320,192,2951,1,0,0:0:0:0:
448,192,3420,1,0,0:0:0:0:
64,192,3654,1,0,0:0:0:0:
192,192,3889,1,0,0:0:0:0:
448,192,4123,1,0,0:0:0:0:
192,192,4358,1,0,0:0:0:0:
320,192,4826,1,0,0:0:0:0:
448,192,5295,1,0,0:0:0:0:
64,192,5529,1,0,0:0:0:0:
448,192,5764,1,0,0:0:0:0:
320,192,6233,1,0,0:0:0:0:
192,192,6701,1,0,0:0:0:0:
64,192,7170,1,0,0:0:0:0:
448,192,7404,1,0,0:0:0:0:
64,192,7639,128,0,8108:0:0:0:0:
320,192,8108,1,2,0:0:0:0:
448,192,8108,1,0,0:0:0:0:
192,192,8576,1,2,0:0:0:0:
320,192,8576,1,8,0:0:0:0:
64,192,9045,1,2,0:0:0:0:
448,192,9045,1,0,0:0:0:0:
320,192,9279,1,0,0:0:0:0:
64,192,9514,1,8,0:0:0:0:
192,192,9514,1,2,0:0:0:0:
320,192,9983,1,2,0:0:0:0:
448,192,9983,1,0,0:0:0:0:
192,192,10451,1,2,0:0:0:0:
448,192,10451,1,8,0:0:0:0:
64,192,10920,1,2,0:0:0:0:
320,192,10920,1,0,0:0:0:0:
192,192,11154,1,0,0:0:0:0:
320,192,11389,1,8,0:0:0:0:
448,192,11389,1,2,0:0:0:0:
192,192,11623,1,0,0:0:0:0:
64,192,11858,1,2,0:0:0:0:
448,192,11858,128,0,12326:0:0:0:0:
192,192,12326,1,2,0:0:0:0:
320,192,12326,1,8,0:0:0:0:
320,192,12795,1,2,0:0:0:0:
448,192,12795,1,0,0:0:0:0:
192,192,13029,1,0,0:0:0:0:
64,192,13264,1,2,0:0:0:0:
448,192,13264,1,0,0:0:0:0:
192,192,13733,1,2,0:0:0:0:
448,192,14201,1,2,0:0:0:0:
64,192,14436,1,0,0:0:0:0:
320,192,14670,128,2,15139:0:0:0:0:
192,192,15139,128,0,15608:0:0:0:50:LR_Long Bass.wav
64,192,15608,1,4,0:0:0:0:
448,192,15608,1,2,0:0:0:0:
320,192,15842,1,0,0:0:0:0:
64,192,16076,1,8,0:0:0:0:
192,192,16076,1,2,0:0:0:0:
448,192,16311,1,0,0:0:0:0:
320,192,16545,1,2,0:0:0:0:
64,192,16779,1,0,0:0:0:0:
192,192,17014,1,8,0:0:0:0:
448,192,17014,1,2,0:0:0:0:
320,192,17248,1,0,0:0:0:0:
64,192,17483,1,2,0:0:0:0:
448,192,17717,1,0,0:0:0:0:
64,192,17951,1,8,0:0:0:0:
192,192,17951,1,2,0:0:0:0:
320,192,18186,1,2,0:0:0:0:
320,192,18420,1,2,0:0:0:0:
192,192,18654,1,0,0:0:0:0:
64,192,18889,1,8,0:0:0:0:
448,192,18889,1,2,0:0:0:0:
64,192,19123,1,2,0:0:0:0:
320,192,19358,1,2,0:0:0:0:
64,192,19592,1,0,0:0:0:0:
192,192,19826,1,2,0:0:0:0:
320,192,19826,1,8,0:0:0:0:
448,192,20061,1,0,0:0:0:0:
64,192,20295,1,2,0:0:0:0:
320,192,20529,1,0,0:0:0:0:
64,192,20764,1,2,0:0:0:0:
192,192,20764,1,8,0:0:0:0:
448,192,20998,1,0,0:0:0:0:
320,192,21233,1,2,0:0:0:0:
192,192,21467,1,0,0:0:0:0:
64,192,21701,1,2,0:0:0:0:
448,192,21701,1,8,0:0:0:0:
320,192,21936,1,2,0:0:0:0:
320,192,22170,1,2,0:0:0:0:
192,192,22404,1,8,0:0:0:0:
64,192,22639,1,8,0:0:0:0:
448,192,22639,1,0,0:0:0:0:
64,192,22873,1,0,0:0:0:0:
320,192,23108,1,2,0:0:0:0:
192,192,23342,1,0,0:0:0:0:
320,192,23576,1,2,0:0:0:0:
448,192,23576,1,8,0:0:0:0:
64,192,23811,1,0,0:0:0:0:
448,192,24045,1,2,0:0:0:0:
320,192,24279,1,0,0:0:0:0:
64,192,24514,1,2,0:0:0:0:
192,192,24514,1,8,0:0:0:0:
448,192,24983,1,2,0:0:0:0:
64,192,25217,1,0,0:0:0:0:
192,192,25451,1,2,0:0:0:0:
448,192,25451,1,8,0:0:0:0:
320,192,25686,1,2,0:0:0:0:
64,192,25920,1,2,0:0:0:0:
448,192,26154,1,0,0:0:0:0:
192,192,26389,1,2,0:0:0:0:
320,192,26389,1,8,0:0:0:0:
64,192,26623,1,0,0:0:0:0:
320,192,26858,1,6,0:0:0:0:
448,192,27092,1,0,0:0:0:0:
64,192,27326,1,8,0:0:0:0:
192,192,27326,1,2,0:0:0:0:
320,192,27561,1,0,0:0:0:0:
192,192,27795,1,2,0:0:0:0:
448,192,28029,1,0,0:0:0:0:
64,192,28264,1,8,0:0:0:0:
320,192,28264,1,2,0:0:0:0:
192,192,28498,1,0,0:0:0:0:
320,192,28733,1,2,0:0:0:0:
448,192,28733,128,0,28967:0:0:0:0:
64,192,28967,1,0,0:0:0:0:
320,192,29201,128,8,29436:0:0:0:0:
192,192,29436,1,2,0:0:0:0:
64,192,29670,128,2,29904:0:0:0:0:
448,192,29670,1,0,0:0:0:0:
192,192,29904,1,8,0:0:0:0:
320,192,30022,1,2,0:0:0:0:
448,192,30139,1,2,0:0:0:0:
192,192,30373,1,2,0:0:0:0:
64,192,30608,1,4,0:0:0:0:
192,192,30842,1,0,0:0:0:0:
448,192,31076,1,0,0:0:0:0:
320,192,31311,1,0,0:0:0:0:
192,192,31545,128,0,31779:0:0:0:0:
64,192,31779,128,0,32014:0:0:0:0:
320,192,32014,128,0,32248:0:0:0:0:
448,192,32248,128,0,32483:0:0:0:0:
192,192,32483,1,0,0:0:0:40:LR_Clap Reverb.wav
64,192,32717,1,0,0:0:0:0:
320,192,32951,1,0,0:0:0:40:LR_Clap Reverb.wav
448,192,33186,1,0,0:0:0:0:
192,192,33420,1,0,0:0:0:40:LR_Clap Reverb.wav
320,192,33537,1,0,0:0:0:0:
64,192,33772,1,0,0:0:0:0:
320,192,33889,128,0,34123:0:0:0:40:LR_Clap Reverb.wav
192,192,34123,128,0,34358:0:0:0:0:
448,192,34358,1,0,0:0:0:40:LR_Clap Reverb.wav
320,192,34592,1,0,0:0:0:0:
64,192,34826,1,0,0:0:0:40:LR_Clap Reverb.wav
192,192,35061,1,0,0:0:0:0:
320,192,35295,128,0,35529:0:0:0:40:LR_Clap Reverb.wav
448,192,35529,128,0,35764:0:0:0:0:
192,192,35764,128,0,35998:0:0:0:40:LR_Clap Reverb.wav
64,192,35998,128,0,36233:0:0:0:0:
320,192,36233,1,0,0:0:0:40:LR_Clap Reverb.wav
448,192,36467,1,0,0:0:0:0:
192,192,36701,1,0,0:0:0:40:LR_Clap Reverb.wav
320,192,36936,1,0,0:0:0:0:
64,192,37170,1,0,0:0:0:40:LR_Clap Reverb.wav
192,192,37287,1,0,0:0:0:0:
448,192,37522,1,0,0:0:0:0:
192,192,37639,128,0,37873:0:0:0:40:LR_Clap Reverb.wav
320,192,37873,128,0,38108:0:0:0:0:
64,192,38108,1,0,0:0:0:40:clap2.wav
448,192,38108,1,0,0:0:0:0:
448,192,38498,1,0,0:0:0:40:clap2.wav
192,192,38576,1,0,0:0:0:40:clap2.wav
64,192,38811,1,0,0:0:0:40:clap2.wav
320,192,38811,1,0,0:0:0:0:
192,192,39045,1,0,0:0:0:40:clap2.wav
448,192,39045,1,0,0:0:0:0:
64,192,39436,1,0,0:0:0:40:clap2.wav
448,192,39514,1,0,0:0:0:40:clap2.wav
192,192,39748,1,0,0:0:0:40:clap2.wav
320,192,39748,1,0,0:0:0:0:
64,192,39983,1,0,0:0:0:40:clap2.wav
448,192,39983,1,0,0:0:0:0:
192,192,40373,1,0,0:0:0:40:clap2.wav
448,192,40451,1,0,0:0:0:40:clap2.wav
64,192,40686,1,0,0:0:0:40:clap2.wav
320,192,40686,1,0,0:0:0:0:
192,192,40920,1,0,0:0:0:40:clap2.wav
448,192,40920,1,0,0:0:0:0:
64,192,41311,1,0,0:0:0:40:clap2.wav
320,192,41389,1,0,0:0:0:40:clap2.wav
64,192,41623,1,0,0:0:0:40:clap2.wav
192,192,41623,1,0,0:0:0:0:
320,192,41858,1,0,0:0:0:40:clap2.wav
448,192,41858,1,0,0:0:0:0:
192,192,42092,1,0,0:0:0:40:clap2.wav
64,192,42248,1,0,0:0:0:40:clap2.wav
448,192,42326,1,0,0:0:0:40:clap2.wav
320,192,42561,1,0,0:0:0:40:clap2.wav
192,192,42795,1,0,0:0:0:40:clap2.wav
448,192,42951,1,0,0:0:0:40:clap2.wav
64,192,43029,1,0,0:0:0:40:clap2.wav
192,192,43186,1,0,0:0:0:40:clap2.wav
320,192,43264,1,0,0:0:0:40:clap2.wav
64,192,43420,1,0,0:0:0:40:clap2.wav
448,192,43498,1,0,0:0:0:40:clap2.wav
192,192,43654,1,0,0:0:0:40:clap2.wav
320,192,43733,128,4,43967:0:0:0:50:LR_CymbalQST.wav
448,192,43733,1,0,0:0:0:40:clap2.wav
64,192,43967,1,0,0:0:0:0:
192,192,44201,128,0,44436:0:0:0:0:
320,192,44436,1,0,0:0:0:0:
448,192,44670,1,2,0:0:0:0:
64,192,44787,1,0,0:0:0:0:
320,192,45022,1,0,0:0:0:50:Tom1.wav
192,192,45139,128,8,45373:0:0:0:0:
320,192,45373,128,0,45608:0:0:0:50:Tom2.wav
448,192,45373,1,0,0:0:0:0:
64,192,45608,1,2,0:0:0:0:
192,192,45608,1,0,0:0:0:50:LR_Snare Hat.wav
320,192,45842,1,0,0:0:0:0:
448,192,46076,1,2,0:0:0:0:
64,192,46311,1,0,0:0:0:50:LR_Snare Hat.wav
320,192,46545,1,2,0:0:0:0:
192,192,46779,1,0,0:0:0:50:LR_Snare Hat.wav
320,192,47014,1,2,0:0:0:0:
64,192,47483,1,2,0:0:0:0:
448,192,47483,1,0,0:0:0:50:LR_Snare Hat.wav
192,192,47717,1,0,0:0:0:0:
192,192,47951,1,2,0:0:0:0:
320,192,48186,1,0,0:0:0:50:LR_Snare Hat.wav
64,192,48420,1,2,0:0:0:0:
320,192,48537,1,0,0:0:0:0:
192,192,48772,1,0,0:0:0:0:
448,192,48889,128,0,49123:0:0:0:50:LR_Snare Hat.wav
64,192,49123,128,0,49358:0:0:0:0:
320,192,49358,1,2,0:0:0:0:
448,192,49358,1,0,0:0:0:50:LR_Snare Hat.wav
192,192,49592,1,0,0:0:0:0:
64,192,49826,1,2,0:0:0:0:
448,192,50061,1,0,0:0:0:50:LR_Snare Hat.wav
192,192,50295,1,2,0:0:0:0:
320,192,50529,1,0,0:0:0:50:LR_Snare Hat.wav
192,192,50764,1,2,0:0:0:0:
64,192,51233,1,2,0:0:0:0:
448,192,51233,1,0,0:0:0:50:LR_Snare Hat.wav
320,192,51467,1,0,0:0:0:0:
320,192,51701,1,2,0:0:0:0:
192,192,51936,1,0,0:0:0:50:LR_Snare Hat.wav
448,192,52170,1,2,0:0:0:0:
192,192,52287,1,0,0:0:0:0:
320,192,52522,1,0,0:0:0:0:
64,192,52639,128,0,52873:0:0:0:50:LR_CymbalSSF.wav
448,192,52873,128,0,53108:0:0:0:0:
64,192,53108,1,2,0:0:0:0:
192,192,53108,1,0,0:0:0:0:
320,192,53342,1,0,0:0:0:0:
448,192,53342,1,0,0:0:0:0:
64,192,53576,1,8,0:0:0:0:
192,192,53576,1,2,0:0:0:0:
320,192,53811,1,0,0:0:0:0:
192,192,54045,1,2,0:0:0:0:
448,192,54045,1,0,0:0:0:0:
64,192,54279,1,0,0:0:0:0:
448,192,54514,1,10,0:0:0:0:
64,192,54983,1,2,0:0:0:0:
448,192,54983,1,0,0:0:0:0:
192,192,55217,1,0,0:0:0:0:
320,192,55217,1,0,0:0:0:0:
64,192,55451,1,8,0:0:0:0:
448,192,55451,1,2,0:0:0:0:
320,192,55686,1,0,0:0:0:0:
64,192,55920,1,2,0:0:0:0:
448,192,56037,1,0,0:0:0:0:
192,192,56272,1,0,0:0:0:0:
320,192,56389,128,0,56623:0:0:0:0:
192,192,56623,128,0,56858:0:0:0:0:
64,192,56858,1,2,0:0:0:0:
320,192,56858,1,0,0:0:0:0:
192,192,57092,1,0,0:0:0:0:
448,192,57092,1,0,0:0:0:0:
64,192,57326,1,8,0:0:0:0:
320,192,57326,1,2,0:0:0:0:
192,192,57561,1,0,0:0:0:0:
320,192,57795,1,2,0:0:0:0:
448,192,57795,1,0,0:0:0:0:
64,192,58029,1,0,0:0:0:0:
320,192,58264,1,10,0:0:0:0:
64,192,58733,1,2,0:0:0:0:
192,192,58733,1,0,0:0:0:0:
320,192,58967,1,0,0:0:0:0:
448,192,58967,1,0,0:0:0:0:
64,192,59201,1,8,0:0:0:0:
192,192,59201,1,2,0:0:0:0:
448,192,59436,1,0,0:0:0:0:
192,192,59670,1,2,0:0:0:0:
64,192,59787,1,8,0:0:0:0:
320,192,60022,1,0,0:0:0:0:
192,192,60139,128,8,60373:0:0:0:0:
320,192,60373,128,8,60608:0:0:0:0:
64,192,60608,1,2,0:0:0:0:
448,192,60608,1,4,0:0:0:0:
192,192,60725,1,0,0:0:0:0:
320,192,60842,1,0,0:0:0:0:
64,192,61076,1,10,0:0:0:0:
448,192,61311,1,0,0:0:0:0:
192,192,61428,1,0,0:0:0:0:
320,192,61545,1,2,0:0:0:0:
64,192,61662,1,0,0:0:0:0:
448,192,61897,1,8,0:0:0:30:LR_Snare Drum .wav
320,192,62014,1,10,0:0:0:0:
192,192,62248,1,0,0:0:0:0:
64,192,62483,1,2,0:0:0:0:
448,192,62483,1,0,0:0:0:0:
320,192,62717,1,0,0:0:0:0:
192,192,62834,1,8,0:0:0:30:LR_Snare Drum .wav
320,192,62951,1,10,0:0:0:0:
448,192,63068,1,0,0:0:0:0:
64,192,63303,1,0,0:0:0:0:
192,192,63537,1,0,0:0:0:0:
320,192,63654,1,0,0:0:0:0:
448,192,63889,1,10,0:0:0:0:
320,192,64123,1,0,0:0:0:0:
64,192,64358,1,2,0:0:0:0:
192,192,64358,1,0,0:0:0:0:
320,192,64475,1,0,0:0:0:0:
64,192,64592,1,0,0:0:0:0:
192,192,64709,1,8,0:0:0:30:LR_Snare Drum .wav
448,192,64826,1,10,0:0:0:0:
320,192,65061,1,0,0:0:0:0:
192,192,65178,1,0,0:0:0:0:
448,192,65295,1,2,0:0:0:0:
320,192,65412,1,0,0:0:0:0:
192,192,65647,1,8,0:0:0:30:LR_Snare Drum .wav
320,192,65764,1,10,0:0:0:0:
64,192,65998,1,0,0:0:0:0:
192,192,66233,1,2,0:0:0:0:
448,192,66233,1,0,0:0:0:0:
320,192,66350,1,0,0:0:0:0:
192,192,66467,1,0,0:0:0:0:
64,192,66584,1,8,0:0:0:30:LR_Snare Drum .wav
448,192,66701,1,10,0:0:0:0:
320,192,66936,1,0,0:0:0:0:
192,192,67170,1,2,0:0:0:0:
448,192,67287,1,0,0:0:0:0:
192,192,67404,1,8,0:0:0:0:
448,192,67522,1,0,0:0:0:0:
64,192,67639,1,8,0:0:0:0:
320,192,67873,1,0,0:0:0:0:
64,192,68108,1,2,0:0:0:0:
192,192,68108,1,0,0:0:0:0:
448,192,68342,1,0,0:0:0:0:
192,192,68576,1,8,0:0:0:0:
320,192,68576,1,2,0:0:0:0:
64,192,68811,1,0,0:0:0:0:
448,192,69045,1,2,0:0:0:0:
192,192,69162,1,0,0:0:0:0:
320,192,69279,1,0,0:0:0:0:
64,192,69397,1,8,0:0:0:30:LR_Snare Drum .wav
192,192,69514,128,10,69748:0:0:0:0:
320,192,69748,128,0,69983:0:0:0:0:
64,192,69983,1,2,0:0:0:0:
448,192,69983,1,0,0:0:0:0:
320,192,70217,1,0,0:0:0:0:
64,192,70451,1,8,0:0:0:0:
192,192,70451,1,2,0:0:0:0:
320,192,70686,1,0,0:0:0:0:
448,192,70920,1,2,0:0:0:0:
64,192,71037,1,0,0:0:0:0:
192,192,71154,1,0,0:0:0:0:
320,192,71272,1,8,0:0:0:30:LR_Snare Drum .wav
448,192,71389,128,10,71623:0:0:0:0:
192,192,71623,128,0,71858:0:0:0:0:
64,192,71858,1,2,0:0:0:0:
448,192,71858,1,0,0:0:0:0:
192,192,72092,1,0,0:0:0:0:
320,192,72326,1,8,0:0:0:0:
448,192,72326,1,2,0:0:0:0:
64,192,72561,1,0,0:0:0:0:
320,192,72795,1,2,0:0:0:0:
192,192,72912,1,0,0:0:0:0:
448,192,73029,1,0,0:0:0:0:
64,192,73147,1,8,0:0:0:30:LR_Snare Drum .wav
320,192,73264,128,10,73498:0:0:0:0:
192,192,73498,128,0,73733:0:0:0:0:
64,192,73733,1,2,0:0:0:0:
448,192,73733,1,0,0:0:0:40:clap2.wav
320,192,73967,1,0,0:0:0:40:clap2.wav
192,192,74084,1,0,0:0:0:40:clap2.wav
320,192,74201,1,2,0:0:0:0:
448,192,74201,1,0,0:0:0:40:clap2.wav
192,192,74436,1,0,0:0:0:40:clap2.wav
320,192,74553,1,0,0:0:0:40:clap2.wav
64,192,74670,1,2,0:0:0:0:
192,192,74670,1,0,0:0:0:40:clap2.wav
448,192,74904,1,0,0:0:0:40:clap2.wav
320,192,75022,1,0,0:0:0:40:clap2.wav
64,192,75139,1,2,0:0:0:0:
192,192,75139,128,0,75608:0:0:0:40:clap2.wav
320,192,75373,128,0,75608:0:0:0:40:clap2.wav
64,192,75608,1,2,0:0:0:0:
448,192,75608,1,0,0:0:0:40:clap2.wav
448,192,75998,1,0,0:0:0:40:clap2.wav
192,192,76076,1,2,0:0:0:0:
320,192,76311,1,0,0:0:0:40:clap2.wav
448,192,76311,1,0,0:0:0:0:
64,192,76545,1,0,0:0:0:40:clap2.wav
192,192,76545,1,0,0:0:0:0:
64,192,76936,1,0,0:0:0:40:clap2.wav
448,192,77014,1,0,0:0:0:40:clap2.wav
64,192,77248,1,0,0:0:0:40:clap2.wav
320,192,77248,1,0,0:0:0:0:
192,192,77483,1,0,0:0:0:40:clap2.wav
320,192,77483,1,0,0:0:0:0:
448,192,77873,1,0,0:0:0:40:clap2.wav
192,192,77951,1,0,0:0:0:40:clap2.wav
64,192,78186,1,0,0:0:0:40:clap2.wav
320,192,78186,1,0,0:0:0:0:
192,192,78420,1,0,0:0:0:40:clap2.wav
448,192,78420,1,0,0:0:0:0:
64,192,78811,1,0,0:0:0:40:clap2.wav
320,192,78889,1,0,0:0:0:40:clap2.wav
64,192,79123,1,0,0:0:0:40:clap2.wav
192,192,79123,1,0,0:0:0:0:
320,192,79358,1,0,0:0:0:40:clap2.wav
448,192,79358,1,0,0:0:0:0:
192,192,79748,1,0,0:0:0:40:clap2.wav
448,192,79826,1,0,0:0:0:40:clap2.wav
64,192,80061,1,0,0:0:0:40:clap2.wav
320,192,80061,1,0,0:0:0:0:
192,192,80295,1,0,0:0:0:40:clap2.wav
320,192,80295,1,0,0:0:0:0:
448,192,80686,1,0,0:0:0:40:clap2.wav
64,192,80764,1,0,0:0:0:40:clap2.wav
64,192,80998,1,0,0:0:0:40:clap2.wav
320,192,80998,1,0,0:0:0:0:
192,192,81233,1,0,0:0:0:40:clap2.wav
448,192,81233,1,0,0:0:0:0:
192,192,81623,1,0,0:0:0:40:clap2.wav
320,192,81701,1,0,0:0:0:40:clap2.wav
64,192,81936,1,0,0:0:0:40:clap2.wav
192,192,81936,1,0,0:0:0:0:
320,192,82170,1,0,0:0:0:40:clap2.wav
448,192,82170,1,0,0:0:0:0:
448,192,82561,1,0,0:0:0:40:clap2.wav
64,192,82639,1,0,0:0:0:40:clap2.wav
64,192,82873,1,0,0:0:0:40:clap2.wav
192,192,82873,1,0,0:0:0:0:
320,192,83108,1,0,0:0:0:40:clap2.wav
448,192,83108,1,0,0:0:0:0:
192,192,83342,1,0,0:0:0:0:
64,192,83576,1,0,0:0:0:40:clap2.wav
320,192,83811,1,0,0:0:0:40:clap2.wav
64,192,84045,1,0,0:0:0:40:clap2.wav
192,192,84045,1,0,0:0:0:0:
448,192,84279,1,0,0:0:0:0:
320,192,84514,1,0,0:0:0:40:clap2.wav
192,192,84748,1,0,0:0:0:40:clap2.wav
64,192,84983,1,0,0:0:0:40:clap2.wav
448,192,84983,1,0,0:0:0:0:
320,192,85217,1,0,0:0:0:0:
192,192,85451,1,0,0:0:0:40:clap2.wav
320,192,85686,1,0,0:0:0:40:clap2.wav
64,192,85920,1,0,0:0:0:40:clap2.wav
192,192,85920,1,0,0:0:0:0:
448,192,86154,1,0,0:0:0:0:
64,192,86389,1,0,0:0:0:40:clap2.wav
192,192,86623,1,0,0:0:0:40:clap2.wav
320,192,86858,128,0,87092:0:0:0:40:clap2.wav
448,192,86858,1,0,0:0:0:15:LR_Snare Drum .wav
192,192,87092,128,0,87326:0:0:0:40:clap2.wav
64,192,87326,128,0,87561:0:0:0:40:clap2.wav
448,192,87561,128,0,87795:0:0:0:40:clap2.wav
64,192,87795,1,0,0:0:0:40:clap2.wav
192,192,87795,128,0,88029:0:0:0:25:LR_Snare Drum 2.wav
320,192,88029,128,0,88264:0:0:0:40:clap2.wav
448,192,88264,128,0,88498:0:0:0:40:clap2.wav
64,192,88498,128,0,88733:0:0:0:40:clap2.wav
192,192,88733,1,0,0:0:0:40:clap2.wav
192,192,89201,1,0,0:0:0:0:
192,192,89670,1,8,0:0:0:0:
448,192,89670,1,0,0:0:0:0:
320,192,89904,1,0,0:0:0:50:LR_CymbalSSF.wav
64,192,90139,1,8,0:0:0:0:
192,192,90139,1,0,0:0:0:0:
320,192,90373,1,0,0:0:0:50:Tom2.wav
448,192,90373,1,0,0:0:0:0:
64,192,90608,1,8,0:0:0:0:
192,192,90608,128,2,90842:0:0:0:0:
320,192,91076,128,8,91311:0:0:0:0:
448,192,91076,1,2,0:0:0:0:
192,192,91545,128,2,91779:0:0:0:0:
448,192,91545,1,0,0:0:0:0:
64,192,92014,1,2,0:0:0:0:
320,192,92014,128,8,92248:0:0:0:0:
64,192,92483,128,8,92717:0:0:0:0:
448,192,92483,1,2,0:0:0:0:
192,192,92951,128,8,93186:0:0:0:0:
320,192,92951,1,2,0:0:0:0:
64,192,93420,1,2,0:0:0:0:
448,192,93420,128,0,93654:0:0:0:0:
192,192,93889,1,0,0:0:0:0:
448,192,94006,1,0,0:0:0:0:
192,192,94123,1,0,0:0:0:0:
448,192,94240,1,0,0:0:0:0:
64,192,94358,128,2,94592:0:0:0:0:
192,192,94358,1,8,0:0:0:0:
320,192,94826,1,2,0:0:0:0:
448,192,94826,128,8,95061:0:0:0:0:
64,192,95295,1,2,0:0:0:0:
192,192,95295,128,0,95529:0:0:0:0:
320,192,95764,128,8,95998:0:0:0:0:
448,192,95764,1,2,0:0:0:0:
64,192,96233,128,8,96467:0:0:0:0:
448,192,96233,1,2,0:0:0:0:
64,192,96701,1,8,0:0:0:0:
320,192,96701,128,2,96936:0:0:0:0:
192,192,97170,128,2,97404:0:0:0:0:
448,192,97170,1,0,0:0:0:0:
64,192,97404,1,8,0:0:0:0:
320,192,97639,1,0,0:0:0:0:
192,192,97873,1,0,0:0:0:0:
64,192,98108,1,2,0:0:0:0:
448,192,98108,1,0,0:0:0:0:
320,192,98342,1,0,0:0:0:0:
64,192,98576,1,2,0:0:0:0:
192,192,98576,1,0,0:0:0:0:
320,192,98811,1,0,0:0:0:0:
192,192,99045,1,2,0:0:0:0:
448,192,99045,1,0,0:0:0:0:
64,192,99279,1,0,0:0:0:0:
320,192,99514,1,2,0:0:0:0:
448,192,99514,1,0,0:0:0:0:
192,192,99748,1,0,0:0:0:0:
64,192,99983,1,2,0:0:0:0:
448,192,99983,1,0,0:0:0:0:
320,192,100217,1,0,0:0:0:0:
64,192,100451,1,2,0:0:0:0:
192,192,100451,1,0,0:0:0:0:
448,192,100686,1,0,0:0:0:0:
192,192,100920,1,2,0:0:0:0:
320,192,100920,1,0,0:0:0:0:
64,192,101154,1,0,0:0:0:0:
320,192,101389,1,0,0:0:0:0:
192,192,101506,1,0,0:0:0:0:
320,192,101858,1,2,0:0:0:0:
448,192,101858,1,0,0:0:0:0:
64,192,102092,1,0,0:0:0:0:
192,192,102326,1,2,0:0:0:0:
320,192,102326,1,0,0:0:0:0:
448,192,102561,1,0,0:0:0:0:
64,192,102795,1,2,0:0:0:0:
192,192,102795,1,0,0:0:0:0:
320,192,103029,1,0,0:0:0:0:
64,192,103264,1,2,0:0:0:0:
448,192,103264,1,0,0:0:0:0:
192,192,103498,1,0,0:0:0:0:
64,192,103733,1,2,0:0:0:0:
320,192,103733,1,0,0:0:0:0:
192,192,103850,1,0,0:0:0:0:
320,192,103967,1,0,0:0:0:0:
448,192,104084,1,8,0:0:0:0:
64,192,104201,1,10,0:0:0:0:
320,192,104436,1,0,0:0:0:0:
192,192,104553,1,0,0:0:0:0:
448,192,104670,1,2,0:0:0:0:
320,192,104787,128,0,105022:0:0:0:0:
192,192,105022,1,0,0:0:0:40:clap2.wav
64,192,105139,128,0,105608:0:0:0:40:clap2.wav
448,192,105373,128,0,105608:0:0:0:40:clap2.wav
192,192,105608,1,2,0:0:0:0:
320,192,105608,1,0,0:0:0:0:
192,192,105764,1,0,0:0:0:0:
320,192,106076,1,0,0:0:0:0:
320,192,106311,1,0,0:0:0:0:
64,192,106467,1,0,0:0:0:0:
448,192,106701,1,0,0:0:0:0:
192,192,106779,1,0,0:0:0:0:
320,192,107014,1,2,0:0:0:0:
448,192,107014,1,0,0:0:0:0:
64,192,107248,1,0,0:0:0:0:
192,192,107639,1,0,0:0:0:0:
320,192,107795,1,0,0:0:0:0:
64,192,107951,1,2,0:0:0:0:
192,192,107951,1,0,0:0:0:0:
448,192,108186,1,0,0:0:0:0:
320,192,108342,1,0,0:0:0:0:
192,192,108576,1,0,0:0:0:0:
320,192,108654,1,0,0:0:0:0:
64,192,108889,1,0,0:0:0:0:
448,192,109006,1,0,0:0:0:0:
192,192,109123,1,0,0:0:0:0:
64,192,109358,1,2,0:0:0:0:
320,192,109358,1,0,0:0:0:0:
320,192,109514,1,0,0:0:0:0:
448,192,109826,1,0,0:0:0:0:
192,192,110061,1,0,0:0:0:0:
320,192,110217,1,0,0:0:0:0:
64,192,110451,1,0,0:0:0:0:
448,192,110529,1,0,0:0:0:0:
192,192,110764,1,2,0:0:0:0:
320,192,110764,1,0,0:0:0:0:
192,192,110998,1,0,0:0:0:0:
64,192,111233,1,2,0:0:0:0:
448,192,111233,1,0,0:0:0:0:
320,192,111389,1,0,0:0:0:0:
192,192,111545,1,0,0:0:0:0:
448,192,111701,1,0,0:0:0:0:
64,192,111858,1,0,0:0:0:0:
192,192,112014,1,0,0:0:0:0:
320,192,112170,1,0,0:0:0:0:
192,192,112404,1,0,0:0:0:0:
320,192,112639,1,0,0:0:0:0:
64,192,112756,1,0,0:0:0:0:
448,192,112873,1,0,0:0:0:0:
192,192,112990,1,0,0:0:0:0:
320,192,113108,1,2,0:0:0:0:
448,192,113108,1,0,0:0:0:0:
320,192,113264,1,0,0:0:0:0:
192,192,113576,1,0,0:0:0:0:
448,192,113811,1,0,0:0:0:0:
64,192,113967,1,0,0:0:0:0:
320,192,114201,1,0,0:0:0:0:
192,192,114279,1,0,0:0:0:0:
64,192,114514,1,2,0:0:0:0:
448,192,114514,1,0,0:0:0:0:
64,192,114748,1,0,0:0:0:0:
320,192,115139,1,0,0:0:0:0:
192,192,115295,1,0,0:0:0:0:
320,192,115451,1,2,0:0:0:0:
448,192,115451,1,0,0:0:0:0:
64,192,115686,1,0,0:0:0:0:
320,192,115842,1,0,0:0:0:0:
192,192,116076,1,0,0:0:0:0:
448,192,116154,1,0,0:0:0:0:
64,192,116389,128,0,116858:0:0:0:0:
192,192,116858,1,0,0:0:0:0:
192,192,117014,1,0,0:0:0:0:
320,192,117326,1,2,0:0:0:0:
448,192,117326,1,0,0:0:0:0:
64,192,117561,1,0,0:0:0:0:
320,192,117717,1,0,0:0:0:0:
192,192,117951,1,0,0:0:0:0:
448,192,118029,1,0,0:0:0:0:
64,192,118264,1,2,0:0:0:0:
192,192,118264,1,0,0:0:0:0:
64,192,118498,1,0,0:0:0:0:
320,192,118733,1,2,0:0:0:0:
448,192,118733,1,0,0:0:0:0:
192,192,118889,1,0,0:0:0:0:
64,192,119045,1,0,0:0:0:0:
320,192,119201,1,0,0:0:0:0:
192,192,119436,1,0,0:0:0:0:
320,192,119514,1,0,0:0:0:0:
64,192,119670,1,2,0:0:0:0:
448,192,119670,1,0,0:0:0:0:
192,192,119904,1,0,0:0:0:0:
320,192,120139,128,0,120608:0:0:0:0:
192,192,120373,128,0,120608:0:0:0:0:
64,192,120608,1,0,0:0:0:50:LR_CymbalQST.wav
448,192,120608,1,0,0:0:0:0:
320,192,120842,1,0,0:0:0:0:
192,192,121076,1,0,0:0:0:0:
64,192,121311,1,0,0:0:0:0:
320,192,121545,128,0,121779:0:0:0:0:
448,192,121779,128,0,122014:0:0:0:0:
192,192,122014,128,0,122248:0:0:0:0:
320,192,122248,128,0,122483:0:0:0:0:
64,192,122483,1,0,0:0:0:0:
448,192,122717,1,0,0:0:0:0:
192,192,122951,1,0,0:0:0:0:
320,192,123186,1,0,0:0:0:0:
64,192,123420,1,0,0:0:0:0:
320,192,123537,1,0,0:0:0:0:
192,192,123772,1,0,0:0:0:0:
448,192,123889,128,0,124123:0:0:0:0:
64,192,124123,128,0,124358:0:0:0:0:
320,192,124358,1,0,0:0:0:0:
192,192,124592,1,0,0:0:0:0:
448,192,124826,1,0,0:0:0:0:
64,192,125061,1,0,0:0:0:0:
320,192,125295,128,0,125529:0:0:0:0:
64,192,125529,128,0,125764:0:0:0:0:
448,192,125764,128,0,125998:0:0:0:0:
192,192,125998,128,0,126233:0:0:0:0:
320,192,126233,1,0,0:0:0:0:
64,192,126467,1,0,0:0:0:0:
448,192,126701,1,0,0:0:0:0:
192,192,126936,1,0,0:0:0:0:
320,192,127170,1,0,0:0:0:0:
64,192,127287,1,0,0:0:0:0:
448,192,127522,1,0,0:0:0:0:
192,192,127639,128,0,127873:0:0:0:0:
320,192,127873,128,0,128108:0:0:0:0:
64,192,128108,1,8,0:0:0:0:
192,192,128342,1,0,0:0:0:0:
448,192,128576,1,0,0:0:0:40:LR_Clap Reverb.wav
320,192,128811,1,0,0:0:0:0:
192,192,129045,128,8,129279:0:0:0:0:
448,192,129279,128,0,129514:0:0:0:0:
64,192,129514,128,0,129748:0:0:0:40:LR_Clap Reverb.wav
320,192,129748,128,0,129983:0:0:0:0:
192,192,129983,1,8,0:0:0:0:
448,192,130217,1,0,0:0:0:0:
64,192,130451,1,0,0:0:0:40:LR_Clap Reverb.wav
192,192,130686,1,0,0:0:0:0:
320,192,130920,1,8,0:0:0:0:
64,192,131037,1,0,0:0:0:0:
448,192,131272,1,0,0:0:0:0:
320,192,131389,128,0,131623:0:0:0:40:LR_Clap Reverb.wav
192,192,131623,128,0,131858:0:0:0:0:
64,192,131858,1,8,0:0:0:0:
448,192,132092,1,0,0:0:0:0:
192,192,132326,1,0,0:0:0:40:LR_Clap Reverb.wav
320,192,132561,1,0,0:0:0:0:
64,192,132795,128,8,133029:0:0:0:0:
448,192,133029,128,0,133264:0:0:0:0:
320,192,133264,1,0,0:0:0:40:LR_Clap Reverb.wav
192,192,133381,1,0,0:0:0:0:
64,192,133498,1,0,0:0:0:0:
320,192,133733,128,8,133967:0:0:0:0:
448,192,133967,1,0,0:0:0:0:
192,192,134201,128,0,134436:0:0:0:40:LR_Clap Reverb.wav
64,192,134436,1,0,0:0:0:0:
320,192,134670,1,8,0:0:0:0:
192,192,134787,1,0,0:0:0:0:
448,192,135022,1,0,0:0:0:0:
64,192,135139,128,0,135373:0:0:0:40:LR_Clap Reverb.wav
320,192,135373,128,0,135608:0:0:0:0:
64,192,135608,1,0,0:0:0:40:LR_Clap Reverb.wav
448,192,135608,1,0,0:0:0:0:
192,192,136076,1,0,0:0:0:40:LR_Clap Reverb.wav
448,192,136545,1,0,0:0:0:40:LR_Clap Reverb.wav
64,192,136779,1,0,0:0:0:0:
448,192,137014,1,0,0:0:0:40:LR_Clap Reverb.wav
192,192,137483,1,0,0:0:0:40:LR_Clap Reverb.wav
320,192,137951,1,0,0:0:0:40:LR_Clap Reverb.wav
64,192,138420,1,0,0:0:0:40:LR_Clap Reverb.wav
448,192,138654,1,0,0:0:0:0:
64,192,138889,1,0,0:0:0:40:LR_Clap Reverb.wav
192,192,139123,1,0,0:0:0:0:
320,192,139358,1,0,0:0:0:40:LR_Clap Reverb.wav
448,192,139358,1,0,0:0:0:0:
192,192,139826,1,0,0:0:0:40:LR_Clap Reverb.wav
320,192,140295,1,0,0:0:0:40:LR_Clap Reverb.wav
64,192,140529,1,0,0:0:0:0:
320,192,140764,1,0,0:0:0:40:LR_Clap Reverb.wav
192,192,141233,1,0,0:0:0:40:LR_Clap Reverb.wav
448,192,141701,1,0,0:0:0:40:LR_Clap Reverb.wav
64,192,142170,1,0,0:0:0:40:LR_Clap Reverb.wav
192,192,142404,1,0,0:0:0:0:
320,192,142639,1,0,0:0:0:40:LR_Clap Reverb.wav
448,192,142873,1,0,0:0:0:0:
64,192,143108,1,0,0:0:0:40:clap2.wav
192,192,143108,1,0,0:0:0:0:
320,192,143498,1,0,0:0:0:40:clap2.wav
192,192,143576,1,0,0:0:0:40:clap2.wav
320,192,143811,1,0,0:0:0:40:clap2.wav
448,192,143811,1,0,0:0:0:0:
64,192,144045,1,0,0:0:0:40:clap2.wav
448,192,144045,1,0,0:0:0:0:
192,192,144436,1,0,0:0:0:40:clap2.wav
320,192,144514,1,0,0:0:0:40:clap2.wav
64,192,144748,1,0,0:0:0:40:clap2.wav
192,192,144748,1,0,0:0:0:0:
320,192,144983,1,0,0:0:0:40:clap2.wav
448,192,144983,1,0,0:0:0:0:
192,192,145373,1,0,0:0:0:40:clap2.wav
448,192,145451,1,0,0:0:0:40:clap2.wav
64,192,145686,1,0,0:0:0:40:clap2.wav
320,192,145686,1,0,0:0:0:0:
192,192,145920,1,0,0:0:0:40:clap2.wav
448,192,145920,1,0,0:0:0:0:
320,192,146311,1,0,0:0:0:40:clap2.wav
64,192,146389,1,0,0:0:0:40:clap2.wav
192,192,146623,1,0,0:0:0:40:clap2.wav
448,192,146623,1,0,0:0:0:0:
64,192,146858,1,0,0:0:0:40:clap2.wav
320,192,146858,1,0,0:0:0:0:
192,192,147092,1,0,0:0:0:40:clap2.wav
448,192,147248,1,0,0:0:0:40:clap2.wav
64,192,147326,1,0,0:0:0:40:clap2.wav
320,192,147561,1,0,0:0:0:40:clap2.wav
192,192,147795,1,0,0:0:0:40:clap2.wav
64,192,147951,1,0,0:0:0:40:clap2.wav
448,192,148029,1,0,0:0:0:40:clap2.wav
320,192,148186,1,0,0:0:0:40:clap2.wav
192,192,148264,1,0,0:0:0:40:clap2.wav
320,192,148420,1,0,0:0:0:40:clap2.wav
64,192,148498,1,0,0:0:0:40:clap2.wav
192,192,148654,1,0,0:0:0:40:clap2.wav
320,192,148733,128,0,149201:0:0:0:50:LR_CymbalQST.wav
448,192,148733,1,0,0:0:0:40:clap2.wav
192,192,149201,1,0,0:0:0:0:
448,192,149670,1,2,0:0:0:0:
64,192,149904,1,0,0:0:0:50:LR_CymbalSSF.wav
320,192,150022,1,0,0:0:0:50:Tom1.wav
192,192,150139,1,8,0:0:0:0:
320,192,150373,1,0,0:0:0:50:Tom2.wav
448,192,150373,1,0,0:0:0:0:
64,192,150608,128,2,151076:0:0:0:0:
448,192,150608,1,0,0:0:0:0:
192,192,150842,1,0,0:0:0:0:
320,192,151076,128,10,151545:0:0:0:0:
448,192,151311,1,0,0:0:0:0:
192,192,151545,1,2,0:0:0:0:
64,192,151779,1,0,0:0:0:0:
448,192,152014,1,10,0:0:0:0:
320,192,152248,1,0,0:0:0:0:
64,192,152483,1,2,0:0:0:0:
192,192,152483,128,0,152951:0:0:0:0:
448,192,152717,1,0,0:0:0:0:
320,192,152951,128,10,153420:0:0:0:0:
64,192,153186,1,0,0:0:0:0:
448,192,153420,1,2,0:0:0:0:
192,192,153537,1,0,0:0:0:0:
320,192,153772,1,8,0:0:0:30:LR_Snare Drum .wav
64,192,153889,1,10,0:0:0:0:
448,192,154123,1,0,0:0:0:0:
64,192,154358,128,2,154826:0:0:0:0:
192,192,154358,1,0,0:0:0:0:
320,192,154592,1,0,0:0:0:0:
448,192,154826,128,10,155295:0:0:0:0:
192,192,155061,1,0,0:0:0:0:
64,192,155295,1,2,0:0:0:0:
320,192,155529,1,0,0:0:0:0:
192,192,155764,1,10,0:0:0:0:
448,192,155998,1,0,0:0:0:0:
64,192,156233,1,2,0:0:0:0:
320,192,156233,128,0,156701:0:0:0:0:
192,192,156467,1,0,0:0:0:0:
64,192,156701,128,10,157170:0:0:0:0:
448,192,156936,1,0,0:0:0:0:
192,192,157170,1,2,0:0:0:0:
320,192,157287,1,0,0:0:0:0:
64,192,157522,1,0,0:0:0:0:
448,192,157639,1,8,0:0:0:0:
192,192,157873,1,0,0:0:0:0:
320,192,158108,1,2,0:0:0:0:
448,192,158108,1,0,0:0:0:0:
64,192,158225,1,0,0:0:0:0:
448,192,158342,1,0,0:0:0:0:
192,192,158459,1,8,0:0:0:30:LR_Snare Drum .wav
320,192,158576,1,10,0:0:0:0:
64,192,158811,1,0,0:0:0:0:
192,192,158928,1,0,0:0:0:0:
448,192,159045,128,2,159279:0:0:0:0:
64,192,159279,128,0,159514:0:0:0:0:
320,192,159514,128,10,159748:0:0:0:0:
192,192,159748,128,0,159983:0:0:0:0:
64,192,159983,1,2,0:0:0:0:
448,192,159983,1,0,0:0:0:0:
320,192,160217,1,0,0:0:0:0:
192,192,160451,1,10,0:0:0:0:
64,192,160568,1,0,0:0:0:0:
448,192,160686,1,0,0:0:0:0:
320,192,160803,1,0,0:0:0:0:
64,192,160920,1,2,0:0:0:0:
192,192,161037,1,0,0:0:0:0:
320,192,161272,1,8,0:0:0:30:LR_Snare Drum .wav
448,192,161389,128,10,161623:0:0:0:0:
192,192,161623,128,0,161858:0:0:0:0:
64,192,161858,1,2,0:0:0:0:
320,192,161858,1,0,0:0:0:0:
448,192,162092,1,0,0:0:0:0:
192,192,162209,1,8,0:0:0:30:LR_Snare Drum .wav
448,192,162326,1,10,0:0:0:0:
64,192,162561,1,0,0:0:0:0:
320,192,162678,1,0,0:0:0:0:
192,192,162795,128,2,163029:0:0:0:0:
448,192,163029,128,0,163264:0:0:0:0:
64,192,163264,1,10,0:0:0:0:
192,192,163264,1,0,0:0:0:30:LR_CymbalQST.wav
320,192,163381,1,0,0:0:0:0:
64,192,163498,128,0,163733:0:0:0:0:
320,192,163733,128,2,163967:0:0:0:0:
448,192,163733,1,0,0:0:0:40:clap2.wav
192,192,163967,1,0,0:0:0:40:clap2.wav
448,192,164201,128,2,164436:0:0:0:0:
320,192,164436,1,0,0:0:0:40:clap2.wav
64,192,164670,1,2,0:0:0:0:
192,192,164787,1,0,0:0:0:40:clap2.wav
320,192,164904,1,0,0:0:0:40:clap2.wav
448,192,165022,1,0,0:0:0:40:clap2.wav
64,192,165139,1,2,0:0:0:0:
192,192,165139,128,0,165373:0:0:0:40:clap2.wav
320,192,165373,128,0,165608:0:0:0:40:clap2.wav
448,192,165373,1,0,0:0:0:0:
64,192,165608,128,6,165842:0:0:0:0:
192,192,165608,1,0,0:0:0:40:clap2.wav
320,192,165842,1,0,0:0:0:0:
192,192,166076,128,10,166311:0:0:0:0:
448,192,166311,1,0,0:0:0:0:
320,192,166545,128,2,166779:0:0:0:0:
64,192,166779,1,0,0:0:0:0:
320,192,167014,1,8,0:0:0:0:
448,192,167014,128,2,167248:0:0:0:0:
64,192,167483,1,2,0:0:0:0:
192,192,167483,128,0,167717:0:0:0:0:
448,192,167717,1,0,0:0:0:0:
320,192,167951,128,10,168186:0:0:0:0:
192,192,168186,1,0,0:0:0:0:
64,192,168420,128,2,168654:0:0:0:0:
448,192,168654,128,0,168889:0:0:0:0:
192,192,168889,128,10,169123:0:0:0:0:
320,192,169123,128,0,169358:0:0:0:0:
64,192,169358,1,2,0:0:0:0:
448,192,169358,128,0,169592:0:0:0:0:
192,192,169592,1,0,0:0:0:0:
64,192,169826,128,10,170061:0:0:0:0:
320,192,170061,1,0,0:0:0:0:
192,192,170295,128,2,170529:0:0:0:0:
448,192,170529,1,0,0:0:0:0:
192,192,170764,1,8,0:0:0:0:
320,192,170764,128,2,170998:0:0:0:0:
320,192,171233,1,2,0:0:0:0:
448,192,171233,128,0,171467:0:0:0:0:
64,192,171467,1,0,0:0:0:0:
192,192,171701,128,10,171936:0:0:0:0:
448,192,171936,1,0,0:0:0:0:
320,192,172170,1,2,0:0:0:0:
64,192,172287,1,0,0:0:0:0:
448,192,172522,1,0,0:0:0:0:
192,192,172639,128,8,172873:0:0:0:0:
320,192,172873,128,0,173108:0:0:0:0:
64,192,173108,128,2,173342:0:0:0:0:
448,192,173108,1,0,0:0:0:0:
192,192,173342,1,0,0:0:0:0:
448,192,173576,128,10,173811:0:0:0:0:
320,192,173811,1,0,0:0:0:0:
192,192,174045,128,2,174279:0:0:0:0:
320,192,174279,128,0,174514:0:0:0:0:
64,192,174514,128,10,174748:0:0:0:0:
448,192,174748,128,0,174983:0:0:0:0:
64,192,174983,1,2,0:0:0:0:
192,192,174983,128,0,175217:0:0:0:0:
320,192,175217,1,0,0:0:0:0:
64,192,175451,128,10,175686:0:0:0:0:
448,192,175686,1,0,0:0:0:0:
320,192,175920,1,2,0:0:0:0:
192,192,176037,1,0,0:0:0:0:
64,192,176272,1,0,0:0:0:0:
448,192,176389,128,8,176623:0:0:0:0:
320,192,176623,128,0,176858:0:0:0:0:
64,192,176858,1,2,0:0:0:0:
192,192,176858,128,0,177092:0:0:0:0:
448,192,177092,1,0,0:0:0:0:
64,192,177326,128,10,177561:0:0:0:0:
192,192,177561,1,0,0:0:0:0:
320,192,177795,128,2,178029:0:0:0:0:
448,192,178029,128,0,178264:0:0:0:0:
192,192,178264,128,10,178498:0:0:0:0:
64,192,178498,128,0,178733:0:0:0:0:
320,192,178733,1,2,0:0:0:0:
448,192,178733,1,0,0:0:0:40:clap2.wav
192,192,178967,1,0,0:0:0:40:clap2.wav
320,192,179084,1,0,0:0:0:40:clap2.wav
64,192,179201,1,2,0:0:0:0:
192,192,179201,1,0,0:0:0:40:clap2.wav
320,192,179436,1,0,0:0:0:40:clap2.wav
192,192,179553,1,0,0:0:0:40:clap2.wav
320,192,179670,1,0,0:0:0:40:clap2.wav
448,192,179670,1,0,0:0:0:0:
64,192,179904,1,0,0:0:0:40:clap2.wav
192,192,180022,1,0,0:0:0:40:clap2.wav
320,192,180139,128,0,180608:0:0:0:40:clap2.wav
448,192,180139,1,0,0:0:0:0:
192,192,180373,128,0,180608:0:0:0:40:clap2.wav
64,192,180608,1,2,0:0:0:0:
448,192,180608,1,0,0:0:0:40:clap2.wav
192,192,180842,1,0,0:0:0:0:
320,192,181076,1,8,0:0:0:0:
448,192,181076,1,2,0:0:0:0:
64,192,181311,1,0,0:0:0:0:
320,192,181545,1,2,0:0:0:0:
192,192,181779,1,0,0:0:0:0:
64,192,182014,1,8,0:0:0:0:
448,192,182014,1,2,0:0:0:0:
192,192,182483,1,2,0:0:0:0:
448,192,182483,1,0,0:0:0:0:
320,192,182717,1,0,0:0:0:0:
64,192,182951,1,8,0:0:0:0:
192,192,182951,1,0,0:0:0:0:
448,192,183186,1,2,0:0:0:0:
448,192,183420,1,2,0:0:0:0:
64,192,183654,1,0,0:0:0:0:
192,192,183889,1,8,0:0:0:0:
320,192,183889,1,2,0:0:0:0:
64,192,184123,1,2,0:0:0:0:
320,192,184358,1,2,0:0:0:0:
448,192,184358,1,4,0:0:0:0:
192,192,184592,1,0,0:0:0:0:
64,192,184826,1,8,0:0:0:0:
448,192,184826,1,2,0:0:0:0:
320,192,185061,1,0,0:0:0:0:
64,192,185295,1,2,0:0:0:0:
192,192,185529,1,0,0:0:0:0:
320,192,185764,1,2,0:0:0:0:
448,192,185764,1,8,0:0:0:0:
64,192,186233,1,2,0:0:0:0:
448,192,186233,1,0,0:0:0:0:
192,192,186467,1,0,0:0:0:0:
320,192,186701,1,8,0:0:0:0:
448,192,186701,1,0,0:0:0:0:
192,192,186936,1,2,0:0:0:0:
64,192,187170,1,2,0:0:0:0:
192,192,187170,1,0,0:0:0:0:
320,192,187404,1,8,0:0:0:0:
64,192,187639,1,2,0:0:0:0:
448,192,187639,1,8,0:0:0:0:
192,192,187873,1,0,0:0:0:0:
320,192,188108,1,2,0:0:0:0:
448,192,188108,1,4,0:0:0:0:
64,192,188342,1,0,0:0:0:0:
192,192,188576,1,8,0:0:0:0:
448,192,188576,1,0,0:0:0:0:
320,192,188811,1,0,0:0:0:0:
64,192,189045,1,2,0:0:0:0:
448,192,189279,1,0,0:0:0:0:
64,192,189514,1,8,0:0:0:0:
192,192,189514,1,2,0:0:0:0:
192,192,189983,1,2,0:0:0:0:
320,192,189983,1,0,0:0:0:0:
448,192,190217,1,0,0:0:0:0:
64,192,190451,1,8,0:0:0:0:
192,192,190451,1,0,0:0:0:0:
320,192,190686,1,2,0:0:0:0:
320,192,190920,1,2,0:0:0:0:
64,192,191154,1,0,0:0:0:0:
320,192,191389,1,8,0:0:0:0:
448,192,191389,1,2,0:0:0:0:
64,192,191623,1,0,0:0:0:0:
192,192,191858,1,2,0:0:0:0:
448,192,191858,1,0,0:0:0:0:
320,192,192092,1,0,0:0:0:0:
64,192,192326,1,8,0:0:0:0:
192,192,192326,1,2,0:0:0:0:
448,192,192561,1,0,0:0:0:0:
320,192,192795,1,2,0:0:0:0:
192,192,193029,1,0,0:0:0:0:
64,192,193264,1,8,0:0:0:0:
448,192,193264,1,2,0:0:0:0:
64,192,193733,1,2,0:0:0:0:
192,192,193733,128,0,193967:0:0:0:0:
448,192,193967,1,0,0:0:0:0:
64,192,194201,1,2,0:0:0:0:
320,192,194201,128,8,194436:0:0:0:0:
448,192,194436,1,2,0:0:0:0:
192,192,194670,1,2,0:0:0:0:
448,192,194670,1,0,0:0:0:0:
