osu file format v14

[General]
AudioFilename: audio.mp3
AudioLeadIn: 0
PreviewTime:35733
Countdown: 0
SampleSet: Soft
StackLeniency: 0.4
Mode: 0
LetterboxInBreaks: 0
WidescreenStoryboard: 1

[Editor]
Bookmarks: 2247,13541,24835,36130,70012,81306,92600,103894,115188,126483,137777,168835,170247
DistanceSpacing: 1.3
BeatDivisor: 4
GridSize: 32
TimelineZoom: 3.199999

[Metadata]
Title:Good-bye sengen
TitleUnicode:グッバイ宣言
Artist:Minato Aqua
ArtistUnicode:湊あくあ
Creator:Amateurre
Version:Insane
Source:
Tags:ホロライブ hololive vtuber virtual youtuber chinozo japanese pop jpop j-pop ハイカラサウンド highkarasound cover flower goodbye declaration 引き籠り hikikomori ayucchi mocaotic gaia
BeatmapID:2979115
BeatmapSetID:1448237

[Difficulty]
HPDrainRate:4.5
CircleSize:3.8
OverallDifficulty:8
ApproachRate:8.8
SliderMultiplier:1.8
SliderTickRate:1

[Events]
//Background and Video events
0,0,"goodbyesengen.jpg",0,0
//Break Periods
2,70212,79971
2,104094,113854
//Storyboard Layer 0 (Background)
//Storyboard Layer 1 (Fail)
//Storyboard Layer 2 (Pass)
//Storyboard Layer 3 (Foreground)
//Storyboard Layer 4 (Overlay)
//Storyboard Sound Samples

[TimingPoints]
836,352.941176470588,4,2,1,60,1,0
2247,-100,4,2,1,70,0,0
13541,-125,4,2,1,60,0,0
24835,-111.111111111111,4,2,1,65,0,0
36130,-100,4,2,1,75,0,1
67188,-100,4,2,1,75,0,0
69483,-100,4,2,1,75,0,0
70012,-100,4,2,1,70,0,0
81306,-125,4,2,1,60,0,0
92600,-111.111111111111,4,2,1,65,0,0
103894,-111.111111111111,4,2,1,60,0,0
115188,-99.9999999999999,4,2,1,65,0,0
126483,-125,4,2,1,60,0,0
131953,-100,4,2,1,65,0,0
134777,-250,4,2,1,65,0,0
137247,-100,4,2,1,65,0,0
137777,-100,4,2,1,75,0,1
168835,-100,4,2,1,75,0,0
170269,-100,4,2,1,5,0,0

[Colours]
Combo1 : 122,203,252
Combo2 : 253,162,243

[HitObjects]
3,244,836,5,2,0:3:0:0:
3,244,1188,1,2,0:3:0:0:
3,244,1541,5,2,0:2:0:0:
165,199,1718,1,2,0:2:0:0:
69,179,1895,1,2,0:2:0:0:
69,179,1983,1,2,0:2:0:0:
69,179,2071,1,2,0:2:0:0:
189,284,2247,6,0,L|288:272,1,90,4|2,1:2|0:2,0:0:0:0:
362,243,2600,1,10,0:2:0:0:
306,347,2777,2,0,L|335:155,1,180,2|2,0:2|0:2,0:2:0:0:
340,150,3218,1,2,0:2:0:0:
340,150,3306,2,0,P|298:171|250:160,1,90,10|2,0:2|0:2,0:0:0:0:
198,86,3659,5,2,1:2:0:0:
181,236,3835,2,0,P|227:183|194:83,1,180,2|2,0:2|0:2,0:0:0:0:
30,162,4365,2,0,L|140:144,1,90,2|2,1:2|0:2,0:0:0:0:
148,159,4630,1,2,0:2:0:0:
148,159,4718,1,10,0:2:0:0:
196,84,4894,1,2,0:2:0:0:
290,214,5071,6,0,L|281:303,1,90,2|2,1:2|0:2,0:0:0:0:
193,247,5424,1,10,0:2:0:0:
371,257,5600,2,0,L|460:248,1,90,2|2,0:2|1:2,0:2:0:0:
481,263,5865,1,2,0:2:0:0:
481,263,5953,1,2,0:2:0:0:
418,82,6130,2,0,L|409:171,1,90,10|2,0:2|0:2,0:0:0:0:
280,303,6483,5,2,1:2:0:0:
193,247,6659,1,2,0:2:0:0:
120,366,6835,2,0,L|31:357,1,90,10|2,0:2|0:2,0:0:0:0:
5,219,7188,1,2,1:2:0:0:
91,274,7365,1,10,0:2:0:0:
86,145,7541,2,0,L|82:47,1,90,10|2,0:2|1:2,0:0:0:0:
102,37,7806,1,0,1:2:0:0:
102,37,7894,6,0,L|201:49,1,90,6|2,1:2|0:2,0:0:0:0:
235,117,8247,1,10,0:2:0:0:
329,39,8424,2,0,P|264:25|242:125,1,180,2|2,0:2|0:2,0:2:0:0:
264,137,8865,1,2,0:2:0:0:
264,137,8953,2,0,L|270:229,1,90,10|2,0:2|0:2,0:0:0:0:
346,284,9306,5,2,1:2:0:0:
178,257,9482,2,0,B|284:221|255:321|359:278,1,180,2|2,0:2|0:2,0:0:0:0:
424,183,10012,2,0,L|442:293,1,90,2|2,1:2|0:2,0:0:0:0:
448,298,10277,1,2,0:2:0:0:
448,298,10365,1,10,0:2:0:0:
512,160,10541,1,2,0:2:0:0:
331,171,10718,6,0,P|287:165|242:162,1,90,2|2,1:2|0:2,0:0:0:0:
106,208,11071,1,10,0:2:0:0:
205,323,11247,2,0,P|225:278|207:237,1,90,2|2,0:2|1:2,0:2:0:0:
197,227,11512,1,2,0:2:0:0:
197,227,11600,1,2,0:2:0:0:
30,150,11777,2,0,L|39:61,1,90,10|2,0:2|0:2,0:0:0:0:
170,123,12130,5,2,1:2:0:0:
106,208,12306,1,2,0:2:0:0:
280,183,12482,2,0,L|369:174,1,90,10|2,0:2|0:2,0:0:0:0:
393,185,12747,1,0,0:0:0:0:
393,185,12835,2,0,L|378:292,1,90,0|0,3:2|3:2,0:0:0:0:
490,368,13188,6,0,L|502:305,1,45,2|0,0:3|0:2,0:2:0:0:
490,311,13365,2,0,L|481:355,1,45,2|0,0:3|0:2,0:2:0:0:
372,358,13541,6,0,B|291:352|342:295|240:300,1,144,2|0,1:2|1:2,0:2:0:0:
179,354,14071,1,2,0:2:0:0:
97,341,14247,2,0,L|20:329,1,72,0|0,1:2|0:2,0:2:0:0:
1,214,14600,2,0,P|40:176|128:201,1,144,2|0,1:2|1:2,0:2:0:0:
191,239,15130,1,2,0:2:0:0:
256,178,15306,2,0,L|243:85,1,72,0|0,1:2|0:2,0:2:0:0:
348,31,15659,2,0,L|338:102,1,72,2|0,1:2|0:2,0:0:0:0:
423,118,16012,2,0,L|432:46,1,72,2|0,1:2|0:2,0:0:0:0:
246,106,16365,6,0,L|93:123,1,144,2|0,1:2|1:2,0:2:0:0:
2,195,16894,1,2,0:2:0:0:
72,246,17071,2,0,L|149:237,1,72,0|0,1:2|0:2,0:2:0:0:
247,192,17424,2,0,L|227:355,1,144,2|0,1:2|1:2,0:2:0:0:
313,304,17953,1,2,0:2:0:0:
386,360,18130,2,0,L|463:351,1,72,0|0,1:2|0:2,0:0:0:0:
399,180,18483,2,0,L|389:251,1,72,2|0,1:2|0:2,0:0:0:0:
474,267,18836,2,0,L|483:195,1,72,2|0,1:2|0:2,0:0:0:0:
313,304,19188,6,0,L|218:318,1,72,6|0,1:2|0:2,0:0:0:0:
215,305,19453,1,2,0:2:0:0:
215,305,19541,2,0,L|224:233,1,72,0|2,0:0|0:2,0:0:0:0:
156,179,19894,2,0,L|61:193,1,72,2|0,1:2|0:2,0:0:0:0:
58,180,20159,1,2,0:2:0:0:
58,180,20247,2,0,L|67:108,1,72,2|2,1:2|0:2,0:2:0:0:
8,34,20600,5,0,1:2:0:0:
128,5,20777,2,0,B|215:1|171:59|261:54,1,144,2|0,0:2|0:2,0:0:0:0:
370,103,21306,2,0,P|373:60|341:29,1,72,2|0,1:2|0:2,0:0:0:0:
256,54,21659,2,0,P|253:97|285:128,1,72,2|0,1:2|0:2,0:0:0:0:
405,179,22012,6,0,P|452:170|510:246,2,144,2|0|0,1:2|1:2|1:2,0:2:0:0:
344,234,22894,1,0,0:2:0:0:
259,204,23071,2,0,L|174:198,1,72,2|0,1:2|0:2,0:2:0:0:
93,159,23424,2,0,L|104:231,1,72,0|2,1:2|0:2,0:0:0:0:
20,246,23777,2,0,L|10:175,1,72,0|0,1:2|0:2,0:0:0:0:
140,301,24130,1,2,1:2:0:0:
23,343,24306,1,2,1:2:0:0:
93,160,24483,6,0,P|161:154|187:214,1,108,10|0,0:2|0:2,0:2:0:0:
200,201,24835,6,0,L|282:189,1,80.9999975280763,2|0,1:2|0:0,0:2:0:0:
451,284,25188,1,10,0:2:0:0:
468,205,25365,2,0,L|480:123,1,80.9999975280763,2|0,0:2|0:0,0:2:0:0:
357,267,25718,1,2,0:2:0:0:
380,106,25895,2,0,L|353:288,1,161.999995056153,10|0,0:2|1:2,0:2:0:0:
273,320,26424,5,2,0:2:0:0:
450,283,26600,2,0,L|462:364,1,80.9999975280763,10|0,0:2|0:2,0:0:0:0:
277,230,26953,5,2,1:2:0:0:
357,355,27130,1,2,0:2:0:0:
501,215,27306,2,0,P|465:196|426:202,1,80.9999975280763,10|2,0:2|0:2,0:0:0:0:
273,320,27659,6,0,L|191:332,1,80.9999975280763,2|0,1:2|0:0,0:2:0:0:
30,196,28012,1,10,0:2:0:0:
4,354,28189,2,0,L|16:274,1,80.9999975280763,2|0,0:2|0:0,0:2:0:0:
192,331,28542,1,2,0:2:0:0:
124,216,28719,2,0,L|97:398,1,161.999995056153,10|0,0:2|1:2,0:2:0:0:
254,270,29247,5,2,0:2:0:0:
332,317,29424,2,0,L|423:304,1,80.9999975280763,10|0,0:2|0:2,0:2:0:0:
489,348,29777,1,2,1:2:0:0:
351,213,29953,5,10,0:2:0:0:
242,350,30130,2,0,L|253:269,1,80.9999975280763,10|0,0:2|0:2,0:2:0:0:
108,235,30483,6,0,L|16:247,1,80.9999975280763,2|2,1:2|0:2,0:0:0:0:
9,216,30747,1,2,0:2:0:0:
9,216,30835,2,0,L|20:135,1,80.9999975280763,10|0,0:2|0:2,0:2:0:0:
164,170,31188,2,0,L|256:158,1,80.9999975280763,2|2,1:2|0:2,0:0:0:0:
268,175,31452,1,2,0:2:0:0:
267,175,31541,2,0,L|278:94,1,80.9999975280763,10|0,0:2|0:2,0:2:0:0:
398,0,31894,6,0,L|376:160,1,161.999995056153,2|10,1:2|0:2,0:0:0:0:
494,261,32424,1,2,0:2:0:0:
392,317,32600,2,0,L|303:306,1,80.9999975280763,2|2,1:2|1:2,0:0:0:0:
484,356,32953,5,10,0:2:0:0:
269,232,33130,2,0,P|226:297|251:371,1,161.999995056153,4|2,1:2|1:2,0:2:0:0:
388,240,33659,2,0,L|371:125,1,80.9999975280763,8|2,0:2|0:2,0:0:0:0:
251,371,34012,5,10,0:2:0:0:
188,279,34188,1,0,1:2:0:0:
392,317,34365,1,10,0:2:0:0:
124,369,34541,5,6,1:2:0:0:
193,186,34894,1,2,1:2:0:0:
124,369,35247,5,2,1:2:0:0:
193,186,35424,1,2,1:2:0:0:
95,229,35600,5,8,0:2:0:0:
95,229,35777,2,0,L|8:213,1,80.9999975280763,8|0,0:2|0:0,0:2:0:0:
261,132,36130,5,6,1:2:0:0:
392,317,36306,1,2,0:2:0:0:
392,317,36394,1,2,0:2:0:0:
392,317,36483,1,10,0:2:0:0:
283,286,36659,1,2,0:2:0:0:
441,188,36835,2,0,P|476:226|469:268,1,90,2|0,1:2|0:0,0:2:0:0:
346,131,37188,5,10,0:2:0:0:
217,219,37365,2,0,B|175:236|120:206|154:183|108:150|54:172,1,180,2|2,0:2|0:2,0:2:0:0:
122,340,37894,2,0,L|138:251,1,90,10|2,0:2|0:2,0:2:0:0:
132,38,38247,5,2,1:2:0:0:
58,171,38424,1,2,0:2:0:0:
278,128,38600,1,10,0:2:0:0:
171,111,38777,1,2,0:2:0:0:
278,128,38953,6,0,B|327:137|348:113|329:103|368:78|411:98,1,135,2|0,1:2|0:0,0:2:0:0:
426,105,39306,1,8,0:2:0:0:
359,283,39483,1,2,0:2:0:0:
512,205,39659,2,0,L|396:190,1,90,2|0,1:2|0:2,0:2:0:0:
403,200,39924,1,0,0:2:0:0:
403,200,40012,1,8,0:2:0:0:
211,265,40188,5,2,0:2:0:0:
278,128,40365,2,0,L|297:232,1,90,2|0,1:2|0:2,0:2:0:0:
132,108,40718,2,0,P|119:68|153:24,1,90,10|0,0:2|0:2,0:2:0:0:
193,173,41071,5,2,1:2:0:0:
41,78,41247,1,8,0:2:0:0:
230,56,41424,2,0,L|351:32,1,90,8|2,0:2|0:2,0:0:0:0:
143,29,41777,5,2,1:2:0:0:
72,187,41953,1,2,0:2:0:0:
72,187,42041,1,2,0:2:0:0:
72,187,42130,1,10,0:2:0:0:
41,78,42306,1,2,0:2:0:0:
170,222,42482,2,0,L|258:206,1,90,2|0,1:2|0:0,0:2:0:0:
93,282,42835,5,10,0:2:0:0:
221,128,43012,2,0,L|203:315,1,180,2|2,0:2|0:2,0:2:0:0:
326,363,43541,2,0,P|334:319|314:279,1,90,10|2,0:2|0:2,0:2:0:0:
221,128,43894,5,2,1:2:0:0:
359,67,44071,1,2,0:2:0:0:
314,279,44247,1,10,0:2:0:0:
291,183,44424,1,2,0:2:0:0:
203,307,44600,6,0,L|66:290,1,135,2|0,1:2|0:0,0:2:0:0:
49,302,44953,1,8,0:2:0:0:
175,184,45130,1,2,0:2:0:0:
106,129,45306,2,0,B|81:168|81:168|96:223,1,90,2|0,1:2|0:2,0:2:0:0:
224,384,45659,2,0,L|217:294,1,90,10|0,0:2|0:2,0:2:0:0:
281,124,46012,5,2,1:2:0:0:
373,313,46188,1,2,0:2:0:0:
367,179,46365,5,10,0:2:0:0:
286,268,46541,1,2,0:2:0:0:
450,370,46718,2,0,P|476:330|455:279,1,90,2|8,1:2|0:2,0:0:0:0:
457,273,46983,1,8,0:2:0:0:
457,273,47071,1,8,0:2:0:0:
212,317,47247,5,10,0:2:0:0:
212,317,47336,1,10,0:2:0:0:
212,317,47424,1,2,1:2:0:0:
174,132,47600,2,0,L|165:87,2,45,2|2|10,0:2|0:2|0:2,0:0:0:0:
106,187,47953,1,2,0:2:0:0:
286,268,48129,2,0,P|321:230|314:188,1,90,2|0,1:2|0:0,0:2:0:0:
212,317,48482,5,10,0:2:0:0:
250,139,48659,2,0,B|300:118|346:151|312:174|367:204|409:187,1,180,2|2,0:2|0:2,0:2:0:0:
499,72,49188,2,0,L|410:88,1,90,8|2,0:2|0:2,0:2:0:0:
177,178,49541,5,2,1:2:0:0:
310,252,49718,1,2,0:2:0:0:
267,32,49894,1,10,0:2:0:0:
250,139,50071,1,2,0:2:0:0:
267,32,50247,6,0,B|218:23|197:47|216:57|177:82|134:62,1,135,2|0,1:2|0:0,0:2:0:0:
123,61,50600,1,8,0:2:0:0:
0,156,50777,1,2,0:2:0:0:
124,254,50953,2,0,P|143:225|136:166,1,90,2|0,1:2|0:2,0:2:0:0:
130,156,51218,1,0,0:2:0:0:
130,156,51306,1,10,0:2:0:0:
12,281,51482,5,2,0:2:0:0:
236,258,51659,2,0,L|340:239,1,90,2|0,1:2|0:2,0:2:0:0:
114,343,52012,2,0,L|125:235,1,90,10|0,0:2|0:2,0:2:0:0:
12,363,52365,5,2,1:2:0:0:
123,253,52541,1,8,0:2:0:0:
252,360,52718,2,0,L|341:350,1,90,8|2,0:2|0:2,0:0:0:0:
478,215,53071,5,2,1:2:0:0:
261,277,53247,1,2,0:2:0:0:
261,277,53335,1,2,0:2:0:0:
261,277,53424,1,10,0:2:0:0:
341,350,53600,1,2,0:2:0:0:
309,166,53776,2,0,L|293:78,1,90,2|0,1:2|0:0,0:2:0:0:
387,220,54129,5,10,0:2:0:0:
219,148,54306,2,0,B|271:166|317:123|280:117|326:78|384:98,1,180,2|2,0:2|0:2,0:2:0:0:
512,302,54835,2,0,P|468:310|428:290,1,90,10|2,0:2|0:2,0:2:0:0:
219,148,55188,5,2,1:2:0:0:
174,306,55365,1,2,0:2:0:0:
387,220,55541,1,10,0:2:0:0:
294,201,55718,1,2,0:2:0:0:
387,220,55894,6,0,L|404:83,1,135,2|0,1:2|0:0,0:2:0:0:
407,66,56247,1,8,0:2:0:0:
219,148,56424,1,2,0:2:0:0:
298,8,56600,2,0,L|305:98,1,90,2|0,1:2|0:2,0:2:0:0:
136,177,56953,2,0,P|125:132|149:95,1,90,10|0,0:2|0:2,0:2:0:0:
243,240,57306,5,2,1:2:0:0:
13,179,57482,1,2,0:2:0:0:
97,253,57659,5,10,0:2:0:0:
136,177,57835,1,2,0:2:0:0:
180,331,58012,2,0,L|190:387,2,45,2|0|8,1:2|1:2|0:2,0:0:0:0:
83,346,58365,5,0,1:2:0:0:
298,303,58541,1,8,0:2:0:0:
463,372,58718,6,0,L|474:274,1,90,2|0,1:2|0:0,0:2:0:0:
388,152,59071,2,0,L|377:241,1,90,8|2,0:2|0:2,0:0:0:0:
209,315,59424,1,0,1:2:0:0:
270,223,59600,1,0,1:2:0:0:
367,360,59777,2,0,B|320:383|272:346|308:332|255:288|200:318,1,180,10|0,0:2|1:2,0:0:0:0:
7,260,60306,5,2,0:2:0:0:
156,161,60483,2,0,P|178:210|151:263,1,90,10|2,0:2|0:2,0:0:0:0:
7,160,60835,5,2,1:2:0:0:
86,210,61012,1,2,1:2:0:0:
222,103,61188,2,0,P|230:59|208:20,1,90,10|2,0:2|0:2,0:0:0:0:
289,190,61541,6,0,L|400:172,1,90,2|0,1:2|0:0,0:2:0:0:
473,260,61894,2,0,L|384:274,1,90,8|2,0:2|0:2,0:0:0:0:
355,90,62247,1,0,1:2:0:0:
455,140,62424,1,0,1:2:0:0:
296,301,62600,1,10,0:2:0:0:
377,175,62777,2,0,L|371:274,1,90,2|0,0:2|1:2,0:2:0:0:
245,153,63130,5,2,0:2:0:0:
143,177,63306,2,0,L|51:193,1,90,10|2,0:2|0:2,0:0:0:0:
292,299,63659,5,2,1:2:0:0:
225,235,63835,1,2,1:2:0:0:
106,374,64012,2,0,L|119:277,1,90,10|2,0:2|0:2,0:0:0:0:
245,153,64365,6,0,L|256:55,1,90,2|0,1:2|0:0,0:2:0:0:
159,9,64718,2,0,L|148:98,1,90,8|2,0:2|0:2,0:0:0:0:
0,172,65071,1,0,1:2:0:0:
54,82,65247,1,0,1:2:0:0:
183,203,65424,2,0,B|230:226|278:189|242:175|291:133|350:161,1,180,10|0,0:2|1:2,0:0:0:0:
509,215,65953,5,2,0:2:0:0:
442,65,66130,2,0,L|427:179,1,90,10|2,0:2|0:2,0:0:0:0:
268,227,66483,5,2,1:2:0:0:
341,157,66659,1,2,1:2:0:0:
486,293,66835,2,0,P|515:251|505:209,1,90,10|2,0:2|0:2,0:0:0:0:
373,297,67188,5,2,1:2:0:0:
251,321,67894,5,2,1:2:0:0:
180,278,68071,2,0,L|188:230,2,45,0|0|2,0:2|0:2|1:2,0:0:0:0:
129,345,68600,5,2,1:2:0:0:
25,146,69306,5,2,0:2:0:0:
91,91,69483,1,2,0:2:0:0:
91,91,69571,1,2,0:2:0:0:
91,91,69659,2,0,P|111:118|105:183,1,90,2|2,0:2|0:2,0:0:0:0:
212,240,70012,5,4,1:2:0:0:
507,182,80600,6,0,L|453:172,1,45,0|0,3:2|0:0,0:0:0:0:
387,200,80777,2,0,L|333:190,1,45,0|0,3:2|0:0,0:0:0:0:
262,209,80953,6,0,L|250:146,1,45,0|0,3:3|0:2,0:2:0:0:
239,156,81130,2,0,L|248:200,1,45,0|0,3:3|0:2,0:2:0:0:
173,252,81306,6,0,P|129:169|150:130,1,144,2|0,1:2|1:2,0:2:0:0:
147,45,81836,1,2,0:2:0:0:
234,70,82012,2,0,L|304:56,1,72,0|0,1:2|0:2,0:2:0:0:
419,6,82365,2,0,L|400:148,1,144,2|0,1:2|1:2,0:2:0:0:
479,212,82895,1,2,0:2:0:0:
413,268,83071,2,0,L|320:281,1,72,0|0,1:2|0:2,0:2:0:0:
169,350,83424,2,0,P|164:314|181:283,1,72,2|0,1:2|0:2,0:0:0:0:
261,296,83777,2,0,P|265:331|248:362,1,72,2|0,1:2|0:2,0:0:0:0:
109,260,84130,6,0,B|153:273|182:243|166:236|193:208|241:219,1,144,2|0,1:2|1:2,0:2:0:0:
341,277,84659,1,2,0:2:0:0:
415,226,84836,2,0,L|406:149,1,72,0|0,1:2|0:2,0:2:0:0:
483,22,85189,6,0,L|503:185,1,144,2|0,1:2|1:2,0:2:0:0:
406,154,85718,1,2,0:2:0:0:
330,195,85895,2,0,L|253:186,1,72,0|0,1:2|0:2,0:0:0:0:
145,89,86247,2,0,P|140:53|157:22,1,72,2|0,1:2|0:2,0:0:0:0:
237,35,86600,2,0,P|241:70|224:101,1,72,2|0,1:2|0:2,0:0:0:0:
98,163,86953,6,0,L|3:149,1,72,6|0,1:2|0:2,0:0:0:0:
0,162,87218,1,2,0:2:0:0:
0,162,87306,2,0,L|9:234,1,72,0|2,0:0|0:2,0:0:0:0:
102,259,87659,2,0,L|173:269,1,72,2|0,1:2|0:2,0:0:0:0:
193,262,87924,1,2,0:2:0:0:
193,262,88012,2,0,L|202:334,1,72,0|2,1:2|0:2,0:2:0:0:
130,384,88365,5,0,1:2:0:0:
276,290,88541,2,0,L|431:299,1,144,2|0,0:2|0:2,0:0:0:0:
463,196,89071,2,0,L|445:118,1,72,2|0,1:2|0:2,0:0:0:0:
349,133,89424,2,0,L|366:210,1,72,2|0,1:2|0:2,0:0:0:0:
276,290,89777,6,0,L|245:149,2,144,2|0|0,1:2|1:2|1:2,0:2:0:0:
300,371,90659,1,0,0:2:0:0:
207,364,90836,2,0,L|122:358,1,72,2|0,1:2|0:2,0:0:0:0:
9,290,91188,2,0,P|36:266|72:268,1,72,2|2,1:2|0:2,0:0:0:0:
89,279,91453,1,2,0:0:0:0:
89,279,91541,2,0,L|83:188,1,72,2|2,1:2|0:2,0:0:0:0:
7,117,91894,5,2,1:2:0:0:
84,80,92071,1,2,1:2:0:0:
151,132,92247,2,0,L|227:122,1,72,2|0,1:2|0:2,0:2:0:0:
408,107,92600,6,0,P|416:67|401:30,1,80.9999975280763,6|0,1:2|0:0,0:2:0:0:
314,152,92953,1,10,0:2:0:0:
408,198,93130,2,0,P|449:195|483:160,1,80.9999975280763,2|0,0:2|0:0,0:2:0:0:
307,247,93483,1,2,0:2:0:0:
445,288,93660,2,0,P|391:239|291:258,1,161.999995056153,10|0,0:2|1:2,0:2:0:0:
239,338,94189,5,2,0:2:0:0:
208,166,94365,2,0,L|220:247,1,80.9999975280763,10|0,0:2|0:2,0:0:0:0:
149,304,94718,5,2,1:2:0:0:
306,246,94895,1,2,0:2:0:0:
107,221,95071,2,0,L|23:208,1,80.9999975280763,10|2,0:2|0:2,0:0:0:0:
280,158,95424,6,0,P|319:149|356:164,1,80.9999975280763,2|0,1:2|0:0,0:2:0:0:
219,246,95777,1,10,0:2:0:0:
203,86,95954,2,0,P|177:116|174:156,1,80.9999975280763,2|0,0:2|0:0,0:2:0:0:
306,246,96307,1,2,0:2:0:0:
80,204,96484,2,0,P|134:253|234:234,1,161.999995056153,10|0,0:2|1:2,0:2:0:0:
356,164,97012,5,2,0:2:0:0:
407,237,97189,2,0,L|394:328,1,80.9999975280763,10|0,0:2|0:2,0:0:0:0:
461,372,97542,1,2,1:2:0:0:
496,193,97718,5,10,0:2:0:0:
301,340,97895,2,0,L|312:259,1,80.9999975280763,10|2,0:2|1:2,0:0:0:0:
231,142,98247,5,4,1:2:0:0:
150,194,98424,1,2,0:0:0:0:
36,118,98600,2,0,P|63:88|103:84,1,80.9999975280763,10|2,0:2|0:2,0:0:0:0:
134,101,98865,1,0,0:0:0:0:
134,101,98953,2,0,L|145:15,1,80.9999975280763,2|0,1:2|0:0,0:2:0:0:
30,220,99306,1,10,0:2:0:0:
150,194,99483,1,2,0:2:0:0:
204,324,99659,6,0,L|307:349,1,80.9999975280763,2|2,1:2|0:2,0:2:0:0:
309,331,99924,1,2,0:2:0:0:
309,331,100012,2,0,L|302:246,1,80.9999975280763,10|2,0:2|0:2,0:0:0:0:
311,143,100365,1,0,1:2:0:0:
239,181,100541,1,0,1:2:0:0:
409,249,100718,2,0,P|438:217|427:162,1,80.9999975280763,10|0,0:2|1:2,0:2:0:0:
426,163,100983,1,0,1:2:0:0:
426,163,101071,6,0,L|452:18,1,121.499996292114,6|0,1:2|0:2,0:2:0:0:
452,19,101424,2,0,L|355:24,1,80.9999975280763,10|0,0:2|0:2,0:2:0:0:
229,101,101777,1,2,1:2:0:0:
174,32,101953,1,0,1:2:0:0:
318,84,102130,2,0,L|299:182,1,80.9999975280763,10|8,0:2|0:2,0:0:0:0:
310,190,102394,1,8,0:2:0:0:
310,190,102483,6,0,L|372:184,3,40.4999987640381,2|8|8|8,1:2|0:2|0:2|0:2,0:0:0:0:
212,231,102835,2,0,L|150:225,3,40.4999987640381,0|8|8|8,1:2|0:2|0:2|0:2,0:0:0:0:
341,317,103188,2,0,L|349:248,1,40.4999987640381,2|0,1:2|0:2,0:2:0:0:
183,354,103365,2,0,L|191:285,1,40.4999987640381,0|0,1:2|0:2,0:2:0:0:
348,326,103541,2,0,L|356:257,1,40.4999987640381,0|0,1:2|0:2,0:2:0:0:
190,363,103718,2,0,L|198:294,1,40.4999987640381,0|0,1:2|0:2,0:2:0:0:
267,285,103894,5,4,1:2:0:0:
316,335,114483,5,2,1:2:0:0:
493,307,114659,1,8,0:2:0:0:
493,307,114747,1,8,0:2:0:0:
493,307,114835,1,0,1:2:0:0:
412,363,115012,1,8,0:2:0:0:
279,256,115188,6,0,B|200:242|238:301|156:289,1,135,6|0,1:2|0:2,0:2:0:0:
158,308,115541,1,2,1:2:0:0:
158,308,115630,1,0,0:2:0:0:
158,308,115718,2,0,L|90:313,1,45,0|0,0:2|0:2,0:0:0:0:
26,258,115894,2,0,L|35:201,3,45,2|0|0|0,1:2|0:2|0:2|0:2,0:0:0:0:
123,187,116247,2,0,L|132:130,3,45,2|0|0|0,1:2|0:2|0:2|0:2,0:0:0:0:
62,93,116600,1,2,1:2:0:0:
214,168,116777,5,2,0:2:0:0:
214,168,116865,1,0,0:2:0:0:
214,168,116953,2,0,L|280:159,3,45,2|0|2|0,1:2|0:2|0:2|0:2,0:0:0:0:
335,198,117306,2,0,L|344:141,3,45,0|0|2|0,1:2|0:2|0:2|0:2,0:0:0:0:
130,142,117659,2,0,L|139:85,3,45,0|0|0|0,1:2|0:2|0:2|0:2,0:0:0:0:
236,41,118012,5,2,1:2:0:0:
236,41,118100,1,0,0:2:0:0:
236,41,118188,2,0,L|246:108,1,45,0|0,0:2|0:2,0:0:0:0:
155,220,118365,1,2,1:2:0:0:
125,224,118453,1,0,0:2:0:0:
96,217,118541,1,0,0:2:0:0:
258,161,118718,5,2,1:2:0:0:
290,152,118806,1,0,0:2:0:0:
323,158,118894,1,0,0:2:0:0:
350,177,118982,1,0,0:2:0:0:
366,207,119070,1,2,1:2:0:0:
458,243,119247,6,0,L|507:235,2,45,2|0|0,0:2|0:2|1:2,0:0:0:0:
310,290,119600,1,2,0:2:0:0:
366,207,119777,1,2,1:2:0:0:
491,316,119953,1,2,0:2:0:0:
491,316,120041,1,0,0:2:0:0:
491,316,120130,2,0,P|512:275|499:231,1,90,0|2,1:2|0:2,0:2:0:0:
445,119,120483,2,0,L|454:67,2,45,2|0|0,1:2|0:2|0:2,0:2:0:0:
366,207,120835,6,0,L|276:199,1,90,2|2,1:2|0:2,0:0:0:0:
223,118,121188,1,2,1:2:0:0:
252,295,121365,2,0,L|221:108,1,180,2|0,0:2|0:2,0:2:0:0:
92,95,121894,1,2,1:2:0:0:
167,51,122071,2,0,L|178:-3,2,45,0|0|0,0:2|0:2|1:2,0:2:0:0:
27,154,122424,6,0,P|0:108|10:67,1,90,2|0,0:2|1:2,0:2:0:0:
126,172,122777,2,0,L|96:352,1,180,2|2,0:2|0:2,0:0:0:0:
110,371,123218,1,2,0:2:0:0:
110,371,123306,2,0,L|218:365,1,90,2|0,1:2|0:2,0:2:0:0:
348,303,123659,5,2,1:2:0:0:
414,364,123835,2,0,B|364:379|323:339|358:331|312:287|243:310,1,180,2|0,0:2|0:2,0:0:0:0:
203,242,124365,1,2,1:2:0:0:
189,224,124453,1,0,0:2:0:0:
182,202,124541,1,0,0:2:0:0:
183,180,124629,1,0,0:2:0:0:
191,159,124718,2,0,L|204:90,3,45,2|0|0|0,1:2|0:2|0:2|0:2,0:0:0:0:
140,55,125071,5,6,1:2:0:0:
292,114,125247,1,8,0:2:0:0:
292,114,125335,1,8,0:2:0:0:
292,114,125424,2,0,L|395:102,1,90,8|8,0:2|0:2,0:0:0:0:
191,159,125777,5,8,0:2:0:0:
291,23,125953,1,0,1:2:0:0:
359,231,126130,5,8,0:2:0:0:
292,114,126306,1,8,0:2:0:0:
250,290,126483,5,4,1:2:0:0:
250,290,126835,2,0,L|259:203,1,72,10|0,0:2|0:2,0:2:0:0:
87,258,127188,2,0,L|7:266,1,72,2|0,1:2|0:2,0:0:0:0:
119,166,127541,2,0,L|190:158,1,72,10|0,0:2|0:2,0:2:0:0:
164,297,127894,2,0,L|157:369,2,72,2|2|8,1:2|0:2|0:2,0:0:0:0:
257,218,128424,2,0,P|301:221|328:259,1,72,2|0,0:2|1:2,0:2:0:0:
393,190,128777,2,0,P|412:229|392:271,1,72,2|8,0:2|0:2,0:2:0:0:
324,382,129130,6,0,L|319:209,1,144,2|2,0:2|0:2,0:2:0:0:
163,262,129659,2,0,L|74:271,1,72,10|0,0:2|0:2,0:2:0:0:
1,121,130012,1,2,1:2:0:0:
108,155,130188,1,2,0:2:0:0:
3,285,130365,1,10,0:2:0:0:
41,193,130541,6,0,L|184:178,1,144,2|0,0:2|0:2,0:2:0:0:
313,92,131071,2,0,P|256:78|224:107,1,72,10|0,0:2|0:2,0:0:0:0:
373,208,131424,1,2,1:2:0:0:
271,163,131600,1,8,0:2:0:0:
465,92,131777,1,10,0:2:0:0:
415,300,131953,6,0,L|389:109,1,180,6|2,1:2|1:2,0:2:0:0:
181,178,132483,2,0,L|86:160,1,90,10|0,0:2|0:2,0:0:0:0:
75,180,132747,1,0,0:0:0:0:
75,180,132835,2,0,L|60:79,1,90,0|2,1:2|1:2,0:0:0:0:
1,225,133188,1,10,0:2:0:0:
181,178,133365,2,0,B|225:170|255:200|232:207|268:239|311:227,1,135,2|0,1:2|0:2,0:2:0:0:
407,257,133718,2,0,P|375:213|305:252,1,135,0|0,1:2|0:2,0:2:0:0:
338,377,134071,6,0,L|349:300,1,45,0|0,1:2|0:2,0:2:0:0:
348,308,134247,1,0,1:2:0:0:
106,330,134777,6,0,L|25:341,2,72,2|2|2,0:2|0:2|0:2,0:0:0:0:
181,359,135659,1,2,0:2:0:0:
402,310,136365,6,0,L|461:302,1,54,2|0,0:3|0:2,0:2:0:0:
468,314,136718,2,0,L|414:321,1,54,2|0,0:3|0:2,0:2:0:0:
402,310,137071,1,2,0:3:0:0:
321,337,137247,6,0,L|326:284,1,45,2|0,0:3|0:2,0:2:0:0:
241,331,137424,2,0,L|246:278,1,45,2|0,0:3|0:2,0:2:0:0:
161,325,137600,2,0,L|166:272,1,45,2|0,0:3|0:2,0:2:0:0:
15,370,137777,5,6,1:2:0:0:
139,188,137953,1,2,0:2:0:0:
139,188,138041,1,2,0:2:0:0:
139,188,138130,1,10,0:2:0:0:
165,280,138306,1,2,0:2:0:0:
0,156,138482,2,0,P|43:121|101:147,1,90,2|0,1:2|0:0,0:2:0:0:
238,183,138835,5,10,0:2:0:0:
144,21,139012,2,0,B|171:57|156:118|125:91|105:144|140:190,1,180,2|2,0:2|0:2,0:2:0:0:
328,160,139541,2,0,L|443:141,1,90,10|2,0:2|0:2,0:2:0:0:
238,183,139894,5,2,1:2:0:0:
309,49,140071,1,2,0:2:0:0:
392,257,140247,1,10,0:2:0:0:
320,176,140424,1,2,0:2:0:0:
200,249,140600,6,0,B|151:258|130:234|149:224|110:199|67:219,1,135,2|0,1:2|0:0,0:2:0:0:
52,226,140953,1,8,0:2:0:0:
196,169,141130,1,2,0:2:0:0:
144,384,141306,2,0,L|129:268,1,90,2|0,1:2|0:2,0:2:0:0:
131,275,141571,1,0,0:2:0:0:
131,275,141659,1,8,0:2:0:0:
263,297,141835,5,2,0:2:0:0:
62,147,142012,2,0,P|38:183|51:225,1,90,2|0,1:2|0:2,0:2:0:0:
206,88,142365,2,0,L|189:0,1,90,10|0,0:2|0:2,0:2:0:0:
107,81,142718,5,2,1:2:0:0:
171,179,142894,1,8,0:2:0:0:
301,46,143071,2,0,P|337:22|379:35,1,90,8|2,0:2|0:2,0:0:0:0:
206,88,143424,5,2,1:2:0:0:
404,202,143600,1,2,0:2:0:0:
404,202,143688,1,2,0:2:0:0:
404,202,143777,1,10,0:2:0:0:
355,111,143953,1,2,0:2:0:0:
256,294,144129,2,0,L|344:278,1,90,2|0,1:2|0:0,0:2:0:0:
188,230,144482,5,10,0:2:0:0:
386,381,144659,2,0,L|404:202,1,180,2|2,0:2|0:2,0:2:0:0:
487,68,145188,2,0,P|506:107|498:151,1,90,10|2,0:2|0:2,0:2:0:0:
380,33,145541,5,2,1:2:0:0:
490,232,145718,1,2,0:2:0:0:
312,166,145894,1,10,0:2:0:0:
401,123,146071,1,2,0:2:0:0:
443,326,146247,6,0,P|387:280|306:309,1,135,2|0,1:2|0:0,0:2:0:0:
307,304,146600,1,8,0:2:0:0:
169,213,146777,1,2,0:2:0:0:
228,156,146953,2,0,P|257:196|238:250,1,90,2|0,1:2|0:2,0:2:0:0:
79,219,147306,2,0,L|169:212,1,90,10|0,0:2|0:2,0:2:0:0:
399,115,147659,5,2,1:2:0:0:
307,304,147835,1,2,0:2:0:0:
448,314,148012,5,10,0:2:0:0:
367,225,148188,1,2,0:2:0:0:
244,366,148365,2,0,L|153:371,1,90,2|8,1:2|0:2,0:0:0:0:
133,376,148630,1,8,0:2:0:0:
133,376,148718,1,8,0:2:0:0:
125,159,148894,5,10,0:2:0:0:
125,159,148983,1,10,0:2:0:0:
125,159,149071,1,2,1:2:0:0:
48,339,149247,2,0,L|39:384,2,45,2|2|10,0:2|0:2|0:2,0:0:0:0:
0,266,149600,1,2,0:2:0:0:
204,191,149776,2,0,P|217:141|192:107,1,90,2|0,1:2|0:0,0:2:0:0:
27,184,150129,5,10,0:2:0:0:
187,275,150306,2,0,B|237:296|283:263|257:240|304:210|346:227,1,180,2|2,0:2|0:2,0:2:0:0:
460,345,150835,2,0,L|371:329,1,90,8|2,0:2|0:2,0:2:0:0:
249,214,151188,5,2,1:2:0:0:
401,123,151365,1,2,0:2:0:0:
372,330,151541,1,10,0:2:0:0:
346,227,151718,1,2,0:2:0:0:
168,292,151894,2,0,L|46:311,1,90,2|0,1:2|0:2,0:2:0:0:
42,119,152247,2,0,L|164:100,1,90,10|0,0:2|0:2,0:0:0:0:
79,305,152600,2,0,L|93:184,1,90,2|0,1:2|0:2,0:2:0:0:
92,193,152865,1,0,0:2:0:0:
92,193,152953,1,10,0:2:0:0:
214,132,153129,5,2,0:2:0:0:
55,35,153306,2,0,P|35:75|50:131,1,90,2|2,1:2|0:2,0:2:0:0:
153,25,153659,1,8,0:2:0:0:
266,182,153835,1,2,0:2:0:0:
126,113,154012,1,0,1:2:0:0:
0,203,154188,5,8,0:2:0:0:
176,192,154365,2,0,L|265:182,1,90,8|2,0:2|0:2,0:0:0:0:
409,270,154718,5,2,1:2:0:0:
333,93,154894,1,2,0:2:0:0:
333,93,154982,1,2,0:2:0:0:
333,93,155071,1,10,0:2:0:0:
265,181,155247,1,2,0:2:0:0:
444,100,155423,2,0,L|428:188,1,90,2|0,1:2|0:0,0:2:0:0:
291,263,155776,5,10,0:2:0:0:
506,249,155953,2,0,B|454:267|408:224|445:218|399:179|341:199,1,180,2|2,0:2|0:2,0:2:0:0:
188,125,156482,2,0,P|168:85|176:41,1,90,10|2,0:2|0:2,0:2:0:0:
268,233,156835,5,2,1:2:0:0:
116,168,157012,1,2,0:2:0:0:
317,56,157188,1,10,0:2:0:0:
273,141,157365,1,2,0:2:0:0:
163,27,157541,6,0,L|26:10,1,135,2|0,1:2|0:0,0:2:0:0:
9,7,157894,1,8,0:2:0:0:
188,125,158071,1,2,0:2:0:0:
76,204,158247,2,0,L|69:114,1,90,2|0,1:2|0:2,0:2:0:0:
256,0,158600,2,0,P|278:37|266:80,1,90,10|0,0:2|0:2,0:2:0:0:
76,204,158953,5,2,1:2:0:0:
305,256,159129,1,2,0:2:0:0:
183,267,159306,5,10,0:2:0:0:
222,191,159482,1,2,0:2:0:0:
316,340,159659,2,0,L|324:384,2,45,2|0|8,1:2|1:2|0:2,0:0:0:0:
222,191,160012,5,0,1:2:0:0:
469,154,160188,1,8,0:2:0:0:
353,7,160365,6,0,L|342:96,1,90,2|0,1:2|0:0,0:2:0:0:
222,191,160718,2,0,L|233:102,1,90,8|2,0:2|0:2,0:0:0:0:
252,19,161071,1,0,1:2:0:0:
342,97,161247,1,0,1:2:0:0:
222,191,161424,2,0,B|173:205|132:161|169:153|124:101|74:120,1,180,10|0,0:2|1:2,0:0:0:0:
233,101,161953,5,2,0:2:0:0:
118,194,162130,2,0,L|133:300,1,90,10|2,0:2|0:2,0:0:0:0:
299,255,162482,5,2,1:2:0:0:
222,191,162659,1,2,1:2:0:0:
61,348,162835,2,0,L|47:258,1,90,10|2,0:2|0:2,0:0:0:0:
195,351,163188,6,0,L|306:369,1,90,2|0,1:2|0:0,0:2:0:0:
387,268,163541,2,0,L|298:254,1,90,8|2,0:2|0:2,0:0:0:0:
200,103,163894,1,0,1:2:0:0:
300,153,164071,1,0,1:2:0:0:
146,280,164247,1,10,0:2:0:0:
205,192,164424,2,0,L|199:93,1,90,2|0,0:2|1:2,0:2:0:0:
107,89,164777,5,2,0:2:0:0:
276,0,164953,2,0,P|296:17|292:92,1,90,10|2,0:2|0:2,0:0:0:0:
187,0,165306,5,2,1:2:0:0:
203,190,165482,1,10,0:2:0:0:
203,190,165571,1,8,0:0:0:0:
203,190,165659,1,10,0:2:0:0:
395,124,165835,5,10,0:2:0:0:
395,124,165924,1,8,0:0:0:0:
395,124,166012,2,0,L|493:135,1,90,6|0,1:2|0:0,0:2:0:0:
332,264,166365,2,0,L|243:253,1,90,8|2,0:2|1:2,0:0:0:0:
489,366,166718,5,8,0:2:0:0:
415,218,166894,1,0,1:2:0:0:
274,367,167071,5,10,0:2:0:0:
406,317,167247,1,0,1:2:0:0:
179,334,167424,2,0,L|71:339,1,90,8|2,0:2|1:2,0:0:0:0:
242,252,167777,5,10,0:2:0:0:
289,383,167953,1,2,1:2:0:0:
133,257,168130,2,0,L|142:194,1,45,10|0,1:2|0:0,0:0:0:0:
259,133,168306,1,2,1:2:0:0:
256,152,168394,1,0,1:0:0:0:
254,171,168482,1,2,1:2:0:0:
252,191,168570,1,0,1:0:0:0:
249,210,168658,1,2,1:2:0:0:
247,229,168747,1,0,1:0:0:0:
245,249,168835,5,2,1:2:0:0:
341,244,169541,5,0,1:2:0:0:
437,239,170247,6,0,L|441:218,1,11.25,2|0,0:1|0:2,0:2:0:0:
