osu file format v14

[General]
AudioFilename: audio.mp3
AudioLeadIn: 0
PreviewTime: 63985
Countdown: 0
SampleSet: Soft
StackLeniency: 0.7
Mode: 3
LetterboxInBreaks: 0
SpecialStyle: 0
WidescreenStoryboard: 0

[Editor]
DistanceSpacing: 1.7
BeatDivisor: 4
GridSize: 32
TimelineZoom: 1.4

[Metadata]
Title:Dadadada Tenshi
TitleUnicode:ダダダダ天使
Artist:Minato Aqua
ArtistUnicode:湊あくあ
Creator:DenYi
Version:Tenshi Desuka?
Source:
Tags:Sherly AchsanLovers Enrique226 vtuber virtual youtuber ホロライブ hololive jpop j-pop pop cover japanese ナナヲアカリ nanawo akari ナユタン星人 nayutalien nayuta seijin カラオケ highkarasound ハイカラサウンド
BeatmapID:3703851
BeatmapSetID:1806101

[Difficulty]
HPDrainRate:8
CircleSize:4
OverallDifficulty:8
ApproachRate:5
SliderMultiplier:1.4
SliderTickRate:1

[Events]
//Background and Video events
Video,-93,"tenshi.mp4"
0,0,"den.jpg",0,0
//Break Periods
//Storyboard Layer 0 (Background)
//Storyboard Layer 1 (Fail)
//Storyboard Layer 2 (Pass)
//Storyboard Layer 3 (Foreground)
//Storyboard Layer 4 (Overlay)
//Storyboard Sound Samples

[TimingPoints]
2652,333.333333333333,4,2,1,50,1,0
63985,-100,4,2,1,50,0,1
84985,-100,4,2,1,50,0,0
85318,-100,4,2,1,50,0,1
95985,-100,4,2,1,50,0,0
117318,-100,4,2,1,50,0,1
121318,-100,4,2,1,50,0,0
122651,-100,4,2,1,50,0,1
126651,-100,4,2,1,50,0,0
170651,-100,4,2,1,50,0,1
191651,-100,4,2,1,50,0,0
191985,-100,4,2,1,50,0,1
202318,-100,4,2,1,50,0,0

[HitObjects]
64,192,2651,128,0,2818:0:0:0:0:
192,192,2651,128,0,2818:0:0:0:0:
448,192,2651,128,0,2818:0:0:0:0:
448,192,2985,128,0,3151:0:0:0:0:
192,192,2985,128,0,3151:0:0:0:0:
64,192,2985,128,0,3151:0:0:0:0:
64,192,3318,1,0,0:0:0:0:
448,192,3318,1,0,0:0:0:0:
64,192,3485,128,0,3651:0:0:0:0:
320,192,3485,128,0,3651:0:0:0:0:
448,192,3485,128,0,3651:0:0:0:0:
64,192,3818,1,0,0:0:0:0:
192,192,3818,1,0,0:0:0:0:
448,192,3818,1,0,0:0:0:0:
192,192,3985,1,0,0:0:0:0:
320,192,3985,1,0,0:0:0:0:
320,192,4151,1,0,0:0:0:0:
64,192,4151,1,0,0:0:0:0:
448,192,4151,1,0,0:0:0:0:
192,192,4318,1,0,0:0:0:0:
320,192,4318,1,0,0:0:0:0:
64,192,4485,1,0,0:0:0:0:
192,192,4485,1,0,0:0:0:0:
448,192,4485,1,0,0:0:0:0:
64,192,4651,128,0,4818:0:0:0:0:
192,192,4651,128,0,4818:0:0:0:0:
448,192,4651,128,0,4818:0:0:0:0:
320,192,4985,128,0,5068:0:0:0:0:
192,192,4985,128,0,5151:0:0:0:0:
320,192,5151,1,0,0:0:0:0:
448,192,5318,1,0,0:0:0:0:
192,192,5318,1,0,0:0:0:0:
64,192,5318,128,0,5485:0:0:0:0:
448,192,5485,128,0,5651:0:0:0:0:
192,192,5651,128,0,5985:0:0:0:0:
64,192,5651,1,0,0:0:0:0:
320,192,5651,1,0,0:0:0:0:
320,192,5818,128,0,5985:0:0:0:0:
448,192,5985,1,0,0:0:0:0:
64,192,5985,1,0,0:0:0:0:
320,192,6151,128,0,6318:0:0:0:0:
448,192,6318,128,0,6651:0:0:0:0:
192,192,6318,1,0,0:0:0:0:
64,192,6318,1,0,0:0:0:0:
64,192,6485,128,0,6651:0:0:0:0:
320,192,6651,1,0,0:0:0:0:
192,192,6651,1,0,0:0:0:0:
64,192,6818,128,0,6985:0:0:0:0:
320,192,6985,128,0,7151:0:0:0:0:
448,192,6985,1,0,0:0:0:0:
192,192,6985,1,0,0:0:0:0:
192,192,7151,128,0,7318:0:0:0:0:
448,192,7318,128,0,7485:0:0:0:0:
64,192,7318,1,0,0:0:0:0:
320,192,7485,128,0,7651:0:0:0:0:
64,192,7651,128,0,7985:0:0:0:0:
192,192,7651,1,0,0:0:0:0:
448,192,7651,1,0,0:0:0:0:
320,192,7818,1,0,0:0:0:0:
448,192,7985,128,0,8151:0:0:0:0:
192,192,7985,1,0,0:0:0:0:
192,192,8151,128,0,8318:0:0:0:0:
448,192,8318,1,0,0:0:0:0:
320,192,8318,1,0,0:0:0:0:
64,192,8318,128,0,8651:0:0:0:0:
320,192,8485,128,0,8651:0:0:0:0:
448,192,8651,1,0,0:0:0:0:
192,192,8651,1,0,0:0:0:0:
320,192,8818,128,0,8985:0:0:0:0:
448,192,8985,128,0,9318:0:0:0:0:
192,192,8985,1,0,0:0:0:0:
64,192,8985,1,0,0:0:0:0:
192,192,9151,128,0,9318:0:0:0:0:
320,192,9318,1,0,0:0:0:0:
64,192,9318,1,0,0:0:0:0:
192,192,9485,128,0,9651:0:0:0:0:
320,192,9651,128,0,9818:0:0:0:0:
448,192,9651,1,0,0:0:0:0:
64,192,9651,1,0,0:0:0:0:
64,192,9818,128,0,9985:0:0:0:0:
448,192,9985,128,0,10151:0:0:0:0:
320,192,9985,1,0,0:0:0:0:
192,192,10151,128,0,10318:0:0:0:0:
448,192,10318,1,0,0:0:0:0:
320,192,10318,1,0,0:0:0:0:
192,192,10401,1,0,0:0:0:0:
448,192,10485,1,0,0:0:0:0:
64,192,10485,1,0,0:0:0:0:
320,192,10568,1,0,0:0:0:0:
64,192,10651,1,0,0:0:0:0:
448,192,10651,1,0,0:0:0:0:
192,192,10651,128,0,10985:0:0:0:0:
320,192,10818,128,0,11151:0:0:0:0:
64,192,10985,128,0,11318:0:0:0:0:
448,192,10985,1,0,0:0:0:0:
192,192,11151,128,0,11318:0:0:0:0:
448,192,11318,1,0,0:0:0:0:
320,192,11318,1,0,0:0:0:0:
192,192,11485,128,0,11818:0:0:0:0:
448,192,11651,128,0,11985:0:0:0:0:
320,192,11651,1,0,0:0:0:0:
64,192,11651,1,0,0:0:0:0:
320,192,11818,128,0,11985:0:0:0:0:
192,192,11985,1,0,0:0:0:0:
64,192,11985,1,0,0:0:0:0:
64,192,12151,128,0,12318:0:0:0:0:
320,192,12318,128,0,12651:0:0:0:0:
448,192,12318,1,0,0:0:0:0:
192,192,12318,1,0,0:0:0:0:
192,192,12485,128,0,12651:0:0:0:0:
64,192,12651,128,0,12985:0:0:0:0:
448,192,12651,1,0,0:0:0:0:
448,192,12818,128,0,12985:0:0:0:0:
192,192,12985,128,0,13318:0:0:0:0:
320,192,12985,1,0,0:0:0:0:
448,192,13151,1,0,0:0:0:0:
448,192,13318,1,0,0:0:0:0:
64,192,13318,1,0,0:0:0:0:
320,192,13318,128,0,13651:0:0:0:0:
192,192,13485,128,0,13818:0:0:0:0:
448,192,13651,128,0,13985:0:0:0:0:
64,192,13651,1,0,0:0:0:0:
320,192,13818,128,0,13985:0:0:0:0:
64,192,13985,1,0,0:0:0:0:
192,192,13985,1,0,0:0:0:0:
320,192,14151,128,0,14485:0:0:0:0:
64,192,14318,128,0,14651:0:0:0:0:
192,192,14318,1,0,0:0:0:0:
448,192,14318,1,0,0:0:0:0:
192,192,14485,128,0,14651:0:0:0:0:
320,192,14651,1,0,0:0:0:0:
448,192,14651,1,0,0:0:0:0:
64,192,14818,1,0,0:0:0:0:
448,192,14818,1,0,0:0:0:0:
192,192,14818,1,0,0:0:0:0:
64,192,14985,1,0,0:0:0:0:
448,192,14985,1,0,0:0:0:0:
192,192,14985,1,0,0:0:0:0:
64,192,15151,1,0,0:0:0:0:
192,192,15151,1,0,0:0:0:0:
448,192,15151,1,0,0:0:0:0:
448,192,15318,1,0,0:0:0:0:
64,192,15318,1,0,0:0:0:0:
192,192,15318,1,0,0:0:0:0:
320,192,15485,1,0,0:0:0:0:
448,192,15485,1,0,0:0:0:0:
192,192,15568,1,0,0:0:0:0:
320,192,15651,1,0,0:0:0:0:
64,192,15651,1,0,0:0:0:0:
448,192,15735,1,0,0:0:0:0:
192,192,15818,1,0,0:0:0:0:
320,192,15901,1,0,0:0:0:0:
448,192,15985,1,0,0:0:0:0:
64,192,15985,1,0,0:0:0:0:
192,192,15985,128,0,16151:0:0:0:0:
320,192,16151,128,0,16318:0:0:0:0:
64,192,16318,128,0,16401:0:0:0:0:
192,192,16318,1,0,0:0:0:0:
448,192,16318,1,0,0:0:0:0:
64,192,16485,128,0,16651:0:0:0:0:
448,192,16651,1,0,0:0:0:0:
320,192,16651,1,0,0:0:0:0:
192,192,16818,128,0,16985:0:0:0:0:
320,192,16985,128,0,17068:0:0:0:0:
64,192,16985,1,0,0:0:0:0:
448,192,16985,1,0,0:0:0:0:
320,192,17151,128,0,17318:0:0:0:0:
64,192,17318,1,0,0:0:0:0:
192,192,17318,1,0,0:0:0:0:
448,192,17485,128,0,17651:0:0:0:0:
320,192,17651,1,0,0:0:0:0:
64,192,17651,128,0,17818:0:0:0:0:
192,192,17651,1,0,0:0:0:0:
192,192,17818,128,0,17985:0:0:0:0:
320,192,17985,128,0,18151:0:0:0:0:
448,192,17985,1,0,0:0:0:0:
64,192,18068,1,0,0:0:0:0:
192,192,18151,128,0,18318:0:0:0:0:
64,192,18318,1,0,0:0:0:0:
448,192,18318,128,0,18485:0:0:0:0:
320,192,18318,1,0,0:0:0:0:
320,192,18485,128,0,18651:0:0:0:0:
64,192,18651,128,0,18818:0:0:0:0:
192,192,18818,128,0,18985:0:0:0:0:
448,192,18985,128,0,19068:0:0:0:0:
64,192,18985,1,0,0:0:0:0:
320,192,18985,1,0,0:0:0:0:
448,192,19151,128,0,19318:0:0:0:0:
64,192,19318,1,0,0:0:0:0:
192,192,19318,1,0,0:0:0:0:
320,192,19485,128,0,19651:0:0:0:0:
192,192,19651,128,0,19735:0:0:0:0:
448,192,19651,1,0,0:0:0:0:
64,192,19651,1,0,0:0:0:0:
192,192,19818,128,0,19985:0:0:0:0:
320,192,19985,1,0,0:0:0:0:
448,192,19985,1,0,0:0:0:0:
64,192,20151,128,0,20485:0:0:0:0:
192,192,20318,128,0,20485:0:0:0:0:
448,192,20318,1,0,0:0:0:0:
320,192,20485,128,0,20651:0:0:0:0:
448,192,20651,128,0,20985:0:0:0:0:
64,192,20651,1,0,0:0:0:0:
192,192,20735,1,0,0:0:0:0:
320,192,20818,128,0,20985:0:0:0:0:
64,192,20985,1,0,0:0:0:0:
192,192,20985,1,0,0:0:0:0:
320,192,21068,1,0,0:0:0:0:
64,192,21151,1,0,0:0:0:0:
448,192,21151,1,0,0:0:0:0:
192,192,21235,1,0,0:0:0:0:
64,192,21318,1,0,0:0:0:0:
448,192,21318,1,0,0:0:0:0:
320,192,21318,128,0,21485:0:0:0:0:
192,192,21485,128,0,21651:0:0:0:0:
448,192,21651,128,0,21735:0:0:0:0:
320,192,21651,1,0,0:0:0:0:
64,192,21651,1,0,0:0:0:0:
448,192,21818,128,0,21985:0:0:0:0:
64,192,21985,1,0,0:0:0:0:
192,192,21985,1,0,0:0:0:0:
320,192,22151,128,0,22318:0:0:0:0:
192,192,22318,128,0,22401:0:0:0:0:
448,192,22318,1,0,0:0:0:0:
64,192,22318,1,0,0:0:0:0:
192,192,22485,128,0,22651:0:0:0:0:
448,192,22651,1,0,0:0:0:0:
320,192,22651,1,0,0:0:0:0:
64,192,22818,128,0,22985:0:0:0:0:
192,192,22985,1,0,0:0:0:0:
448,192,22985,128,0,23151:0:0:0:0:
320,192,22985,1,0,0:0:0:0:
320,192,23151,128,0,23318:0:0:0:0:
192,192,23318,128,0,23485:0:0:0:0:
64,192,23318,1,0,0:0:0:0:
448,192,23401,1,0,0:0:0:0:
320,192,23485,128,0,23651:0:0:0:0:
448,192,23651,1,0,0:0:0:0:
64,192,23651,128,0,23818:0:0:0:0:
192,192,23651,1,0,0:0:0:0:
192,192,23818,128,0,23985:0:0:0:0:
448,192,23985,128,0,24151:0:0:0:0:
64,192,23985,1,0,0:0:0:0:
320,192,24151,128,0,24318:0:0:0:0:
64,192,24318,128,0,24401:0:0:0:0:
448,192,24318,1,0,0:0:0:0:
192,192,24318,1,0,0:0:0:0:
64,192,24485,128,0,24651:0:0:0:0:
448,192,24651,1,0,0:0:0:0:
320,192,24651,1,0,0:0:0:0:
64,192,24735,1,0,0:0:0:0:
192,192,24818,128,0,24985:0:0:0:0:
320,192,24985,128,0,25068:0:0:0:0:
64,192,24985,1,0,0:0:0:0:
448,192,24985,1,0,0:0:0:0:
320,192,25151,128,0,25318:0:0:0:0:
192,192,25318,1,0,0:0:0:0:
64,192,25318,1,0,0:0:0:0:
448,192,25485,128,0,25818:0:0:0:0:
320,192,25651,128,0,25818:0:0:0:0:
192,192,25651,1,0,0:0:0:0:
64,192,25818,128,0,26151:0:0:0:0:
448,192,25901,1,0,0:0:0:0:
320,192,25985,1,0,0:0:0:0:
192,192,25985,128,0,26151:0:0:0:0:
448,192,26151,1,0,0:0:0:0:
320,192,26151,1,0,0:0:0:0:
192,192,26235,1,0,0:0:0:0:
64,192,26235,1,0,0:0:0:0:
448,192,26318,1,0,0:0:0:0:
320,192,26318,1,0,0:0:0:0:
192,192,26401,1,0,0:0:0:0:
64,192,26401,1,0,0:0:0:0:
448,192,26485,1,0,0:0:0:0:
320,192,26485,1,0,0:0:0:0:
192,192,26568,1,0,0:0:0:0:
64,192,26651,1,0,0:0:0:0:
320,192,26651,1,0,0:0:0:0:
448,192,26651,128,0,26818:0:0:0:0:
64,192,26818,128,0,26985:0:0:0:0:
320,192,26985,128,0,27318:0:0:0:0:
448,192,26985,1,0,0:0:0:0:
192,192,26985,1,0,0:0:0:0:
192,192,27151,128,0,27318:0:0:0:0:
64,192,27318,1,0,0:0:0:0:
448,192,27318,1,0,0:0:0:0:
192,192,27485,128,0,27651:0:0:0:0:
64,192,27651,128,0,27985:0:0:0:0:
320,192,27651,1,0,0:0:0:0:
448,192,27651,1,0,0:0:0:0:
448,192,27818,128,0,27985:0:0:0:0:
192,192,27985,1,0,0:0:0:0:
320,192,27985,1,0,0:0:0:0:
448,192,28151,128,0,28318:0:0:0:0:
192,192,28318,128,0,28485:0:0:0:0:
64,192,28318,1,0,0:0:0:0:
320,192,28318,1,0,0:0:0:0:
320,192,28485,128,0,28651:0:0:0:0:
64,192,28651,128,0,28818:0:0:0:0:
448,192,28651,1,0,0:0:0:0:
192,192,28818,128,0,28985:0:0:0:0:
448,192,28985,128,0,29318:0:0:0:0:
320,192,28985,1,0,0:0:0:0:
64,192,28985,1,0,0:0:0:0:
192,192,29151,1,0,0:0:0:0:
64,192,29318,128,0,29485:0:0:0:0:
320,192,29318,1,0,0:0:0:0:
320,192,29485,128,0,29651:0:0:0:0:
64,192,29651,1,0,0:0:0:0:
192,192,29651,1,0,0:0:0:0:
448,192,29651,128,0,29985:0:0:0:0:
192,192,29818,128,0,29985:0:0:0:0:
64,192,29985,1,0,0:0:0:0:
320,192,29985,1,0,0:0:0:0:
192,192,30151,128,0,30318:0:0:0:0:
64,192,30318,128,0,30651:0:0:0:0:
320,192,30318,1,0,0:0:0:0:
448,192,30318,1,0,0:0:0:0:
320,192,30485,128,0,30651:0:0:0:0:
192,192,30651,1,0,0:0:0:0:
448,192,30651,1,0,0:0:0:0:
64,192,30818,1,0,0:0:0:0:
448,192,30818,1,0,0:0:0:0:
320,192,30818,1,0,0:0:0:0:
64,192,30985,1,0,0:0:0:0:
448,192,30985,1,0,0:0:0:0:
320,192,30985,1,0,0:0:0:0:
448,192,31151,1,0,0:0:0:0:
64,192,31151,1,0,0:0:0:0:
320,192,31151,1,0,0:0:0:0:
64,192,31318,1,0,0:0:0:0:
448,192,31318,1,0,0:0:0:0:
320,192,31318,1,0,0:0:0:0:
192,192,31485,1,0,0:0:0:0:
64,192,31485,1,0,0:0:0:0:
320,192,31568,1,0,0:0:0:0:
448,192,31651,1,0,0:0:0:0:
192,192,31651,1,0,0:0:0:0:
64,192,31735,1,0,0:0:0:0:
320,192,31818,1,0,0:0:0:0:
192,192,31901,1,0,0:0:0:0:
64,192,31985,1,0,0:0:0:0:
448,192,31985,1,0,0:0:0:0:
320,192,31985,128,0,32401:0:0:0:0:
192,192,32151,128,0,32401:0:0:0:0:
448,192,32318,128,0,32401:0:0:0:0:
64,192,32318,1,0,0:0:0:0:
448,192,32485,128,0,32651:0:0:0:0:
64,192,32651,1,0,0:0:0:0:
192,192,32651,1,0,0:0:0:0:
320,192,32818,128,0,33068:0:0:0:0:
192,192,32985,128,0,33068:0:0:0:0:
448,192,32985,1,0,0:0:0:0:
64,192,32985,1,0,0:0:0:0:
192,192,33151,128,0,33318:0:0:0:0:
448,192,33318,1,0,0:0:0:0:
320,192,33318,1,0,0:0:0:0:
64,192,33485,128,0,33818:0:0:0:0:
192,192,33651,128,0,33818:0:0:0:0:
320,192,33651,1,0,0:0:0:0:
448,192,33818,128,0,33985:0:0:0:0:
320,192,33985,128,0,34318:0:0:0:0:
64,192,33985,1,0,0:0:0:0:
448,192,34068,1,0,0:0:0:0:
192,192,34151,128,0,34318:0:0:0:0:
448,192,34318,1,0,0:0:0:0:
64,192,34318,128,0,34651:0:0:0:0:
320,192,34485,1,0,0:0:0:0:
192,192,34651,1,0,0:0:0:0:
448,192,34651,128,0,35068:0:0:0:0:
320,192,34818,128,0,35068:0:0:0:0:
64,192,34985,1,0,0:0:0:0:
192,192,34985,128,0,35068:0:0:0:0:
192,192,35151,128,0,35318:0:0:0:0:
320,192,35318,1,0,0:0:0:0:
448,192,35318,1,0,0:0:0:0:
64,192,35485,128,0,35735:0:0:0:0:
448,192,35651,1,0,0:0:0:0:
192,192,35651,128,0,35735:0:0:0:0:
192,192,35818,128,0,35985:0:0:0:0:
448,192,35985,1,0,0:0:0:0:
64,192,35985,1,0,0:0:0:0:
320,192,36151,1,0,0:0:0:0:
448,192,36151,1,0,0:0:0:0:
64,192,36151,1,0,0:0:0:0:
192,192,36318,1,0,0:0:0:0:
320,192,36318,1,0,0:0:0:0:
64,192,36485,1,0,0:0:0:0:
192,192,36485,1,0,0:0:0:0:
448,192,36485,1,0,0:0:0:0:
320,192,36651,1,0,0:0:0:0:
448,192,36651,1,0,0:0:0:0:
64,192,36818,1,0,0:0:0:0:
192,192,36818,1,0,0:0:0:0:
448,192,36901,1,0,0:0:0:0:
192,192,36985,1,0,0:0:0:0:
320,192,36985,1,0,0:0:0:0:
64,192,37068,1,0,0:0:0:0:
448,192,37151,1,0,0:0:0:0:
320,192,37235,1,0,0:0:0:0:
448,192,37318,1,0,0:0:0:0:
64,192,37318,1,0,0:0:0:0:
192,192,37318,128,0,37735:0:0:0:0:
320,192,37485,128,0,37735:0:0:0:0:
64,192,37651,128,0,37735:0:0:0:0:
448,192,37651,1,0,0:0:0:0:
64,192,37818,128,0,37985:0:0:0:0:
448,192,37985,1,0,0:0:0:0:
320,192,37985,1,0,0:0:0:0:
192,192,38151,128,0,38401:0:0:0:0:
320,192,38318,128,0,38401:0:0:0:0:
64,192,38318,1,0,0:0:0:0:
448,192,38318,1,0,0:0:0:0:
320,192,38485,128,0,38651:0:0:0:0:
64,192,38651,1,0,0:0:0:0:
192,192,38651,1,0,0:0:0:0:
448,192,38818,128,0,39151:0:0:0:0:
320,192,38985,128,0,39151:0:0:0:0:
192,192,38985,1,0,0:0:0:0:
64,192,39151,128,0,39318:0:0:0:0:
192,192,39318,128,0,39651:0:0:0:0:
448,192,39318,1,0,0:0:0:0:
64,192,39401,1,0,0:0:0:0:
320,192,39485,128,0,39651:0:0:0:0:
64,192,39651,1,0,0:0:0:0:
448,192,39651,128,0,39985:0:0:0:0:
192,192,39818,1,0,0:0:0:0:
320,192,39985,1,0,0:0:0:0:
64,192,39985,128,0,40401:0:0:0:0:
192,192,40151,128,0,40401:0:0:0:0:
448,192,40318,1,0,0:0:0:0:
320,192,40318,128,0,40401:0:0:0:0:
320,192,40485,128,0,40651:0:0:0:0:
192,192,40651,1,0,0:0:0:0:
64,192,40651,1,0,0:0:0:0:
448,192,40818,128,0,41068:0:0:0:0:
64,192,40985,1,0,0:0:0:0:
320,192,40985,128,0,41068:0:0:0:0:
320,192,41151,128,0,41318:0:0:0:0:
192,192,41318,1,0,0:0:0:0:
448,192,41318,1,0,0:0:0:0:
64,192,41485,128,0,41818:0:0:0:0:
192,192,41651,128,0,41818:0:0:0:0:
320,192,41651,1,0,0:0:0:0:
448,192,41818,128,0,42151:0:0:0:0:
320,192,41985,128,0,42151:0:0:0:0:
192,192,41985,1,0,0:0:0:0:
64,192,42151,1,0,0:0:0:0:
192,192,42151,1,0,0:0:0:0:
320,192,42235,1,0,0:0:0:0:
448,192,42235,1,0,0:0:0:0:
64,192,42318,1,0,0:0:0:0:
192,192,42318,1,0,0:0:0:0:
448,192,42401,1,0,0:0:0:0:
320,192,42401,1,0,0:0:0:0:
192,192,42485,1,0,0:0:0:0:
64,192,42485,1,0,0:0:0:0:
320,192,42568,1,0,0:0:0:0:
448,192,42651,128,0,43985:0:0:0:0:
192,192,42651,1,0,0:0:0:0:
64,192,42651,128,0,42985:0:0:0:0:
320,192,42985,128,0,43151:0:0:0:0:
192,192,43151,128,0,43651:0:0:0:0:
64,192,43318,1,0,0:0:0:0:
320,192,43651,128,0,43735:0:0:0:0:
64,192,43651,1,0,0:0:0:0:
320,192,43818,128,0,43985:0:0:0:0:
64,192,43985,128,0,45318:0:0:0:0:
192,192,43985,128,0,44318:0:0:0:0:
320,192,44318,128,0,44485:0:0:0:0:
448,192,44485,128,0,44651:0:0:0:0:
320,192,44651,128,0,44985:0:0:0:0:
192,192,44985,1,0,0:0:0:0:
448,192,44985,1,0,0:0:0:0:
192,192,45151,128,0,45318:0:0:0:0:
320,192,45318,128,0,46651:0:0:0:0:
448,192,45318,128,0,45651:0:0:0:0:
64,192,45651,128,0,45985:0:0:0:0:
448,192,45818,1,0,0:0:0:0:
192,192,45985,128,0,46318:0:0:0:0:
64,192,46318,1,0,0:0:0:0:
448,192,46318,128,0,46651:0:0:0:0:
192,192,46651,128,0,47651:0:0:0:0:
64,192,46651,128,0,46985:0:0:0:0:
448,192,46985,128,0,47318:0:0:0:0:
64,192,47151,1,0,0:0:0:0:
320,192,47318,128,0,47651:0:0:0:0:
64,192,47651,1,0,0:0:0:0:
448,192,47651,1,0,0:0:0:0:
192,192,47818,1,0,0:0:0:0:
320,192,47818,1,0,0:0:0:0:
64,192,47985,128,0,49318:0:0:0:0:
192,192,47985,1,0,0:0:0:0:
448,192,47985,128,0,48151:0:0:0:0:
320,192,48151,128,0,48318:0:0:0:0:
448,192,48318,128,0,48485:0:0:0:0:
192,192,48485,128,0,48651:0:0:0:0:
320,192,48651,128,0,48818:0:0:0:0:
448,192,48818,128,0,48985:0:0:0:0:
192,192,48985,1,0,0:0:0:0:
320,192,48985,128,0,49068:0:0:0:0:
320,192,49151,128,0,49318:0:0:0:0:
448,192,49318,128,0,50651:0:0:0:0:
192,192,49318,128,0,49651:0:0:0:0:
64,192,49651,128,0,49985:0:0:0:0:
192,192,49818,1,0,0:0:0:0:
320,192,49985,128,0,50318:0:0:0:0:
192,192,50318,1,0,0:0:0:0:
64,192,50318,128,0,50651:0:0:0:0:
192,192,50651,128,0,51985:0:0:0:0:
320,192,50651,128,0,50985:0:0:0:0:
64,192,50985,128,0,51318:0:0:0:0:
320,192,51151,1,0,0:0:0:0:
448,192,51318,128,0,51651:0:0:0:0:
64,192,51651,128,0,51985:0:0:0:0:
320,192,51651,1,0,0:0:0:0:
320,192,51985,1,0,0:0:0:0:
448,192,51985,1,0,0:0:0:0:
64,192,52151,1,0,0:0:0:0:
192,192,52151,1,0,0:0:0:0:
448,192,52151,1,0,0:0:0:0:
64,192,52318,1,0,0:0:0:0:
448,192,52318,1,0,0:0:0:0:
320,192,52318,1,0,0:0:0:0:
192,192,52485,1,0,0:0:0:0:
448,192,52651,1,0,0:0:0:0:
320,192,52651,1,0,0:0:0:0:
64,192,52651,1,0,0:0:0:0:
192,192,52818,1,0,0:0:0:0:
320,192,52818,1,0,0:0:0:0:
448,192,52985,1,0,0:0:0:0:
64,192,52985,1,0,0:0:0:0:
192,192,52985,1,0,0:0:0:0:
320,192,53151,1,0,0:0:0:0:
64,192,53318,128,0,53568:0:0:0:0:
192,192,53318,1,0,0:0:0:0:
448,192,53318,1,0,0:0:0:0:
64,192,53651,128,0,53735:0:0:0:0:
192,192,53651,1,0,0:0:0:0:
320,192,53651,1,0,0:0:0:0:
64,192,53818,128,0,53901:0:0:0:0:
448,192,53818,1,0,0:0:0:0:
64,192,53985,128,0,54068:0:0:0:0:
192,192,53985,1,0,0:0:0:0:
64,192,54151,128,0,54235:0:0:0:0:
320,192,54151,1,0,0:0:0:0:
64,192,54318,128,0,54401:0:0:0:0:
448,192,54318,1,0,0:0:0:0:
192,192,54318,1,0,0:0:0:0:
64,192,54485,128,0,54568:0:0:0:0:
320,192,54485,1,0,0:0:0:0:
320,192,54651,128,0,54901:0:0:0:0:
64,192,54651,1,0,0:0:0:0:
320,192,54985,128,0,55068:0:0:0:0:
192,192,54985,1,0,0:0:0:0:
448,192,54985,1,0,0:0:0:0:
320,192,55151,128,0,55235:0:0:0:0:
64,192,55151,1,0,0:0:0:0:
320,192,55318,128,0,55401:0:0:0:0:
192,192,55318,1,0,0:0:0:0:
64,192,55485,1,0,0:0:0:0:
448,192,55485,1,0,0:0:0:0:
320,192,55485,128,0,55568:0:0:0:0:
448,192,55651,1,0,0:0:0:0:
64,192,55651,1,0,0:0:0:0:
320,192,55651,128,0,55735:0:0:0:0:
320,192,55818,128,0,55901:0:0:0:0:
192,192,55818,1,0,0:0:0:0:
192,192,55985,128,0,56235:0:0:0:0:
320,192,55985,1,0,0:0:0:0:
192,192,56318,128,0,56401:0:0:0:0:
448,192,56318,1,0,0:0:0:0:
64,192,56318,1,0,0:0:0:0:
192,192,56485,128,0,56568:0:0:0:0:
320,192,56485,1,0,0:0:0:0:
192,192,56651,128,0,56735:0:0:0:0:
64,192,56651,1,0,0:0:0:0:
192,192,56818,128,0,56901:0:0:0:0:
320,192,56818,1,0,0:0:0:0:
192,192,56985,128,0,57068:0:0:0:0:
64,192,56985,1,0,0:0:0:0:
448,192,56985,1,0,0:0:0:0:
192,192,57151,128,0,57235:0:0:0:0:
320,192,57151,1,0,0:0:0:0:
448,192,57318,128,0,57568:0:0:0:0:
192,192,57318,1,0,0:0:0:0:
448,192,57651,128,0,57735:0:0:0:0:
64,192,57651,1,0,0:0:0:0:
320,192,57651,1,0,0:0:0:0:
448,192,57818,128,0,57901:0:0:0:0:
192,192,57818,1,0,0:0:0:0:
448,192,57985,128,0,58068:0:0:0:0:
320,192,57985,1,0,0:0:0:0:
448,192,58151,128,0,58235:0:0:0:0:
64,192,58151,1,0,0:0:0:0:
192,192,58151,1,0,0:0:0:0:
448,192,58318,128,0,58401:0:0:0:0:
64,192,58318,1,0,0:0:0:0:
192,192,58318,1,0,0:0:0:0:
320,192,58485,1,0,0:0:0:0:
448,192,58485,1,0,0:0:0:0:
192,192,58568,1,0,0:0:0:0:
64,192,58651,128,0,58901:0:0:0:0:
448,192,58651,1,0,0:0:0:0:
320,192,58651,1,0,0:0:0:0:
64,192,58985,128,0,59068:0:0:0:0:
192,192,58985,1,0,0:0:0:0:
448,192,58985,1,0,0:0:0:0:
64,192,59151,128,0,59235:0:0:0:0:
320,192,59151,1,0,0:0:0:0:
64,192,59318,128,0,59401:0:0:0:0:
448,192,59318,1,0,0:0:0:0:
64,192,59485,128,0,59568:0:0:0:0:
192,192,59485,1,0,0:0:0:0:
64,192,59651,128,0,59735:0:0:0:0:
320,192,59651,1,0,0:0:0:0:
448,192,59651,1,0,0:0:0:0:
64,192,59818,128,0,59901:0:0:0:0:
192,192,59818,1,0,0:0:0:0:
320,192,59985,128,0,60235:0:0:0:0:
64,192,59985,1,0,0:0:0:0:
320,192,60318,128,0,60401:0:0:0:0:
192,192,60318,1,0,0:0:0:0:
448,192,60318,1,0,0:0:0:0:
320,192,60485,128,0,60568:0:0:0:0:
64,192,60485,1,0,0:0:0:0:
320,192,60651,128,0,60735:0:0:0:0:
192,192,60651,1,0,0:0:0:0:
320,192,60818,128,0,60901:0:0:0:0:
448,192,60818,1,0,0:0:0:0:
64,192,60985,1,0,0:0:0:0:
192,192,60985,1,0,0:0:0:0:
320,192,61068,1,0,0:0:0:0:
448,192,61068,1,0,0:0:0:0:
64,192,61151,1,0,0:0:0:0:
192,192,61151,1,0,0:0:0:0:
320,192,61235,1,0,0:0:0:0:
64,192,61318,5,0,0:0:0:0:
192,192,61318,1,0,0:0:0:0:
448,192,61318,1,0,0:0:0:0:
64,192,61485,1,0,0:0:0:0:
320,192,61485,1,0,0:0:0:0:
448,192,61485,1,0,0:0:0:0:
64,192,61651,1,0,0:0:0:0:
192,192,61651,1,0,0:0:0:0:
448,192,61651,1,0,0:0:0:0:
64,192,61818,1,0,0:0:0:0:
192,192,61818,1,0,0:0:0:0:
448,192,61818,1,0,0:0:0:0:
192,192,61985,1,0,0:0:0:0:
320,192,61985,1,0,0:0:0:0:
64,192,62151,1,0,0:0:0:0:
448,192,62151,1,0,0:0:0:0:
320,192,62151,1,0,0:0:0:0:
192,192,62318,1,0,0:0:0:0:
320,192,62318,1,0,0:0:0:0:
192,192,62485,5,0,0:0:0:0:
448,192,62485,1,0,0:0:0:0:
64,192,62485,1,0,0:0:0:0:
64,192,62651,1,0,0:0:0:0:
448,192,62651,1,0,0:0:0:0:
192,192,62651,1,0,0:0:0:0:
192,192,63485,5,0,0:0:0:0:
320,192,63485,1,0,0:0:0:0:
64,192,63651,1,0,0:0:0:0:
320,192,63651,1,0,0:0:0:0:
448,192,63651,1,0,0:0:0:0:
64,192,63985,1,0,0:0:0:0:
448,192,63985,1,0,0:0:0:0:
192,192,63985,128,0,64068:0:0:0:0:
192,192,64151,128,0,64318:0:0:0:0:
320,192,64318,1,0,0:0:0:0:
448,192,64318,1,0,0:0:0:0:
64,192,64318,1,0,0:0:0:0:
320,192,64485,128,0,64735:0:0:0:0:
64,192,64651,1,0,0:0:0:0:
192,192,64651,1,0,0:0:0:0:
320,192,64818,128,0,64985:0:0:0:0:
64,192,64985,1,0,0:0:0:0:
192,192,64985,1,0,0:0:0:0:
448,192,64985,1,0,0:0:0:0:
64,192,65151,128,0,65651:0:0:0:0:
320,192,65318,1,0,0:0:0:0:
448,192,65318,1,0,0:0:0:0:
192,192,65485,128,0,65651:0:0:0:0:
448,192,65651,128,0,65901:0:0:0:0:
320,192,65651,1,0,0:0:0:0:
320,192,65818,128,0,66151:0:0:0:0:
448,192,65985,128,0,66151:0:0:0:0:
64,192,65985,1,0,0:0:0:0:
192,192,66151,128,0,66651:0:0:0:0:
320,192,66318,128,0,66401:0:0:0:0:
448,192,66318,1,0,0:0:0:0:
64,192,66318,1,0,0:0:0:0:
320,192,66485,128,0,66651:0:0:0:0:
448,192,66651,128,0,67318:0:0:0:0:
64,192,66651,1,0,0:0:0:0:
320,192,66818,1,0,0:0:0:0:
64,192,66985,128,0,67151:0:0:0:0:
192,192,66985,128,0,67151:0:0:0:0:
320,192,67151,1,0,0:0:0:0:
64,192,67318,128,0,67651:0:0:0:0:
192,192,67318,128,0,67485:0:0:0:0:
320,192,67485,1,0,0:0:0:0:
448,192,67485,1,0,0:0:0:0:
320,192,67651,1,0,0:0:0:0:
192,192,67651,1,0,0:0:0:0:
64,192,67818,1,0,0:0:0:0:
192,192,67818,1,0,0:0:0:0:
448,192,67818,1,0,0:0:0:0:
320,192,67985,1,0,0:0:0:0:
448,192,67985,1,0,0:0:0:0:
64,192,68151,1,0,0:0:0:0:
192,192,68151,1,0,0:0:0:0:
320,192,68151,1,0,0:0:0:0:
64,192,68318,1,0,0:0:0:0:
448,192,68318,1,0,0:0:0:0:
192,192,68485,1,0,0:0:0:0:
320,192,68485,1,0,0:0:0:0:
448,192,68485,1,0,0:0:0:0:
64,192,68651,1,0,0:0:0:0:
320,192,68651,1,0,0:0:0:0:
192,192,68818,1,0,0:0:0:0:
320,192,68818,1,0,0:0:0:0:
448,192,68818,1,0,0:0:0:0:
192,192,68985,1,0,0:0:0:0:
64,192,68985,1,0,0:0:0:0:
320,192,69068,1,0,0:0:0:0:
448,192,69151,1,0,0:0:0:0:
64,192,69151,1,0,0:0:0:0:
192,192,69235,1,0,0:0:0:0:
448,192,69318,1,0,0:0:0:0:
64,192,69318,1,0,0:0:0:0:
320,192,69318,128,0,69568:0:0:0:0:
192,192,69485,1,0,0:0:0:0:
320,192,69651,1,0,0:0:0:0:
448,192,69651,1,0,0:0:0:0:
192,192,69651,128,0,69901:0:0:0:0:
64,192,69818,1,0,0:0:0:0:
192,192,69985,1,0,0:0:0:0:
64,192,69985,128,0,70235:0:0:0:0:
448,192,70151,1,0,0:0:0:0:
192,192,70318,1,0,0:0:0:0:
448,192,70318,128,0,70568:0:0:0:0:
64,192,70318,1,0,0:0:0:0:
320,192,70485,1,0,0:0:0:0:
64,192,70651,1,0,0:0:0:0:
320,192,70651,128,0,70901:0:0:0:0:
192,192,70818,1,0,0:0:0:0:
192,192,70985,128,0,71318:0:0:0:0:
320,192,70985,1,0,0:0:0:0:
448,192,70985,1,0,0:0:0:0:
320,192,71151,128,0,71318:0:0:0:0:
64,192,71318,128,0,71568:0:0:0:0:
448,192,71318,1,0,0:0:0:0:
320,192,71485,1,0,0:0:0:0:
64,192,71651,1,0,0:0:0:0:
320,192,71651,128,0,71901:0:0:0:0:
448,192,71651,1,0,0:0:0:0:
192,192,71818,1,0,0:0:0:0:
320,192,71985,1,0,0:0:0:0:
192,192,71985,128,0,72651:0:0:0:0:
64,192,72151,1,0,0:0:0:0:
320,192,72318,128,0,72485:0:0:0:0:
448,192,72318,128,0,72485:0:0:0:0:
64,192,72485,1,0,0:0:0:0:
448,192,72651,128,0,72985:0:0:0:0:
320,192,72651,128,0,72818:0:0:0:0:
64,192,72818,1,0,0:0:0:0:
192,192,72818,1,0,0:0:0:0:
192,192,72985,1,0,0:0:0:0:
320,192,72985,1,0,0:0:0:0:
64,192,73151,1,0,0:0:0:0:
448,192,73151,1,0,0:0:0:0:
320,192,73151,1,0,0:0:0:0:
192,192,73318,1,0,0:0:0:0:
448,192,73318,1,0,0:0:0:0:
64,192,73485,1,0,0:0:0:0:
192,192,73485,1,0,0:0:0:0:
320,192,73485,1,0,0:0:0:0:
448,192,73651,1,0,0:0:0:0:
320,192,73651,1,0,0:0:0:0:
64,192,73818,1,0,0:0:0:0:
192,192,73818,1,0,0:0:0:0:
320,192,73901,1,0,0:0:0:0:
192,192,73985,1,0,0:0:0:0:
320,192,74151,1,0,0:0:0:0:
448,192,74151,1,0,0:0:0:0:
192,192,74235,1,0,0:0:0:0:
64,192,74235,1,0,0:0:0:0:
320,192,74318,1,0,0:0:0:0:
448,192,74318,1,0,0:0:0:0:
64,192,74401,1,0,0:0:0:0:
192,192,74485,1,0,0:0:0:0:
320,192,74568,1,0,0:0:0:0:
192,192,74651,1,0,0:0:0:0:
448,192,74651,1,0,0:0:0:0:
64,192,74651,128,0,74735:0:0:0:0:
64,192,74818,128,0,74985:0:0:0:0:
320,192,74985,1,0,0:0:0:0:
448,192,74985,1,0,0:0:0:0:
192,192,74985,1,0,0:0:0:0:
448,192,75151,128,0,75401:0:0:0:0:
320,192,75318,1,0,0:0:0:0:
64,192,75318,1,0,0:0:0:0:
448,192,75485,128,0,75651:0:0:0:0:
64,192,75651,1,0,0:0:0:0:
192,192,75651,1,0,0:0:0:0:
320,192,75651,1,0,0:0:0:0:
192,192,75818,128,0,76318:0:0:0:0:
64,192,75985,1,0,0:0:0:0:
448,192,75985,1,0,0:0:0:0:
320,192,76151,128,0,76318:0:0:0:0:
448,192,76318,128,0,76568:0:0:0:0:
64,192,76318,1,0,0:0:0:0:
64,192,76485,128,0,76818:0:0:0:0:
448,192,76651,128,0,76818:0:0:0:0:
192,192,76651,1,0,0:0:0:0:
320,192,76818,128,0,77318:0:0:0:0:
192,192,76985,128,0,77068:0:0:0:0:
448,192,76985,1,0,0:0:0:0:
64,192,76985,1,0,0:0:0:0:
192,192,77151,128,0,77318:0:0:0:0:
64,192,77318,128,0,77985:0:0:0:0:
448,192,77485,1,0,0:0:0:0:
192,192,77651,128,0,77818:0:0:0:0:
320,192,77651,128,0,77818:0:0:0:0:
448,192,77818,1,0,0:0:0:0:
320,192,77985,128,0,78318:0:0:0:0:
192,192,77985,128,0,78151:0:0:0:0:
64,192,78151,1,0,0:0:0:0:
448,192,78151,1,0,0:0:0:0:
64,192,78318,1,0,0:0:0:0:
192,192,78318,1,0,0:0:0:0:
320,192,78485,1,0,0:0:0:0:
448,192,78485,1,0,0:0:0:0:
192,192,78651,1,0,0:0:0:0:
64,192,78651,1,0,0:0:0:0:
448,192,78651,1,0,0:0:0:0:
320,192,78818,1,0,0:0:0:0:
64,192,78818,1,0,0:0:0:0:
192,192,78985,1,0,0:0:0:0:
320,192,78985,1,0,0:0:0:0:
448,192,78985,1,0,0:0:0:0:
64,192,79151,1,0,0:0:0:0:
448,192,79151,1,0,0:0:0:0:
64,192,79318,1,0,0:0:0:0:
192,192,79318,1,0,0:0:0:0:
320,192,79485,1,0,0:0:0:0:
448,192,79485,1,0,0:0:0:0:
64,192,79568,1,0,0:0:0:0:
192,192,79651,1,0,0:0:0:0:
320,192,79651,1,0,0:0:0:0:
448,192,79735,1,0,0:0:0:0:
64,192,79818,1,0,0:0:0:0:
192,192,79818,1,0,0:0:0:0:
320,192,79901,1,0,0:0:0:0:
448,192,79985,1,0,0:0:0:0:
64,192,79985,1,0,0:0:0:0:
192,192,79985,128,0,80318:0:0:0:0:
320,192,80151,1,0,0:0:0:0:
64,192,80318,1,0,0:0:0:0:
448,192,80318,128,0,80651:0:0:0:0:
320,192,80318,1,0,0:0:0:0:
192,192,80485,128,0,80651:0:0:0:0:
320,192,80651,1,0,0:0:0:0:
64,192,80651,128,0,80901:0:0:0:0:
192,192,80818,1,0,0:0:0:0:
64,192,80985,1,0,0:0:0:0:
320,192,80985,1,0,0:0:0:0:
192,192,80985,128,0,81235:0:0:0:0:
448,192,81151,1,0,0:0:0:0:
448,192,81318,128,0,81568:0:0:0:0:
192,192,81318,1,0,0:0:0:0:
320,192,81485,1,0,0:0:0:0:
64,192,81651,1,0,0:0:0:0:
320,192,81651,128,0,81901:0:0:0:0:
448,192,81651,1,0,0:0:0:0:
192,192,81818,1,0,0:0:0:0:
192,192,81985,128,0,82235:0:0:0:0:
320,192,81985,1,0,0:0:0:0:
64,192,82151,1,0,0:0:0:0:
64,192,82318,128,0,82568:0:0:0:0:
192,192,82318,1,0,0:0:0:0:
448,192,82318,1,0,0:0:0:0:
320,192,82485,1,0,0:0:0:0:
320,192,82651,128,0,83318:0:0:0:0:
64,192,82651,1,0,0:0:0:0:
448,192,82818,1,0,0:0:0:0:
192,192,82985,128,0,83151:0:0:0:0:
64,192,82985,128,0,83151:0:0:0:0:
448,192,83151,1,0,0:0:0:0:
64,192,83318,128,0,83651:0:0:0:0:
192,192,83318,128,0,83485:0:0:0:0:
448,192,83485,1,0,0:0:0:0:
320,192,83485,1,0,0:0:0:0:
320,192,83651,1,0,0:0:0:0:
192,192,83651,1,0,0:0:0:0:
448,192,83818,1,0,0:0:0:0:
64,192,83818,1,0,0:0:0:0:
192,192,83818,1,0,0:0:0:0:
320,192,83985,1,0,0:0:0:0:
64,192,83985,1,0,0:0:0:0:
448,192,84151,5,0,0:0:0:0:
320,192,84151,1,0,0:0:0:0:
192,192,84151,1,0,0:0:0:0:
64,192,84318,1,0,0:0:0:0:
192,192,84318,1,0,0:0:0:0:
448,192,84485,1,0,0:0:0:0:
320,192,84485,1,0,0:0:0:0:
192,192,84568,1,0,0:0:0:0:
320,192,84651,1,0,0:0:0:0:
192,192,84818,1,0,0:0:0:0:
64,192,84818,1,0,0:0:0:0:
320,192,84901,1,0,0:0:0:0:
448,192,84901,1,0,0:0:0:0:
192,192,84985,1,0,0:0:0:0:
64,192,84985,1,0,0:0:0:0:
320,192,85068,1,0,0:0:0:0:
448,192,85151,1,0,0:0:0:0:
64,192,85235,1,0,0:0:0:0:
192,192,85318,128,0,85485:0:0:0:0:
320,192,85318,1,0,0:0:0:0:
448,192,85318,1,0,0:0:0:0:
192,192,85651,128,0,85818:0:0:0:0:
64,192,85651,1,0,0:0:0:0:
320,192,85651,1,0,0:0:0:0:
448,192,85818,1,0,0:0:0:0:
192,192,85985,128,0,86151:0:0:0:0:
320,192,85985,1,0,0:0:0:0:
64,192,86151,1,0,0:0:0:0:
192,192,86318,128,0,86485:0:0:0:0:
448,192,86318,1,0,0:0:0:0:
320,192,86318,1,0,0:0:0:0:
64,192,86485,1,0,0:0:0:0:
448,192,86651,1,0,0:0:0:0:
192,192,86651,128,0,86985:0:0:0:0:
64,192,86818,128,0,86985:0:0:0:0:
448,192,86985,1,0,0:0:0:0:
320,192,86985,128,0,87651:0:0:0:0:
192,192,87151,1,0,0:0:0:0:
448,192,87318,128,0,87651:0:0:0:0:
64,192,87318,1,0,0:0:0:0:
192,192,87485,1,0,0:0:0:0:
192,192,87651,128,0,87985:0:0:0:0:
64,192,87651,1,0,0:0:0:0:
320,192,87818,1,0,0:0:0:0:
64,192,87985,128,0,88151:0:0:0:0:
448,192,87985,1,0,0:0:0:0:
320,192,88151,1,0,0:0:0:0:
64,192,88318,128,0,88485:0:0:0:0:
192,192,88318,1,0,0:0:0:0:
448,192,88318,1,0,0:0:0:0:
320,192,88485,1,0,0:0:0:0:
64,192,88651,128,0,88818:0:0:0:0:
192,192,88651,1,0,0:0:0:0:
448,192,88818,1,0,0:0:0:0:
320,192,88985,1,0,0:0:0:0:
64,192,88985,128,0,89151:0:0:0:0:
192,192,88985,1,0,0:0:0:0:
448,192,89151,1,0,0:0:0:0:
64,192,89318,128,0,89651:0:0:0:0:
320,192,89318,1,0,0:0:0:0:
192,192,89485,128,0,89651:0:0:0:0:
448,192,89651,1,0,0:0:0:0:
320,192,89651,128,0,89985:0:0:0:0:
192,192,89818,128,0,89985:0:0:0:0:
448,192,89985,128,0,90318:0:0:0:0:
64,192,89985,1,0,0:0:0:0:
320,192,90151,1,0,0:0:0:0:
64,192,90318,1,0,0:0:0:0:
192,192,90318,1,0,0:0:0:0:
448,192,90401,1,0,0:0:0:0:
320,192,90401,1,0,0:0:0:0:
64,192,90485,1,0,0:0:0:0:
192,192,90485,1,0,0:0:0:0:
320,192,90568,1,0,0:0:0:0:
64,192,90651,1,0,0:0:0:0:
192,192,90651,1,0,0:0:0:0:
448,192,90651,128,0,90818:0:0:0:0:
320,192,90818,1,0,0:0:0:0:
64,192,90985,128,0,91151:0:0:0:0:
192,192,90985,1,0,0:0:0:0:
448,192,90985,1,0,0:0:0:0:
320,192,91151,1,0,0:0:0:0:
448,192,91318,128,0,91485:0:0:0:0:
64,192,91318,1,0,0:0:0:0:
192,192,91485,1,0,0:0:0:0:
64,192,91651,128,0,91818:0:0:0:0:
448,192,91651,1,0,0:0:0:0:
320,192,91651,1,0,0:0:0:0:
192,192,91818,1,0,0:0:0:0:
64,192,91985,1,0,0:0:0:0:
448,192,91985,128,0,92318:0:0:0:0:
320,192,92151,128,0,92318:0:0:0:0:
192,192,92318,128,0,92401:0:0:0:0:
64,192,92318,1,0,0:0:0:0:
192,192,92485,128,0,92651:0:0:0:0:
320,192,92651,128,0,92818:0:0:0:0:
448,192,92651,1,0,0:0:0:0:
192,192,92818,1,0,0:0:0:0:
320,192,92985,128,0,93151:0:0:0:0:
448,192,92985,1,0,0:0:0:0:
64,192,92985,1,0,0:0:0:0:
192,192,93151,1,0,0:0:0:0:
64,192,93318,128,0,93485:0:0:0:0:
320,192,93318,128,0,93485:0:0:0:0:
448,192,93318,128,0,93485:0:0:0:0:
448,192,93651,128,0,93818:0:0:0:0:
320,192,93651,128,0,93818:0:0:0:0:
64,192,93651,128,0,93818:0:0:0:0:
64,192,93985,1,0,0:0:0:0:
448,192,93985,1,0,0:0:0:0:
64,192,94151,128,0,94318:0:0:0:0:
192,192,94151,128,0,94318:0:0:0:0:
448,192,94151,128,0,94318:0:0:0:0:
192,192,94485,1,0,0:0:0:0:
320,192,94485,1,0,0:0:0:0:
448,192,94485,1,0,0:0:0:0:
64,192,94651,1,0,0:0:0:0:
192,192,94651,1,0,0:0:0:0:
64,192,94818,1,0,0:0:0:0:
448,192,94818,1,0,0:0:0:0:
320,192,94818,1,0,0:0:0:0:
192,192,94985,1,0,0:0:0:0:
320,192,94985,1,0,0:0:0:0:
64,192,95151,1,0,0:0:0:0:
192,192,95151,1,0,0:0:0:0:
448,192,95151,1,0,0:0:0:0:
64,192,95318,128,0,95485:0:0:0:0:
192,192,95318,128,0,95485:0:0:0:0:
448,192,95318,128,0,95485:0:0:0:0:
192,192,95651,128,0,95735:0:0:0:0:
320,192,95651,128,0,95818:0:0:0:0:
192,192,95818,1,0,0:0:0:0:
64,192,95985,1,0,0:0:0:0:
320,192,95985,1,0,0:0:0:0:
448,192,95985,128,0,96151:0:0:0:0:
64,192,96151,128,0,96318:0:0:0:0:
320,192,96318,128,0,96651:0:0:0:0:
448,192,96318,1,0,0:0:0:0:
192,192,96318,1,0,0:0:0:0:
192,192,96485,128,0,96651:0:0:0:0:
64,192,96651,1,0,0:0:0:0:
448,192,96651,1,0,0:0:0:0:
192,192,96818,128,0,96985:0:0:0:0:
64,192,96985,128,0,97318:0:0:0:0:
320,192,96985,1,0,0:0:0:0:
448,192,96985,1,0,0:0:0:0:
448,192,97151,128,0,97318:0:0:0:0:
192,192,97318,1,0,0:0:0:0:
320,192,97318,1,0,0:0:0:0:
448,192,97485,128,0,97651:0:0:0:0:
192,192,97651,128,0,97818:0:0:0:0:
64,192,97651,1,0,0:0:0:0:
320,192,97651,1,0,0:0:0:0:
320,192,97818,128,0,97985:0:0:0:0:
64,192,97985,128,0,98151:0:0:0:0:
448,192,97985,1,0,0:0:0:0:
192,192,98151,128,0,98318:0:0:0:0:
448,192,98318,128,0,98651:0:0:0:0:
320,192,98318,1,0,0:0:0:0:
64,192,98318,1,0,0:0:0:0:
192,192,98485,1,0,0:0:0:0:
64,192,98651,128,0,98818:0:0:0:0:
320,192,98651,1,0,0:0:0:0:
320,192,98818,128,0,98985:0:0:0:0:
64,192,98985,1,0,0:0:0:0:
192,192,98985,1,0,0:0:0:0:
448,192,98985,128,0,99318:0:0:0:0:
192,192,99151,128,0,99318:0:0:0:0:
64,192,99318,1,0,0:0:0:0:
320,192,99318,1,0,0:0:0:0:
192,192,99485,128,0,99651:0:0:0:0:
64,192,99651,128,0,99985:0:0:0:0:
320,192,99651,1,0,0:0:0:0:
448,192,99651,1,0,0:0:0:0:
320,192,99818,128,0,99985:0:0:0:0:
192,192,99985,1,0,0:0:0:0:
448,192,99985,1,0,0:0:0:0:
320,192,100151,128,0,100318:0:0:0:0:
192,192,100318,128,0,100485:0:0:0:0:
64,192,100318,1,0,0:0:0:0:
448,192,100318,1,0,0:0:0:0:
448,192,100485,128,0,100651:0:0:0:0:
64,192,100651,128,0,100818:0:0:0:0:
192,192,100651,1,0,0:0:0:0:
320,192,100818,128,0,100985:0:0:0:0:
64,192,100985,1,0,0:0:0:0:
192,192,100985,1,0,0:0:0:0:
320,192,101068,1,0,0:0:0:0:
64,192,101151,1,0,0:0:0:0:
448,192,101151,1,0,0:0:0:0:
192,192,101235,1,0,0:0:0:0:
448,192,101318,1,0,0:0:0:0:
64,192,101318,1,0,0:0:0:0:
320,192,101318,128,0,101651:0:0:0:0:
192,192,101485,128,0,101818:0:0:0:0:
448,192,101651,128,0,101985:0:0:0:0:
64,192,101651,1,0,0:0:0:0:
320,192,101818,128,0,101985:0:0:0:0:
64,192,101985,1,0,0:0:0:0:
192,192,101985,1,0,0:0:0:0:
320,192,102151,128,0,102485:0:0:0:0:
64,192,102318,128,0,102651:0:0:0:0:
192,192,102318,1,0,0:0:0:0:
448,192,102318,1,0,0:0:0:0:
192,192,102485,128,0,102651:0:0:0:0:
320,192,102651,1,0,0:0:0:0:
448,192,102651,1,0,0:0:0:0:
448,192,102818,128,0,102985:0:0:0:0:
192,192,102985,128,0,103318:0:0:0:0:
64,192,102985,1,0,0:0:0:0:
320,192,102985,1,0,0:0:0:0:
320,192,103151,128,0,103318:0:0:0:0:
448,192,103318,128,0,103651:0:0:0:0:
64,192,103318,1,0,0:0:0:0:
64,192,103485,128,0,103651:0:0:0:0:
320,192,103651,128,0,103985:0:0:0:0:
192,192,103651,1,0,0:0:0:0:
64,192,103818,1,0,0:0:0:0:
64,192,103985,1,0,0:0:0:0:
448,192,103985,1,0,0:0:0:0:
192,192,103985,128,0,104318:0:0:0:0:
320,192,104151,128,0,104485:0:0:0:0:
64,192,104318,128,0,104651:0:0:0:0:
448,192,104318,1,0,0:0:0:0:
192,192,104485,128,0,104651:0:0:0:0:
448,192,104651,1,0,0:0:0:0:
320,192,104651,1,0,0:0:0:0:
192,192,104818,128,0,105151:0:0:0:0:
448,192,104985,128,0,105318:0:0:0:0:
320,192,104985,1,0,0:0:0:0:
64,192,104985,1,0,0:0:0:0:
320,192,105151,128,0,105318:0:0:0:0:
192,192,105318,1,0,0:0:0:0:
64,192,105318,1,0,0:0:0:0:
64,192,105485,1,0,0:0:0:0:
320,192,105485,1,0,0:0:0:0:
448,192,105485,1,0,0:0:0:0:
320,192,105651,1,0,0:0:0:0:
448,192,105651,1,0,0:0:0:0:
64,192,105651,1,0,0:0:0:0:
320,192,105818,1,0,0:0:0:0:
448,192,105818,1,0,0:0:0:0:
64,192,105818,1,0,0:0:0:0:
64,192,105985,1,0,0:0:0:0:
448,192,105985,1,0,0:0:0:0:
192,192,105985,1,0,0:0:0:0:
320,192,106151,1,0,0:0:0:0:
448,192,106151,1,0,0:0:0:0:
64,192,106235,1,0,0:0:0:0:
320,192,106318,1,0,0:0:0:0:
192,192,106318,1,0,0:0:0:0:
448,192,106401,1,0,0:0:0:0:
64,192,106485,1,0,0:0:0:0:
192,192,106568,1,0,0:0:0:0:
64,192,106651,1,0,0:0:0:0:
448,192,106651,1,0,0:0:0:0:
320,192,106651,128,0,106985:0:0:0:0:
192,192,106818,128,0,106985:0:0:0:0:
448,192,106985,128,0,107068:0:0:0:0:
64,192,106985,1,0,0:0:0:0:
448,192,107151,128,0,107318:0:0:0:0:
192,192,107151,1,0,0:0:0:0:
320,192,107318,1,0,0:0:0:0:
64,192,107318,128,0,107651:0:0:0:0:
192,192,107485,1,0,0:0:0:0:
320,192,107651,128,0,107985:0:0:0:0:
448,192,107651,1,0,0:0:0:0:
64,192,107818,1,0,0:0:0:0:
192,192,107985,128,0,108068:0:0:0:0:
448,192,107985,1,0,0:0:0:0:
192,192,108151,128,0,108318:0:0:0:0:
448,192,108318,128,0,108985:0:0:0:0:
64,192,108318,1,0,0:0:0:0:
192,192,108485,1,0,0:0:0:0:
64,192,108651,1,0,0:0:0:0:
320,192,108651,1,0,0:0:0:0:
192,192,108735,1,0,0:0:0:0:
320,192,108818,128,0,108985:0:0:0:0:
64,192,108985,128,0,109068:0:0:0:0:
192,192,108985,1,0,0:0:0:0:
64,192,109151,128,0,109318:0:0:0:0:
448,192,109318,1,0,0:0:0:0:
320,192,109318,128,0,109651:0:0:0:0:
192,192,109485,128,0,109651:0:0:0:0:
64,192,109651,128,0,109985:0:0:0:0:
448,192,109651,1,0,0:0:0:0:
448,192,109818,128,0,109985:0:0:0:0:
192,192,109985,128,0,110151:0:0:0:0:
320,192,109985,1,0,0:0:0:0:
64,192,110151,1,0,0:0:0:0:
192,192,110318,128,0,110651:0:0:0:0:
448,192,110318,1,0,0:0:0:0:
320,192,110485,128,0,110651:0:0:0:0:
64,192,110651,1,0,0:0:0:0:
448,192,110651,1,0,0:0:0:0:
64,192,110818,128,0,111151:0:0:0:0:
192,192,110985,128,0,111318:0:0:0:0:
320,192,110985,1,0,0:0:0:0:
448,192,111151,128,0,111485:0:0:0:0:
320,192,111318,128,0,111651:0:0:0:0:
64,192,111318,1,0,0:0:0:0:
192,192,111485,128,0,111651:0:0:0:0:
64,192,111651,1,0,0:0:0:0:
448,192,111651,1,0,0:0:0:0:
192,192,111735,1,0,0:0:0:0:
320,192,111818,1,0,0:0:0:0:
192,192,111901,1,0,0:0:0:0:
64,192,111985,1,0,0:0:0:0:
320,192,111985,1,0,0:0:0:0:
448,192,111985,128,0,112068:0:0:0:0:
448,192,112151,128,0,112318:0:0:0:0:
64,192,112318,128,0,112818:0:0:0:0:
192,192,112318,1,0,0:0:0:0:
320,192,112485,1,0,0:0:0:0:
192,192,112651,128,0,112818:0:0:0:0:
448,192,112651,1,0,0:0:0:0:
320,192,112818,128,0,112985:0:0:0:0:
64,192,112985,1,0,0:0:0:0:
448,192,112985,1,0,0:0:0:0:
320,192,113151,128,0,113318:0:0:0:0:
448,192,113318,128,0,113651:0:0:0:0:
64,192,113318,1,0,0:0:0:0:
192,192,113485,128,0,113651:0:0:0:0:
320,192,113651,1,0,0:0:0:0:
64,192,113651,128,0,113985:0:0:0:0:
320,192,113818,128,0,113985:0:0:0:0:
192,192,113985,128,0,114151:0:0:0:0:
448,192,113985,1,0,0:0:0:0:
320,192,114151,1,0,0:0:0:0:
192,192,114318,128,0,114651:0:0:0:0:
64,192,114318,1,0,0:0:0:0:
320,192,114485,128,0,114651:0:0:0:0:
64,192,114651,1,0,0:0:0:0:
448,192,114651,128,0,115151:0:0:0:0:
192,192,114818,1,0,0:0:0:0:
320,192,114985,128,0,115151:0:0:0:0:
64,192,114985,1,0,0:0:0:0:
192,192,115151,128,0,115318:0:0:0:0:
64,192,115318,128,0,115651:0:0:0:0:
448,192,115318,1,0,0:0:0:0:
320,192,115401,1,0,0:0:0:0:
448,192,115485,128,0,115651:0:0:0:0:
320,192,115651,128,0,115985:0:0:0:0:
192,192,115651,1,0,0:0:0:0:
192,192,115818,128,0,115985:0:0:0:0:
448,192,115985,1,0,0:0:0:0:
64,192,115985,128,0,116318:0:0:0:0:
192,192,116151,128,0,116485:0:0:0:0:
448,192,116318,128,0,116651:0:0:0:0:
320,192,116485,128,0,116818:0:0:0:0:
192,192,116651,128,0,116985:0:0:0:0:
64,192,116818,128,0,117151:0:0:0:0:
320,192,116985,128,0,117318:0:0:0:0:
64,192,117318,1,0,0:0:0:0:
448,192,117318,1,0,0:0:0:0:
192,192,117318,1,0,0:0:0:0:
320,192,117401,1,0,0:0:0:0:
64,192,117485,1,0,0:0:0:0:
192,192,117568,1,0,0:0:0:0:
320,192,117651,1,0,0:0:0:0:
448,192,117651,1,0,0:0:0:0:
192,192,117763,1,0,0:0:0:0:
320,192,117860,1,0,0:0:0:0:
64,192,117985,1,0,0:0:0:0:
448,192,117985,1,0,0:0:0:0:
64,192,118151,1,0,0:0:0:0:
448,192,118263,1,0,0:0:0:0:
192,192,118318,1,0,0:0:0:0:
320,192,118318,1,0,0:0:0:0:
64,192,118401,1,0,0:0:0:0:
192,192,118540,1,0,0:0:0:0:
448,192,118651,1,0,0:0:0:0:
320,192,118651,1,0,0:0:0:0:
64,192,118735,1,0,0:0:0:0:
448,192,118818,1,0,0:0:0:0:
320,192,118901,1,0,0:0:0:0:
64,192,118985,1,0,0:0:0:0:
192,192,118985,1,0,0:0:0:0:
320,192,119151,1,0,0:0:0:0:
192,192,119235,1,0,0:0:0:0:
64,192,119318,1,0,0:0:0:0:
448,192,119318,1,0,0:0:0:0:
320,192,119401,1,0,0:0:0:0:
192,192,119485,1,0,0:0:0:0:
320,192,119568,1,0,0:0:0:0:
448,192,119651,1,0,0:0:0:0:
64,192,119651,1,0,0:0:0:0:
64,192,119818,1,0,0:0:0:0:
320,192,119985,1,0,0:0:0:0:
448,192,119985,1,0,0:0:0:0:
192,192,120096,1,0,0:0:0:0:
320,192,120207,1,0,0:0:0:0:
64,192,120318,1,0,0:0:0:0:
448,192,120318,1,0,0:0:0:0:
192,192,120401,1,0,0:0:0:0:
320,192,120568,1,0,0:0:0:0:
448,192,120651,1,0,0:0:0:0:
64,192,120651,1,0,0:0:0:0:
448,192,120818,1,0,0:0:0:0:
320,192,120901,1,0,0:0:0:0:
64,192,120985,1,0,0:0:0:0:
192,192,120985,1,0,0:0:0:0:
320,192,121318,1,0,0:0:0:0:
448,192,121318,1,0,0:0:0:0:
64,192,121485,1,0,0:0:0:0:
192,192,121485,1,0,0:0:0:0:
448,192,121485,1,0,0:0:0:0:
320,192,121651,1,0,0:0:0:0:
192,192,121651,1,0,0:0:0:0:
64,192,121818,1,0,0:0:0:0:
320,192,121818,1,0,0:0:0:0:
448,192,121818,1,0,0:0:0:0:
64,192,121985,1,0,0:0:0:0:
192,192,121985,1,0,0:0:0:0:
320,192,122068,1,0,0:0:0:0:
192,192,122151,1,0,0:0:0:0:
320,192,122318,1,0,0:0:0:0:
448,192,122318,1,0,0:0:0:0:
192,192,122401,1,0,0:0:0:0:
64,192,122401,1,0,0:0:0:0:
448,192,122485,1,0,0:0:0:0:
320,192,122485,1,0,0:0:0:0:
64,192,122568,1,0,0:0:0:0:
448,192,122651,1,0,0:0:0:0:
320,192,122651,1,0,0:0:0:0:
192,192,122651,1,0,0:0:0:0:
192,192,122818,1,0,0:0:0:0:
64,192,122985,1,0,0:0:0:0:
448,192,122985,1,0,0:0:0:0:
320,192,123068,1,0,0:0:0:0:
192,192,123151,1,0,0:0:0:0:
320,192,123235,1,0,0:0:0:0:
64,192,123318,1,0,0:0:0:0:
192,192,123318,1,0,0:0:0:0:
448,192,123401,1,0,0:0:0:0:
64,192,123485,1,0,0:0:0:0:
192,192,123568,1,0,0:0:0:0:
320,192,123651,1,0,0:0:0:0:
448,192,123651,1,0,0:0:0:0:
64,192,123735,1,0,0:0:0:0:
320,192,123818,1,0,0:0:0:0:
192,192,123901,1,0,0:0:0:0:
64,192,123985,1,0,0:0:0:0:
448,192,123985,1,0,0:0:0:0:
448,192,124151,1,0,0:0:0:0:
64,192,124235,1,0,0:0:0:0:
192,192,124318,1,0,0:0:0:0:
320,192,124318,1,0,0:0:0:0:
448,192,124401,1,0,0:0:0:0:
192,192,124485,1,0,0:0:0:0:
64,192,124651,1,0,0:0:0:0:
448,192,124651,1,0,0:0:0:0:
320,192,124735,1,0,0:0:0:0:
192,192,124818,1,0,0:0:0:0:
320,192,124901,1,0,0:0:0:0:
64,192,124985,1,0,0:0:0:0:
448,192,124985,1,0,0:0:0:0:
64,192,125151,1,0,0:0:0:0:
192,192,125235,1,0,0:0:0:0:
320,192,125318,1,0,0:0:0:0:
448,192,125318,1,0,0:0:0:0:
320,192,125485,1,0,0:0:0:0:
192,192,125568,1,0,0:0:0:0:
64,192,125651,1,0,0:0:0:0:
448,192,125651,1,0,0:0:0:0:
320,192,125735,1,0,0:0:0:0:
64,192,125901,1,0,0:0:0:0:
192,192,125985,1,0,0:0:0:0:
320,192,125985,1,0,0:0:0:0:
448,192,126068,1,0,0:0:0:0:
64,192,126151,1,0,0:0:0:0:
192,192,126235,1,0,0:0:0:0:
448,192,126318,1,0,0:0:0:0:
320,192,126318,1,0,0:0:0:0:
64,192,126651,1,0,0:0:0:0:
192,192,126651,1,0,0:0:0:0:
192,192,126818,1,0,0:0:0:0:
320,192,126901,1,0,0:0:0:0:
64,192,126985,1,0,0:0:0:0:
448,192,126985,1,0,0:0:0:0:
448,192,127151,1,0,0:0:0:0:
320,192,127235,1,0,0:0:0:0:
192,192,127318,1,0,0:0:0:0:
64,192,127318,1,0,0:0:0:0:
320,192,127485,1,0,0:0:0:0:
448,192,127485,1,0,0:0:0:0:
64,192,127568,1,0,0:0:0:0:
192,192,127568,1,0,0:0:0:0:
320,192,127651,1,0,0:0:0:0:
448,192,127651,1,0,0:0:0:0:
64,192,127735,1,0,0:0:0:0:
192,192,127735,1,0,0:0:0:0:
320,192,127818,1,0,0:0:0:0:
448,192,127818,1,0,0:0:0:0:
192,192,127901,1,0,0:0:0:0:
64,192,127985,128,0,129318:0:0:0:0:
448,192,127985,128,0,128318:0:0:0:0:
320,192,127985,1,0,0:0:0:0:
192,192,128318,128,0,128485:0:0:0:0:
448,192,128485,128,0,128651:0:0:0:0:
320,192,128651,128,0,128818:0:0:0:0:
448,192,128818,128,0,128985:0:0:0:0:
192,192,128985,128,0,129068:0:0:0:0:
320,192,128985,1,0,0:0:0:0:
192,192,129151,128,0,129318:0:0:0:0:
448,192,129318,128,0,130651:0:0:0:0:
320,192,129318,128,0,129485:0:0:0:0:
64,192,129485,128,0,129818:0:0:0:0:
320,192,129818,128,0,129985:0:0:0:0:
192,192,129985,128,0,130318:0:0:0:0:
320,192,130318,1,0,0:0:0:0:
64,192,130318,1,0,0:0:0:0:
320,192,130485,128,0,130651:0:0:0:0:
192,192,130651,128,0,131985:0:0:0:0:
64,192,130651,128,0,130985:0:0:0:0:
448,192,130985,128,0,131318:0:0:0:0:
64,192,131151,1,0,0:0:0:0:
320,192,131318,128,0,131651:0:0:0:0:
64,192,131651,128,0,131985:0:0:0:0:
448,192,131651,1,0,0:0:0:0:
320,192,131985,128,0,132985:0:0:0:0:
448,192,131985,128,0,132318:0:0:0:0:
64,192,132318,128,0,132651:0:0:0:0:
448,192,132485,1,0,0:0:0:0:
192,192,132651,128,0,132985:0:0:0:0:
448,192,132985,1,0,0:0:0:0:
64,192,132985,1,0,0:0:0:0:
320,192,133151,1,0,0:0:0:0:
192,192,133151,1,0,0:0:0:0:
448,192,133318,128,0,134651:0:0:0:0:
320,192,133318,1,0,0:0:0:0:
64,192,133318,128,0,133651:0:0:0:0:
320,192,133651,128,0,133818:0:0:0:0:
192,192,133818,128,0,133985:0:0:0:0:
320,192,133985,128,0,134151:0:0:0:0:
64,192,134151,128,0,134318:0:0:0:0:
192,192,134318,128,0,134401:0:0:0:0:
320,192,134318,1,0,0:0:0:0:
192,192,134485,128,0,134651:0:0:0:0:
64,192,134651,128,0,135985:0:0:0:0:
320,192,134651,128,0,134818:0:0:0:0:
448,192,134818,128,0,134985:0:0:0:0:
192,192,134985,128,0,135151:0:0:0:0:
320,192,135151,128,0,135318:0:0:0:0:
448,192,135318,128,0,135651:0:0:0:0:
192,192,135651,1,0,0:0:0:0:
320,192,135651,1,0,0:0:0:0:
448,192,135818,128,0,135985:0:0:0:0:
320,192,135985,128,0,137318:0:0:0:0:
192,192,135985,128,0,136318:0:0:0:0:
448,192,136318,128,0,136651:0:0:0:0:
192,192,136485,1,0,0:0:0:0:
64,192,136651,128,0,136985:0:0:0:0:
192,192,136985,1,0,0:0:0:0:
448,192,136985,128,0,137151:0:0:0:0:
192,192,137151,128,0,137318:0:0:0:0:
64,192,137318,1,0,0:0:0:0:
448,192,137318,1,0,0:0:0:0:
192,192,137485,1,0,0:0:0:0:
320,192,137485,1,0,0:0:0:0:
448,192,137485,1,0,0:0:0:0:
192,192,137651,1,0,0:0:0:0:
64,192,137651,1,0,0:0:0:0:
320,192,137651,1,0,0:0:0:0:
448,192,137818,1,0,0:0:0:0:
192,192,137985,1,0,0:0:0:0:
320,192,137985,1,0,0:0:0:0:
64,192,137985,1,0,0:0:0:0:
64,192,138151,1,0,0:0:0:0:
448,192,138151,1,0,0:0:0:0:
192,192,138318,1,0,0:0:0:0:
320,192,138318,1,0,0:0:0:0:
448,192,138318,1,0,0:0:0:0:
192,192,138485,1,0,0:0:0:0:
64,192,138485,1,0,0:0:0:0:
448,192,138651,128,0,138901:0:0:0:0:
320,192,138651,1,0,0:0:0:0:
64,192,138651,1,0,0:0:0:0:
448,192,138985,128,0,139068:0:0:0:0:
320,192,138985,1,0,0:0:0:0:
192,192,138985,1,0,0:0:0:0:
448,192,139151,128,0,139235:0:0:0:0:
64,192,139151,1,0,0:0:0:0:
448,192,139318,128,0,139401:0:0:0:0:
320,192,139318,1,0,0:0:0:0:
448,192,139485,128,0,139568:0:0:0:0:
192,192,139485,1,0,0:0:0:0:
448,192,139651,128,0,139735:0:0:0:0:
64,192,139651,1,0,0:0:0:0:
320,192,139651,1,0,0:0:0:0:
448,192,139818,128,0,139901:0:0:0:0:
192,192,139818,1,0,0:0:0:0:
192,192,139985,128,0,140235:0:0:0:0:
448,192,139985,1,0,0:0:0:0:
192,192,140318,128,0,140401:0:0:0:0:
320,192,140318,1,0,0:0:0:0:
64,192,140318,1,0,0:0:0:0:
192,192,140485,128,0,140568:0:0:0:0:
448,192,140485,1,0,0:0:0:0:
192,192,140651,128,0,140735:0:0:0:0:
320,192,140651,1,0,0:0:0:0:
192,192,140818,128,0,140901:0:0:0:0:
448,192,140818,1,0,0:0:0:0:
64,192,140818,1,0,0:0:0:0:
192,192,140985,128,0,141068:0:0:0:0:
64,192,140985,1,0,0:0:0:0:
448,192,140985,1,0,0:0:0:0:
192,192,141151,128,0,141235:0:0:0:0:
320,192,141151,1,0,0:0:0:0:
320,192,141318,128,0,141568:0:0:0:0:
192,192,141318,1,0,0:0:0:0:
320,192,141651,128,0,141735:0:0:0:0:
64,192,141651,1,0,0:0:0:0:
448,192,141651,1,0,0:0:0:0:
320,192,141818,128,0,141901:0:0:0:0:
192,192,141818,1,0,0:0:0:0:
320,192,141985,128,0,142068:0:0:0:0:
448,192,141985,1,0,0:0:0:0:
320,192,142151,128,0,142235:0:0:0:0:
192,192,142151,1,0,0:0:0:0:
320,192,142318,128,0,142401:0:0:0:0:
448,192,142318,1,0,0:0:0:0:
64,192,142318,1,0,0:0:0:0:
320,192,142485,128,0,142568:0:0:0:0:
192,192,142485,1,0,0:0:0:0:
64,192,142651,128,0,142901:0:0:0:0:
320,192,142651,1,0,0:0:0:0:
64,192,142985,128,0,143068:0:0:0:0:
448,192,142985,1,0,0:0:0:0:
192,192,142985,1,0,0:0:0:0:
64,192,143151,128,0,143235:0:0:0:0:
320,192,143151,1,0,0:0:0:0:
64,192,143318,128,0,143401:0:0:0:0:
192,192,143318,1,0,0:0:0:0:
64,192,143485,128,0,143568:0:0:0:0:
448,192,143485,1,0,0:0:0:0:
320,192,143485,1,0,0:0:0:0:
64,192,143651,128,0,143735:0:0:0:0:
448,192,143651,1,0,0:0:0:0:
320,192,143651,1,0,0:0:0:0:
192,192,143818,1,0,0:0:0:0:
64,192,143818,1,0,0:0:0:0:
320,192,143901,1,0,0:0:0:0:
448,192,143985,128,0,144235:0:0:0:0:
64,192,143985,1,0,0:0:0:0:
192,192,143985,1,0,0:0:0:0:
448,192,144318,128,0,144401:0:0:0:0:
320,192,144318,1,0,0:0:0:0:
64,192,144318,1,0,0:0:0:0:
448,192,144485,128,0,144568:0:0:0:0:
192,192,144485,1,0,0:0:0:0:
448,192,144651,128,0,144735:0:0:0:0:
64,192,144651,1,0,0:0:0:0:
448,192,144818,128,0,144901:0:0:0:0:
320,192,144818,1,0,0:0:0:0:
448,192,144985,128,0,145068:0:0:0:0:
192,192,144985,1,0,0:0:0:0:
64,192,144985,1,0,0:0:0:0:
448,192,145151,128,0,145235:0:0:0:0:
320,192,145151,1,0,0:0:0:0:
192,192,145318,128,0,145568:0:0:0:0:
448,192,145318,1,0,0:0:0:0:
192,192,145651,128,0,145735:0:0:0:0:
320,192,145651,1,0,0:0:0:0:
64,192,145651,1,0,0:0:0:0:
192,192,145818,128,0,145901:0:0:0:0:
448,192,145818,1,0,0:0:0:0:
192,192,145985,128,0,146068:0:0:0:0:
320,192,145985,1,0,0:0:0:0:
192,192,146151,128,0,146235:0:0:0:0:
64,192,146151,1,0,0:0:0:0:
448,192,146318,1,0,0:0:0:0:
320,192,146318,1,0,0:0:0:0:
192,192,146401,1,0,0:0:0:0:
64,192,146401,1,0,0:0:0:0:
448,192,146485,1,0,0:0:0:0:
320,192,146485,1,0,0:0:0:0:
192,192,146568,1,0,0:0:0:0:
448,192,146651,5,0,0:0:0:0:
320,192,146651,1,0,0:0:0:0:
64,192,146651,1,0,0:0:0:0:
448,192,146818,1,0,0:0:0:0:
192,192,146818,1,0,0:0:0:0:
64,192,146818,1,0,0:0:0:0:
448,192,146985,1,0,0:0:0:0:
320,192,146985,1,0,0:0:0:0:
64,192,146985,1,0,0:0:0:0:
448,192,147151,1,0,0:0:0:0:
320,192,147151,1,0,0:0:0:0:
64,192,147151,1,0,0:0:0:0:
320,192,147318,1,0,0:0:0:0:
192,192,147318,1,0,0:0:0:0:
448,192,147485,1,0,0:0:0:0:
64,192,147485,1,0,0:0:0:0:
192,192,147485,1,0,0:0:0:0:
320,192,147651,1,0,0:0:0:0:
192,192,147651,1,0,0:0:0:0:
192,192,147818,5,0,0:0:0:0:
64,192,147818,1,0,0:0:0:0:
448,192,147818,1,0,0:0:0:0:
448,192,147985,1,0,0:0:0:0:
64,192,147985,1,0,0:0:0:0:
192,192,147985,1,0,0:0:0:0:
320,192,148651,128,0,148901:0:0:0:0:
320,192,148985,128,0,149318:0:0:0:0:
448,192,149318,5,0,0:0:0:0:
64,192,149318,128,0,151985:0:0:0:0:
192,192,149318,128,0,150651:0:0:0:0:
320,192,150651,1,0,0:0:0:0:
448,192,150651,128,0,153318:0:0:0:0:
192,192,151985,1,0,0:0:0:0:
320,192,151985,128,0,154651:0:0:0:0:
192,192,153318,1,0,0:0:0:0:
64,192,153318,128,0,155985:0:0:0:0:
192,192,154651,1,0,0:0:0:0:
448,192,154651,128,0,156651:0:0:0:0:
320,192,155985,1,0,0:0:0:0:
192,192,155985,128,0,157318:0:0:0:0:
64,192,156651,1,0,0:0:0:0:
320,192,156651,128,0,158651:0:0:0:0:
448,192,157318,1,0,0:0:0:0:
64,192,157318,128,0,159985:0:0:0:0:
192,192,158651,1,0,0:0:0:0:
448,192,158651,128,0,159985:0:0:0:0:
192,192,159985,1,0,0:0:0:0:
320,192,159985,1,0,0:0:0:0:
448,192,160151,1,0,0:0:0:0:
320,192,160235,1,0,0:0:0:0:
192,192,160318,1,0,0:0:0:0:
64,192,160318,1,0,0:0:0:0:
448,192,160401,1,0,0:0:0:0:
64,192,160485,1,0,0:0:0:0:
192,192,160568,1,0,0:0:0:0:
320,192,160651,1,0,0:0:0:0:
448,192,160651,1,0,0:0:0:0:
64,192,160735,1,0,0:0:0:0:
320,192,160818,1,0,0:0:0:0:
192,192,160901,1,0,0:0:0:0:
64,192,160985,1,0,0:0:0:0:
448,192,160985,1,0,0:0:0:0:
192,192,161068,1,0,0:0:0:0:
448,192,161151,1,0,0:0:0:0:
320,192,161235,1,0,0:0:0:0:
192,192,161318,1,0,0:0:0:0:
64,192,161318,1,0,0:0:0:0:
448,192,161401,1,0,0:0:0:0:
64,192,161485,1,0,0:0:0:0:
320,192,161568,1,0,0:0:0:0:
448,192,161651,1,0,0:0:0:0:
192,192,161651,1,0,0:0:0:0:
64,192,161735,1,0,0:0:0:0:
448,192,161818,1,0,0:0:0:0:
192,192,161901,1,0,0:0:0:0:
64,192,161985,1,0,0:0:0:0:
320,192,161985,1,0,0:0:0:0:
448,192,162068,1,0,0:0:0:0:
64,192,162151,1,0,0:0:0:0:
192,192,162235,1,0,0:0:0:0:
320,192,162318,1,0,0:0:0:0:
448,192,162318,1,0,0:0:0:0:
64,192,162401,1,0,0:0:0:0:
320,192,162485,1,0,0:0:0:0:
192,192,162568,1,0,0:0:0:0:
64,192,162651,1,0,0:0:0:0:
448,192,162651,1,0,0:0:0:0:
192,192,162735,1,0,0:0:0:0:
448,192,162818,1,0,0:0:0:0:
320,192,162901,1,0,0:0:0:0:
192,192,162985,1,0,0:0:0:0:
64,192,162985,1,0,0:0:0:0:
448,192,163068,1,0,0:0:0:0:
64,192,163151,1,0,0:0:0:0:
192,192,163235,1,0,0:0:0:0:
448,192,163318,1,0,0:0:0:0:
320,192,163318,1,0,0:0:0:0:
64,192,163401,1,0,0:0:0:0:
448,192,163485,1,0,0:0:0:0:
320,192,163568,1,0,0:0:0:0:
192,192,163651,1,0,0:0:0:0:
64,192,163651,1,0,0:0:0:0:
448,192,163735,1,0,0:0:0:0:
192,192,163818,5,0,0:0:0:0:
320,192,163901,1,0,0:0:0:0:
64,192,163985,1,0,0:0:0:0:
448,192,163985,1,0,0:0:0:0:
320,192,164068,1,0,0:0:0:0:
64,192,164151,1,0,0:0:0:0:
192,192,164235,1,0,0:0:0:0:
320,192,164318,1,0,0:0:0:0:
448,192,164318,1,0,0:0:0:0:
64,192,164401,1,0,0:0:0:0:
448,192,164485,1,0,0:0:0:0:
320,192,164568,1,0,0:0:0:0:
64,192,164651,1,0,0:0:0:0:
192,192,164651,1,0,0:0:0:0:
448,192,164735,1,0,0:0:0:0:
192,192,164818,1,0,0:0:0:0:
320,192,164901,1,0,0:0:0:0:
64,192,164985,5,0,0:0:0:0:
448,192,164985,1,0,0:0:0:0:
192,192,164985,1,0,0:0:0:0:
448,192,165151,1,0,0:0:0:0:
320,192,165151,1,0,0:0:0:0:
192,192,165235,1,0,0:0:0:0:
320,192,165318,1,0,0:0:0:0:
448,192,165318,1,0,0:0:0:0:
64,192,165318,1,0,0:0:0:0:
192,192,165485,1,0,0:0:0:0:
64,192,165485,1,0,0:0:0:0:
320,192,165568,1,0,0:0:0:0:
448,192,165568,1,0,0:0:0:0:
192,192,165651,1,0,0:0:0:0:
64,192,165651,1,0,0:0:0:0:
448,192,165818,1,0,0:0:0:0:
320,192,165818,1,0,0:0:0:0:
192,192,165901,1,0,0:0:0:0:
64,192,165901,1,0,0:0:0:0:
448,192,165985,1,0,0:0:0:0:
320,192,165985,1,0,0:0:0:0:
320,192,166151,1,0,0:0:0:0:
64,192,166151,1,0,0:0:0:0:
192,192,166235,1,0,0:0:0:0:
448,192,166235,1,0,0:0:0:0:
320,192,166318,1,0,0:0:0:0:
64,192,166318,1,0,0:0:0:0:
192,192,166485,1,0,0:0:0:0:
448,192,166485,1,0,0:0:0:0:
320,192,166568,1,0,0:0:0:0:
64,192,166568,1,0,0:0:0:0:
192,192,166651,1,0,0:0:0:0:
448,192,166651,1,0,0:0:0:0:
320,192,166818,1,0,0:0:0:0:
192,192,166818,1,0,0:0:0:0:
64,192,166901,1,0,0:0:0:0:
448,192,166901,1,0,0:0:0:0:
192,192,166985,1,0,0:0:0:0:
320,192,166985,1,0,0:0:0:0:
448,192,167151,1,0,0:0:0:0:
64,192,167151,1,0,0:0:0:0:
192,192,167235,1,0,0:0:0:0:
320,192,167235,1,0,0:0:0:0:
448,192,167318,1,0,0:0:0:0:
64,192,167318,1,0,0:0:0:0:
448,192,167485,1,0,0:0:0:0:
320,192,167485,1,0,0:0:0:0:
192,192,167568,1,0,0:0:0:0:
64,192,167568,1,0,0:0:0:0:
448,192,167651,1,0,0:0:0:0:
320,192,167651,1,0,0:0:0:0:
192,192,167818,1,0,0:0:0:0:
64,192,167818,1,0,0:0:0:0:
320,192,167901,1,0,0:0:0:0:
448,192,167901,1,0,0:0:0:0:
192,192,167985,1,0,0:0:0:0:
64,192,167985,1,0,0:0:0:0:
448,192,168151,1,0,0:0:0:0:
192,192,168151,1,0,0:0:0:0:
320,192,168235,1,0,0:0:0:0:
64,192,168235,1,0,0:0:0:0:
192,192,168318,1,0,0:0:0:0:
448,192,168318,1,0,0:0:0:0:
320,192,168485,1,0,0:0:0:0:
64,192,168485,1,0,0:0:0:0:
192,192,168568,1,0,0:0:0:0:
448,192,168568,1,0,0:0:0:0:
320,192,168651,1,0,0:0:0:0:
64,192,168651,1,0,0:0:0:0:
448,192,168818,1,0,0:0:0:0:
64,192,168818,1,0,0:0:0:0:
320,192,168901,1,0,0:0:0:0:
192,192,168901,1,0,0:0:0:0:
448,192,168985,1,0,0:0:0:0:
64,192,168985,1,0,0:0:0:0:
320,192,169151,1,0,0:0:0:0:
448,192,169151,1,0,0:0:0:0:
192,192,169235,1,0,0:0:0:0:
64,192,169235,1,0,0:0:0:0:
320,192,169318,1,0,0:0:0:0:
448,192,169318,1,0,0:0:0:0:
192,192,170151,1,0,0:0:0:0:
320,192,170151,1,0,0:0:0:0:
448,192,170318,1,0,0:0:0:0:
192,192,170318,1,0,0:0:0:0:
64,192,170318,1,0,0:0:0:0:
448,192,170651,1,0,0:0:0:0:
64,192,170651,1,0,0:0:0:0:
320,192,170651,128,0,170735:0:0:0:0:
320,192,170818,128,0,170985:0:0:0:0:
192,192,170985,1,0,0:0:0:0:
64,192,170985,1,0,0:0:0:0:
448,192,170985,1,0,0:0:0:0:
192,192,171151,128,0,171401:0:0:0:0:
448,192,171318,1,0,0:0:0:0:
320,192,171318,1,0,0:0:0:0:
192,192,171485,128,0,171651:0:0:0:0:
448,192,171651,1,0,0:0:0:0:
320,192,171651,1,0,0:0:0:0:
64,192,171651,1,0,0:0:0:0:
448,192,171818,128,0,172318:0:0:0:0:
192,192,171985,1,0,0:0:0:0:
64,192,171985,1,0,0:0:0:0:
320,192,172151,128,0,172318:0:0:0:0:
64,192,172318,128,0,172568:0:0:0:0:
192,192,172318,1,0,0:0:0:0:
192,192,172485,128,0,172818:0:0:0:0:
64,192,172651,128,0,172818:0:0:0:0:
448,192,172651,1,0,0:0:0:0:
320,192,172818,128,0,173318:0:0:0:0:
192,192,172985,128,0,173068:0:0:0:0:
64,192,172985,1,0,0:0:0:0:
448,192,172985,1,0,0:0:0:0:
192,192,173151,128,0,173318:0:0:0:0:
64,192,173318,128,0,173985:0:0:0:0:
448,192,173318,1,0,0:0:0:0:
192,192,173485,1,0,0:0:0:0:
448,192,173651,128,0,173818:0:0:0:0:
320,192,173651,128,0,173818:0:0:0:0:
192,192,173818,1,0,0:0:0:0:
448,192,173985,128,0,174318:0:0:0:0:
320,192,173985,128,0,174151:0:0:0:0:
192,192,174151,1,0,0:0:0:0:
64,192,174151,1,0,0:0:0:0:
192,192,174318,1,0,0:0:0:0:
320,192,174318,1,0,0:0:0:0:
448,192,174485,1,0,0:0:0:0:
320,192,174485,1,0,0:0:0:0:
64,192,174485,1,0,0:0:0:0:
192,192,174651,1,0,0:0:0:0:
64,192,174651,1,0,0:0:0:0:
448,192,174818,1,0,0:0:0:0:
320,192,174818,1,0,0:0:0:0:
192,192,174818,1,0,0:0:0:0:
448,192,174985,1,0,0:0:0:0:
64,192,174985,1,0,0:0:0:0:
320,192,175151,1,0,0:0:0:0:
192,192,175151,1,0,0:0:0:0:
64,192,175151,1,0,0:0:0:0:
448,192,175318,1,0,0:0:0:0:
192,192,175318,1,0,0:0:0:0:
320,192,175485,1,0,0:0:0:0:
192,192,175485,1,0,0:0:0:0:
64,192,175485,1,0,0:0:0:0:
320,192,175651,1,0,0:0:0:0:
448,192,175651,1,0,0:0:0:0:
192,192,175735,1,0,0:0:0:0:
64,192,175818,1,0,0:0:0:0:
448,192,175818,1,0,0:0:0:0:
320,192,175901,1,0,0:0:0:0:
64,192,175985,1,0,0:0:0:0:
448,192,175985,1,0,0:0:0:0:
192,192,175985,128,0,176235:0:0:0:0:
320,192,176151,1,0,0:0:0:0:
192,192,176318,1,0,0:0:0:0:
64,192,176318,1,0,0:0:0:0:
320,192,176318,128,0,176568:0:0:0:0:
448,192,176485,1,0,0:0:0:0:
320,192,176651,1,0,0:0:0:0:
448,192,176651,128,0,176901:0:0:0:0:
64,192,176818,1,0,0:0:0:0:
320,192,176985,1,0,0:0:0:0:
64,192,176985,128,0,177235:0:0:0:0:
448,192,176985,1,0,0:0:0:0:
192,192,177151,128,0,177235:0:0:0:0:
448,192,177318,1,0,0:0:0:0:
192,192,177318,128,0,177568:0:0:0:0:
320,192,177485,1,0,0:0:0:0:
192,192,177651,1,0,0:0:0:0:
64,192,177651,1,0,0:0:0:0:
320,192,177651,128,0,177901:0:0:0:0:
448,192,177985,128,0,178235:0:0:0:0:
320,192,177985,1,0,0:0:0:0:
192,192,178151,1,0,0:0:0:0:
448,192,178318,1,0,0:0:0:0:
192,192,178318,128,0,178568:0:0:0:0:
64,192,178318,1,0,0:0:0:0:
320,192,178485,1,0,0:0:0:0:
192,192,178651,1,0,0:0:0:0:
320,192,178651,128,0,179318:0:0:0:0:
448,192,178818,1,0,0:0:0:0:
192,192,178985,128,0,179151:0:0:0:0:
64,192,178985,128,0,179151:0:0:0:0:
448,192,179151,1,0,0:0:0:0:
64,192,179318,128,0,179651:0:0:0:0:
192,192,179318,128,0,179485:0:0:0:0:
448,192,179485,1,0,0:0:0:0:
320,192,179485,1,0,0:0:0:0:
320,192,179651,1,0,0:0:0:0:
192,192,179651,1,0,0:0:0:0:
448,192,179818,1,0,0:0:0:0:
64,192,179818,1,0,0:0:0:0:
192,192,179818,1,0,0:0:0:0:
320,192,179985,1,0,0:0:0:0:
64,192,179985,1,0,0:0:0:0:
448,192,180151,1,0,0:0:0:0:
320,192,180151,1,0,0:0:0:0:
192,192,180151,1,0,0:0:0:0:
64,192,180318,1,0,0:0:0:0:
192,192,180318,1,0,0:0:0:0:
448,192,180485,1,0,0:0:0:0:
320,192,180485,1,0,0:0:0:0:
192,192,180568,1,0,0:0:0:0:
320,192,180651,1,0,0:0:0:0:
192,192,180818,1,0,0:0:0:0:
64,192,180818,1,0,0:0:0:0:
320,192,180901,1,0,0:0:0:0:
448,192,180901,1,0,0:0:0:0:
192,192,180985,1,0,0:0:0:0:
64,192,180985,1,0,0:0:0:0:
448,192,181068,1,0,0:0:0:0:
320,192,181151,1,0,0:0:0:0:
192,192,181235,1,0,0:0:0:0:
320,192,181318,1,0,0:0:0:0:
64,192,181318,1,0,0:0:0:0:
448,192,181318,128,0,181401:0:0:0:0:
448,192,181485,128,0,181651:0:0:0:0:
192,192,181651,1,0,0:0:0:0:
64,192,181651,1,0,0:0:0:0:
320,192,181651,1,0,0:0:0:0:
64,192,181818,128,0,182068:0:0:0:0:
192,192,181985,1,0,0:0:0:0:
448,192,181985,1,0,0:0:0:0:
64,192,182151,128,0,182318:0:0:0:0:
448,192,182318,1,0,0:0:0:0:
320,192,182318,1,0,0:0:0:0:
192,192,182318,1,0,0:0:0:0:
320,192,182485,128,0,182985:0:0:0:0:
448,192,182651,1,0,0:0:0:0:
64,192,182651,1,0,0:0:0:0:
192,192,182818,128,0,182985:0:0:0:0:
64,192,182985,128,0,183235:0:0:0:0:
448,192,182985,1,0,0:0:0:0:
448,192,183151,128,0,183485:0:0:0:0:
64,192,183318,128,0,183485:0:0:0:0:
320,192,183318,1,0,0:0:0:0:
192,192,183485,128,0,183985:0:0:0:0:
320,192,183651,128,0,183735:0:0:0:0:
64,192,183651,1,0,0:0:0:0:
448,192,183651,1,0,0:0:0:0:
320,192,183818,128,0,183985:0:0:0:0:
448,192,183985,128,0,184651:0:0:0:0:
64,192,184151,1,0,0:0:0:0:
320,192,184318,128,0,184485:0:0:0:0:
192,192,184318,128,0,184485:0:0:0:0:
64,192,184485,1,0,0:0:0:0:
192,192,184651,128,0,184985:0:0:0:0:
320,192,184651,128,0,184818:0:0:0:0:
448,192,184818,1,0,0:0:0:0:
64,192,184818,1,0,0:0:0:0:
448,192,184985,1,0,0:0:0:0:
320,192,184985,1,0,0:0:0:0:
192,192,185151,1,0,0:0:0:0:
64,192,185151,1,0,0:0:0:0:
320,192,185318,1,0,0:0:0:0:
448,192,185318,1,0,0:0:0:0:
64,192,185318,1,0,0:0:0:0:
192,192,185485,1,0,0:0:0:0:
448,192,185485,1,0,0:0:0:0:
320,192,185651,1,0,0:0:0:0:
192,192,185651,1,0,0:0:0:0:
64,192,185651,1,0,0:0:0:0:
448,192,185818,1,0,0:0:0:0:
64,192,185818,1,0,0:0:0:0:
448,192,185985,1,0,0:0:0:0:
320,192,185985,1,0,0:0:0:0:
192,192,186151,1,0,0:0:0:0:
64,192,186151,1,0,0:0:0:0:
448,192,186235,1,0,0:0:0:0:
320,192,186318,1,0,0:0:0:0:
192,192,186318,1,0,0:0:0:0:
64,192,186401,1,0,0:0:0:0:
448,192,186485,1,0,0:0:0:0:
320,192,186485,1,0,0:0:0:0:
192,192,186568,1,0,0:0:0:0:
64,192,186651,1,0,0:0:0:0:
448,192,186651,1,0,0:0:0:0:
320,192,186651,128,0,186818:0:0:0:0:
192,192,186818,1,0,0:0:0:0:
448,192,186985,1,0,0:0:0:0:
320,192,186985,128,0,187151:0:0:0:0:
64,192,186985,1,0,0:0:0:0:
192,192,187151,128,0,187318:0:0:0:0:
448,192,187318,128,0,187568:0:0:0:0:
64,192,187318,1,0,0:0:0:0:
320,192,187485,128,0,187568:0:0:0:0:
448,192,187651,1,0,0:0:0:0:
192,192,187651,1,0,0:0:0:0:
320,192,187651,128,0,187985:0:0:0:0:
64,192,187818,1,0,0:0:0:0:
448,192,187985,1,0,0:0:0:0:
64,192,187985,128,0,188235:0:0:0:0:
192,192,188151,1,0,0:0:0:0:
448,192,188318,1,0,0:0:0:0:
192,192,188318,128,0,188568:0:0:0:0:
64,192,188318,1,0,0:0:0:0:
320,192,188485,1,0,0:0:0:0:
320,192,188651,128,0,188901:0:0:0:0:
192,192,188651,1,0,0:0:0:0:
448,192,188818,1,0,0:0:0:0:
448,192,188985,128,0,189235:0:0:0:0:
320,192,188985,1,0,0:0:0:0:
64,192,188985,1,0,0:0:0:0:
192,192,189151,1,0,0:0:0:0:
192,192,189318,128,0,189985:0:0:0:0:
448,192,189318,1,0,0:0:0:0:
64,192,189485,1,0,0:0:0:0:
320,192,189651,128,0,189818:0:0:0:0:
448,192,189651,128,0,189818:0:0:0:0:
64,192,189818,1,0,0:0:0:0:
448,192,189985,128,0,190318:0:0:0:0:
320,192,189985,128,0,190151:0:0:0:0:
64,192,190151,1,0,0:0:0:0:
192,192,190151,1,0,0:0:0:0:
192,192,190318,1,0,0:0:0:0:
320,192,190318,1,0,0:0:0:0:
64,192,190485,1,0,0:0:0:0:
448,192,190485,1,0,0:0:0:0:
320,192,190485,1,0,0:0:0:0:
192,192,190651,1,0,0:0:0:0:
448,192,190651,1,0,0:0:0:0:
64,192,190818,5,0,0:0:0:0:
192,192,190818,1,0,0:0:0:0:
320,192,190818,1,0,0:0:0:0:
448,192,190985,1,0,0:0:0:0:
320,192,190985,1,0,0:0:0:0:
64,192,191151,1,0,0:0:0:0:
192,192,191151,1,0,0:0:0:0:
320,192,191235,1,0,0:0:0:0:
192,192,191318,1,0,0:0:0:0:
320,192,191485,1,0,0:0:0:0:
448,192,191485,1,0,0:0:0:0:
192,192,191568,1,0,0:0:0:0:
64,192,191568,1,0,0:0:0:0:
320,192,191651,1,0,0:0:0:0:
448,192,191651,1,0,0:0:0:0:
192,192,191735,1,0,0:0:0:0:
64,192,191818,1,0,0:0:0:0:
448,192,191901,1,0,0:0:0:0:
320,192,191985,128,0,192151:0:0:0:0:
192,192,191985,1,0,0:0:0:0:
64,192,191985,1,0,0:0:0:0:
320,192,192318,128,0,192485:0:0:0:0:
448,192,192318,1,0,0:0:0:0:
192,192,192318,1,0,0:0:0:0:
64,192,192485,1,0,0:0:0:0:
320,192,192651,128,0,192818:0:0:0:0:
192,192,192651,1,0,0:0:0:0:
448,192,192818,1,0,0:0:0:0:
320,192,192985,128,0,193151:0:0:0:0:
64,192,192985,1,0,0:0:0:0:
192,192,192985,1,0,0:0:0:0:
448,192,193151,1,0,0:0:0:0:
64,192,193318,1,0,0:0:0:0:
320,192,193318,128,0,193651:0:0:0:0:
448,192,193485,128,0,193651:0:0:0:0:
64,192,193651,1,0,0:0:0:0:
192,192,193651,128,0,194318:0:0:0:0:
320,192,193818,1,0,0:0:0:0:
64,192,193985,128,0,194318:0:0:0:0:
448,192,193985,1,0,0:0:0:0:
320,192,194151,1,0,0:0:0:0:
320,192,194318,128,0,194651:0:0:0:0:
448,192,194318,1,0,0:0:0:0:
192,192,194485,1,0,0:0:0:0:
448,192,194651,128,0,194818:0:0:0:0:
64,192,194651,1,0,0:0:0:0:
192,192,194818,1,0,0:0:0:0:
448,192,194985,128,0,195151:0:0:0:0:
320,192,194985,1,0,0:0:0:0:
64,192,194985,1,0,0:0:0:0:
192,192,195151,1,0,0:0:0:0:
448,192,195318,128,0,195485:0:0:0:0:
64,192,195318,1,0,0:0:0:0:
320,192,195485,1,0,0:0:0:0:
192,192,195651,1,0,0:0:0:0:
448,192,195651,128,0,195818:0:0:0:0:
64,192,195651,1,0,0:0:0:0:
320,192,195818,1,0,0:0:0:0:
448,192,195985,128,0,196318:0:0:0:0:
192,192,195985,1,0,0:0:0:0:
320,192,196151,128,0,196318:0:0:0:0:
64,192,196318,1,0,0:0:0:0:
192,192,196318,128,0,196651:0:0:0:0:
320,192,196485,128,0,196651:0:0:0:0:
64,192,196651,128,0,196985:0:0:0:0:
448,192,196651,1,0,0:0:0:0:
192,192,196818,1,0,0:0:0:0:
448,192,196985,1,0,0:0:0:0:
320,192,196985,1,0,0:0:0:0:
64,192,197068,1,0,0:0:0:0:
192,192,197068,1,0,0:0:0:0:
448,192,197151,1,0,0:0:0:0:
320,192,197151,1,0,0:0:0:0:
192,192,197235,1,0,0:0:0:0:
448,192,197318,1,0,0:0:0:0:
320,192,197318,1,0,0:0:0:0:
64,192,197318,128,0,197485:0:0:0:0:
192,192,197485,1,0,0:0:0:0:
448,192,197651,128,0,197818:0:0:0:0:
320,192,197651,1,0,0:0:0:0:
64,192,197651,1,0,0:0:0:0:
192,192,197818,1,0,0:0:0:0:
64,192,197985,128,0,198151:0:0:0:0:
448,192,197985,1,0,0:0:0:0:
320,192,198151,1,0,0:0:0:0:
448,192,198318,128,0,198485:0:0:0:0:
64,192,198318,1,0,0:0:0:0:
192,192,198318,1,0,0:0:0:0:
320,192,198485,1,0,0:0:0:0:
448,192,198651,1,0,0:0:0:0:
64,192,198651,128,0,198985:0:0:0:0:
192,192,198818,128,0,198985:0:0:0:0:
320,192,198985,128,0,199068:0:0:0:0:
448,192,198985,1,0,0:0:0:0:
320,192,199151,128,0,199318:0:0:0:0:
192,192,199318,128,0,199485:0:0:0:0:
64,192,199318,1,0,0:0:0:0:
320,192,199485,1,0,0:0:0:0:
192,192,199651,128,0,199818:0:0:0:0:
64,192,199651,1,0,0:0:0:0:
448,192,199651,1,0,0:0:0:0:
320,192,199818,1,0,0:0:0:0:
448,192,199985,128,0,200151:0:0:0:0:
192,192,199985,128,0,200151:0:0:0:0:
64,192,199985,128,0,200151:0:0:0:0:
64,192,200318,128,0,200485:0:0:0:0:
192,192,200318,128,0,200485:0:0:0:0:
448,192,200318,128,0,200485:0:0:0:0:
448,192,200651,1,0,0:0:0:0:
64,192,200651,1,0,0:0:0:0:
448,192,200818,128,0,200985:0:0:0:0:
320,192,200818,128,0,200985:0:0:0:0:
64,192,200818,128,0,200985:0:0:0:0:
320,192,201151,1,0,0:0:0:0:
192,192,201151,1,0,0:0:0:0:
64,192,201151,1,0,0:0:0:0:
448,192,201318,1,0,0:0:0:0:
320,192,201318,1,0,0:0:0:0:
448,192,201485,1,0,0:0:0:0:
64,192,201485,1,0,0:0:0:0:
192,192,201485,1,0,0:0:0:0:
320,192,201651,1,0,0:0:0:0:
192,192,201651,1,0,0:0:0:0:
448,192,201818,1,0,0:0:0:0:
320,192,201818,1,0,0:0:0:0:
64,192,201818,1,0,0:0:0:0:
448,192,201985,128,0,202151:0:0:0:0:
320,192,201985,128,0,202151:0:0:0:0:
64,192,201985,128,0,202151:0:0:0:0:
320,192,202318,128,0,202401:0:0:0:0:
192,192,202318,128,0,202485:0:0:0:0:
320,192,202485,1,0,0:0:0:0:
320,192,203818,1,0,0:0:0:0:
448,192,203818,1,0,0:0:0:0:
64,192,203818,1,0,0:0:0:0:
64,192,203985,1,0,0:0:0:0:
320,192,203985,1,0,0:0:0:0:
448,192,203985,1,0,0:0:0:0:
64,192,204151,1,0,0:0:0:0:
320,192,204151,1,0,0:0:0:0:
448,192,204151,1,0,0:0:0:0:
320,192,204318,1,0,0:0:0:0:
448,192,204318,1,0,0:0:0:0:
64,192,204318,1,0,0:0:0:0:
320,192,204485,1,0,0:0:0:0:
448,192,204485,1,0,0:0:0:0:
64,192,204485,1,0,0:0:0:0:
64,192,204651,1,0,0:0:0:0:
320,192,204651,1,0,0:0:0:0:
448,192,204651,1,0,0:0:0:0:
192,192,204985,128,0,205068:0:0:0:0:
320,192,204985,128,0,205151:0:0:0:0:
192,192,205151,1,0,0:0:0:0:
448,192,205318,128,0,205485:0:0:0:0:
320,192,205318,1,0,0:0:0:0:
64,192,205318,1,0,0:0:0:0:
64,192,205485,128,0,205651:0:0:0:0:
192,192,205651,1,0,0:0:0:0:
448,192,205651,1,0,0:0:0:0:
320,192,205651,128,0,205985:0:0:0:0:
192,192,205818,128,0,205985:0:0:0:0:
448,192,205985,1,0,0:0:0:0:
64,192,205985,1,0,0:0:0:0:
192,192,206151,128,0,206318:0:0:0:0:
448,192,206318,1,0,0:0:0:0:
320,192,206318,1,0,0:0:0:0:
64,192,206318,128,0,206651:0:0:0:0:
448,192,206485,128,0,206651:0:0:0:0:
320,192,206651,1,0,0:0:0:0:
192,192,206651,1,0,0:0:0:0:
448,192,206818,128,0,206985:0:0:0:0:
320,192,206985,1,0,0:0:0:0:
64,192,206985,1,0,0:0:0:0:
192,192,206985,128,0,207151:0:0:0:0:
320,192,207151,128,0,207318:0:0:0:0:
448,192,207318,1,0,0:0:0:0:
64,192,207318,128,0,207485:0:0:0:0:
192,192,207485,128,0,207651:0:0:0:0:
64,192,207651,1,0,0:0:0:0:
320,192,207651,1,0,0:0:0:0:
448,192,207651,128,0,207985:0:0:0:0:
192,192,207818,1,0,0:0:0:0:
320,192,207985,1,0,0:0:0:0:
64,192,207985,128,0,208151:0:0:0:0:
320,192,208151,128,0,208318:0:0:0:0:
448,192,208318,128,0,208651:0:0:0:0:
192,192,208318,1,0,0:0:0:0:
64,192,208318,1,0,0:0:0:0:
192,192,208485,128,0,208651:0:0:0:0:
320,192,208651,1,0,0:0:0:0:
64,192,208651,1,0,0:0:0:0:
192,192,208818,128,0,208985:0:0:0:0:
448,192,208985,1,0,0:0:0:0:
320,192,208985,1,0,0:0:0:0:
64,192,208985,128,0,209318:0:0:0:0:
320,192,209151,128,0,209318:0:0:0:0:
448,192,209318,1,0,0:0:0:0:
192,192,209318,1,0,0:0:0:0:
320,192,209485,128,0,209651:0:0:0:0:
448,192,209651,1,0,0:0:0:0:
64,192,209651,1,0,0:0:0:0:
192,192,209651,128,0,209818:0:0:0:0:
448,192,209818,128,0,209985:0:0:0:0:
192,192,209985,1,0,0:0:0:0:
64,192,209985,128,0,210151:0:0:0:0:
320,192,210151,128,0,210318:0:0:0:0:
192,192,210318,1,0,0:0:0:0:
64,192,210318,1,0,0:0:0:0:
320,192,210401,1,0,0:0:0:0:
448,192,210485,1,0,0:0:0:0:
64,192,210485,1,0,0:0:0:0:
192,192,210568,1,0,0:0:0:0:
320,192,210651,128,0,210985:0:0:0:0:
64,192,210651,1,0,0:0:0:0:
448,192,210651,1,0,0:0:0:0:
192,192,210818,128,0,211151:0:0:0:0:
64,192,210985,1,0,0:0:0:0:
448,192,210985,128,0,211318:0:0:0:0:
320,192,211151,128,0,211318:0:0:0:0:
192,192,211318,1,0,0:0:0:0:
64,192,211318,1,0,0:0:0:0:
320,192,211485,128,0,211818:0:0:0:0:
448,192,211651,1,0,0:0:0:0:
192,192,211651,1,0,0:0:0:0:
64,192,211651,128,0,211985:0:0:0:0:
192,192,211818,128,0,211985:0:0:0:0:
448,192,211985,1,0,0:0:0:0:
320,192,211985,1,0,0:0:0:0:
448,192,212151,128,0,212318:0:0:0:0:
320,192,212318,1,0,0:0:0:0:
64,192,212318,1,0,0:0:0:0:
192,192,212318,128,0,212651:0:0:0:0:
320,192,212485,128,0,212651:0:0:0:0:
64,192,212651,1,0,0:0:0:0:
448,192,212651,128,0,212985:0:0:0:0:
64,192,212818,128,0,212985:0:0:0:0:
192,192,212985,1,0,0:0:0:0:
320,192,212985,128,0,213318:0:0:0:0:
64,192,213151,1,0,0:0:0:0:
192,192,213318,128,0,213651:0:0:0:0:
448,192,213318,1,0,0:0:0:0:
64,192,213318,1,0,0:0:0:0:
320,192,213485,128,0,213818:0:0:0:0:
448,192,213651,1,0,0:0:0:0:
64,192,213651,128,0,213985:0:0:0:0:
192,192,213818,128,0,213985:0:0:0:0:
320,192,213985,1,0,0:0:0:0:
448,192,213985,1,0,0:0:0:0:
192,192,214151,128,0,214485:0:0:0:0:
64,192,214318,1,0,0:0:0:0:
320,192,214318,1,0,0:0:0:0:
448,192,214318,128,0,214651:0:0:0:0:
320,192,214485,128,0,214651:0:0:0:0:
64,192,214651,1,0,0:0:0:0:
192,192,214651,1,0,0:0:0:0:
64,192,214818,1,0,0:0:0:0:
320,192,214818,1,0,0:0:0:0:
448,192,214818,1,0,0:0:0:0:
320,192,214985,1,0,0:0:0:0:
448,192,214985,1,0,0:0:0:0:
64,192,214985,1,0,0:0:0:0:
64,192,215151,1,0,0:0:0:0:
320,192,215151,1,0,0:0:0:0:
448,192,215151,1,0,0:0:0:0:
320,192,215318,1,0,0:0:0:0:
448,192,215318,1,0,0:0:0:0:
64,192,215318,1,0,0:0:0:0:
192,192,215485,1,0,0:0:0:0:
320,192,215485,1,0,0:0:0:0:
448,192,215651,128,0,215818:0:0:0:0:
192,192,215651,128,0,215985:0:0:0:0:
64,192,215651,128,0,215985:0:0:0:0:
448,192,215985,128,0,216318:0:0:0:0:
320,192,216151,128,0,216318:0:0:0:0:
64,192,216318,128,0,216651:0:0:0:0:
192,192,216485,128,0,216651:0:0:0:0:
448,192,216818,1,0,0:0:0:0:
448,192,216901,1,0,0:0:0:0:
192,192,216985,128,0,217318:0:0:0:0:
320,192,217151,128,0,217318:0:0:0:0:
