osu file format v14

[General]
AudioFilename: audio.mp3
AudioLeadIn: 0
PreviewTime: 63982
Countdown: 0
SampleSet: Soft
StackLeniency: 0.7
Mode: 0
LetterboxInBreaks: 0
WidescreenStoryboard: 1

[Editor]
Bookmarks: 2648,5315,15982,26648,31982,42648,53315,63982,85315,95982,100648,106648,117315,124648,127982,138648,149315,159982,170648,191982,202315,203815,205315,215982,217315
DistanceSpacing: 1.7
BeatDivisor: 4
GridSize: 16
TimelineZoom: 2

[Metadata]
Title:Dadadada Tenshi
TitleUnicode:ダダダダ天使
Artist:Minato Aqua
ArtistUnicode:湊あくあ
Creator:Amateurre
Version:F4UZ4N's Hard
Source:
Tags:japanese pop cover vtuber virtual youtuber ホロライブ hololive ハイカラサウンド highkarasound ナナヲアカリ nanawo akari ナユタン星人 nayutalien nayuta seijin 阿库娅 akua F4UZ4N so0p domSaur soop Kudosu
BeatmapID:2258653
BeatmapSetID:1079554

[Difficulty]
HPDrainRate:4.5
CircleSize:3.6
OverallDifficulty:7
ApproachRate:8
SliderMultiplier:1.3
SliderTickRate:1

[Events]
//Background and Video events
0,0,"datenshi.jpg",0,0
Video,0,"datenshi .mp4"
//Break Periods
2,149515,159232
//Storyboard Layer 0 (Background)
//Storyboard Layer 1 (Fail)
//Storyboard Layer 2 (Pass)
//Storyboard Layer 3 (Foreground)
//Storyboard Layer 4 (Overlay)
//Storyboard Sound Samples

[TimingPoints]
2649,333.333333333333,4,2,1,60,1,0
2649,-100,4,2,1,60,0,0
2982,-133.333333333333,4,2,1,60,0,0
5315,-100,4,2,1,60,0,0
7898,-100,4,2,1,5,0,0
7982,-100,4,2,1,60,0,0
13232,-100,4,2,1,5,0,0
13315,-100,4,2,1,60,0,0
15898,-100,4,2,1,60,0,0
15982,-107.52688172043,4,2,1,50,0,0
26315,-100,4,2,1,50,0,0
26647,-100,4,2,1,60,0,0
26648,-88.4955752212389,4,2,1,60,0,0
31648,-95.2380952380952,4,2,1,60,0,0
31982,-111.111111111111,4,2,1,50,0,0
42648,-111.111111111111,4,2,1,40,0,0
53315,-103.092783505155,4,2,1,50,0,0
58648,-96.1538461538461,4,2,1,50,0,0
61315,-91.743119266055,4,2,1,50,0,0
63982,-83.3333333333333,4,2,1,70,0,1
66898,-83.3333333333333,4,2,1,5,0,1
66982,-83.3333333333333,4,2,1,70,0,1
71565,-83.3333333333333,4,2,1,5,0,1
71648,-83.3333333333333,4,2,1,70,0,1
72232,-83.3333333333333,4,2,1,5,0,1
72315,-83.3333333333333,4,2,1,70,0,1
77565,-83.3333333333333,4,2,1,5,0,1
77648,-83.3333333333333,4,2,1,70,0,1
82565,-83.3333333333333,4,2,1,5,0,1
82648,-83.3333333333333,4,2,1,70,0,1
85315,-85.4700854700855,4,2,1,70,0,0
93232,-85.4700854700855,4,2,1,5,0,0
93315,-85.4700854700855,4,2,1,70,0,0
95982,-100,4,2,1,60,0,0
98565,-100,4,2,1,5,0,0
98648,-100,4,2,1,60,0,0
101315,-93.4579439252336,4,2,1,60,0,0
103897,-93.4579439252336,4,2,1,60,0,0
103898,-93.4579439252336,4,2,1,60,0,0
103982,-93.4579439252336,4,2,1,60,0,0
106565,-93.4579439252336,4,2,1,60,0,0
106648,-93.4579439252336,4,2,1,40,0,0
117315,-90.9090909090909,4,2,1,50,0,0
127982,-114.942528735632,4,2,1,50,0,0
138648,-105.263157894737,4,2,1,50,0,0
149315,-105.263157894737,4,2,1,40,0,0
159982,-96.1538461538461,4,2,1,45,0,0
161315,-96.1538461538461,4,2,1,47,0,0
162648,-96.1538461538461,4,2,1,49,0,0
163982,-96.1538461538461,4,2,1,51,0,0
165315,-96.1538461538461,4,2,1,53,0,0
165815,-96.1538461538461,4,2,1,55,0,0
166482,-96.1538461538461,4,2,1,57,0,0
167148,-96.1538461538461,4,2,1,59,0,0
167815,-96.1538461538461,4,2,1,61,0,0
168482,-96.1538461538461,4,2,1,63,0,0
169148,-96.1538461538461,4,2,1,65,0,0
170648,-80.6451612903226,4,2,1,70,0,1
173565,-80.6451612903226,4,2,1,5,0,1
173648,-80.6451612903226,4,2,1,70,0,1
178898,-80.6451612903226,4,2,1,5,0,1
178982,-80.6451612903226,4,2,1,70,0,1
184232,-80.6451612903226,4,2,1,5,0,1
184315,-80.6451612903226,4,2,1,70,0,1
189232,-80.6451612903226,4,2,1,5,0,1
189315,-80.6451612903226,4,2,1,70,0,1
191982,-84.7457627118644,4,2,1,70,0,0
199897,-84.7457627118644,4,2,1,70,0,0
199898,-84.7457627118644,4,2,1,70,0,0
199982,-84.7457627118644,4,2,1,70,0,0
203815,-84.7457627118644,4,2,1,55,0,0
204982,-74.0740740740741,4,2,1,55,0,0
205315,-90.9090909090909,4,2,1,60,0,0
207898,-90.9090909090909,4,2,1,5,0,0
207982,-90.9090909090909,4,2,1,60,0,0
213232,-90.9090909090909,4,2,1,5,0,0
213315,-90.9090909090909,4,2,1,60,0,0
215898,-90.9090909090909,4,2,1,5,0,0
215982,-90.9090909090909,4,2,1,35,0,0
216148,-111.111111111111,4,2,1,35,0,0

[Colours]
Combo1 : 131,228,250
Combo2 : 250,160,248

[HitObjects]
186,84,2648,6,0,B|155:99|155:99|108:84,1,65,10|0,0:0|0:0,0:0:0:0:
44,41,2982,2,0,L|50:155,1,97.50000371933,10|6,0:0|0:3,0:0:0:0:
56,223,3482,1,10,0:0:0:0:
195,353,3815,5,10,0:2:0:0:
325,214,4148,1,10,0:2:0:0:
186,84,4482,1,10,0:2:0:0:
235,170,4648,2,0,L|229:267,1,97.50000371933,10|6,0:2|0:3,0:0:0:0:
403,362,5315,6,0,L|481:348,1,65,6|2,1:2|0:0,0:0:0:0:
474,247,5648,1,10,0:0:0:0:
474,247,5815,2,0,P|481:186|482:108,1,130,2|2,0:0|0:0,0:0:0:0:
373,63,6315,1,10,0:0:0:0:
373,63,6482,2,0,P|377:101|378:150,1,65,2|0,0:0|1:0,0:0:0:0:
302,177,6815,5,2,0:0:0:0:
228,125,6982,2,0,L|156:128,1,65,10|2,0:0|0:0,0:0:0:0:
114,39,7315,2,0,L|186:42,1,65,2|2,1:2|0:0,0:0:0:0:
49,108,7648,2,0,P|42:166|41:226,1,97.5,10|0,0:0|0:0,0:0:0:0:
43,228,7982,6,0,P|75:231|107:233,1,65,2|2,1:2|0:0,0:0:0:0:
174,314,8315,1,10,0:0:0:0:
174,314,8482,2,0,B|236:340|236:340|319:306,1,130,2|2,0:0|0:0,0:0:0:0:
382,267,8982,1,10,0:0:0:0:
382,267,9148,2,0,P|383:234|387:202,1,65,2|0,0:0|1:0,0:0:0:0:
479,155,9482,5,2,0:0:0:0:
433,77,9648,2,0,P|400:78|368:82,1,65,10|2,0:0|0:0,0:0:0:0:
281,53,9982,2,0,P|282:86|286:118,1,65,2|2,1:2|0:0,0:0:0:0:
194,132,10315,2,0,L|203:164,3,32.5,10|8|8|8,0:0|0:0|0:0|0:0,0:0:0:0:
196,185,10648,6,0,L|131:187,1,65,6|2,1:2|0:0,0:0:0:0:
45,130,10982,1,10,0:0:0:0:
45,130,11148,2,0,P|49:87|147:62,1,130,2|2,0:0|0:0,0:0:0:0:
130,57,11565,1,2,0:0:0:0:
138,66,11648,1,10,0:0:0:0:
224,36,11815,2,0,P|257:35|289:31,1,65,2|0,0:0|1:0,0:0:0:0:
337,114,12148,5,2,0:0:0:0:
407,51,12315,2,0,P|439:54|471:55,1,65,10|2,0:0|0:0,0:0:0:0:
494,147,12648,2,0,P|461:150|429:151,1,65,2|2,1:2|0:0,0:0:0:0:
317,223,12982,2,0,L|443:241,1,97.5,10|0,0:0|0:0,0:0:0:0:
432,248,13315,6,0,L|434:312,1,65,2|2,1:2|0:0,0:0:0:0:
337,339,13648,1,10,0:0:0:0:
337,339,13815,2,0,P|276:346|198:347,1,130,2|2,0:0|0:0,0:0:0:0:
196,340,14232,1,2,0:0:0:0:
187,330,14315,1,10,0:0:0:0:
151,242,14482,2,0,L|153:177,1,65,2|0,0:0|1:0,0:0:0:0:
98,96,14815,5,10,0:0:0:0:
182,53,14982,1,10,0:0:0:0:
231,133,15148,1,10,0:0:0:0:
315,92,15315,2,8,L|306:43,2,32.5,10|8|4,0:0|0:0|0:3,0:0:0:0:
402,143,15648,2,0,P|364:175|348:244,1,97.5,6|4,0:3|0:3,0:0:0:0:
365,230,15982,6,0,L|367:295,1,60.4500018909073,6|2,1:2|0:0,0:0:0:0:
314,349,16315,1,8,0:0:0:0:
314,349,16482,2,0,L|195:329,1,120.900003781815,2|2,0:0|0:0,0:0:0:0:
115,350,16982,1,8,0:0:0:0:
115,350,17148,6,0,P|117:317|116:273,1,60.4500018909073,2|0,0:0|1:0,0:0:0:0:
59,224,17482,1,2,0:0:0:0:
120,163,17648,2,0,P|122:130|121:86,1,60.4500018909073,10|2,0:0|0:0,0:0:0:0:
203,82,17982,2,0,L|208:33,2,30.2250009454537,2|8|8,1:2|0:0|0:0,0:0:0:0:
223,165,18315,2,0,L|292:173,1,60.4500018909073,10|2,0:0|0:0,0:0:0:0:
362,202,18648,6,0,P|386:179|394:140,1,60.4500018909073,2|2,1:2|0:0,0:0:0:0:
372,72,18982,1,8,0:0:0:0:
372,72,19148,2,0,P|318:75|247:73,1,120.900003781815,2|2,0:0|0:0,0:0:0:0:
177,47,19648,1,8,0:0:0:0:
177,47,19815,6,0,L|111:52,1,60.4500018909073,2|0,0:0|1:0,0:0:0:0:
47,105,20148,1,2,0:0:0:0:
38,187,20315,1,10,0:0:0:0:
38,187,20482,2,0,L|116:196,1,60.4500018909073,2|10,0:0|0:0,0:0:0:0:
108,200,20732,1,8,0:0:0:0:
117,206,20815,1,10,0:0:0:0:
118,292,20982,2,0,L|110:343,3,30.2250009454537,10|8|10|8,0:0|0:0|0:0|0:0,0:0:0:0:
117,333,21315,6,0,L|258:326,1,120.900003781815,6|8,1:2|0:0,0:0:0:0:
323,379,21815,2,0,P|319:325|321:254,1,120.900003781815,2|2,0:0|0:0,0:0:0:0:
387,202,22315,1,8,0:0:0:0:
387,202,22482,6,0,L|453:207,1,60.4500018909073,2|0,0:0|1:0,0:0:0:0:
475,283,22815,1,0,0:0:0:0:
429,354,22982,2,0,L|368:358,1,60.4500018909073,10|2,0:0|0:0,0:0:0:0:
300,303,23315,2,0,L|305:254,2,30.2250009454537,2|8|10,1:2|0:0|0:0,0:0:0:0:
232,355,23648,2,0,P|186:318|176:307,1,60.4500018909073,8|2,0:0|0:0,0:0:0:0:
154,235,23982,6,0,P|152:174|156:114,1,120.900003781815,2|8,1:2|0:0,0:0:0:0:
184,36,24482,2,0,L|262:45,1,60.4500018909073,2|0,0:0|1:2,0:0:0:0:
254,49,24732,1,8,0:0:0:0:
263,55,24815,1,10,0:0:0:0:
314,127,24982,2,0,L|442:120,1,120.900003781815,8|0,0:0|1:0,0:0:0:0:
484,198,25482,5,2,0:0:0:0:
456,280,25648,1,10,0:0:0:0:
381,232,25815,2,0,L|376:177,2,30.2250009454537,6|4|6,0:3|0:3|0:3,0:0:0:0:
325,297,26148,1,10,0:0:0:0:
325,297,26232,1,8,0:0:0:0:
325,297,26315,2,0,L|279:305,3,32.5,10|8|10|8,0:0|0:0|0:0|0:0,0:0:0:0:
277,318,26648,6,0,P|199:313|118:313,1,146.900000448303,6|10,1:2|0:2,0:0:0:0:
41,348,27148,2,0,L|35:265,1,73.4500002241516,2|0,0:2|1:2,0:0:0:0:
86,195,27482,1,2,1:2:0:0:
86,195,27565,1,2,1:2:0:0:
86,195,27648,1,10,0:2:0:0:
51,102,27815,6,0,L|217:115,1,146.900000448303,2|2,0:2|0:2,0:0:0:0:
264,199,28315,2,0,P|227:199|190:201,1,73.4500002241516,10|2,0:2|0:2,0:0:0:0:
260,289,28648,2,0,P|296:289|333:291,1,73.4500002241516,2|2,1:2|0:2,0:0:0:0:
444,317,28982,2,0,L|438:234,1,73.4500002241516,10|0,0:2|0:0,0:0:0:0:
360,206,29315,5,2,1:2:0:0:
360,206,29482,1,2,0:2:0:0:
415,122,29648,1,10,0:2:0:0:
415,122,29815,2,0,P|339:99|310:36,1,146.900000448303,2|2,0:2|1:2,0:0:0:0:
311,27,30232,1,2,1:2:0:0:
315,13,30315,1,10,0:2:0:0:
224,42,30482,2,0,P|188:42|151:44,1,73.4500002241516,2|0,0:2|1:2,0:0:0:0:
68,69,30815,5,10,0:2:0:0:
55,161,30982,1,10,0:2:0:0:
146,155,31148,1,10,0:2:0:0:
156,249,31315,2,0,L|252:238,1,73.4500002241516,10|6,0:2|0:3,0:0:0:0:
154,337,31648,2,0,L|58:326,1,68.2499979171754,6|4,0:3|0:3,0:0:0:0:
5,270,31982,6,0,L|0:349,2,58.4999982147217,6|2|8,1:2|0:2|0:2,0:0:0:0:
72,206,32482,2,0,P|72:149|67:64,1,116.999996429443,2|2,0:2|0:2,0:0:0:0:
64,81,32898,1,2,0:0:0:0:
59,73,32982,1,8,0:2:0:0:
135,40,33148,6,0,L|264:46,1,116.999996429443,2|2,0:2|0:2,0:0:0:0:
315,100,33648,2,0,L|317:158,1,58.4999982147217,10|2,0:2|0:2,0:0:0:0:
383,213,33982,2,0,L|381:242,2,29.2499991073609,2|8|10,1:2|0:2|0:2,0:0:0:0:
452,160,34315,2,0,P|452:125|449:74,1,58.4999982147217,10|2,0:2|0:2,0:0:0:0:
406,14,34648,6,0,L|336:24,1,58.4999982147217,2|2,1:2|0:2,0:0:0:0:
268,31,34982,1,8,0:2:0:0:
231,107,35148,2,0,P|233:165|233:223,1,116.999996429443,2|2,0:2|0:2,0:0:0:0:
228,234,35565,1,2,0:0:0:0:
222,244,35648,1,8,0:2:0:0:
139,282,35815,2,0,L|65:279,1,58.4999982147217,2|0,0:2|1:2,0:0:0:0:
125,191,36148,5,10,0:2:0:0:
125,191,36315,1,2,1:2:0:0:
74,115,36482,1,10,0:2:0:0:
74,115,36648,1,2,1:2:0:0:
145,47,36815,2,0,L|143:18,2,29.2499991073609,10|8|10,0:2|0:2|0:2,0:0:0:0:
230,111,37148,1,6,0:3:0:0:
230,111,37232,1,4,1:3:0:0:
230,111,37315,5,6,1:2:0:0:
272,186,37482,2,0,L|357:191,1,58.4999982147217,2|8,0:0|0:0,0:0:0:0:
388,279,37815,2,0,P|329:276|271:276,1,116.999996429443,2|2,0:0|0:0,0:0:0:0:
261,282,38232,1,0,0:0:0:0:
251,288,38315,1,10,0:0:0:0:
307,363,38482,6,0,L|365:361,1,58.4999982147217,2|0,0:0|1:0,0:0:0:0:
448,341,38815,2,0,L|506:343,2,58.4999982147217,2|10|2,0:0|0:0|0:0,0:0:0:0:
470,259,39315,1,2,1:2:0:0:
470,259,39482,1,10,0:0:0:0:
412,193,39648,2,0,P|412:158|409:107,1,58.4999982147217,10|0,0:0|0:0,0:0:0:0:
330,76,39982,5,2,1:2:0:0:
263,125,40148,2,0,P|228:125|177:128,1,58.4999982147217,2|8,0:0|0:0,0:0:0:0:
161,203,40482,2,0,P|126:203|75:200,1,58.4999982147217,2|0,0:0|1:0,0:0:0:0:
17,132,40815,2,0,L|14:96,2,29.2499991073609,2|2|8,0:0|0:0|0:0,0:0:0:0:
10,213,41148,6,0,P|32:277|92:295,1,116.999996429443,2|2,0:0|0:0,0:0:0:0:
103,203,41648,2,0,L|95:140,1,58.4999982147217,10|6,0:0|0:3,0:0:0:0:
17,132,41982,1,6,0:3:0:0:
17,43,42148,1,10,0:0:0:0:
17,43,42232,1,8,0:0:0:0:
17,43,42315,2,0,L|13:5,3,29.2499991073609,10|8|8|8,0:0|0:0|0:0|0:0,0:0:0:0:
35,5,42648,6,0,L|237:0,1,175.499994644165,6|2,1:2|1:2,0:0:0:0:
287,41,43315,1,2,1:2:0:0:
430,14,43648,1,10,0:2:0:0:
512,129,43982,2,0,P|402:183|395:227,1,175.499994644165,2|0,1:2|1:2,0:0:0:0:
446,314,44648,2,0,P|381:306|323:304,1,116.999996429443,2|8,1:2|0:2,0:0:0:0:
196,293,45315,6,0,P|122:288|88:182,1,175.499994644165,2|0,1:2|1:2,0:0:0:0:
165,170,45982,1,2,1:2:0:0:
303,211,46315,1,10,0:2:0:0:
419,164,46648,2,0,P|421:104|415:44,1,116.999996429443,2|2,1:2|0:2,0:0:0:0:
336,18,47148,1,0,1:2:0:0:
336,18,47315,2,0,P|276:20|216:14,1,116.999996429443,2|8,1:2|0:2,0:0:0:0:
132,38,47815,1,0,1:2:0:0:
44,51,47982,6,0,L|34:247,1,175.499994644165,6|2,1:2|1:2,0:0:0:0:
59,309,48648,2,0,P|123:308|167:263,1,116.999996429443,2|10,1:2|0:2,0:0:0:0:
285,363,49315,2,0,P|277:275|277:179,1,175.499994644165,2|0,1:2|1:2,0:0:0:0:
363,202,49982,1,2,1:2:0:0:
484,135,50315,1,10,0:2:0:0:
427,24,50648,6,0,L|248:20,1,175.499994644165,2|0,1:2|1:2,0:0:0:0:
165,54,51315,1,2,1:2:0:0:
32,118,51648,1,10,0:2:0:0:
131,239,51982,5,2,1:2:0:0:
41,211,52148,1,8,0:2:0:0:
41,211,52315,1,8,0:2:0:0:
186,315,52648,1,10,0:2:0:0:
93,325,52815,1,0,1:2:0:0:
131,239,52982,2,0,P|181:223|206:227,1,58.4999982147217,8|0,0:2|0:0,0:0:0:0:
197,333,53315,6,0,B|259:349|259:349|326:334,1,126.100002982407,6|10,1:2|0:2,0:0:0:0:
404,343,53815,1,2,1:2:0:0:
475,296,53982,2,0,L|478:220,1,63.0500014912033,2|2,1:2|0:2,0:0:0:0:
390,184,54315,2,0,L|393:260,1,63.0500014912033,10|2,0:2|0:2,0:0:0:0:
306,173,54648,6,0,P|298:113|299:22,1,126.100002982407,2|10,1:2|0:2,0:0:0:0:
227,0,55148,2,0,L|151:3,1,63.0500014912033,0|2,1:2|1:2,0:0:0:0:
90,55,55482,1,8,0:2:0:0:
24,116,55648,2,0,L|29:201,1,63.0500014912033,10|0,0:2|0:0,0:0:0:0:
12,270,55982,6,0,L|147:266,1,126.100002982407,2|10,1:2|0:2,0:0:0:0:
211,347,56482,1,0,1:2:0:0:
211,347,56648,2,0,P|179:352|130:350,1,63.0500014912033,2|0,1:2|0:0,0:0:0:0:
228,253,56982,2,0,P|260:248|308:249,1,63.0500014912033,10|0,0:2|0:0,0:0:0:0:
357,159,57315,6,0,B|295:143|295:143|228:158,1,126.100002982407,2|10,1:2|0:2,0:0:0:0:
147,188,57815,2,0,L|143:125,1,63.0500014912033,0|2,1:2|1:2,0:0:0:0:
188,27,58148,1,8,0:2:0:0:
271,61,58315,1,8,0:2:0:0:
354,19,58482,1,10,0:2:0:0:
354,19,58565,1,8,0:2:0:0:
354,19,58648,6,0,P|379:67|456:77,1,135.199999174805,6|8,1:2|0:2,0:0:0:0:
497,161,59148,1,2,1:2:0:0:
497,161,59315,2,0,P|472:209|395:219,1,135.199999174805,2|8,1:2|0:2,0:0:0:0:
320,176,59815,1,2,1:2:0:0:
240,234,59982,6,0,B|217:299|217:299|237:376,1,135.199999174805,2|10,1:2|0:2,0:0:0:0:
318,341,60482,1,0,1:2:0:0:
318,341,60648,2,0,P|323:309|321:251,1,67.5999995874024,2|0,1:2|0:0,0:0:0:0:
320,176,60982,2,0,L|307:121,3,33.7999997937012,10|8|8|8,0:2|0:2|0:2|0:2,0:0:0:0:
289,116,61315,6,0,L|189:122,1,70.8500007567597,6|10,1:2|0:2,0:0:0:0:
130,73,61648,1,10,0:2:0:0:
72,154,61815,1,10,0:2:0:0:
157,347,62148,5,10,0:2:0:0:
247,191,62482,5,10,0:2:0:0:
330,237,62648,1,10,0:2:0:0:
330,237,63482,5,0,1:0:0:0:
419,228,63648,1,10,0:0:0:0:
419,228,63982,5,6,1:2:0:0:
501,194,64148,2,0,L|492:87,1,77.999997619629,2|8,0:0|0:0,0:0:0:0:
482,23,64482,2,0,L|375:32,1,77.999997619629,2|0,0:0|1:2,0:0:0:0:
313,31,64815,2,0,L|322:138,1,77.999997619629,2|8,0:0|0:0,0:0:0:0:
227,122,65148,2,0,L|120:131,1,77.999997619629,2|0,0:0|1:2,0:0:0:0:
42,142,65482,5,2,0:0:0:0:
42,142,65648,1,10,0:0:0:0:
89,223,65815,1,2,0:0:0:0:
89,223,65982,2,0,P|88:282|85:320,1,77.999997619629,2|2,1:2|0:0,0:0:0:0:
174,370,66315,2,0,P|175:311|178:273,1,77.999997619629,10|2,0:0|0:0,0:0:0:0:
258,227,66648,6,0,P|208:198|191:144,1,116.999996429443,2|0,1:2|0:0,0:0:0:0:
203,106,66982,2,0,P|262:107|300:110,1,77.999997619629,10|0,0:0|0:0,0:0:0:0:
357,52,67315,1,10,0:0:0:0:
367,145,67482,1,0,1:2:0:0:
456,117,67648,1,0,1:2:0:0:
495,225,67815,6,0,P|503:308|505:388,1,155.999995239258,10|10,0:0|0:0,0:0:0:0:
410,350,68315,1,2,1:2:0:0:
318,346,68482,2,0,P|235:354|155:356,1,155.999995239258,10|8,0:0|0:0,0:0:0:0:
107,284,68982,2,0,L|97:216,3,38.9999988098145,8|8|8|8,0:0|0:0|0:0|0:0,0:0:0:0:
78,213,69315,6,0,L|82:118,1,77.999997619629,6|2,1:2|0:0,0:0:0:0:
141,62,69648,2,0,L|236:58,1,77.999997619629,10|0,0:0|0:0,0:0:0:0:
296,116,69982,2,0,L|299:193,1,77.999997619629,2|0,1:2|0:0,0:0:0:0:
359,268,70315,2,0,L|436:271,1,77.999997619629,10|0,0:0|0:0,0:0:0:0:
501,200,70648,6,0,L|510:111,1,77.999997619629,2|0,1:2|0:0,0:0:0:0:
477,43,70982,1,10,0:0:0:0:
477,43,71148,1,2,0:0:0:0:
380,14,71315,2,0,P|333:20|260:20,1,116.999996429443,2|0,1:2|0:0,0:0:0:0:
224,15,71648,2,0,L|231:104,1,77.999997619629,10|0,0:0|0:0,0:0:0:0:
256,186,71982,6,0,P|306:215|323:269,1,116.999996429443,2|0,1:2|0:0,0:0:0:0:
311,307,72315,2,0,P|252:306|214:303,1,77.999997619629,10|0,0:0|0:0,0:0:0:0:
155,347,72648,2,0,B|121:281|121:281|149:182,1,155.999995239258,10|0,0:0|1:2,0:0:0:0:
122,97,73148,2,0,L|211:90,1,77.999997619629,10|0,0:0|1:2,0:0:0:0:
304,67,73482,5,10,0:0:0:0:
304,67,73648,1,2,1:2:0:0:
404,41,73815,2,0,L|409:-5,2,38.9999988098145,10|8|10,0:0|0:0|0:0,0:0:0:0:
473,125,74148,1,8,0:0:0:0:
473,125,74232,1,8,0:0:0:0:
473,125,74315,2,0,L|478:171,2,38.9999988098145,8|4|4,0:0|0:3|0:3,0:0:0:0:
408,221,74648,5,6,1:2:0:0:
328,186,74815,2,0,P|289:188|250:188,1,77.999997619629,2|8,0:0|0:0,0:0:0:0:
160,122,75148,2,0,P|162:160|162:199,1,77.999997619629,2|0,0:0|1:2,0:0:0:0:
55,290,75482,2,0,P|93:287|132:287,1,77.999997619629,2|8,0:0|0:0,0:0:0:0:
223,354,75815,2,0,P|220:315|220:276,1,77.999997619629,2|0,0:0|1:2,0:0:0:0:
321,337,76148,5,2,0:0:0:0:
321,337,76315,1,10,0:0:0:0:
401,279,76482,1,2,0:0:0:0:
401,279,76648,2,0,L|394:201,1,77.999997619629,2|2,1:2|0:0,0:0:0:0:
313,148,76982,2,0,L|306:225,1,77.999997619629,10|2,0:0|0:0,0:0:0:0:
228,124,77315,6,0,P|256:74|310:56,1,116.999996429443,2|0,1:2|0:0,0:0:0:0:
346,72,77648,2,0,P|384:74|423:74,1,77.999997619629,10|0,0:0|0:0,0:0:0:0:
512,113,77982,1,10,0:0:0:0:
503,214,78148,1,0,1:0:0:0:
412,177,78315,2,0,P|373:177|334:179,1,77.999997619629,8|2,0:0|1:2,0:0:0:0:
219,218,78648,6,0,P|220:179|220:140,1,77.999997619629,10|0,0:0|1:0,0:0:0:0:
203,132,78898,1,2,0:0:0:0:
203,132,78982,2,0,L|125:125,1,77.999997619629,10|2,0:0|1:2,0:0:0:0:
81,43,79315,2,0,L|5:62,1,77.999997619629,2|8,1:2|0:0,0:0:0:0:
15,154,79648,2,0,L|23:204,3,38.9999988098145,8|8|8|8,0:0|0:0|0:0|0:0,0:0:0:0:
36,228,79982,6,0,L|30:306,1,77.999997619629,6|0,1:2|0:0,0:0:0:0:
97,374,80315,1,10,0:0:0:0:
184,330,80482,1,2,0:0:0:0:
184,330,80648,2,0,P|183:291|181:252,1,77.999997619629,2|0,1:2|0:0,0:0:0:0:
255,135,80982,2,0,P|255:173|257:212,1,77.999997619629,10|0,0:0|0:0,0:0:0:0:
340,174,81315,6,0,L|418:168,1,77.999997619629,2|0,1:2|0:0,0:0:0:0:
478,241,81648,2,0,L|472:319,1,77.999997619629,10|0,0:0|0:0,0:0:0:0:
363,293,81982,2,0,L|285:299,1,77.999997619629,2|0,1:2|0:0,0:0:0:0:
191,344,82315,2,0,L|179:210,1,116.999996429443,10|0,0:0|0:0,0:0:0:0:
154,198,82648,6,0,B|144:160|144:160|153:122,1,77.999997619629,2|0,1:2|0:0,0:0:0:0:
192,32,82982,2,0,P|230:31|269:29,1,77.999997619629,10|0,0:0|0:0,0:0:0:0:
363,81,83315,1,10,0:0:0:0:
329,172,83482,1,0,1:2:0:0:
329,172,83648,1,0,1:2:0:0:
434,225,83815,6,0,P|472:224|511:222,1,77.999997619629,10|2,0:0|1:2,0:0:0:0:
489,325,84148,1,10,0:0:0:0:
489,325,84315,1,2,1:2:0:0:
402,374,84482,2,0,P|350:365|305:360,1,77.999997619629,10|8,0:0|0:0,0:0:0:0:
331,262,84815,1,8,0:0:0:0:
331,262,84898,1,8,0:0:0:0:
331,262,84982,2,0,L|282:273,2,38.9999988098145,8|4|4,0:0|0:3|0:3,0:0:0:0:
204,242,85315,6,0,B|126:229|147:286|61:274,1,152.100000580215,6|10,1:2|0:0,0:0:0:0:
20,103,85982,2,0,B|98:89|77:146|163:134,1,152.100000580215,2|10,1:2|0:0,0:0:0:0:
285,47,86648,1,2,1:2:0:0:
363,83,86815,1,2,0:0:0:0:
418,4,86982,2,0,P|415:42|414:81,1,76.0500002901077,10|0,0:0|0:0,0:0:0:0:
475,144,87315,2,0,P|473:182|471:221,1,76.0500002901077,2|0,1:2|0:0,0:0:0:0:
397,290,87648,1,10,0:0:0:0:
397,290,87982,6,0,B|318:276|339:333|253:321,1,152.100000580215,2|10,1:2|0:0,0:0:0:0:
177,207,88648,2,0,B|163:128|220:149|208:63,1,152.100000580215,2|10,1:2|0:0,0:0:0:0:
81,7,89315,1,2,1:2:0:0:
81,7,89482,1,2,0:0:0:0:
32,81,89648,1,10,0:0:0:0:
32,81,89815,1,2,0:0:0:0:
92,149,89982,2,0,L|96:239,1,76.0500002901077,2|0,1:2|0:0,0:0:0:0:
33,292,90315,2,0,L|76:321,3,38.0250001450539,8|8|8|8,0:0|0:0|0:0|0:0,0:0:0:0:
83,330,90648,6,0,P|140:326|188:328,1,76.0500002901077,6|0,1:2|0:0,0:0:0:0:
223,264,90982,2,0,P|260:267|298:267,1,76.0500002901077,10|0,0:0|0:0,0:0:0:0:
385,177,91315,2,0,L|381:252,1,76.0500002901077,2|0,1:2|0:0,0:0:0:0:
304,146,91648,2,0,L|300:70,1,76.0500002901077,10|0,0:0|0:0,0:0:0:0:
375,14,91982,5,2,1:2:0:0:
375,14,92148,1,2,0:0:0:0:
450,39,92315,1,10,0:0:0:0:
389,96,92482,1,2,0:0:0:0:
470,162,92648,2,0,L|466:237,1,76.0500002901077,2|0,1:2|0:0,0:0:0:0:
387,300,92982,2,0,B|332:290|332:290|262:307,1,114.075000435162,10|0,0:0|0:0,0:0:0:0:
240,317,93315,5,6,1:2:0:0:
48,284,93648,1,10,0:0:0:0:
81,92,93982,1,6,0:3:0:0:
81,92,94148,1,10,0:0:0:0:
273,125,94482,2,0,P|277:177|272:226,1,76.0500002901077,10|2,0:0|1:2,0:0:0:0:
201,242,94815,2,0,P|153:219|114:190,1,76.0500002901077,10|2,0:0|1:2,0:0:0:0:
164,71,95148,1,10,0:0:0:0:
194,147,95315,1,10,0:0:0:0:
349,89,95648,6,0,L|427:39,1,76.0500002901077,6|0,0:3|0:0,0:0:0:0:
475,122,95982,6,0,P|477:158|472:197,1,65,6|2,1:2|0:0,0:0:0:0:
426,261,96315,1,10,0:0:0:0:
426,261,96482,2,0,L|274:259,1,130,2|2,0:0|0:0,0:0:0:0:
215,285,96982,1,10,0:0:0:0:
215,285,97148,2,0,P|179:287|140:282,1,65,2|0,0:0|1:0,0:0:0:0:
162,196,97482,5,2,0:0:0:0:
132,115,97648,1,10,0:0:0:0:
132,115,97815,1,2,0:0:0:0:
172,30,97982,2,0,L|236:29,1,65,2|2,1:2|0:0,0:0:0:0:
274,110,98315,2,0,P|337:109|395:113,1,97.5,10|0,0:0|0:0,0:0:0:0:
383,115,98648,6,0,L|386:193,1,65,2|2,1:2|0:0,0:0:0:0:
324,277,98982,1,10,0:0:0:0:
324,277,99148,2,0,B|382:294|382:294|460:275,1,130,2|2,0:0|0:0,0:0:0:0:
492,191,99648,1,10,0:0:0:0:
492,191,99815,2,0,L|495:113,1,65,2|0,0:0|1:0,0:0:0:0:
425,52,100148,5,2,0:0:0:0:
334,79,100315,2,0,P|305:66|272:64,1,65,10|2,0:0|0:0,0:0:0:0:
195,109,100648,2,0,P|182:138|180:170,1,65,2|2,1:2|0:0,0:0:0:0:
215,252,100982,2,0,L|221:293,3,32.5,10|8|8|8,0:0|0:0|0:0|0:0,0:0:0:0:
216,304,101315,6,0,L|127:301,1,69.5499978775025,6|2,1:2|0:0,0:0:0:0:
40,307,101648,1,10,0:0:0:0:
40,307,101815,2,0,P|37:235|39:164,1,139.099995755005,2|2,0:0|0:0,0:0:0:0:
49,157,102232,1,2,0:0:0:0:
59,147,102315,1,10,0:0:0:0:
30,57,102482,2,0,P|64:57|99:55,1,69.5499978775025,2|0,0:0|1:0,0:0:0:0:
194,56,102815,5,2,0:0:0:0:
192,139,102982,2,0,L|189:228,1,69.5499978775025,10|2,0:0|0:0,0:0:0:0:
261,254,103315,2,0,L|339:212,1,69.5499978775025,2|2,1:2|0:0,0:0:0:0:
327,132,103648,2,0,L|237:69,1,104.324996816254,10|0,0:0|0:0,0:0:0:0:
229,54,103982,6,0,P|263:54|298:52,1,69.5499978775025,2|2,1:2|0:0,0:0:0:0:
416,47,104315,1,10,0:0:0:0:
416,47,104482,2,0,B|406:114|406:114|430:182,1,139.099995755005,2|2,0:0|0:0,0:0:0:0:
436,193,104898,1,2,0:0:0:0:
442,205,104982,1,10,0:0:0:0:
380,269,105148,2,0,P|345:268|310:270,1,69.5499978775025,2|0,0:0|1:0,0:0:0:0:
241,221,105482,5,10,0:0:0:0:
149,208,105648,1,10,0:0:0:0:
113,293,105815,1,10,0:0:0:0:
31,252,105982,2,0,L|15:304,2,34.7749989387513,10|8|6,0:0|0:0|0:3,0:0:0:0:
22,162,106315,2,0,P|76:143|105:85,1,104.324996816254,6|4,0:3|0:3,0:0:0:0:
105,77,106648,1,6,1:2:0:0:
239,12,106982,6,0,L|309:10,1,69.5499978775025,10|2,1:3|0:0,0:0:0:0:
377,62,107315,2,0,L|358:208,1,139.099995755005,2|10,1:2|1:3,0:0:0:0:
222,172,107982,2,0,L|152:170,1,69.5499978775025,2|2,1:2|0:0,0:0:0:0:
117,246,108315,2,0,P|139:304|187:325,1,104.324996816254,10|0,1:3|0:0,0:0:0:0:
194,324,108648,2,0,L|180:365,2,34.7749989387513,0|0|0,1:0|1:2|1:0,0:0:0:0:
286,309,108982,2,0,P|325:312|373:311,1,69.5499978775025,10|2,1:3|0:0,0:0:0:0:
451,320,109315,5,2,1:2:0:0:
445,224,109482,2,0,P|448:185|447:137,2,69.5499978775025,2|10|2,0:0|1:3|0:0,0:0:0:0:
356,224,109982,1,2,1:2:0:0:
305,100,110315,2,0,P|308:61|307:13,1,69.5499978775025,10|2,1:3|0:0,0:0:0:0:
226,0,110648,1,2,1:2:0:0:
145,62,110815,6,0,B|109:66|109:66|58:44,2,69.5499978775025,2|10|2,0:0|1:3|0:0,0:0:0:0:
184,153,111315,2,0,L|218:156,2,34.7749989387513,2|0|0,1:2|1:0|1:0,0:0:0:0:
96,190,111648,2,0,L|90:248,3,34.7749989387513,8|8|8|8,0:0|0:0|0:0|0:0,0:0:0:0:
80,242,111982,6,0,L|160:238,1,69.5499978775025,4|2,1:2|0:0,0:0:0:0:
166,327,112315,2,0,P|192:273|271:257,1,139.099995755005,10|2,1:3|1:2,0:0:0:0:
322,331,112815,2,0,L|402:335,1,69.5499978775025,2|8,0:0|1:3,0:0:0:0:
426,252,113148,1,2,0:0:0:0:
347,214,113315,2,0,P|302:226|254:232,1,69.5499978775025,2|2,1:2|0:0,0:0:0:0:
222,159,113648,2,0,P|234:114|252:69,1,69.5499978775025,10|2,1:3|0:0,0:0:0:0:
330,88,113982,2,0,L|333:128,2,34.7749989387513,2|0|0,1:2|1:0|1:0,0:0:0:0:
393,21,114315,1,10,1:3:0:0:
248,0,114648,6,0,P|158:9|95:8,1,139.099995755005,2|10,1:2|1:3,0:0:0:0:
65,88,115148,1,2,0:0:0:0:
65,88,115315,2,0,L|16:82,2,34.7749989387513,2|0|2,1:2|1:0|1:2,0:0:0:0:
152,124,115648,2,0,L|148:195,1,69.5499978775025,10|2,1:3|0:0,0:0:0:0:
150,312,115982,6,0,P|190:307|228:307,1,69.5499978775025,2|2,1:2|0:0,0:0:0:0:
308,241,116315,2,0,P|283:208|264:175,1,69.5499978775025,2|2,0:0|0:0,0:0:0:0:
178,130,116648,2,0,P|162:167|143:200,1,69.5499978775025,2|0,0:0|0:0,0:0:0:0:
60,142,116982,1,2,0:0:0:0:
222,58,117315,6,0,L|281:70,3,35.7500010910034,6|2|2|2,1:2|0:0|0:0|0:0,0:0:0:0:
267,83,117648,2,0,L|351:77,1,71.5000021820069,10|2,0:0|0:0,0:0:0:0:
425,75,117982,1,8,1:3:0:0:
479,168,118148,1,2,0:0:0:0:
479,168,118232,1,2,0:0:0:0:
479,168,118315,2,0,P|475:219|475:249,1,71.5000021820069,10|2,0:0|0:0,0:0:0:0:
410,302,118648,6,0,P|367:273|341:258,1,71.5000021820069,8|2,1:3|0:0,0:0:0:0:
336,259,118898,1,0,0:0:0:0:
322,254,118982,2,0,P|271:258|241:264,1,71.5000021820069,10|2,0:0|0:0,0:0:0:0:
170,303,119315,2,0,L|174:354,2,35.7500010910034,10|0|2,1:3|1:2|1:2,0:0:0:0:
83,273,119648,2,0,P|108:234|114:153,1,107.25000327301,10|0,0:0|0:0,0:0:0:0:
103,158,119982,6,0,L|22:154,1,71.5000021820069,8|2,1:3|0:0,0:0:0:0:
14,58,120315,2,0,L|95:54,1,71.5000021820069,10|2,0:0|0:0,0:0:0:0:
168,86,120648,1,8,1:3:0:0:
250,48,120815,2,0,L|249:6,2,35.7500010910034,2|2|10,0:0|0:0|0:0,0:0:0:0:
286,135,121148,1,2,0:0:0:0:
230,211,121315,5,8,1:3:0:0:
230,211,121482,2,0,P|194:210|158:206,1,71.5000021820069,10|2,0:0|1:3,0:0:0:0:
227,305,121815,1,10,0:0:0:0:
322,299,121982,2,0,L|403:295,1,71.5000021820069,10|2,1:3|1:3,0:0:0:0:
436,213,122315,2,0,L|414:178,3,35.7500010910034,10|8|8|8,0:0|0:0|0:0|0:0,0:0:0:0:
398,171,122648,6,0,P|362:170|326:166,1,71.5000021820069,6|2,1:2|0:0,0:0:0:0:
280,94,122982,2,0,L|228:98,3,35.7500010910034,10|2|2|2,0:0|0:0|0:0|0:0,0:0:0:0:
225,107,123315,2,0,L|106:99,1,107.25000327301,8|2,1:3|0:0,0:0:0:0:
98,110,123648,2,0,P|97:176|94:196,1,71.5000021820069,10|2,0:0|0:0,0:0:0:0:
156,270,123982,2,0,L|73:274,1,71.5000021820069,8|2,1:3|0:0,0:0:0:0:
144,360,124315,1,10,0:0:0:0:
144,360,124482,1,2,0:0:0:0:
241,310,124648,2,0,P|240:244|237:224,1,71.5000021820069,10|2,1:3|1:2,0:0:0:0:
215,142,124982,2,0,P|266:140|296:72,1,107.25000327301,10|0,0:0|1:3,0:0:0:0:
293,76,125315,6,0,L|379:69,1,71.5000021820069,8|2,1:3|0:0,0:0:0:0:
452,91,125648,2,0,L|445:177,1,71.5000021820069,10|2,0:0|0:0,0:0:0:0:
383,232,125982,1,8,1:3:0:0:
435,312,126148,1,2,1:2:0:0:
435,312,126232,1,2,0:0:0:0:
435,312,126315,2,0,P|379:317|338:316,1,71.5000021820069,10|2,0:0|0:0,0:0:0:0:
279,261,126648,6,0,L|263:336,1,71.5000021820069,8|2,1:3|0:0,0:0:0:0:
164,352,126982,2,0,L|107:300,1,71.5000021820069,10|2,0:0|0:0,0:0:0:0:
142,206,127315,2,0,L|214:182,1,71.5000021820069,8|10,1:3|0:0,0:0:0:0:
281,115,127648,2,0,L|274:69,3,35.7500010910034,10|8|8|8,0:0|0:0|0:0|0:0,0:0:0:0:
293,66,127982,6,0,P|307:139|407:183,1,169.650001423759,6|2,1:2|1:2,0:0:0:0:
467,175,128648,1,2,1:2:0:0:
437,306,128982,1,10,0:0:0:0:
327,264,129315,2,0,B|250:290|250:290|159:264,1,169.650001423759,2|2,1:2|1:2,0:0:0:0:
87,303,129982,2,0,P|81:244|90:168,1,113.100000949173,2|8,1:2|0:0,0:0:0:0:
15,37,130648,6,0,L|143:49,1,113.100000949173,2|2,1:2|0:2,0:0:0:0:
211,19,131148,1,0,1:2:0:0:
211,19,131315,2,0,L|339:7,1,113.100000949173,2|10,1:2|0:0,0:0:0:0:
426,118,131982,6,0,L|298:106,1,113.100000949173,2|0,1:2|0:2,0:0:0:0:
230,136,132482,1,0,1:2:0:0:
230,136,132648,2,0,L|102:148,1,113.100000949173,2|8,1:2|0:0,0:0:0:0:
42,189,133148,1,2,1:2:0:0:
42,275,133315,6,0,P|63:335|179:362,1,169.650001423759,6|2,1:2|1:2,0:0:0:0:
221,312,133982,1,2,1:2:0:0:
165,195,134315,1,10,0:2:0:0:
190,58,134648,6,0,L|272:67,1,56.5500004745865,2|2,1:2|0:2,0:0:0:0:
315,108,134982,2,0,L|397:117,1,56.5500004745865,2|2,0:2|1:2,0:0:0:0:
446,79,135315,1,2,1:2:0:0:
455,213,135648,1,8,0:0:0:0:
406,345,135982,6,0,P|356:318|289:328,1,113.100000949173,2|2,1:2|0:2,0:0:0:0:
222,365,136482,1,0,1:2:0:0:
222,365,136648,2,0,P|214:298|215:246,1,113.100000949173,2|10,1:2|0:0,0:0:0:0:
279,186,137148,1,2,0:0:0:0:
279,186,137315,6,0,P|234:170|199:170,1,56.5500004745865,2|8,1:2|0:2,0:0:0:0:
359,153,137648,2,0,L|490:160,1,113.100000949173,8|10,0:2|0:0,0:0:0:0:
489,69,138148,1,0,1:0:0:0:
410,34,138315,1,8,0:0:0:0:
401,44,138648,6,0,B|341:30|341:30|273:57,1,123.499996702194,6|10,1:2|0:2,0:0:0:0:
205,102,139148,1,2,1:2:0:0:
205,102,139315,2,0,L|201:166,1,61.7499983510972,2|2,1:2|0:2,0:0:0:0:
122,197,139648,2,0,L|68:161,1,61.7499983510972,10|2,0:2|0:2,0:0:0:0:
83,77,139982,6,0,P|123:54|156:25,1,61.7499983510972,2|2,1:2|0:2,0:0:0:0:
205,102,140315,2,0,P|204:148|213:191,1,61.7499983510972,10|2,0:2|1:2,0:0:0:0:
277,217,140648,1,2,1:2:0:0:
230,300,140815,1,8,0:2:0:0:
230,300,140982,2,0,L|223:378,1,61.7499983510972,10|0,0:2|0:0,0:0:0:0:
319,300,141315,6,0,P|364:292|406:209,1,123.499996702194,2|10,1:2|0:2,0:0:0:0:
381,146,141815,1,0,1:2:0:0:
381,146,141982,2,0,P|325:142|301:146,1,61.7499983510972,2|0,1:2|0:0,0:0:0:0:
277,217,142315,2,0,P|221:221|197:217,1,61.7499983510972,10|0,0:0|0:0,0:0:0:0:
145,151,142648,6,0,P|87:144|13:142,1,123.499996702194,2|10,1:2|0:0,0:0:0:0:
2,231,143148,2,0,L|4:299,1,61.7499983510972,0|2,1:0|1:2,0:0:0:0:
82,349,143482,1,8,0:0:0:0:
150,301,143648,1,8,0:0:0:0:
231,346,143815,1,10,0:0:0:0:
231,346,143898,1,8,0:0:0:0:
231,346,143982,6,0,P|236:287|232:211,1,123.499996702194,6|8,1:2|0:2,0:0:0:0:
324,176,144482,1,2,1:2:0:0:
324,176,144648,2,0,P|318:237|321:299,1,123.499996702194,2|8,1:2|0:2,0:0:0:0:
410,286,145148,1,2,1:2:0:0:
410,286,145315,6,0,L|478:277,1,61.7499983510972,2|0,1:2|0:0,0:0:0:0:
512,191,145648,2,0,L|470:136,1,61.7499983510972,10|2,0:2|1:2,0:0:0:0:
384,115,145982,2,0,L|322:123,1,61.7499983510972,2|0,1:2|0:0,0:0:0:0:
247,78,146315,2,0,L|202:75,3,30.8749991755486,10|8|8|8,0:0|0:0|0:0|0:0,0:0:0:0:
199,84,146648,6,0,B|168:91|168:91|112:83,1,61.7499983510972,6|10,1:2|0:0,0:0:0:0:
49,50,146982,1,10,0:0:0:0:
18,142,147148,1,10,0:0:0:0:
168,202,147482,5,10,0:0:0:0:
79,330,147815,5,10,0:0:0:0:
171,361,147982,1,10,0:0:0:0:
171,361,148648,6,0,L|307:351,1,123.499996702194,2|2,0:0|0:0,0:0:0:0:
294,351,149315,1,6,1:2:0:0:
468,365,159982,6,0,P|417:358|371:279,1,135.199999174805,6|0,1:2|1:2,0:0:0:0:
424,222,160482,2,0,L|429:145,1,67.5999995874024,2|0,1:2|1:2,0:0:0:0:
363,96,160815,2,0,L|358:19,1,67.5999995874024,2|0,0:0|1:2,0:0:0:0:
274,62,161148,1,2,1:2:0:0:
274,62,161315,6,0,P|267:113|188:159,1,135.199999174805,0|2,1:2|1:2,0:0:0:0:
120,121,161815,1,2,1:2:0:0:
39,140,161982,2,0,P|34:182|35:218,1,67.5999995874024,2|2,1:2|0:0,0:0:0:0:
111,274,162315,2,0,P|116:232|115:196,1,67.5999995874024,2|2,1:2|1:2,0:0:0:0:
199,255,162648,6,0,B|263:280|263:280|336:252,1,135.199999174805,2|2,1:2|1:2,0:0:0:0:
335,103,163315,2,0,B|397:79|397:79|461:104,1,135.199999174805,2|2,1:2|1:2,0:0:0:0:
430,255,163982,2,0,P|460:289|457:360,2,101.399999381104,2|2|2,1:2|0:0|1:2,0:0:0:0:
383,326,164648,2,0,P|336:322|243:320,1,135.199999174805,2|8,1:2|0:2,0:0:0:0:
150,349,165148,1,8,0:2:0:0:
150,349,165232,1,8,0:2:0:0:
150,349,165315,5,6,1:2:0:0:
101,263,165482,2,0,L|98:213,2,33.7999997937012,8|8|10,0:2|0:2|0:2,0:0:0:0:
190,241,165815,2,0,L|187:191,2,33.7999997937012,8|8|10,0:2|0:2|0:2,0:0:0:0:
279,219,166148,2,0,L|276:169,2,33.7999997937012,8|8|10,0:2|0:2|0:2,0:0:0:0:
367,196,166482,2,0,L|364:146,1,33.7999997937012,8|8,0:2|0:2,0:0:0:0:
369,143,166648,6,0,P|381:89|401:58,1,67.5999995874024,10|8,0:2|0:2,0:0:0:0:
394,68,166898,1,8,0:2:0:0:
404,60,166982,1,10,0:2:0:0:
305,40,167148,2,0,L|308:-10,2,33.7999997937012,8|8|10,0:2|0:2|0:2,0:0:0:0:
219,78,167482,2,0,L|214:125,2,33.7999997937012,8|8|10,0:2|0:2|0:2,0:0:0:0:
155,22,167815,2,0,L|105:25,1,33.7999997937012,8|8,0:2|0:2,0:0:0:0:
108,26,167982,6,0,B|93:94,1,67.5999995874024,10|8,0:2|0:2,0:0:0:0:
91,104,168232,1,8,0:2:0:0:
89,116,168315,1,8,0:2:0:0:
54,200,168482,2,0,L|4:203,2,33.7999997937012,8|8|8,0:2|0:2|0:2,0:0:0:0:
126,269,168815,1,8,0:2:0:0:
126,269,168898,1,8,0:2:0:0:
126,269,168982,2,0,L|112:315,3,33.7999997937012,10|8|0|8,0:2|0:0|0:2|0:2,0:0:0:0:
126,341,169315,5,10,1:2:0:0:
427,293,170148,5,0,1:2:0:0:
345,232,170315,2,0,L|270:223,1,67.5999995874024,10|0,0:2|0:0,0:0:0:0:
203,164,170648,5,6,1:2:0:0:
115,186,170815,2,0,P|117:240|110:290,1,80.5999968023683,2|8,0:0|0:0,0:0:0:0:
207,263,171148,2,0,P|252:234|299:215,1,80.5999968023683,2|0,0:0|1:2,0:0:0:0:
227,144,171482,2,0,P|179:118|139:87,1,80.5999968023683,2|8,0:0|0:0,0:0:0:0:
74,27,171815,2,0,L|65:126,1,80.5999968023683,2|0,0:0|1:2,0:0:0:0:
18,183,172148,5,2,0:0:0:0:
18,183,172315,1,10,0:0:0:0:
56,276,172482,1,2,0:0:0:0:
56,276,172648,2,0,P|54:330|61:380,1,80.5999968023683,2|2,1:2|0:0,0:0:0:0:
144,358,172982,2,0,P|146:304|139:254,1,80.5999968023683,10|2,0:0|0:0,0:0:0:0:
210,215,173315,6,0,P|245:267|329:269,1,120.899995203552,2|0,1:2|0:0,0:0:0:0:
337,268,173648,2,0,P|334:212|334:178,1,80.5999968023683,10|0,0:0|0:0,0:0:0:0:
249,135,173982,1,10,0:0:0:0:
171,78,174148,1,0,1:2:0:0:
137,169,174315,1,0,1:2:0:0:
37,113,174482,6,0,P|33:182|42:308,1,161.199993604737,10|10,0:0|0:0,0:0:0:0:
114,340,174982,1,2,1:2:0:0:
213,362,175148,2,0,P|282:366|408:357,1,161.199993604737,10|8,0:0|0:0,0:0:0:0:
437,284,175648,2,0,L|432:229,3,40.2999984011841,8|8|10|8,0:0|0:0|0:0|0:0,0:0:0:0:
456,209,175982,6,0,L|461:115,1,80.5999968023683,6|0,1:2|0:0,0:0:0:0:
393,63,176315,2,0,L|312:67,1,80.5999968023683,10|0,0:0|0:0,0:0:0:0:
216,36,176648,2,0,L|211:130,1,80.5999968023683,2|0,1:2|0:0,0:0:0:0:
135,170,176982,1,10,0:0:0:0:
135,170,177148,1,2,0:0:0:0:
180,252,177315,6,0,P|220:248|260:251,1,80.5999968023683,2|0,1:2|0:0,0:0:0:0:
272,342,177648,2,0,P|312:345|352:342,1,80.5999968023683,10|0,0:0|0:0,0:0:0:0:
345,225,177982,2,0,L|340:144,1,80.5999968023683,2|0,1:2|0:0,0:0:0:0:
246,94,178315,2,0,L|178:137,1,80.5999968023683,10|0,0:0|0:0,0:0:0:0:
182,245,178648,6,0,P|234:280|236:364,1,120.899995203552,2|0,1:2|0:0,0:0:0:0:
235,372,178982,2,0,P|179:369|145:369,1,80.5999968023683,10|0,0:0|0:0,0:0:0:0:
93,293,179315,2,0,P|37:296|3:296,1,80.5999968023683,10|0,0:0|1:2,0:0:0:0:
4,208,179648,1,0,1:2:0:0:
14,115,179815,6,0,P|36:47|135:33,1,161.199993604737,10|10,0:0|0:0,0:0:0:0:
177,97,180315,1,2,1:2:0:0:
177,97,180482,2,0,L|267:113,1,80.5999968023683,10|10,0:0|0:0,0:0:0:0:
356,144,180815,1,8,0:0:0:0:
356,144,180898,1,8,0:0:0:0:
356,144,180982,2,0,L|423:136,2,40.2999984011841,8|4|4,0:0|0:3|0:3,0:0:0:0:
276,200,181315,5,6,1:2:0:0:
286,290,181482,2,0,P|245:293|205:290,1,80.5999968023683,2|8,0:0|0:0,0:0:0:0:
122,334,181815,2,0,P|124:293|121:253,1,80.5999968023683,2|0,0:0|1:2,0:0:0:0:
24,173,182148,2,0,P|64:169|104:172,1,80.5999968023683,2|8,0:0|0:0,0:0:0:0:
188,196,182482,2,0,P|185:156|188:116,1,80.5999968023683,2|0,0:0|1:2,0:0:0:0:
209,29,182815,5,2,0:0:0:0:
209,29,182982,1,10,0:0:0:0:
299,43,183148,1,2,0:0:0:0:
299,43,183315,2,0,L|306:134,1,80.5999968023683,2|2,1:2|0:0,0:0:0:0:
323,217,183648,2,0,L|414:224,1,80.5999968023683,10|2,0:0|0:0,0:0:0:0:
361,318,183982,6,0,P|326:370|242:372,1,120.899995203552,2|0,1:2|0:0,0:0:0:0:
234,371,184315,2,0,P|237:315|237:281,1,80.5999968023683,10|0,0:0|0:0,0:0:0:0:
165,234,184648,1,10,0:2:0:0:
86,268,184815,1,0,1:2:0:0:
11,208,184982,2,0,P|14:152|14:118,1,80.5999968023683,8|2,0:2|1:2,0:0:0:0:
61,25,185315,6,0,P|110:36|173:39,1,80.5999968023683,10|0,0:2|1:2,0:0:0:0:
164,40,185565,1,2,0:0:0:0:
164,40,185648,2,0,L|169:134,1,80.5999968023683,10|2,0:2|1:2,0:0:0:0:
206,204,185982,1,2,1:2:0:0:
179,294,186148,1,8,0:0:0:0:
179,294,186232,1,8,0:0:0:0:
179,294,186315,2,0,L|176:345,3,40.2999984011841,8|8|8|8,0:0|0:0|0:0|0:0,0:0:0:0:
210,355,186648,6,0,P|250:355|290:358,1,80.5999968023683,6|0,1:2|0:0,0:0:0:0:
333,269,186982,2,0,P|313:233|295:197,1,80.5999968023683,10|0,0:0|0:0,0:0:0:0:
394,204,187315,1,2,1:2:0:0:
394,204,187482,1,2,0:0:0:0:
446,112,187648,2,0,P|427:77|409:41,1,80.5999968023683,10|0,0:0|0:0,0:0:0:0:
322,104,187982,6,0,P|281:103|241:100,1,80.5999968023683,2|0,1:2|0:0,0:0:0:0:
187,173,188315,2,0,L|192:267,1,80.5999968023683,10|0,0:0|0:0,0:0:0:0:
122,322,188648,2,0,L|28:317,1,80.5999968023683,2|2,1:2|0:0,0:0:0:0:
8,222,188982,2,0,B|2:149|2:149|16:88,1,120.899995203552,10|0,0:0|0:0,0:0:0:0:
1,64,189315,6,0,B|44:72|44:72|82:64,1,80.5999968023683,2|0,1:2|0:0,0:0:0:0:
200,144,189648,2,0,B|157:136|157:136|119:144,1,80.5999968023683,10|0,0:0|0:0,0:0:0:0:
153,234,189982,1,10,0:0:0:0:
127,319,190148,1,0,1:2:0:0:
127,319,190315,1,0,1:2:0:0:
208,358,190482,6,0,P|249:355|289:358,1,80.5999968023683,10|2,0:0|1:2,0:0:0:0:
375,314,190815,1,10,0:0:0:0:
302,250,190982,1,2,1:2:0:0:
364,176,191148,2,0,L|418:171,2,40.2999984011841,10|8|8,0:0|0:0|0:0,0:0:0:0:
318,101,191482,1,8,0:0:0:0:
318,101,191565,1,8,0:0:0:0:
318,101,191648,2,0,L|313:47,3,40.2999984011841,8|4|4|4,0:0|0:3|0:3|0:3,0:0:0:0:
295,52,191982,6,0,B|216:38|237:95|151:83,1,153.399994616394,6|10,1:2|0:0,0:0:0:0:
39,195,192648,2,0,B|118:180|97:238|184:226,1,153.399994616394,2|10,1:2|0:0,0:0:0:0:
287,335,193315,1,2,1:2:0:0:
351,284,193482,1,2,0:0:0:0:
434,306,193648,2,0,P|427:242|426:218,1,76.6999973081971,10|2,0:0|0:0,0:0:0:0:
354,173,193982,2,0,P|349:134|346:96,1,76.6999973081971,2|0,1:2|0:0,0:0:0:0:
443,146,194315,1,10,0:0:0:0:
443,146,194648,6,0,P|449:197|360:260,1,153.399994616394,2|10,1:2|0:0,0:0:0:0:
225,314,195315,2,0,P|174:320|111:231,1,153.399994616394,2|10,1:2|0:0,0:0:0:0:
163,105,195982,1,2,1:2:0:0:
163,105,196148,1,2,0:0:0:0:
83,66,196315,1,10,0:0:0:0:
83,66,196482,1,2,0:0:0:0:
24,126,196648,2,0,L|30:209,1,76.6999973081971,2|0,1:2|0:0,0:0:0:0:
88,280,196982,2,0,L|125:230,3,38.3499986540986,8|8|8|8,0:0|0:0|0:0|0:0,0:0:0:0:
137,221,197315,6,0,P|176:226|245:246,1,76.6999973081971,6|0,1:2|0:0,0:0:0:0:
274,167,197648,2,0,P|258:130|241:60,1,76.6999973081971,10|0,0:0|0:0,0:0:0:0:
335,63,197982,2,0,P|350:99|367:169,1,76.6999973081971,2|0,1:2|0:0,0:0:0:0:
448,177,198315,2,0,L|444:278,1,76.6999973081971,10|0,0:0|0:0,0:0:0:0:
385,323,198648,5,2,1:2:0:0:
345,242,198815,1,2,0:0:0:0:
284,309,198982,1,10,0:0:0:0:
284,309,199148,1,2,0:0:0:0:
203,266,199315,2,0,L|126:269,1,76.6999973081971,2|0,1:2|0:0,0:0:0:0:
52,210,199648,2,0,L|114:100,1,115.049995962296,10|0,0:0|0:0,0:0:0:0:
143,91,199982,5,6,1:2:0:0:
335,124,200315,1,10,0:0:0:0:
302,316,200648,1,6,0:3:0:0:
302,316,200815,1,10,0:0:0:0:
110,283,201148,2,0,P|106:231|113:176,1,76.6999973081971,10|2,0:0|1:2,0:0:0:0:
182,166,201482,2,0,P|230:189|269:218,1,76.0500002901077,10|2,0:0|1:2,0:0:0:0:
219,337,201815,1,10,0:0:0:0:
189,261,201982,1,10,0:0:0:0:
390,313,202315,6,0,L|468:263,1,76.6999973081971,6|0,0:3|0:0,0:0:0:0:
454,271,203815,6,0,L|445:174,2,76.6999973081971,2|2|2,1:2|1:2|1:2,0:0:0:0:
392,333,204315,1,10,0:2:0:0:
295,310,204482,1,10,0:2:0:0:
354,207,204648,1,10,0:2:0:0:
354,207,204982,6,0,L|340:86,1,87.7500003347397,6|0,0:3|0:0,0:0:0:0:
250,49,205315,6,0,P|216:55|169:55,1,71.5000021820069,6|2,1:2|0:0,0:0:0:0:
75,63,205648,1,10,0:0:0:0:
75,63,205815,2,0,B|59:130|59:130|85:215,1,143.000004364014,2|2,0:0|0:0,0:0:0:0:
53,286,206315,1,10,0:0:0:0:
140,322,206482,2,0,L|147:240,1,71.5000021820069,2|0,0:0|1:0,0:0:0:0:
232,237,206815,5,2,0:0:0:0:
285,306,206982,2,0,P|319:300|366:300,1,71.5000021820069,10|2,0:0|0:0,0:0:0:0:
401,225,207315,2,0,P|378:198|355:157,1,71.5000021820069,2|2,1:2|0:0,0:0:0:0:
272,165,207648,2,0,P|260:197|169:218,1,107.25000327301,10|0,0:0|0:0,0:0:0:0:
175,221,207982,5,2,1:2:0:0:
132,139,208148,1,2,0:0:0:0:
58,199,208315,1,10,0:0:0:0:
58,199,208482,2,0,P|61:268|58:350,1,143.000004364014,2|2,0:0|0:0,0:0:0:0:
157,340,208982,1,10,0:0:0:0:
233,279,209148,2,0,L|316:281,1,71.5000021820069,2|0,0:0|1:0,0:0:0:0:
370,215,209482,5,2,0:0:0:0:
370,215,209565,1,2,0:0:0:0:
370,215,209648,2,0,L|318:150,1,71.5000021820069,10|2,0:0|0:0,0:0:0:0:
265,78,209982,2,0,L|347:65,1,71.5000021820069,2|2,1:2|0:0,0:0:0:0:
428,51,210315,2,0,L|477:54,3,35.7500010910034,10|8|8|8,0:0|0:0|0:0|0:0,0:0:0:0:
480,76,210648,6,0,P|486:110|486:157,1,71.5000021820069,6|2,1:2|0:0,0:0:0:0:
433,221,210982,1,10,0:0:0:0:
342,198,211148,2,0,P|344:267|276:322,1,143.000004364014,2|2,0:0|0:0,0:0:0:0:
280,318,211565,1,2,0:0:0:0:
266,312,211648,1,10,0:0:0:0:
255,218,211815,2,0,L|249:133,1,71.5000021820069,2|0,0:0|1:0,0:0:0:0:
168,99,212148,5,2,0:0:0:0:
94,151,212315,2,0,L|88:236,1,71.5000021820069,10|2,0:0|0:0,0:0:0:0:
10,273,212648,2,0,L|16:358,1,71.5000021820069,2|2,1:2|0:0,0:0:0:0:
95,383,212982,2,0,P|145:353|157:280,1,107.25000327301,10|0,0:0|0:0,0:0:0:0:
158,287,213315,5,2,1:2:0:0:
88,222,213482,1,2,0:0:0:0:
48,140,213648,1,10,0:0:0:0:
48,140,213815,2,0,B|115:120|115:120|195:151,1,143.000004364014,2|2,0:0|0:0,0:0:0:0:
195,150,214232,1,2,0:0:0:0:
207,155,214315,1,10,0:0:0:0:
298,123,214482,2,0,L|304:208,1,71.5000021820069,2|0,0:0|1:0,0:0:0:0:
407,257,214815,5,10,0:0:0:0:
486,202,214982,1,10,0:0:0:0:
434,124,215148,1,10,0:0:0:0:
481,42,215315,2,0,L|396:36,1,71.5000021820069,10|6,0:0|0:3,0:0:0:0:
328,67,215648,2,0,P|274:26|219:48,1,107.25000327301,6|0,0:3|0:0,0:0:0:0:
226,50,215982,5,6,1:2:0:0:
179,137,216148,1,2,0:0:0:0:
179,137,216315,2,0,L|185:205,1,58.4999982147217,2|2,0:0|0:0,0:0:0:0:
316,260,216815,5,2,0:0:0:0:
316,260,216898,1,2,0:0:0:0:
316,260,216982,2,0,L|322:328,1,58.4999982147217,2|2,0:0|0:0,0:0:0:0:
