osu file format v14

[General]
AudioFilename: aqua.ogg
AudioLeadIn: 0
PreviewTime: 87288
Countdown: 0
SampleSet: Normal
StackLeniency: 0.7
Mode: 1
LetterboxInBreaks: 0
WidescreenStoryboard: 0

[Editor]
DistanceSpacing: 1.2
BeatDivisor: 8
GridSize: 16
TimelineZoom: 2.599999

[Metadata]
Title:#Aquairo Palette
TitleUnicode:#あくあ色ぱれっと
Artist:Minato Aqua
ArtistUnicode:湊あくあ
Creator:Maimaing
Version:#Inner Oni
Source:
Tags:pop hololive ホロライブ virtual youtuber vtuber バーチャル japanese jpop j-pop solo female vocals live concert original 2nd anniversary super dream generation gen 2期生 junky
BeatmapID:2806445
BeatmapSetID:1356007

[Difficulty]
HPDrainRate:6
CircleSize:5
OverallDifficulty:6
ApproachRate:5
SliderMultiplier:1.4
SliderTickRate:1

[Events]
//Background and Video events
0,0,"bg.jpg",0,0
//Break Periods
//Storyboard Layer 0 (Background)
//Storyboard Layer 1 (Fail)
//Storyboard Layer 2 (Pass)
//Storyboard Layer 3 (Foreground)
//Storyboard Layer 4 (Overlay)
//Storyboard Sound Samples

[TimingPoints]
750,384.615384615385,4,1,0,60,1,0
750,-142.857142857143,4,1,0,60,0,0
12961,-125,4,1,0,70,0,0
25269,-100,4,1,0,80,0,0
48394,-97.0873786407767,4,1,0,80,0,0
48586,-94.3396226415094,4,1,0,80,0,0
48971,-92.5925925925926,4,1,0,80,0,0
49163,-90.9090909090909,4,1,0,80,0,0
49548,-88.4955752212389,4,1,0,80,0,0
49932,-86.9565217391304,4,1,0,80,0,0
50269,-100,4,1,0,75,0,0
73682,-98.0392156862745,4,1,0,75,0,0
73778,-96.1538461538461,4,1,0,75,0,0
73971,-94.3396226415094,4,1,0,75,0,0
74163,-92.5925925925926,4,1,0,75,0,0
74355,-90.9090909090909,4,1,0,75,0,0
74548,-89.2857142857143,4,1,0,75,0,0
74932,-100,4,1,0,75,0,0
75125,-98.0392156862745,4,1,0,75,0,0
75317,-96.1538461538461,4,1,0,75,0,0
75509,-94.3396226415094,4,1,0,75,0,0
75701,-92.5925925925926,4,1,0,75,0,0
75894,-90.9090909090909,4,1,0,75,0,0
76086,-89.2857142857143,4,1,0,75,0,0
76471,-100,4,1,0,75,0,0
76663,-98.0392156862745,4,1,0,75,0,0
76855,-96.1538461538461,4,1,0,75,0,0
77048,-94.3396226415094,4,1,0,75,0,0
77240,-92.5925925925926,4,1,0,75,0,0
77432,-90.9090909090909,4,1,0,75,0,0
77625,-89.2857142857143,4,1,0,75,0,0
78009,-100,4,1,0,75,0,0
78201,-98.0392156862745,4,1,0,75,0,0
78394,-96.1538461538461,4,1,0,75,0,0
78586,-94.3396226415094,4,1,0,75,0,0
78778,-92.5925925925926,4,1,0,75,0,0
78971,-90.9090909090909,4,1,0,75,0,0
79163,-89.2857142857143,4,1,0,75,0,0
79548,-100,4,1,0,75,0,0
79740,-98.0392156862745,4,1,0,75,0,0
79932,-96.1538461538461,4,1,0,75,0,0
80125,-94.3396226415094,4,1,0,75,0,0
80317,-92.5925925925926,4,1,0,75,0,0
80701,-89.2857142857143,4,1,0,75,0,0
81278,-90.0900900900901,4,1,0,75,0,0
81375,-90.9090909090909,4,1,0,75,0,0
81471,-91.743119266055,4,1,0,75,0,0
81855,-92.5925925925926,4,1,0,75,0,0
82048,-93.4579439252336,4,1,0,75,0,0
82240,-94.3396226415094,4,1,0,75,0,0
82625,-95.2380952380952,4,1,0,75,0,0
82817,-96.1538461538461,4,1,0,75,0,0
83009,-97.0873786407767,4,1,0,75,0,0
83201,-98.0392156862745,4,1,0,75,0,0
83394,-99.009900990099,4,1,0,75,0,0
83778,-100,4,1,0,75,0,0
84163,-99.009900990099,4,1,0,75,0,0
84259,-98.0392156862745,4,1,0,75,0,0
84355,-97.0873786407767,4,1,0,75,0,0
84740,-96.1538461538461,4,1,0,75,0,0
84932,-95.2380952380954,4,1,0,75,0,0
85125,-94.3396226415094,4,1,0,75,0,0
85317,-93.4579439252336,4,1,0,75,0,0
85701,-91.743119266055,4,1,0,75,0,0
86086,-90.0900900900902,4,1,0,75,0,0
86278,-88.4955752212389,4,1,0,75,0,0
86471,-86.9565217391304,4,1,0,75,0,0
86663,-85.4700854700855,4,1,0,75,0,0
86855,-83.3333333333333,4,1,0,75,0,0
88009,-71.4285714285714,4,1,0,75,0,0
88346,-95.2380952380952,4,1,0,90,0,0
88442,384.615384615385,4,1,0,90,1,1
88442,-90.9090909090909,4,1,0,90,0,1
112961,-95.2380952380952,4,1,0,80,0,1
113057,-100,4,1,0,80,0,0
122240,-98.0392156862745,4,1,0,80,0,0
122624,-96.1538461538461,4,1,0,80,0,0
122720,-94.3396226415094,4,1,0,80,0,0
122817,-92.5925925925926,4,1,0,80,0,0
123009,-90.9090909090909,4,1,0,80,0,0
123201,-89.2857142857143,4,1,0,80,0,0
123393,-87.719298245614,4,1,0,80,0,0
123490,-86.2068965517241,4,1,0,80,0,0
123586,-84.7457627118644,4,1,0,80,0,0
123778,-83.3333333333333,4,1,0,80,0,0
124740,-81.9672131147541,4,1,0,80,0,0
124932,-80.6451612903226,4,1,0,80,0,0
125317,-79.3650793650794,4,1,0,80,0,0
125653,-100,4,1,0,75,0,0
129740,-83.3333333333333,4,1,0,75,0,0
130124,-85.4700854700855,4,1,0,75,0,0
130317,-87.719298245614,4,1,0,75,0,0
130509,-90.0900900900901,4,1,0,75,0,0
130701,-92.5925925925926,4,1,0,75,0,0
130893,-95.2380952380952,4,1,0,75,0,0
131086,-98.0392156862745,4,1,0,75,0,0
131422,-90.9090909090909,4,1,0,75,0,0
131615,-100,4,1,0,75,0,0
136086,-95.2380952380952,4,1,0,75,0,0
137256,-86.9565217391304,4,1,0,75,0,0
137576,-83.3333333333333,4,1,0,80,0,0
137672,-83.3333333333333,4,1,0,80,0,1
149884,-90.9090909090909,4,1,0,75,0,1
149980,-90.9090909090909,4,1,0,75,0,0
162192,-100,4,1,0,80,0,0
174499,-100,4,1,0,85,0,0
186807,-100,4,1,0,80,0,0
186999,-100.788981761222,4,1,0,80,0,0
187192,-101.58418844464,4,1,0,80,0,0
187288,-101.58418844464,4,1,0,79,0,0
187384,-102.385669163753,4,1,0,79,0,0
187576,-103.19347341956,4,1,0,79,0,0
187672,-103.19347341956,4,1,0,78,0,0
187768,-104.007651103612,4,1,0,78,0,0
187961,-104.828252501095,4,1,0,78,0,0
188057,-104.828252501095,4,1,0,77,0,0
188153,-105.655328293937,4,1,0,77,0,0
188345,-106.488929563935,4,1,0,77,0,0
188442,-106.488929563935,4,1,0,76,0,0
188538,-107.329107795915,4,1,0,76,0,0
188730,-108.175914880907,4,1,0,76,0,0
188922,-109.029403119353,4,1,0,76,0,0
189018,-109.029403119353,4,1,0,75,0,0
189115,-109.889625224334,4,1,0,75,0,0
189211,-109.889625224334,4,1,0,74,0,0
189307,-110.756634324829,4,1,0,74,0,0
189499,-111.630483968995,4,1,0,74,0,0
189692,-112.511228127475,4,1,0,74,0,0
189884,-113.398921196727,4,1,0,74,0,0
189980,-113.398921196727,4,1,0,73,0,0
190076,-114.293618002392,4,1,0,73,0,0
190268,-115.195373802672,4,1,0,73,0,0
190365,-115.195373802672,4,1,0,72,0,0
190461,-116.104244291746,4,1,0,72,0,0
190653,-117.020285603213,4,1,0,72,0,0
190749,-117.020285603213,4,1,0,71,0,0
190845,-117.943554313552,4,1,0,71,0,0
191038,-118.874107445623,4,1,0,71,0,0
191134,-118.874107445623,4,1,0,70,0,0
191230,-119.812002472185,4,1,0,70,0,0
191422,-120.757297319445,4,1,0,70,0,0
191518,-120.757297319445,4,1,0,69,0,0
191615,-121.71005037064,4,1,0,69,0,0
191807,-122.670320469639,4,1,0,69,0,0
191903,-122.670320469639,4,1,0,68,0,0
191999,-123.638166924577,4,1,0,68,0,0
192192,-124.613649511521,4,1,0,68,0,0
192288,-124.613649511521,4,1,0,67,0,0
192384,-125.59682847816,4,1,0,67,0,0
192576,-126.587764547526,4,1,0,67,0,0
192768,-127.586518921745,4,1,0,67,0,0
192961,-128.593153285816,4,1,0,67,0,0
193057,-128.593153285816,4,1,0,65,0,0
193153,-129.607729811421,4,1,0,65,0,0
193345,-130.630311160767,4,1,0,65,0,0
193442,-130.630311160767,4,1,0,64,0,0
193538,-131.660960490453,4,1,0,64,0,0
193730,-132.699741455373,4,1,0,64,0,0
193826,-132.699741455373,4,1,0,63,0,0
193922,-133.746718212645,4,1,0,63,0,0
194115,-134.801955425575,4,1,0,63,0,0
194211,-134.801955425575,4,1,0,62,0,0
194307,-135.865518267654,4,1,0,62,0,0
194499,-136.937472426575,4,1,0,62,0,0
194595,-136.937472426575,4,1,0,61,0,0
194692,-138.0178841083,4,1,0,61,0,0
194884,-139.106820041139,4,1,0,61,0,0
194980,-139.106820041139,4,1,0,60,0,0
195076,-140.204347479879,4,1,0,60,0,0
195268,-141.310534209936,4,1,0,60,0,0
195365,-141.310534209936,4,1,0,59,0,0
195461,-142.425448551538,4,1,0,59,0,0
195653,-143.549159363948,4,1,0,59,0,0
195749,-143.549159363948,4,1,0,58,0,0
195845,-144.681736049717,4,1,0,58,0,0
196038,-145.823248558969,4,1,0,58,0,0
196230,-146.973767393721,4,1,0,58,0,0
196422,-148.133363612238,4,1,0,58,0,0
196615,-149.302108833423,4,1,0,58,0,0
196711,-149.302108833423,4,1,0,56,0,0
196807,-150.480075241239,4,1,0,56,0,0
196999,-151.667335589166,4,1,0,56,0,0
197192,-152.863963204696,4,1,0,56,0,0
197384,-154.070031993862,4,1,0,56,0,0
197480,-154.070031993862,4,1,0,54,0,0
197576,-155.285616445803,4,1,0,54,0,0
197768,-156.510791637361,4,1,0,54,0,0
197961,-157.745633237724,4,1,0,54,0,0
198153,-158.990217513094,4,1,0,54,0,0
198345,-160.2446213314,4,1,0,54,0,0
198442,-160.2446213314,4,1,0,52,0,0
198538,-161.508922167044,4,1,0,52,0,0
198730,-162.783198105688,4,1,0,52,0,0
198826,-162.783198105688,4,1,0,51,0,0
198922,-164.067527849076,4,1,0,51,0,0
199115,-165.361990719893,4,1,0,51,0,0
199211,-165.361990719893,4,1,0,50,0,0
199307,-165.006814042474,4,1,0,50,0,0
199403,-165.006814042474,4,1,0,51,0,0
199499,-163.363492082685,4,1,0,51,0,0
199692,-161.736536156501,4,1,0,51,0,0
199884,-160.125783272697,4,1,0,51,0,0
199980,-160.125783272697,4,1,0,53,0,0
200076,-158.5310720633,4,1,0,53,0,0
200268,-156.952242767418,4,1,0,53,0,0
200365,-156.952242767418,4,1,0,54,0,0
200461,-155.389137215235,4,1,0,54,0,0
200653,-153.841598812169,4,1,0,54,0,0
200749,-153.841598812169,4,1,0,55,0,0
200845,-152.309472523178,4,1,0,55,0,0
201038,-150.792604857236,4,1,0,55,0,0
201134,-150.792604857236,4,1,0,56,0,0
201230,-149.290843851949,4,1,0,56,0,0
201422,-147.804039058336,4,1,0,56,0,0
201518,-147.804039058336,4,1,0,58,0,0
201615,-146.332041525752,4,1,0,58,0,0
201807,-144.874703786972,4,1,0,58,0,0
201903,-144.874703786972,4,1,0,59,0,0
201999,-143.431879843412,4,1,0,59,0,0
202192,-142.003425150506,4,1,0,59,0,0
202288,-142.003425150506,4,1,0,60,0,0
202384,-140.589196603223,4,1,0,60,0,0
202576,-139.189052521733,4,1,0,60,0,0
202672,-139.189052521733,4,1,0,61,0,0
202768,-137.80285263721,4,1,0,61,0,0
202961,-136.430458077784,4,1,0,61,0,0
203057,-136.430458077784,4,1,0,63,0,0
203153,-135.071731354622,4,1,0,63,0,0
203345,-133.726536348163,4,1,0,63,0,0
203442,-133.726536348163,4,1,0,64,0,0
203538,-132.394738294472,4,1,0,64,0,0
203730,-131.076203771748,4,1,0,64,0,0
203826,-131.076203771748,4,1,0,65,0,0
203922,-129.770800686949,4,1,0,65,0,0
204115,-128.478398262566,4,1,0,65,0,0
204211,-128.478398262566,4,1,0,66,0,0
204307,-127.198867023517,4,1,0,66,0,0
204499,-125.932078784177,4,1,0,66,0,0
204595,-125.932078784177,4,1,0,68,0,0
204692,-124.677906635537,4,1,0,68,0,0
204884,-123.43622493249,4,1,0,68,0,0
204980,-123.43622493249,4,1,0,69,0,0
205076,-122.206909281242,4,1,0,69,0,0
205268,-120.989836526852,4,1,0,69,0,0
205365,-120.989836526852,4,1,0,70,0,0
205461,-119.784884740893,4,1,0,70,0,0
205557,-119.784884740893,4,1,0,71,0,0
205653,-118.591933209239,4,1,0,71,0,0
205845,-117.410862419966,4,1,0,72,0,0
206038,-116.241554051387,4,1,0,72,0,0
206134,-116.241554051387,4,1,0,73,0,0
206230,-115.083890960192,4,1,0,73,0,0
206422,-113.937757169716,4,1,0,73,0,0
206518,-113.937757169716,4,1,0,74,0,0
206615,-112.803037858319,4,1,0,74,0,0
206807,-111.679619347883,4,1,0,74,0,0
206903,-111.679619347883,4,1,0,75,0,0
206999,-110.567389092422,4,1,0,75,0,0
207095,-110.567389092422,4,1,0,76,0,0
207192,-109.466235666811,4,1,0,76,0,0
207384,-108.376048755619,4,1,0,76,0,0
207480,-108.376048755619,4,1,0,77,0,0
207576,-107.296719142059,4,1,0,77,0,0
207672,-107.296719142059,4,1,0,78,0,0
207768,-106.228138697047,4,1,0,78,0,0
207961,-105.170200368371,4,1,0,78,0,0
208057,-105.170200368371,4,1,0,79,0,0
208153,-104.122798169961,4,1,0,79,0,0
208345,-103.085827171277,4,1,0,79,0,0
208442,-103.085827171277,4,1,0,80,0,0
208538,-102.059183486793,4,1,0,80,0,0
208634,-102.059183486793,4,1,0,81,0,0
208730,-101.042764265591,4,1,0,81,0,0
208922,-100.03646768106,4,1,0,81,0,0
209018,-100.03646768106,4,1,0,82,0,0
209115,-99.0401929206873,4,1,0,82,0,0
209211,-99.0401929206873,4,1,0,83,0,0
209307,-98.0538401759675,4,1,0,83,0,0
209499,-97.0773106323979,4,1,0,84,0,0
209692,-96.1105064595813,4,1,0,84,0,0
209884,-95.1533308014246,4,1,0,84,0,0
210076,-94.205687766436,4,1,0,86,0,0
210268,-93.267482418118,4,1,0,86,0,0
210461,-92.3386207654565,4,1,0,87,0,0
210653,-91.4190097535051,4,1,0,88,0,0
210845,-90.5085572540623,4,1,0,88,0,0
211038,-89.6071720564419,4,1,0,89,0,0
211230,-88.7147638583356,4,1,0,89,0,0
211422,-86.9565217391304,4,1,0,85,0,0
211470,-86.9565217391304,4,1,0,85,0,0
212961,-83.3333333333333,4,1,0,85,0,0
214499,-95.2380952380952,4,1,0,90,0,0
214595,384.615384615385,4,1,0,90,1,1
214595,-90.9090909090909,4,1,0,90,0,1
242287,-90.9090909090909,4,1,0,90,0,0
243825,384.615384615385,4,1,0,90,1,8
244594,384.615384615385,4,1,0,95,1,0
244594,-95.2380952380952,4,1,0,95,0,8
267574,-83.3333333333333,4,1,0,100,0,0
268392,-133.333333333333,4,1,0,100,0,0
269113,-133.333333333333,4,1,0,60,0,0

[HitObjects]
273,161,750,5,0,1:0:0:0:
218,123,1134,1,8,1:0:0:0:
218,123,1326,1,8,1:0:0:0:
218,123,1519,1,0,1:0:0:0:
218,123,1903,1,0,1:0:0:0:
218,123,2096,1,8,1:0:0:0:
244,41,2480,1,8,1:0:0:0:
218,123,2673,1,0,1:0:0:0:
218,123,2865,1,0,1:0:0:0:
76,121,3057,1,8,1:0:0:0:
76,121,3442,1,8,1:0:0:0:
246,163,3826,1,0,1:0:0:0:
173,99,4211,1,8,1:0:0:0:
173,99,4403,1,8,1:0:0:0:
173,99,4596,1,0,1:0:0:0:
173,99,4980,1,0,1:0:0:0:
173,99,5173,1,8,1:0:0:0:
246,163,5557,1,8,1:0:0:0:
166,128,5750,1,8,1:0:0:0:
173,99,5942,1,0,1:0:0:0:
246,163,6134,1,8,1:0:0:0:
166,128,6519,1,8,1:0:0:0:
246,163,6903,1,0,1:0:0:0:
216,79,7288,1,8,1:0:0:0:
220,75,7480,1,0,1:0:0:0:
151,47,7673,1,8,1:0:0:0:
133,126,8057,1,0,1:0:0:0:
133,126,8250,1,8,1:0:0:0:
103,100,8634,1,8,1:0:0:0:
103,100,8826,1,8,1:0:0:0:
103,100,9019,1,0,1:0:0:0:
166,128,9211,1,8,1:0:0:0:
103,100,9596,1,8,1:0:0:0:
166,128,9980,1,0,1:0:0:0:
166,128,10365,1,0,1:0:0:0:
166,128,10750,1,8,1:0:0:0:
187,134,11134,1,0,1:0:0:0:
187,134,11519,1,8,1:0:0:0:
187,134,11711,1,8,1:0:0:0:
83,119,12096,1,0,1:0:0:0:
145,116,12288,1,8,1:0:0:0:
219,135,13057,1,0,1:0:0:0:
219,135,13442,1,8,1:0:0:0:
219,135,13634,1,8,1:0:0:0:
219,135,13826,1,0,1:0:0:0:
219,135,14211,1,0,1:0:0:0:
219,135,14403,1,8,1:0:0:0:
219,135,14788,1,0,1:0:0:0:
305,167,14884,1,0,1:0:0:0:
219,135,14980,1,8,1:0:0:0:
219,135,15173,1,0,1:0:0:0:
219,135,15365,1,8,1:0:0:0:
219,135,15750,1,8,1:0:0:0:
219,135,16134,1,0,1:0:0:0:
219,135,16519,1,8,1:0:0:0:
219,135,16711,1,8,1:0:0:0:
219,135,16903,1,0,1:0:0:0:
219,135,17288,1,0,1:0:0:0:
219,135,17480,1,8,1:0:0:0:
219,135,17865,1,8,1:0:0:0:
289,154,17961,1,8,1:0:0:0:
219,135,18057,1,8,1:0:0:0:
219,135,18250,1,0,1:0:0:0:
219,135,18442,1,8,1:0:0:0:
219,135,18826,1,0,1:0:0:0:
219,135,19211,1,0,1:0:0:0:
219,135,19596,1,0,1:0:0:0:
219,135,19788,1,8,1:0:0:0:
219,135,19980,1,0,1:0:0:0:
219,135,20365,1,0,1:0:0:0:
219,135,20557,1,8,1:0:0:0:
219,135,20942,1,8,1:0:0:0:
296,150,21038,1,8,1:0:0:0:
219,135,21134,1,8,1:0:0:0:
219,135,21326,1,0,1:0:0:0:
219,135,21519,1,8,1:0:0:0:
219,135,21711,1,0,1:0:0:0:
219,135,21903,1,8,1:0:0:0:
219,135,22288,1,0,1:0:0:0:
219,135,22673,1,0,1:0:0:0:
219,135,22865,1,8,1:0:0:0:
219,135,23057,1,8,1:0:0:0:
219,135,23442,1,0,1:0:0:0:
219,135,23634,1,8,1:0:0:0:
162,90,24596,1,8,1:0:0:0:
219,135,25365,1,4,1:0:0:0:
219,135,25750,1,8,1:0:0:0:
56,104,25846,1,0,1:0:0:0:
219,135,25942,1,8,1:0:0:0:
219,135,26134,1,0,1:0:0:0:
219,135,26326,1,8,1:0:0:0:
219,135,26711,1,0,1:0:0:0:
320,162,26807,1,0,1:0:0:0:
219,135,26903,1,0,1:0:0:0:
219,135,27096,1,8,1:0:0:0:
219,135,27288,1,0,1:0:0:0:
219,135,27384,1,0,1:0:0:0:
219,135,27480,1,8,1:0:0:0:
219,135,27673,1,0,1:0:0:0:
219,135,27865,1,8,1:0:0:0:
269,135,27961,1,8,1:0:0:0:
219,135,28057,1,0,1:0:0:0:
219,135,28153,1,0,1:0:0:0:
219,135,28250,1,8,1:0:0:0:
219,135,28442,1,4,1:0:0:0:
219,135,28826,1,8,1:0:0:0:
130,50,28923,1,8,1:0:0:0:
219,135,29019,1,0,1:0:0:0:
219,135,29211,1,8,1:0:0:0:
219,135,29403,1,8,1:0:0:0:
219,135,29788,1,8,1:0:0:0:
313,159,29884,1,8,1:0:0:0:
219,135,29980,1,0,1:0:0:0:
219,135,30173,1,8,1:0:0:0:
219,135,30365,1,0,1:0:0:0:
219,135,30461,1,0,1:0:0:0:
60,121,30557,1,8,1:0:0:0:
219,135,30750,1,0,1:0:0:0:
219,135,30942,1,8,1:0:0:0:
219,135,31038,1,0,1:0:0:0:
219,135,31134,1,0,1:0:0:0:
219,135,31326,1,8,1:0:0:0:
219,135,31519,1,4,1:0:0:0:
219,135,31903,1,8,1:0:0:0:
56,104,32000,1,0,1:0:0:0:
219,135,32096,1,8,1:0:0:0:
219,135,32288,1,0,1:0:0:0:
219,135,32480,1,8,1:0:0:0:
219,135,32865,1,0,1:0:0:0:
327,124,32961,1,0,1:0:0:0:
219,135,33057,1,0,1:0:0:0:
219,135,33250,1,8,1:0:0:0:
219,135,33442,1,0,1:0:0:0:
219,135,33538,1,0,1:0:0:0:
219,135,33634,1,8,1:0:0:0:
92,255,33826,1,0,1:0:0:0:
219,135,34019,1,8,1:0:0:0:
269,135,34115,1,8,1:0:0:0:
219,135,34211,1,0,1:0:0:0:
219,135,34307,1,0,1:0:0:0:
219,135,34403,1,8,1:0:0:0:
219,135,34596,1,4,1:0:0:0:
219,135,34980,1,8,1:0:0:0:
269,135,35076,1,8,1:0:0:0:
219,135,35173,1,8,1:0:0:0:
164,106,35365,1,0,1:0:0:0:
164,106,35557,1,8,1:0:0:0:
164,106,35750,1,0,1:0:0:0:
165,201,35846,1,8,1:0:0:0:
167,99,35942,1,8,1:0:0:0:
219,135,36134,1,0,1:0:0:0:
207,115,36326,1,0,1:0:0:0:
219,135,36519,1,12,1:0:0:0:
219,135,36903,1,0,1:0:0:0:
102,118,37000,1,0,1:0:0:0:
102,118,37096,1,0,1:0:0:0:
219,135,37288,1,12,1:0:0:0:
219,135,37673,1,4,1:0:0:0:
219,135,38057,1,8,1:0:0:0:
305,120,38153,1,0,1:0:0:0:
219,135,38250,1,8,1:0:0:0:
219,135,38442,1,0,1:0:0:0:
219,135,38634,1,8,1:0:0:0:
219,135,39019,1,0,1:0:0:0:
278,94,39115,1,0,1:0:0:0:
219,135,39211,1,0,1:0:0:0:
219,135,39403,1,8,1:0:0:0:
219,135,39596,1,0,1:0:0:0:
219,135,39692,1,0,1:0:0:0:
219,135,39788,1,8,1:0:0:0:
219,135,39980,1,0,1:0:0:0:
219,135,40173,1,8,1:0:0:0:
86,85,40269,1,8,1:0:0:0:
219,135,40365,1,0,1:0:0:0:
219,135,40461,1,0,1:0:0:0:
219,135,40557,1,8,1:0:0:0:
219,135,40750,1,4,1:0:0:0:
219,135,41134,1,8,1:0:0:0:
130,50,41230,1,8,1:0:0:0:
219,135,41326,1,0,1:0:0:0:
305,120,41519,1,8,1:0:0:0:
219,135,41711,1,8,1:0:0:0:
219,135,42096,1,8,1:0:0:0:
243,86,42192,1,8,1:0:0:0:
219,135,42288,1,0,1:0:0:0:
219,135,42480,1,8,1:0:0:0:
219,135,42673,1,0,1:0:0:0:
219,135,42769,1,0,1:0:0:0:
219,135,42865,1,8,1:0:0:0:
219,135,43057,1,0,1:0:0:0:
219,135,43250,1,8,1:0:0:0:
219,135,43346,1,0,1:0:0:0:
219,135,43442,1,0,1:0:0:0:
219,135,43634,1,8,1:0:0:0:
219,135,43826,1,4,1:0:0:0:
219,135,44211,1,8,1:0:0:0:
130,50,44307,1,0,1:0:0:0:
219,135,44403,1,8,1:0:0:0:
219,135,44596,1,0,1:0:0:0:
219,135,44788,1,8,1:0:0:0:
219,135,45173,1,0,1:0:0:0:
271,70,45269,1,0,1:0:0:0:
219,135,45365,1,0,1:0:0:0:
219,135,45557,1,8,1:0:0:0:
219,135,45750,1,0,1:0:0:0:
219,135,45846,1,0,1:0:0:0:
219,135,45942,1,8,1:0:0:0:
219,135,46134,1,0,1:0:0:0:
219,135,46326,1,8,1:0:0:0:
72,90,46423,1,8,1:0:0:0:
219,135,46519,1,0,1:0:0:0:
219,135,46711,1,8,1:0:0:0:
219,135,46903,1,4,1:0:0:0:
219,135,47288,1,8,1:0:0:0:
313,100,47384,1,8,1:0:0:0:
219,135,47480,1,8,1:0:0:0:
146,56,47576,1,8,1:0:0:0:
80,125,47673,1,0,1:0:0:0:
80,125,47865,1,8,1:0:0:0:
80,125,48057,1,0,1:0:0:0:
80,125,48153,1,0,1:0:0:0:
80,125,48250,1,8,1:0:0:0:
219,135,48442,1,4,1:0:0:0:
219,135,48634,1,4,1:0:0:0:
219,135,49019,1,12,1:0:0:0:
219,135,49211,1,4,1:0:0:0:
219,135,49596,1,12,1:0:0:0:
219,135,49980,1,4,1:0:0:0:
128,143,50365,1,8,1:0:0:0:
224,89,50557,1,8,1:0:0:0:
128,143,50750,1,0,1:0:0:0:
128,143,51134,1,0,1:0:0:0:
128,143,51326,1,8,1:0:0:0:
339,116,51519,1,0,1:0:0:0:
128,143,51711,1,8,1:0:0:0:
254,136,51807,1,8,1:0:0:0:
128,143,51903,1,0,1:0:0:0:
128,143,52096,1,8,1:0:0:0:
128,143,52288,1,0,1:0:0:0:
128,143,52480,1,0,1:0:0:0:
128,143,52673,1,8,1:0:0:0:
166,96,52865,1,8,1:0:0:0:
128,143,53057,1,0,1:0:0:0:
128,143,53442,1,0,1:0:0:0:
128,143,53634,1,8,1:0:0:0:
128,143,53826,1,0,1:0:0:0:
128,143,54211,1,0,1:0:0:0:
128,143,54403,1,8,1:0:0:0:
275,132,54596,1,0,1:0:0:0:
128,143,54788,1,8,1:0:0:0:
227,134,54884,1,8,1:0:0:0:
128,143,54980,1,0,1:0:0:0:
128,143,55173,1,8,1:0:0:0:
128,143,55365,1,0,1:0:0:0:
410,139,55461,1,0,1:0:0:0:
128,143,55557,1,8,1:0:0:0:
128,143,55750,1,0,1:0:0:0:
228,41,55942,1,8,1:0:0:0:
128,143,56134,1,0,1:0:0:0:
128,143,56519,1,8,1:0:0:0:
128,143,56711,1,8,1:0:0:0:
128,143,56903,1,0,1:0:0:0:
128,143,57288,1,0,1:0:0:0:
128,143,57480,1,8,1:0:0:0:
304,107,57673,1,0,1:0:0:0:
128,143,57865,1,8,1:0:0:0:
128,143,58057,1,8,1:0:0:0:
128,143,58250,1,0,1:0:0:0:
128,143,58442,1,8,1:0:0:0:
268,39,58538,1,0,1:0:0:0:
370,172,58634,1,0,1:0:0:0:
128,143,58826,1,8,1:0:0:0:
128,143,59211,1,0,1:0:0:0:
128,143,59596,1,8,1:0:0:0:
128,143,59788,1,0,1:0:0:0:
128,143,59980,1,8,1:0:0:0:
248,151,60173,1,0,1:0:0:0:
248,151,60269,1,0,1:0:0:0:
128,143,60365,1,8,1:0:0:0:
128,143,60557,1,4,1:0:0:0:
374,126,61134,1,8,1:0:0:0:
392,124,61519,1,0,1:0:0:0:
241,193,61583,1,0,1:0:0:0:
241,193,61647,1,0,1:0:0:0:
128,143,61711,1,8,1:0:0:0:
325,174,61903,1,0,1:0:0:0:
128,143,62096,1,0,1:0:0:0:
128,143,62288,1,12,1:0:0:0:
128,143,62673,1,0,1:0:0:0:
128,143,62865,1,8,1:0:0:0:
128,143,63057,1,8,1:0:0:0:
102,181,63250,1,0,1:0:0:0:
102,181,63346,1,0,1:0:0:0:
128,143,63442,1,0,1:0:0:0:
128,143,63634,1,8,1:0:0:0:
249,166,63826,1,0,1:0:0:0:
128,143,64019,1,8,1:0:0:0:
305,207,64115,1,0,1:0:0:0:
128,143,64211,1,8,1:0:0:0:
128,143,64403,1,0,1:0:0:0:
128,143,64596,1,8,1:0:0:0:
333,47,64692,1,8,1:0:0:0:
128,143,64788,1,0,1:0:0:0:
128,143,64980,1,8,1:0:0:0:
261,146,65173,1,8,1:0:0:0:
128,143,65365,1,0,1:0:0:0:
128,143,65750,1,8,1:0:0:0:
128,143,65942,1,0,1:0:0:0:
128,143,66134,1,8,1:0:0:0:
334,106,66326,1,8,1:0:0:0:
128,143,66519,1,0,1:0:0:0:
128,143,66711,1,8,1:0:0:0:
365,107,66807,1,8,1:0:0:0:
371,107,66903,1,0,1:0:0:0:
128,143,67096,1,8,1:0:0:0:
128,143,67288,1,0,1:0:0:0:
362,121,67384,1,0,1:0:0:0:
128,143,67480,1,8,1:0:0:0:
128,143,67673,1,8,1:0:0:0:
20,56,67769,1,0,1:0:0:0:
128,143,67865,1,8,1:0:0:0:
128,143,68057,1,0,1:0:0:0:
128,143,68442,1,4,1:0:0:0:
128,143,68826,1,8,1:0:0:0:
128,143,69019,1,8,1:0:0:0:
128,143,69211,1,0,1:0:0:0:
187,69,69403,1,0,1:0:0:0:
95,47,69500,1,0,1:0:0:0:
128,143,69596,1,0,1:0:0:0:
128,143,69788,1,8,1:0:0:0:
284,134,69980,1,0,1:0:0:0:
222,79,70076,1,0,1:0:0:0:
284,134,70173,1,8,1:0:0:0:
128,143,70365,1,0,1:0:0:0:
128,143,70557,1,8,1:0:0:0:
376,98,70653,1,8,1:0:0:0:
128,143,70750,1,0,1:0:0:0:
128,143,70942,1,0,1:0:0:0:
128,143,71134,1,8,1:0:0:0:
128,143,71519,1,0,1:0:0:0:
227,103,71711,1,8,1:0:0:0:
128,143,71903,1,0,1:0:0:0:
240,70,72096,1,8,1:0:0:0:
240,70,72192,1,0,1:0:0:0:
128,143,72288,1,8,1:0:0:0:
128,143,72480,1,8,1:0:0:0:
151,94,72673,1,0,1:0:0:0:
240,70,72865,1,0,1:0:0:0:
128,143,73057,1,4,1:0:0:0:
290,106,73250,1,8,1:0:0:0:
128,143,73442,1,0,1:0:0:0:
302,210,73538,1,0,1:0:0:0:
311,217,73730,1,0,1:0:0:0:
128,143,73826,1,8,1:0:0:0:
128,143,74019,1,8,1:0:0:0:
128,143,74211,1,0,1:0:0:0:
97,55,74403,1,0,1:0:0:0:
128,143,74596,1,0,1:0:0:0:
227,87,74980,1,0,1:0:0:0:
227,87,75173,1,0,1:0:0:0:
227,87,75365,1,8,1:0:0:0:
227,87,75557,1,8,1:0:0:0:
227,87,75750,1,8,1:0:0:0:
227,87,75942,1,8,1:0:0:0:
227,87,76134,1,0,1:0:0:0:
227,87,76519,1,0,1:0:0:0:
227,87,76711,1,0,1:0:0:0:
227,87,76903,1,8,1:0:0:0:
227,87,77096,1,0,1:0:0:0:
227,87,77288,1,8,1:0:0:0:
227,87,77480,1,8,1:0:0:0:
227,87,77673,1,0,1:0:0:0:
227,87,78057,1,8,1:0:0:0:
227,87,78250,1,0,1:0:0:0:
227,87,78442,1,8,1:0:0:0:
227,87,78634,1,8,1:0:0:0:
227,87,78826,1,0,1:0:0:0:
227,87,79019,1,8,1:0:0:0:
227,87,79211,1,0,1:0:0:0:
227,87,79596,1,0,1:0:0:0:
227,87,79788,1,0,1:0:0:0:
227,87,79980,1,8,1:0:0:0:
227,87,80173,1,0,1:0:0:0:
227,87,80365,1,8,1:0:0:0:
116,315,80750,1,4,1:0:0:0:
10,163,81326,1,0,1:0:0:0:
206,132,81423,1,0,1:0:0:0:
116,315,81519,1,8,1:0:0:0:
116,315,81903,1,8,1:0:0:0:
10,163,82096,1,0,1:0:0:0:
116,315,82288,1,0,1:0:0:0:
116,315,82673,1,0,1:0:0:0:
10,163,82865,1,0,1:0:0:0:
116,315,83057,1,8,1:0:0:0:
10,163,83250,1,0,1:0:0:0:
116,315,83442,1,12,1:0:0:0:
116,315,83826,1,4,1:0:0:0:
136,319,84211,1,0,1:0:0:0:
206,132,84307,1,0,1:0:0:0:
136,319,84403,1,8,1:0:0:0:
224,93,84788,1,0,1:0:0:0:
224,93,84980,1,8,1:0:0:0:
136,319,85173,1,0,1:0:0:0:
136,319,85365,1,0,1:0:0:0:
136,319,85750,1,0,1:0:0:0:
136,319,86134,1,0,1:0:0:0:
136,319,86326,1,0,1:0:0:0:
136,319,86519,1,0,1:0:0:0:
136,319,86711,1,0,1:0:0:0:
136,319,86903,1,8,1:0:0:0:
232,88,87288,1,0,1:0:0:0:
232,88,87673,1,0,1:0:0:0:
47,130,88057,1,12,1:0:0:0:
224,171,88442,1,4,1:0:0:0:
147,170,88634,1,8,1:0:0:0:
147,170,88730,1,0,1:0:0:0:
224,171,88826,1,0,1:0:0:0:
224,171,89018,1,8,1:0:0:0:
224,171,89211,1,0,1:0:0:0:
19,119,89307,1,0,1:0:0:0:
224,171,89403,1,8,1:0:0:0:
224,171,89595,1,0,1:0:0:0:
224,171,89788,1,8,1:0:0:0:
63,188,89884,1,8,1:0:0:0:
224,171,89980,1,0,1:0:0:0:
87,163,90076,1,0,1:0:0:0:
224,171,90172,1,8,1:0:0:0:
224,171,90365,1,0,1:0:0:0:
34,150,90461,1,0,1:0:0:0:
224,171,90557,1,8,1:0:0:0:
224,171,90749,1,0,1:0:0:0:
86,172,90845,1,0,1:0:0:0:
224,171,90942,1,0,1:0:0:0:
224,171,91134,1,8,1:0:0:0:
224,171,91326,1,0,1:0:0:0:
224,171,91518,1,8,1:0:0:0:
43,150,91615,1,0,1:0:0:0:
224,171,91711,1,0,1:0:0:0:
301,166,91807,1,0,1:0:0:0:
224,171,91903,1,8,1:0:0:0:
224,171,92095,1,0,1:0:0:0:
224,171,92288,1,8,1:0:0:0:
27,137,92384,1,8,1:0:0:0:
224,171,92480,1,0,1:0:0:0:
318,109,92576,1,0,1:0:0:0:
224,171,92672,1,8,1:0:0:0:
224,171,92865,1,8,1:0:0:0:
224,171,93057,1,0,1:0:0:0:
224,171,93249,1,8,1:0:0:0:
224,171,93442,1,0,1:0:0:0:
306,74,93538,1,0,1:0:0:0:
224,171,93634,1,8,1:0:0:0:
224,171,93826,1,0,1:0:0:0:
224,171,94018,1,8,1:0:0:0:
28,122,94115,1,0,1:0:0:0:
224,171,94211,1,8,1:0:0:0:
224,171,94403,1,8,1:0:0:0:
224,171,94595,1,0,1:0:0:0:
224,171,94788,1,0,1:0:0:0:
144,90,94884,1,0,1:0:0:0:
224,171,94980,1,8,1:0:0:0:
224,171,95172,1,8,1:0:0:0:
224,171,95365,1,0,1:0:0:0:
64,128,95461,1,0,1:0:0:0:
224,171,95557,1,8,1:0:0:0:
91,187,95653,1,8,1:0:0:0:
224,171,95749,1,0,1:0:0:0:
224,171,95942,1,8,1:0:0:0:
267,114,96038,1,0,1:0:0:0:
224,171,96134,1,0,1:0:0:0:
224,171,96326,1,8,1:0:0:0:
224,171,96518,1,0,1:0:0:0:
152,124,96615,1,0,1:0:0:0:
224,171,96711,1,8,1:0:0:0:
224,171,96903,1,0,1:0:0:0:
224,171,97095,1,8,1:0:0:0:
71,143,97192,1,8,1:0:0:0:
224,171,97288,1,8,1:0:0:0:
224,171,97480,1,0,1:0:0:0:
224,171,97672,1,8,1:0:0:0:
224,171,97865,1,0,1:0:0:0:
161,166,97961,1,0,1:0:0:0:
224,171,98057,1,8,1:0:0:0:
224,171,98249,1,8,1:0:0:0:
224,171,98442,1,0,1:0:0:0:
224,171,98634,1,8,1:0:0:0:
98,250,98826,1,0,1:0:0:0:
224,171,99018,1,8,1:0:0:0:
118,101,99115,1,8,1:0:0:0:
224,171,99211,1,0,1:0:0:0:
224,171,99403,1,0,1:0:0:0:
224,171,99595,1,8,1:0:0:0:
224,171,99788,1,0,1:0:0:0:
187,38,99884,1,0,1:0:0:0:
224,171,99980,1,0,1:0:0:0:
224,171,100172,1,0,1:0:0:0:
224,171,100365,1,8,1:0:0:0:
224,171,100749,1,4,1:0:0:0:
112,70,100942,1,0,1:0:0:0:
112,70,101038,1,8,1:0:0:0:
224,171,101134,1,0,1:0:0:0:
224,171,101326,1,8,1:0:0:0:
224,171,101518,1,0,1:0:0:0:
224,171,101711,1,8,1:0:0:0:
224,171,101807,1,8,1:0:0:0:
224,171,101903,1,0,1:0:0:0:
224,171,101999,1,0,1:0:0:0:
147,101,102095,1,8,1:0:0:0:
157,79,102288,1,0,1:0:0:0:
224,171,102480,1,8,1:0:0:0:
262,43,102576,1,8,1:0:0:0:
224,171,102672,1,8,1:0:0:0:
224,171,102865,1,0,1:0:0:0:
224,171,103057,1,0,1:0:0:0:
64,117,103153,1,0,1:0:0:0:
224,171,103249,1,8,1:0:0:0:
224,171,103442,1,8,1:0:0:0:
224,171,103634,1,0,1:0:0:0:
224,171,103826,1,8,1:0:0:0:
19,159,103922,1,8,1:0:0:0:
224,171,104018,1,0,1:0:0:0:
314,110,104115,1,0,1:0:0:0:
224,171,104211,1,8,1:0:0:0:
224,171,104403,1,0,1:0:0:0:
224,171,104595,1,8,1:0:0:0:
101,106,104692,1,0,1:0:0:0:
224,171,104788,1,0,1:0:0:0:
314,110,104884,1,0,1:0:0:0:
224,171,104980,1,8,1:0:0:0:
224,171,105172,1,8,1:0:0:0:
224,171,105365,1,0,1:0:0:0:
101,152,105461,1,0,1:0:0:0:
224,171,105557,1,8,1:0:0:0:
224,171,105749,1,0,1:0:0:0:
224,171,105942,1,8,1:0:0:0:
141,287,106038,1,8,1:0:0:0:
224,171,106134,1,0,1:0:0:0:
224,171,106326,1,8,1:0:0:0:
78,159,106422,1,0,1:0:0:0:
224,171,106518,1,8,1:0:0:0:
224,171,106711,1,8,1:0:0:0:
224,171,106903,1,0,1:0:0:0:
224,171,107095,1,8,1:0:0:0:
41,140,107192,1,0,1:0:0:0:
224,171,107288,1,0,1:0:0:0:
224,171,107480,1,8,1:0:0:0:
224,171,107672,1,0,1:0:0:0:
189,82,107768,1,0,1:0:0:0:
224,171,107865,1,8,1:0:0:0:
88,135,107961,1,0,1:0:0:0:
224,171,108057,1,8,1:0:0:0:
224,171,108249,1,0,1:0:0:0:
53,210,108345,1,0,1:0:0:0:
224,171,108442,1,8,1:0:0:0:
224,171,108634,1,8,1:0:0:0:
224,171,108826,1,0,1:0:0:0:
314,110,108922,1,0,1:0:0:0:
224,171,109018,1,8,1:0:0:0:
314,110,109115,1,0,1:0:0:0:
55,145,109211,1,0,1:0:0:0:
224,171,109403,1,8,1:0:0:0:
85,197,109499,1,8,1:0:0:0:
224,171,109595,1,8,1:0:0:0:
224,171,109788,1,0,1:0:0:0:
224,171,109980,1,8,1:0:0:0:
224,171,110172,1,0,1:0:0:0:
209,256,110268,1,0,1:0:0:0:
224,171,110365,1,8,1:0:0:0:
224,171,110557,1,8,1:0:0:0:
224,171,110749,1,0,1:0:0:0:
74,273,110845,1,0,1:0:0:0:
224,171,110942,1,8,1:0:0:0:
189,241,111134,1,0,1:0:0:0:
224,171,111326,1,8,1:0:0:0:
224,171,111518,1,4,1:0:0:0:
224,171,111903,1,12,1:0:0:0:
224,171,112288,1,12,1:0:0:0:
224,171,112672,1,12,1:0:0:0:
219,135,113057,1,4,1:0:0:0:
219,135,113442,1,8,1:0:0:0:
268,146,113538,1,0,1:0:0:0:
219,135,113634,1,8,1:0:0:0:
219,135,113826,1,0,1:0:0:0:
219,135,114018,1,8,1:0:0:0:
219,135,114403,1,0,1:0:0:0:
325,216,114499,1,0,1:0:0:0:
219,135,114595,1,0,1:0:0:0:
219,135,114788,1,8,1:0:0:0:
219,135,114980,1,0,1:0:0:0:
219,135,115076,1,0,1:0:0:0:
219,135,115172,1,8,1:0:0:0:
219,135,115365,1,0,1:0:0:0:
219,135,115557,1,8,1:0:0:0:
342,192,115653,1,8,1:0:0:0:
219,135,115749,1,0,1:0:0:0:
219,135,115845,1,0,1:0:0:0:
219,135,115942,1,8,1:0:0:0:
219,135,116134,1,4,1:0:0:0:
219,135,116518,1,8,1:0:0:0:
295,119,116615,1,8,1:0:0:0:
219,135,116711,1,0,1:0:0:0:
219,135,116903,1,8,1:0:0:0:
335,191,117095,1,8,1:0:0:0:
219,135,117480,1,8,1:0:0:0:
335,191,117576,1,8,1:0:0:0:
219,135,117672,1,0,1:0:0:0:
219,135,117865,1,8,1:0:0:0:
219,135,118057,1,0,1:0:0:0:
219,135,118153,1,0,1:0:0:0:
60,121,118249,1,8,1:0:0:0:
219,135,118442,1,0,1:0:0:0:
219,135,118634,1,8,1:0:0:0:
219,135,118730,1,0,1:0:0:0:
219,135,118826,1,0,1:0:0:0:
313,243,118922,1,8,1:0:0:0:
219,135,119018,1,8,1:0:0:0:
219,135,119211,1,4,1:0:0:0:
219,135,119595,1,8,1:0:0:0:
307,119,119692,1,0,1:0:0:0:
219,135,119788,1,8,1:0:0:0:
219,135,119980,1,0,1:0:0:0:
219,135,120172,1,8,1:0:0:0:
219,135,120557,1,0,1:0:0:0:
348,170,120653,1,0,1:0:0:0:
219,135,120749,1,0,1:0:0:0:
219,135,120942,1,8,1:0:0:0:
219,135,121134,1,0,1:0:0:0:
219,135,121230,1,0,1:0:0:0:
219,135,121326,1,8,1:0:0:0:
92,255,121518,1,0,1:0:0:0:
219,135,121711,1,8,1:0:0:0:
219,135,121903,1,0,1:0:0:0:
219,135,121999,1,0,1:0:0:0:
219,135,122095,1,8,1:0:0:0:
219,135,122288,1,4,1:0:0:0:
219,135,122672,1,8,1:0:0:0:
390,212,122768,1,8,1:0:0:0:
219,135,122865,1,8,1:0:0:0:
164,106,123057,1,0,1:0:0:0:
164,106,123249,1,8,1:0:0:0:
164,106,123442,1,0,1:0:0:0:
301,21,123538,1,0,1:0:0:0:
167,99,123634,1,8,1:0:0:0:
219,135,123826,1,4,1:0:0:0:
140,167,124788,1,0,1:0:0:0:
219,135,124980,1,12,1:0:0:0:
219,135,125365,1,4,1:0:0:0:
219,135,125749,1,8,1:0:0:0:
219,135,125942,1,0,1:0:0:0:
219,135,126134,1,8,1:0:0:0:
305,120,126230,1,8,1:0:0:0:
219,135,126326,1,0,1:0:0:0:
58,96,126518,1,8,1:0:0:0:
219,135,126711,1,8,1:0:0:0:
78,138,126807,1,0,1:0:0:0:
219,135,126903,1,0,1:0:0:0:
219,135,127095,1,8,1:0:0:0:
219,135,127288,1,0,1:0:0:0:
134,234,127384,1,0,1:0:0:0:
219,135,127480,1,8,1:0:0:0:
170,107,127576,1,8,1:0:0:0:
219,135,127672,1,0,1:0:0:0:
219,135,127865,1,0,1:0:0:0:
219,135,128057,1,8,1:0:0:0:
219,135,128442,1,0,1:0:0:0:
219,135,128826,1,8,1:0:0:0:
219,135,129018,1,0,1:0:0:0:
376,102,129211,1,0,1:0:0:0:
219,135,129403,1,8,1:0:0:0:
305,120,129499,1,0,1:0:0:0:
129,87,129595,1,0,1:0:0:0:
219,135,129788,1,12,1:0:0:0:
219,135,130172,1,0,1:0:0:0:
219,135,130365,1,8,1:0:0:0:
97,154,130557,1,8,1:0:0:0:
97,154,130749,1,0,1:0:0:0:
219,135,130942,1,0,1:0:0:0:
219,135,131134,1,8,1:0:0:0:
219,135,131518,1,4,1:0:0:0:
196,178,131903,1,0,1:0:0:0:
219,135,132095,1,8,1:0:0:0:
219,135,132288,1,0,1:0:0:0:
171,175,132480,1,0,1:0:0:0:
171,175,132576,1,0,1:0:0:0:
219,135,132672,1,8,1:0:0:0:
219,135,132865,1,8,1:0:0:0:
219,135,133057,1,0,1:0:0:0:
219,135,133249,1,8,1:0:0:0:
146,140,133345,1,0,1:0:0:0:
219,135,133442,1,8,1:0:0:0:
219,135,133634,1,0,1:0:0:0:
219,135,133826,1,8,1:0:0:0:
219,135,133922,1,8,1:0:0:0:
219,135,134018,1,0,1:0:0:0:
72,90,134211,1,8,1:0:0:0:
219,135,134595,1,4,1:0:0:0:
219,135,134980,1,8,1:0:0:0:
219,135,135172,1,0,1:0:0:0:
239,116,135268,1,0,1:0:0:0:
80,125,135365,1,8,1:0:0:0:
80,125,135557,1,0,1:0:0:0:
80,125,135749,1,8,1:0:0:0:
80,125,135845,1,0,1:0:0:0:
80,125,135942,1,0,1:0:0:0:
219,135,136134,1,12,1:0:0:0:
219,135,136326,1,0,1:0:0:0:
124,128,136422,1,8,1:0:0:0:
147,52,136518,1,0,1:0:0:0:
219,135,136711,1,12,1:0:0:0:
219,135,136903,1,0,1:0:0:0:
199,70,136999,1,0,1:0:0:0:
199,70,137095,1,0,1:0:0:0:
219,135,137288,1,12,1:0:0:0:
219,135,137672,1,4,1:0:0:0:
303,172,137865,1,0,1:0:0:0:
303,172,137961,1,0,1:0:0:0:
219,135,138057,1,8,1:0:0:0:
62,201,138153,1,8,1:0:0:0:
219,135,138249,1,8,1:0:0:0:
219,135,138442,1,0,1:0:0:0:
92,121,138538,1,0,1:0:0:0:
219,135,138634,1,8,1:0:0:0:
142,72,138730,1,8,1:0:0:0:
340,190,138826,1,0,1:0:0:0:
219,135,139018,1,8,1:0:0:0:
341,76,139115,1,0,1:0:0:0:
219,135,139211,1,0,1:0:0:0:
219,135,139403,1,8,1:0:0:0:
219,135,139595,1,0,1:0:0:0:
219,135,139692,1,0,1:0:0:0:
219,135,139788,1,8,1:0:0:0:
219,135,139980,1,0,1:0:0:0:
219,135,140172,1,8,1:0:0:0:
338,71,140268,1,8,1:0:0:0:
219,135,140365,1,0,1:0:0:0:
219,135,140461,1,0,1:0:0:0:
219,135,140557,1,8,1:0:0:0:
219,135,140749,1,4,1:0:0:0:
219,135,141134,1,8,1:0:0:0:
311,204,141230,1,8,1:0:0:0:
219,135,141326,1,0,1:0:0:0:
219,135,141518,1,8,1:0:0:0:
153,81,141615,1,0,1:0:0:0:
219,135,141711,1,8,1:0:0:0:
357,161,141903,1,0,1:0:0:0:
219,135,142095,1,8,1:0:0:0:
338,71,142192,1,8,1:0:0:0:
219,135,142288,1,0,1:0:0:0:
136,126,142384,1,0,1:0:0:0:
219,135,142480,1,8,1:0:0:0:
219,135,142672,1,0,1:0:0:0:
219,135,142768,1,0,1:0:0:0:
60,121,142865,1,8,1:0:0:0:
219,135,143057,1,0,1:0:0:0:
149,52,143153,1,0,1:0:0:0:
219,135,143249,1,8,1:0:0:0:
219,135,143345,1,0,1:0:0:0:
219,135,143442,1,0,1:0:0:0:
219,135,143634,1,8,1:0:0:0:
219,135,143826,1,4,1:0:0:0:
219,135,144211,1,0,1:0:0:0:
357,161,144307,1,0,1:0:0:0:
219,135,144403,1,8,1:0:0:0:
219,135,144595,1,0,1:0:0:0:
219,135,144788,1,8,1:0:0:0:
357,161,144980,1,0,1:0:0:0:
219,135,145172,1,8,1:0:0:0:
140,134,145365,1,8,1:0:0:0:
140,134,145461,1,8,1:0:0:0:
219,135,145557,1,0,1:0:0:0:
219,135,145653,1,0,1:0:0:0:
219,135,145749,1,8,1:0:0:0:
219,135,145942,1,8,1:0:0:0:
219,135,146038,1,0,1:0:0:0:
92,255,146134,1,8,1:0:0:0:
219,135,146326,1,8,1:0:0:0:
219,135,146518,1,0,1:0:0:0:
219,135,146711,1,8,1:0:0:0:
51,128,146903,1,0,1:0:0:0:
369,87,146999,1,0,1:0:0:0:
369,87,147095,1,8,1:0:0:0:
369,87,147192,1,8,1:0:0:0:
218,33,147288,1,0,1:0:0:0:
11,102,147384,1,0,1:0:0:0:
219,135,147480,1,8,1:0:0:0:
84,225,147576,1,8,1:0:0:0:
164,106,147672,1,0,1:0:0:0:
359,241,147768,1,8,1:0:0:0:
164,106,147865,1,8,1:0:0:0:
337,74,147961,1,8,1:0:0:0:
164,106,148057,1,0,1:0:0:0:
165,201,148153,1,8,1:0:0:0:
167,99,148249,1,0,1:0:0:0:
219,135,148442,1,8,1:0:0:0:
242,142,148538,1,0,1:0:0:0:
242,142,148634,1,0,1:0:0:0:
242,142,148730,1,8,1:0:0:0:
293,196,148826,1,8,1:0:0:0:
242,142,148922,1,0,1:0:0:0:
242,142,149018,1,8,1:0:0:0:
331,258,149115,1,0,1:0:0:0:
293,196,149211,1,0,1:0:0:0:
242,142,149307,1,8,1:0:0:0:
140,167,149403,1,8,1:0:0:0:
282,99,149499,1,0,1:0:0:0:
219,135,149595,1,8,1:0:0:0:
244,161,149980,1,12,1:0:0:0:
200,123,150172,1,0,1:0:0:0:
200,123,150268,1,0,1:0:0:0:
244,161,150365,1,8,1:0:0:0:
307,108,150557,1,0,1:0:0:0:
244,161,150749,1,8,1:0:0:0:
239,38,150845,1,0,1:0:0:0:
244,161,150942,1,8,1:0:0:0:
60,119,151038,1,8,1:0:0:0:
112,134,151134,1,0,1:0:0:0:
244,161,151326,1,8,1:0:0:0:
182,99,151422,1,8,1:0:0:0:
182,99,151518,1,0,1:0:0:0:
244,161,151711,1,8,1:0:0:0:
142,175,151903,1,0,1:0:0:0:
244,161,152095,1,8,1:0:0:0:
138,117,152192,1,0,1:0:0:0:
244,161,152288,1,8,1:0:0:0:
194,212,152672,1,4,1:0:0:0:
244,161,153057,1,12,1:0:0:0:
200,123,153249,1,0,1:0:0:0:
200,123,153345,1,0,1:0:0:0:
244,161,153442,1,8,1:0:0:0:
307,108,153634,1,0,1:0:0:0:
244,161,153826,1,8,1:0:0:0:
239,38,153922,1,0,1:0:0:0:
244,161,154018,1,8,1:0:0:0:
112,134,154211,1,0,1:0:0:0:
244,161,154403,1,8,1:0:0:0:
182,99,154499,1,8,1:0:0:0:
182,99,154595,1,0,1:0:0:0:
244,161,154788,1,8,1:0:0:0:
142,175,154980,1,0,1:0:0:0:
53,87,155076,1,0,1:0:0:0:
244,161,155172,1,8,1:0:0:0:
138,117,155268,1,0,1:0:0:0:
244,161,155365,1,8,1:0:0:0:
140,152,155749,1,4,1:0:0:0:
244,161,156134,1,12,1:0:0:0:
200,123,156326,1,0,1:0:0:0:
200,123,156422,1,0,1:0:0:0:
244,161,156518,1,8,1:0:0:0:
307,108,156711,1,0,1:0:0:0:
244,161,156903,1,8,1:0:0:0:
239,38,156999,1,0,1:0:0:0:
244,161,157095,1,8,1:0:0:0:
112,134,157288,1,0,1:0:0:0:
457,120,157384,1,0,1:0:0:0:
244,161,157480,1,8,1:0:0:0:
182,99,157576,1,8,1:0:0:0:
182,99,157672,1,0,1:0:0:0:
244,161,157865,1,8,1:0:0:0:
142,175,158057,1,0,1:0:0:0:
244,161,158249,1,8,1:0:0:0:
138,117,158345,1,0,1:0:0:0:
244,161,158442,1,8,1:0:0:0:
194,212,158826,1,4,1:0:0:0:
140,152,159211,1,8,1:0:0:0:
149,103,159307,1,0,1:0:0:0:
305,105,159403,1,0,1:0:0:0:
85,101,159499,1,0,1:0:0:0:
140,152,159595,1,8,1:0:0:0:
305,105,159788,1,0,1:0:0:0:
149,103,159884,1,0,1:0:0:0:
140,152,159980,1,8,1:0:0:0:
140,152,160172,1,8,1:0:0:0:
234,106,160365,1,0,1:0:0:0:
140,152,160557,1,12,1:0:0:0:
140,152,160942,1,8,1:0:0:0:
140,152,161326,1,8,1:0:0:0:
140,152,161518,1,8,1:0:0:0:
104,94,161711,1,0,1:0:0:0:
282,154,161903,1,12,1:0:0:0:
282,154,162288,1,4,1:0:0:0:
282,154,162672,1,0,1:0:0:0:
282,154,163057,1,0,1:0:0:0:
89,134,163249,1,8,1:0:0:0:
282,154,163442,1,0,1:0:0:0:
89,134,163634,1,8,1:0:0:0:
282,154,163826,1,0,1:0:0:0:
282,154,164211,1,0,1:0:0:0:
282,154,164595,1,0,1:0:0:0:
264,85,164980,1,12,1:0:0:0:
236,214,165365,1,12,1:0:0:0:
236,214,165749,1,8,1:0:0:0:
236,214,166134,1,8,1:0:0:0:
20,111,166326,1,0,1:0:0:0:
236,214,166518,1,8,1:0:0:0:
20,111,166711,1,0,1:0:0:0:
236,214,166903,1,8,1:0:0:0:
236,214,167288,1,8,1:0:0:0:
47,84,167480,1,0,1:0:0:0:
236,214,167672,1,12,1:0:0:0:
183,112,167865,1,12,1:0:0:0:
236,214,168057,1,12,1:0:0:0:
236,214,168442,1,4,1:0:0:0:
236,214,168826,1,8,1:0:0:0:
236,214,169211,1,0,1:0:0:0:
183,112,169403,1,8,1:0:0:0:
236,214,169595,1,0,1:0:0:0:
183,112,169788,1,8,1:0:0:0:
236,214,169980,1,0,1:0:0:0:
236,214,170365,1,0,1:0:0:0:
236,214,170749,1,4,1:0:0:0:
183,111,170942,1,0,1:0:0:0:
183,111,171038,1,8,1:0:0:0:
208,42,171134,1,8,1:0:0:0:
115,186,171326,1,8,1:0:0:0:
236,214,171518,1,4,1:0:0:0:
236,214,172095,1,0,1:0:0:0:
236,214,172288,1,8,1:0:0:0:
236,214,172672,1,8,1:0:0:0:
236,214,173057,1,0,1:0:0:0:
236,214,173442,1,0,1:0:0:0:
71,146,173634,1,8,1:0:0:0:
236,214,173826,1,0,1:0:0:0:
236,214,174211,1,0,1:0:0:0:
236,214,174595,1,0,1:0:0:0:
105,116,174692,1,8,1:0:0:0:
111,129,174884,1,8,1:0:0:0:
236,214,174980,1,0,1:0:0:0:
178,67,175076,1,0,1:0:0:0:
178,67,175172,1,8,1:0:0:0:
178,67,175268,1,8,1:0:0:0:
236,214,175365,1,0,1:0:0:0:
178,67,175461,1,8,1:0:0:0:
236,214,175653,1,8,1:0:0:0:
236,214,175749,1,0,1:0:0:0:
236,214,175845,1,0,1:0:0:0:
236,214,175942,1,0,1:0:0:0:
236,214,176038,1,8,1:0:0:0:
121,150,176134,1,0,1:0:0:0:
131,148,176326,1,8,1:0:0:0:
131,148,176422,1,8,1:0:0:0:
121,150,176518,1,0,1:0:0:0:
131,148,176711,1,0,1:0:0:0:
131,148,176807,1,0,1:0:0:0:
121,150,176903,1,8,1:0:0:0:
131,148,177095,1,0,1:0:0:0:
236,214,177288,1,12,1:0:0:0:
236,214,177672,1,0,1:0:0:0:
46,110,177768,1,0,1:0:0:0:
236,214,177961,1,8,1:0:0:0:
236,214,178057,1,0,1:0:0:0:
116,134,178153,1,0,1:0:0:0:
236,214,178249,1,8,1:0:0:0:
116,134,178345,1,8,1:0:0:0:
236,214,178442,1,0,1:0:0:0:
119,130,178538,1,0,1:0:0:0:
236,214,178634,1,8,1:0:0:0:
119,130,178730,1,0,1:0:0:0:
119,130,178826,1,0,1:0:0:0:
119,130,178922,1,8,1:0:0:0:
236,214,179115,1,8,1:0:0:0:
236,214,179211,1,0,1:0:0:0:
236,214,179403,1,0,1:0:0:0:
131,148,179499,1,0,1:0:0:0:
236,214,179595,1,8,1:0:0:0:
236,214,179788,1,0,1:0:0:0:
236,214,179980,1,8,1:0:0:0:
236,214,180365,1,12,1:0:0:0:
236,214,180749,1,0,1:0:0:0:
259,179,180845,1,0,1:0:0:0:
236,214,180942,1,8,1:0:0:0:
151,155,181038,1,8,1:0:0:0:
236,214,181134,1,0,1:0:0:0:
236,214,181326,1,8,1:0:0:0:
236,214,181518,1,0,1:0:0:0:
194,90,181615,1,8,1:0:0:0:
198,87,181711,1,8,1:0:0:0:
200,65,181807,1,8,1:0:0:0:
236,214,181903,1,0,1:0:0:0:
236,214,182095,1,0,1:0:0:0:
236,214,182288,1,8,1:0:0:0:
141,149,182480,1,0,1:0:0:0:
141,149,182576,1,0,1:0:0:0:
236,214,182672,1,8,1:0:0:0:
240,116,182768,1,0,1:0:0:0:
141,149,182865,1,0,1:0:0:0:
368,105,182961,1,0,1:0:0:0:
236,214,183057,1,8,1:0:0:0:
66,151,183249,1,0,1:0:0:0:
236,214,183442,1,12,1:0:0:0:
236,214,183826,1,4,1:0:0:0:
392,144,184018,1,8,1:0:0:0:
131,159,184211,1,0,1:0:0:0:
392,144,184403,1,8,1:0:0:0:
392,144,184499,1,8,1:0:0:0:
174,161,184595,1,0,1:0:0:0:
174,161,184788,1,8,1:0:0:0:
174,161,184980,1,0,1:0:0:0:
219,72,185076,1,0,1:0:0:0:
174,161,185172,1,8,1:0:0:0:
445,159,185268,1,0,1:0:0:0:
131,159,185365,1,0,1:0:0:0:
311,149,185557,1,8,1:0:0:0:
304,107,185653,1,8,1:0:0:0:
311,149,185749,1,0,1:0:0:0:
311,149,185942,1,0,1:0:0:0:
311,149,186134,1,12,1:0:0:0:
311,149,186518,1,12,1:0:0:0:
190,154,186903,1,0,1:0:0:0:
190,154,187288,1,0,1:0:0:0:
190,154,187672,1,8,1:0:0:0:
190,154,188057,1,8,1:0:0:0:
313,203,188442,1,0,1:0:0:0:
190,154,189018,1,8,1:0:0:0:
190,154,189211,1,0,1:0:0:0:
313,203,189980,1,0,1:0:0:0:
190,154,190365,1,8,1:0:0:0:
190,154,190749,1,8,1:0:0:0:
190,154,191134,1,8,1:0:0:0:
313,203,191518,1,0,1:0:0:0:
190,154,191903,1,0,1:0:0:0:
313,203,192288,1,8,1:0:0:0:
313,203,193057,1,8,1:0:0:0:
190,154,193442,1,0,1:0:0:0:
190,154,193826,1,8,1:0:0:0:
190,154,194211,1,8,1:0:0:0:
313,203,194595,1,8,1:0:0:0:
190,154,194980,1,0,1:0:0:0:
190,154,195365,1,0,1:0:0:0:
190,154,195749,1,8,1:0:0:0:
313,203,196134,1,0,1:0:0:0:
75,94,196711,1,0,1:0:0:0:
190,154,196903,1,8,1:0:0:0:
342,70,197480,1,8,1:0:0:0:
313,203,197672,1,8,1:0:0:0:
98,133,198442,1,8,1:0:0:0:
190,154,198826,1,8,1:0:0:0:
332,270,199211,1,0,1:0:0:0:
332,270,199403,1,0,1:0:0:0:
332,270,199595,1,0,1:0:0:0:
332,270,199980,1,8,1:0:0:0:
332,270,200365,1,0,1:0:0:0:
332,270,200557,1,8,1:0:0:0:
332,270,200749,1,0,1:0:0:0:
332,270,201134,1,0,1:0:0:0:
332,270,201518,1,8,1:0:0:0:
332,270,201903,1,8,1:0:0:0:
332,270,202095,1,8,1:0:0:0:
332,270,202288,1,0,1:0:0:0:
332,270,202672,1,0,1:0:0:0:
332,270,203057,1,8,1:0:0:0:
332,270,203442,1,0,1:0:0:0:
332,270,203826,1,0,1:0:0:0:
332,270,204211,1,0,1:0:0:0:
332,270,204595,1,8,1:0:0:0:
35,172,204980,1,8,1:0:0:0:
35,172,205172,1,8,1:0:0:0:
35,172,205365,1,4,1:0:0:0:
96,109,205557,1,0,1:0:0:0:
158,87,205749,1,8,1:0:0:0:
294,92,205845,1,0,1:0:0:0:
55,37,205942,1,0,1:0:0:0:
55,37,206134,1,8,1:0:0:0:
55,37,206518,1,0,1:0:0:0:
55,37,206711,1,8,1:0:0:0:
159,87,206903,1,0,1:0:0:0:
55,37,207095,1,8,1:0:0:0:
294,92,207192,1,8,1:0:0:0:
322,227,207288,1,0,1:0:0:0:
415,50,207480,1,0,1:0:0:0:
55,37,207672,1,8,1:0:0:0:
162,150,208057,1,8,1:0:0:0:
178,147,208442,1,4,1:0:0:0:
162,72,208634,1,0,1:0:0:0:
298,100,208730,1,8,1:0:0:0:
273,98,208826,1,0,1:0:0:0:
298,100,209018,1,8,1:0:0:0:
273,98,209211,1,0,1:0:0:0:
173,67,209307,1,0,1:0:0:0:
273,98,209403,1,8,1:0:0:0:
102,122,209499,1,8,1:0:0:0:
273,98,209595,1,0,1:0:0:0:
273,98,209788,1,12,1:0:0:0:
256,192,209980,8,0,211326,1:0:0:0:
436,138,211518,5,4,1:0:0:0:
436,138,213057,1,4,1:0:0:0:
167,160,214018,1,0,1:0:0:0:
47,130,214211,1,12,1:0:0:0:
224,171,214595,1,4,1:0:0:0:
147,170,214787,1,8,1:0:0:0:
147,170,214883,1,0,1:0:0:0:
224,171,214979,1,0,1:0:0:0:
224,171,215171,1,8,1:0:0:0:
224,171,215364,1,0,1:0:0:0:
19,119,215460,1,8,1:0:0:0:
224,171,215556,1,8,1:0:0:0:
224,171,215748,1,0,1:0:0:0:
224,171,215941,1,8,1:0:0:0:
63,188,216037,1,8,1:0:0:0:
224,171,216133,1,0,1:0:0:0:
87,163,216229,1,0,1:0:0:0:
224,171,216325,1,8,1:0:0:0:
224,171,216518,1,0,1:0:0:0:
34,150,216614,1,0,1:0:0:0:
224,171,216710,1,8,1:0:0:0:
224,171,216902,1,0,1:0:0:0:
86,172,216998,1,0,1:0:0:0:
224,171,217095,1,0,1:0:0:0:
224,171,217287,1,8,1:0:0:0:
224,171,217479,1,0,1:0:0:0:
224,171,217671,1,8,1:0:0:0:
43,150,217768,1,0,1:0:0:0:
224,171,217864,1,0,1:0:0:0:
93,180,217960,1,0,1:0:0:0:
224,171,218056,1,8,1:0:0:0:
224,171,218248,1,0,1:0:0:0:
224,171,218441,1,8,1:0:0:0:
27,137,218537,1,8,1:0:0:0:
224,171,218633,1,0,1:0:0:0:
136,178,218729,1,0,1:0:0:0:
224,171,218825,1,8,1:0:0:0:
224,171,219018,1,8,1:0:0:0:
224,171,219210,1,0,1:0:0:0:
213,43,219306,1,0,1:0:0:0:
224,171,219402,1,8,1:0:0:0:
224,171,219595,1,0,1:0:0:0:
224,171,219787,1,8,1:0:0:0:
224,171,219979,1,0,1:0:0:0:
191,61,220075,1,0,1:0:0:0:
224,171,220171,1,8,1:0:0:0:
28,122,220268,1,0,1:0:0:0:
224,171,220364,1,8,1:0:0:0:
89,107,220460,1,8,1:0:0:0:
224,171,220556,1,0,1:0:0:0:
224,171,220748,1,0,1:0:0:0:
224,171,220941,1,0,1:0:0:0:
144,90,221037,1,0,1:0:0:0:
224,171,221133,1,8,1:0:0:0:
224,171,221325,1,8,1:0:0:0:
224,171,221518,1,0,1:0:0:0:
64,128,221614,1,0,1:0:0:0:
224,171,221710,1,8,1:0:0:0:
91,187,221806,1,8,1:0:0:0:
224,171,221902,1,0,1:0:0:0:
224,171,222095,1,8,1:0:0:0:
267,114,222191,1,0,1:0:0:0:
224,171,222287,1,0,1:0:0:0:
218,92,222383,1,0,1:0:0:0:
224,171,222479,1,8,1:0:0:0:
224,171,222671,1,0,1:0:0:0:
152,124,222768,1,0,1:0:0:0:
224,171,222864,1,8,1:0:0:0:
224,171,223056,1,0,1:0:0:0:
224,171,223248,1,8,1:0:0:0:
71,143,223345,1,8,1:0:0:0:
224,171,223441,1,8,1:0:0:0:
224,171,223633,1,0,1:0:0:0:
224,171,223825,1,8,1:0:0:0:
224,171,224018,1,0,1:0:0:0:
161,166,224114,1,0,1:0:0:0:
224,171,224210,1,8,1:0:0:0:
176,97,224306,1,0,1:0:0:0:
224,171,224402,1,8,1:0:0:0:
224,171,224595,1,0,1:0:0:0:
214,56,224691,1,0,1:0:0:0:
224,171,224787,1,8,1:0:0:0:
311,318,224979,1,0,1:0:0:0:
224,171,225171,1,8,1:0:0:0:
118,101,225268,1,8,1:0:0:0:
224,171,225364,1,0,1:0:0:0:
224,171,225556,1,0,1:0:0:0:
224,171,225748,1,8,1:0:0:0:
224,171,225941,1,8,1:0:0:0:
187,38,226037,1,0,1:0:0:0:
224,171,226133,1,8,1:0:0:0:
124,199,226229,1,8,1:0:0:0:
224,171,226325,1,0,1:0:0:0:
224,171,226518,1,8,1:0:0:0:
224,171,226902,1,4,1:0:0:0:
112,70,227095,1,0,1:0:0:0:
112,70,227191,1,8,1:0:0:0:
224,171,227287,1,0,1:0:0:0:
213,53,227383,1,0,1:0:0:0:
224,171,227479,1,8,1:0:0:0:
224,171,227671,1,0,1:0:0:0:
224,171,227864,1,8,1:0:0:0:
224,171,227960,1,8,1:0:0:0:
224,171,228056,1,0,1:0:0:0:
213,113,228152,1,0,1:0:0:0:
147,101,228248,1,8,1:0:0:0:
157,79,228441,1,0,1:0:0:0:
224,171,228633,1,8,1:0:0:0:
262,43,228729,1,8,1:0:0:0:
224,171,228825,1,8,1:0:0:0:
224,171,229018,1,0,1:0:0:0:
224,171,229210,1,0,1:0:0:0:
64,117,229306,1,0,1:0:0:0:
224,171,229402,1,8,1:0:0:0:
224,171,229595,1,8,1:0:0:0:
224,171,229787,1,0,1:0:0:0:
224,171,229979,1,8,1:0:0:0:
19,159,230075,1,8,1:0:0:0:
224,171,230171,1,0,1:0:0:0:
312,101,230268,1,0,1:0:0:0:
224,171,230364,1,8,1:0:0:0:
224,171,230556,1,0,1:0:0:0:
224,171,230748,1,8,1:0:0:0:
101,106,230845,1,0,1:0:0:0:
224,171,230941,1,0,1:0:0:0:
312,101,231037,1,0,1:0:0:0:
224,171,231133,1,8,1:0:0:0:
224,171,231325,1,8,1:0:0:0:
224,171,231518,1,0,1:0:0:0:
101,152,231614,1,0,1:0:0:0:
224,171,231710,1,8,1:0:0:0:
214,52,231806,1,0,1:0:0:0:
224,171,231902,1,0,1:0:0:0:
224,171,232095,1,8,1:0:0:0:
224,171,232287,1,0,1:0:0:0:
224,171,232479,1,8,1:0:0:0:
78,159,232575,1,0,1:0:0:0:
224,171,232671,1,8,1:0:0:0:
160,37,232768,1,8,1:0:0:0:
224,171,232864,1,0,1:0:0:0:
224,171,233056,1,0,1:0:0:0:
224,171,233248,1,8,1:0:0:0:
41,140,233345,1,0,1:0:0:0:
224,171,233441,1,0,1:0:0:0:
137,107,233537,1,0,1:0:0:0:
224,171,233633,1,8,1:0:0:0:
224,171,233825,1,0,1:0:0:0:
189,82,233921,1,0,1:0:0:0:
224,171,234018,1,8,1:0:0:0:
88,135,234114,1,0,1:0:0:0:
224,171,234210,1,8,1:0:0:0:
224,171,234402,1,0,1:0:0:0:
53,210,234498,1,0,1:0:0:0:
224,171,234595,1,8,1:0:0:0:
224,171,234787,1,8,1:0:0:0:
224,171,234979,1,0,1:0:0:0:
211,69,235075,1,0,1:0:0:0:
224,171,235171,1,8,1:0:0:0:
211,69,235268,1,8,1:0:0:0:
55,145,235364,1,0,1:0:0:0:
224,171,235556,1,8,1:0:0:0:
85,197,235652,1,8,1:0:0:0:
224,171,235748,1,8,1:0:0:0:
224,171,235941,1,0,1:0:0:0:
224,171,236133,1,8,1:0:0:0:
224,171,236325,1,0,1:0:0:0:
209,256,236421,1,0,1:0:0:0:
224,171,236518,1,8,1:0:0:0:
4,83,236614,1,8,1:0:0:0:
224,171,236710,1,0,1:0:0:0:
224,171,236902,1,8,1:0:0:0:
217,65,236998,1,0,1:0:0:0:
224,171,237095,1,8,1:0:0:0:
66,80,237191,1,8,1:0:0:0:
102,239,237287,1,0,1:0:0:0:
224,171,237479,1,8,1:0:0:0:
145,77,237575,1,8,1:0:0:0:
224,171,237671,1,0,1:0:0:0:
193,113,237864,1,0,1:0:0:0:
224,171,238056,1,8,1:0:0:0:
224,171,238441,1,8,1:0:0:0:
224,171,238825,1,8,1:0:0:0:
204,147,239210,1,4,1:0:0:0:
80,251,239402,1,0,1:0:0:0:
204,147,239595,1,8,1:0:0:0:
204,147,239979,1,8,1:0:0:0:
204,147,240364,1,8,1:0:0:0:
204,147,240748,1,4,1:0:0:0:
80,251,240941,1,0,1:0:0:0:
204,147,241133,1,8,1:0:0:0:
204,147,241518,1,8,1:0:0:0:
204,147,241902,1,8,1:0:0:0:
204,147,242287,1,4,1:0:0:0:
219,135,244594,1,4,1:0:0:0:
219,135,244978,1,8,1:0:0:0:
56,104,245074,1,0,1:0:0:0:
219,135,245170,1,8,1:0:0:0:
219,135,245363,1,0,1:0:0:0:
219,135,245555,1,8,1:0:0:0:
196,74,245651,1,8,1:0:0:0:
364,234,245747,1,8,1:0:0:0:
219,135,245940,1,0,1:0:0:0:
247,182,246036,1,0,1:0:0:0:
219,135,246132,1,0,1:0:0:0:
219,135,246324,1,8,1:0:0:0:
219,135,246517,1,0,1:0:0:0:
219,135,246613,1,0,1:0:0:0:
219,135,246709,1,8,1:0:0:0:
219,135,246901,1,0,1:0:0:0:
219,135,247094,1,8,1:0:0:0:
160,278,247190,1,8,1:0:0:0:
219,135,247286,1,0,1:0:0:0:
219,135,247382,1,0,1:0:0:0:
219,135,247478,1,8,1:0:0:0:
219,135,247670,1,4,1:0:0:0:
219,135,248055,1,8,1:0:0:0:
130,50,248151,1,8,1:0:0:0:
219,135,248247,1,0,1:0:0:0:
219,135,248440,1,8,1:0:0:0:
219,135,248632,1,8,1:0:0:0:
281,67,248728,1,0,1:0:0:0:
247,182,248824,1,0,1:0:0:0:
219,135,249017,1,8,1:0:0:0:
162,123,249113,1,8,1:0:0:0:
219,135,249209,1,0,1:0:0:0:
219,135,249401,1,8,1:0:0:0:
219,135,249594,1,0,1:0:0:0:
219,135,249690,1,0,1:0:0:0:
60,121,249786,1,8,1:0:0:0:
219,135,249978,1,0,1:0:0:0:
219,135,250170,1,8,1:0:0:0:
219,135,250267,1,0,1:0:0:0:
219,135,250363,1,0,1:0:0:0:
159,256,250459,1,8,1:0:0:0:
219,135,250555,1,8,1:0:0:0:
219,135,250747,1,4,1:0:0:0:
219,135,251132,1,8,1:0:0:0:
56,104,251228,1,0,1:0:0:0:
219,135,251324,1,8,1:0:0:0:
219,135,251517,1,0,1:0:0:0:
219,135,251709,1,8,1:0:0:0:
281,73,251805,1,8,1:0:0:0:
184,134,251901,1,8,1:0:0:0:
219,135,252094,1,0,1:0:0:0:
234,99,252190,1,0,1:0:0:0:
219,135,252286,1,0,1:0:0:0:
219,135,252478,1,8,1:0:0:0:
219,135,252670,1,0,1:0:0:0:
219,135,252767,1,0,1:0:0:0:
219,135,252863,1,8,1:0:0:0:
92,255,253055,1,0,1:0:0:0:
219,135,253247,1,8,1:0:0:0:
211,244,253344,1,8,1:0:0:0:
219,135,253440,1,0,1:0:0:0:
219,135,253536,1,0,1:0:0:0:
219,135,253632,1,8,1:0:0:0:
219,135,253824,1,4,1:0:0:0:
219,135,254209,1,8,1:0:0:0:
219,135,254305,1,8,1:0:0:0:
280,70,254401,1,8,1:0:0:0:
165,201,254497,1,8,1:0:0:0:
164,106,254594,1,0,1:0:0:0:
280,70,254690,1,0,1:0:0:0:
164,106,254786,1,8,1:0:0:0:
164,106,254978,1,0,1:0:0:0:
167,99,255170,1,8,1:0:0:0:
351,92,255267,1,8,1:0:0:0:
219,135,255363,1,0,1:0:0:0:
151,194,255555,1,0,1:0:0:0:
219,135,255747,1,12,1:0:0:0:
219,135,256132,1,0,1:0:0:0:
81,89,256228,1,0,1:0:0:0:
157,84,256324,1,0,1:0:0:0:
219,135,256517,1,12,1:0:0:0:
219,135,256901,1,4,1:0:0:0:
219,135,257286,1,8,1:0:0:0:
56,104,257382,1,0,1:0:0:0:
219,135,257478,1,8,1:0:0:0:
219,135,257670,1,0,1:0:0:0:
128,238,257767,1,0,1:0:0:0:
219,135,257863,1,8,1:0:0:0:
278,62,257959,1,0,1:0:0:0:
342,196,258055,1,8,1:0:0:0:
219,135,258247,1,0,1:0:0:0:
291,175,258344,1,0,1:0:0:0:
219,135,258440,1,0,1:0:0:0:
219,135,258632,1,8,1:0:0:0:
219,135,258824,1,0,1:0:0:0:
219,135,258920,1,0,1:0:0:0:
219,135,259017,1,8,1:0:0:0:
93,63,259113,1,0,1:0:0:0:
219,135,259209,1,0,1:0:0:0:
219,135,259401,1,8,1:0:0:0:
353,112,259497,1,8,1:0:0:0:
219,135,259594,1,0,1:0:0:0:
219,135,259690,1,0,1:0:0:0:
219,135,259786,1,8,1:0:0:0:
219,135,259978,1,4,1:0:0:0:
219,135,260363,1,8,1:0:0:0:
130,50,260459,1,8,1:0:0:0:
219,135,260555,1,0,1:0:0:0:
219,135,260747,1,8,1:0:0:0:
251,249,260844,1,0,1:0:0:0:
219,135,260940,1,8,1:0:0:0:
299,45,261036,1,8,1:0:0:0:
38,239,261132,1,0,1:0:0:0:
219,135,261324,1,8,1:0:0:0:
291,175,261420,1,0,1:0:0:0:
219,135,261517,1,0,1:0:0:0:
219,135,261709,1,8,1:0:0:0:
219,135,261901,1,0,1:0:0:0:
219,135,261997,1,0,1:0:0:0:
60,121,262094,1,8,1:0:0:0:
219,135,262286,1,0,1:0:0:0:
219,135,262478,1,8,1:0:0:0:
219,135,262574,1,0,1:0:0:0:
219,135,262670,1,0,1:0:0:0:
184,44,262767,1,0,1:0:0:0:
351,92,262863,1,8,1:0:0:0:
219,135,263055,1,4,1:0:0:0:
219,135,263440,1,8,1:0:0:0:
56,104,263536,1,0,1:0:0:0:
219,135,263632,1,8,1:0:0:0:
219,135,263824,1,0,1:0:0:0:
98,249,263920,1,0,1:0:0:0:
219,135,264017,1,8,1:0:0:0:
263,65,264113,1,0,1:0:0:0:
98,249,264209,1,0,1:0:0:0:
219,135,264401,1,0,1:0:0:0:
291,175,264497,1,0,1:0:0:0:
219,135,264594,1,0,1:0:0:0:
219,135,264786,1,8,1:0:0:0:
219,135,264978,1,0,1:0:0:0:
219,135,265074,1,0,1:0:0:0:
219,135,265170,1,8,1:0:0:0:
62,55,265267,1,8,1:0:0:0:
92,255,265363,1,0,1:0:0:0:
219,135,265555,1,8,1:0:0:0:
191,78,265651,1,8,1:0:0:0:
219,135,265747,1,0,1:0:0:0:
219,135,265844,1,0,1:0:0:0:
219,135,265940,1,8,1:0:0:0:
219,135,266132,1,4,1:0:0:0:
219,135,266517,1,8,1:0:0:0:
219,135,266709,1,8,1:0:0:0:
291,170,266805,1,8,1:0:0:0:
164,106,266901,1,0,1:0:0:0:
164,106,267094,1,0,1:0:0:0:
291,170,267190,1,0,1:0:0:0:
164,106,267286,1,8,1:0:0:0:
167,99,267478,1,8,1:0:0:0:
219,135,267670,1,4,1:0:0:0:
213,156,269209,1,8,1:0:0:0:
