osu file format v14

[General]
AudioFilename: audio.mp3
AudioLeadIn: 0
PreviewTime: 88419
Countdown: 0
SampleSet: Soft
StackLeniency: 0.4
Mode: 0
LetterboxInBreaks: 0
WidescreenStoryboard: 0

[Editor]
Bookmarks: 775,13082,25390,37698,50005,62313,74621,88467,113082,125390,137698,150005,162313,174621,186928,199236,211544,214621,244621,256928,267697
DistanceSpacing: 1
BeatDivisor: 4
GridSize: 32
TimelineZoom: 1.7

[Metadata]
Title:#Aquairo Palette
TitleUnicode:#あくあ色ぱれっと
Artist:Minato Aqua
ArtistUnicode:湊あくあ
Creator:Amateurre
Version:Tenshi
Source:
Tags:japanese pop hololive ホロライブ sololive concert original 2nd anniversary super dream jpop vtuber virtual youtuber idol xidorn bongo
BeatmapID:2581182
BeatmapSetID:1241559

[Difficulty]
HPDrainRate:5
CircleSize:4
OverallDifficulty:7.8
ApproachRate:8.6
SliderMultiplier:1.6
SliderTickRate:1

[Events]
//Background and Video events
0,0,"bg.jpg",0,0
//Break Periods
//Storyboard Layer 0 (Background)
//Storyboard Layer 1 (Fail)
//Storyboard Layer 2 (Pass)
//Storyboard Layer 3 (Foreground)
//Storyboard Layer 4 (Overlay)
//Storyboard Sound Samples

[TimingPoints]
775,384.615384615385,4,2,1,50,1,0
775,-250,4,2,1,50,0,0
12217,-250,4,2,1,5,0,0
12313,-250,4,2,1,50,0,0
13082,-142.857142857143,4,2,1,60,0,0
16063,-142.857142857143,4,2,1,5,0,0
16159,-142.857142857143,4,2,1,60,0,0
19139,-142.857142857143,4,2,1,5,0,0
19236,-142.857142857143,4,2,1,60,0,0
23755,-142.857142857143,4,2,1,5,0,0
23851,-142.857142857143,4,2,1,60,0,0
25390,-90.9090909090909,4,2,1,70,0,0
25678,-90.9090909090909,4,2,1,5,0,0
25775,-90.9090909090909,4,2,1,70,0,0
28755,-90.9090909090909,4,2,1,5,0,0
28851,-90.9090909090909,4,2,1,70,0,0
31832,-90.9090909090909,4,2,1,5,0,0
31928,-90.9090909090909,4,2,1,70,0,0
34909,-90.9090909090909,4,2,1,5,0,0
35005,-90.9090909090909,4,2,1,70,0,0
37601,-90.9090909090909,4,2,1,5,0,0
37698,-90.9090909090909,4,2,1,70,0,0
37986,-90.9090909090909,4,2,1,5,0,0
38083,-90.9090909090909,4,2,1,70,0,0
41063,-90.9090909090909,4,2,1,5,0,0
41159,-90.9090909090909,4,2,1,70,0,0
44139,-90.9090909090909,4,2,1,5,0,0
44236,-90.9090909090909,4,2,1,70,0,0
47216,-90.9090909090909,4,2,1,5,0,0
47313,-90.9090909090909,4,2,1,70,0,0
49909,-90.9090909090909,4,2,1,5,0,0
50005,-142.857142857143,4,2,1,60,0,0
52986,-142.857142857143,4,2,1,5,0,0
53082,-142.857142857143,4,2,1,60,0,0
61159,-111.111111111111,4,2,1,60,0,0
62313,-111.111111111111,4,2,1,65,0,0
74621,-111.111111111111,4,2,1,60,0,0
75390,-200,4,2,1,60,0,0
76159,-111.111111111111,4,2,1,60,0,0
76928,-200,4,2,1,60,0,0
77698,-111.111111111111,4,2,1,60,0,0
77986,-111.111111111111,4,2,1,5,0,0
78082,-111.111111111111,4,2,1,60,0,0
78370,-111.111111111111,4,2,1,5,0,0
78467,-200,4,2,1,60,0,0
79236,-111.111111111111,4,2,1,60,0,0
80775,-111.111111111111,4,2,1,65,0,0
83755,-111.111111111111,4,2,1,5,0,0
83851,-111.111111111111,4,2,1,65,0,0
88467,-90.9090909090908,4,2,1,75,0,1
100678,-90.9090909090908,4,2,1,5,0,1
100775,-90.9090909090908,4,2,1,75,0,1
106255,-90.9090909090908,4,2,1,5,0,1
106351,-90.9090909090908,4,2,1,75,0,1
109909,-90.9090909090908,4,2,1,5,0,1
110005,-90.9090909090908,4,2,1,75,0,1
111832,-90.9090909090908,4,2,1,5,0,1
111928,-90.9090909090908,4,2,1,75,0,1
112216,-90.9090909090908,4,2,1,5,0,1
112313,-90.9090909090908,4,2,1,75,0,1
112601,-90.9090909090908,4,2,1,5,0,1
112698,-90.9090909090908,4,2,1,75,0,1
113082,-90.9090909090908,4,2,1,70,0,0
113370,-90.9090909090908,4,2,1,5,0,0
113467,-90.9090909090908,4,2,1,70,0,0
116447,-90.9090909090908,4,2,1,5,0,0
116543,-90.9090909090908,4,2,1,70,0,0
119524,-90.9090909090908,4,2,1,5,0,0
119620,-90.9090909090908,4,2,1,70,0,0
122601,-90.9090909090908,4,2,1,5,0,0
122697,-90.9090909090908,4,2,1,70,0,0
125293,-90.9090909090908,4,2,1,5,0,0
125390,-111.111111111111,4,2,1,65,0,0
131447,-111.111111111111,4,2,1,5,0,0
131544,-111.111111111111,4,2,1,65,0,0
134524,-111.111111111111,4,2,1,5,0,0
134621,-111.111111111111,4,2,1,65,0,0
137698,-99.9999999999999,4,2,1,70,0,0
140678,-99.9999999999999,4,2,1,5,0,0
140775,-99.9999999999999,4,2,1,70,0,0
144139,-99.9999999999999,4,2,1,5,0,0
144236,-99.9999999999999,4,2,1,70,0,0
149913,-99.9999999999999,4,2,1,5,0,0
150005,-99.9999999999999,4,2,1,70,0,0
152986,-99.9999999999999,4,2,1,5,0,0
153082,-99.9999999999999,4,2,1,70,0,0
156063,-99.9999999999999,4,2,1,5,0,0
156159,-99.9999999999999,4,2,1,70,0,0
159139,-99.9999999999999,4,2,1,5,0,0
159236,-99.9999999999999,4,2,1,70,0,0
162216,-99.9999999999999,4,2,1,5,0,0
162313,-99.9999999999999,4,2,1,70,0,0
180678,-99.9999999999999,4,2,1,5,0,0
180775,-99.9999999999999,4,2,1,70,0,0
183755,-99.9999999999999,4,2,1,5,0,0
183851,-99.9999999999999,4,2,1,70,0,0
186447,-99.9999999999999,4,2,1,5,0,0
186544,-99.9999999999999,4,2,1,70,0,0
186832,-99.9999999999999,4,2,1,5,0,0
186928,-99.9999999999999,4,2,1,55,0,0
199236,-200,4,2,1,60,0,0
205390,-142.857142857143,4,2,1,65,0,0
207698,-111.111111111111,4,2,1,65,0,0
207986,-111.111111111111,4,2,1,5,0,0
208082,-111.111111111111,4,2,1,65,0,0
211544,-111.111111111111,4,2,1,70,0,0
214621,-90.9090909090908,4,2,1,75,0,1
226832,-90.9090909090908,4,2,1,5,0,1
226928,-90.9090909090908,4,2,1,75,0,1
232409,-90.9090909090908,4,2,1,5,0,1
232505,-90.9090909090908,4,2,1,75,0,1
236063,-90.9090909090908,4,2,1,5,0,1
236159,-90.9090909090908,4,2,1,75,0,1
237986,-90.9090909090908,4,2,1,5,0,1
238082,-90.9090909090908,4,2,1,75,0,1
238370,-90.9090909090908,4,2,1,5,0,1
238467,-90.9090909090908,4,2,1,75,0,1
238755,-90.9090909090908,4,2,1,5,0,1
238851,-90.9090909090908,4,2,1,75,0,1
239139,-90.9090909090908,4,2,1,5,0,1
239236,-90.9090909090908,4,2,1,75,0,1
239909,-90.9090909090908,4,2,1,5,0,1
240005,-90.9090909090908,4,2,1,75,0,1
240293,-90.9090909090908,4,2,1,5,0,1
240390,-90.9090909090908,4,2,1,75,0,1
241447,-90.9090909090908,4,2,1,5,0,1
241544,-90.9090909090908,4,2,1,75,0,1
241832,-90.9090909090908,4,2,1,5,0,1
241928,-90.9090909090908,4,2,1,75,0,1
242313,-90.9090909090908,4,2,1,75,0,0
244621,384.615384615385,4,2,1,70,1,0
244621,-90.9090909090909,4,2,1,70,0,0
244909,-90.9090909090909,4,2,1,5,0,0
245006,-90.9090909090909,4,2,1,70,0,0
247986,-90.9090909090909,4,2,1,5,0,0
248082,-90.9090909090909,4,2,1,70,0,0
251063,-90.9090909090909,4,2,1,5,0,0
251159,-90.9090909090909,4,2,1,70,0,0
254140,-90.9090909090909,4,2,1,5,0,0
254236,-90.9090909090909,4,2,1,70,0,0
256832,-90.9090909090909,4,2,1,5,0,0
256929,-90.9090909090909,4,2,1,70,0,0
257217,-90.9090909090909,4,2,1,5,0,0
257314,-90.9090909090909,4,2,1,70,0,0
260293,-90.9090909090909,4,2,1,5,0,0
260390,-90.9090909090909,4,2,1,70,0,0
263370,-90.9090909090909,4,2,1,5,0,0
263467,-90.9090909090909,4,2,1,70,0,0
266447,-90.9090909090909,4,2,1,5,0,0
266544,-90.9090909090909,4,2,1,70,0,0
267697,-142.857142857143,4,2,1,60,0,0
269140,-142.857142857143,4,2,1,5,0,0
269236,-142.857142857143,4,2,1,60,0,0

[Colours]
Combo1 : 122,203,252
Combo2 : 253,162,243

[HitObjects]
23,315,775,6,0,B|129:290|94:392|204:356,1,192,2|0,0:2|0:2,0:2:0:0:
292,207,2313,6,0,B|256:158|256:158|272:294,1,192,2|0,0:2|0:2,0:2:0:0:
455,354,3851,6,0,B|482:321|460:254|405:251|405:251|381:280|347:282,1,192,2|0,0:2|0:2,0:2:0:0:
254,237,5390,6,0,P|224:194|231:142,1,96,2|0,0:2|0:2,0:2:0:0:
309,122,6159,2,0,P|339:165|332:217,1,96,2|0,0:2|0:2,0:2:0:0:
254,237,6928,6,0,B|148:213|148:213|116:245|66:243,1,192,2|0,0:2|0:2,0:2:0:0:
53,71,8467,6,0,P|52:118|81:156,1,96,2|0,0:2|0:2,0:2:0:0:
163,125,9236,2,0,P|164:78|136:41,1,96,2|0,0:2|0:2,0:2:0:0:
80,155,10005,6,0,B|186:130|151:232|261:196,1,192,2|0,0:2|0:2,0:2:0:0:
427,120,11544,6,0,P|373:125|323:92,1,112,2|0,0:2|2:0,0:2:0:0:
325,95,12313,1,2,0:2:0:0:
476,347,13082,5,0,3:2:0:0:
476,347,13275,1,0,3:2:0:0:
386,264,13467,2,0,L|391:325,1,55.9999982910157,2|0,0:2|0:2,0:2:0:0:
311,358,13851,2,0,B|275:339|275:339|186:365,1,111.999996582031,2|0,0:2|0:2,0:2:0:0:
140,306,14428,1,2,0:2:0:0:
271,191,14621,5,0,3:2:0:0:
271,191,14813,1,2,3:2:0:0:
186,223,15005,2,0,L|114:208,1,55.9999982910157,2|0,0:2|0:2,0:2:0:0:
9,165,15390,2,0,L|81:150,1,55.9999982910157,2|0,0:2|0:2,0:2:0:0:
151,45,15775,2,0,L|159:140,1,83.9999974365235,2|0,0:2|2:0,0:2:0:0:
158,128,16159,5,0,3:2:0:0:
158,128,16351,1,0,3:2:0:0:
63,153,16544,2,0,L|72:97,1,55.9999982910157,2|0,0:2|0:2,0:2:0:0:
44,29,16928,2,0,B|81:50|81:50|158:44,1,111.999996582031,2|0,0:2|0:2,0:2:0:0:
227,9,17505,1,2,0:2:0:0:
338,162,17698,5,0,3:2:0:0:
338,162,17890,1,2,3:2:0:0:
266,80,18082,2,0,L|255:139,1,55.9999982910157,2|0,0:2|0:2,0:2:0:0:
348,217,18467,2,0,L|337:158,1,55.9999982910157,2|0,0:2|0:2,0:2:0:0:
406,84,18851,2,0,P|441:106|482:109,1,83.9999974365235,2|0,0:2|2:0,0:2:0:0:
482,109,19236,5,0,3:2:0:0:
482,109,19428,1,0,3:2:0:0:
410,230,19621,2,0,L|414:170,1,55.9999982910157,2|0,0:2|0:2,0:2:0:0:
356,20,20005,2,0,P|324:64|333:118,1,111.999996582031,2|0,0:2|0:2,0:2:0:0:
271,177,20582,1,2,0:2:0:0:
106,238,20775,5,0,3:2:0:0:
106,238,20967,1,2,3:2:0:0:
188,273,21159,2,0,L|243:262,1,55.9999982910157,2|0,0:2|0:2,0:2:0:0:
180,191,21543,1,2,0:2:0:0:
56,301,21736,2,0,P|24:257|33:203,1,111.999996582031,2|0,0:2|0:2,0:2:0:0:
156,25,22313,5,0,3:2:0:0:
156,25,22505,1,0,3:2:0:0:
104,100,22698,1,2,0:2:0:0:
224,73,22890,1,2,0:2:0:0:
69,25,23082,2,0,L|81:102,1,55.9999982910157,2|0,0:2|0:2,0:2:0:0:
170,214,23467,6,0,L|185:122,1,83.9999974365235,2|0,0:2|2:0,0:2:0:0:
187,107,23851,6,0,L|194:63,2,27.9999991455078,0|0|0,3:2|3:2|3:2,0:2:0:0:
170,214,24236,1,0,1:2:0:0:
89,148,24428,1,0,3:2:0:0:
287,181,24621,5,2,0:2:0:0:
30,280,25390,6,0,B|101:270|86:323|154:313,1,132.00000402832,4|0,3:2|2:0,0:2:0:0:
222,268,25775,1,2,1:2:0:0:
37,359,25967,1,2,0:2:0:0:
112,186,26159,1,2,3:2:0:0:
228,346,26351,2,0,L|319:356,1,88.000002685547,2|0,0:2|1:2,0:2:0:0:
491,255,26736,6,0,P|454:280|383:266,1,88.000002685547,2|0,0:2|3:2,0:2:0:0:
232,190,27121,2,0,P|269:165|340:179,1,88.000002685547,2|0,0:2|1:2,0:2:0:0:
411,280,27505,2,0,P|386:243|400:172,1,88.000002685547,2|0,0:2|3:2,0:2:0:0:
443,72,27890,1,2,0:2:0:0:
294,243,28082,1,4,1:2:0:0:
498,220,28275,1,2,0:2:0:0:
337,66,28467,6,0,B|297:35|259:50|259:50|241:83|191:81,1,132.00000402832,4|0,3:2|2:0,0:2:0:0:
136,10,28851,2,0,L|144:110,1,88.000002685547,2|0,1:2|0:2,0:2:0:0:
67,238,29236,1,2,3:2:0:0:
221,78,29428,2,0,L|213:178,1,88.000002685547,2|0,0:2|1:2,0:2:0:0:
4,178,29813,6,0,P|41:153|112:167,1,88.000002685547,2|0,0:2|3:2,0:2:0:0:
275,223,30198,2,0,P|239:247|195:248,1,88.000002685547,2|0,0:2|1:2,0:2:0:0:
83,152,30582,2,0,L|90:64,1,88.000002685547,2|0,0:2|3:2,0:2:0:0:
100,32,30871,1,0,3:2:0:0:
100,32,30967,1,2,3:2:0:0:
213,165,31159,1,4,1:2:0:0:
48,262,31351,1,2,0:2:0:0:
244,337,31544,6,0,B|319:318|319:318|346:334|376:329,1,132.00000402832,4|0,3:2|2:0,0:2:0:0:
444,285,31928,1,2,1:2:0:0:
272,225,32121,1,2,0:2:0:0:
423,99,32313,1,2,3:2:0:0:
362,251,32505,2,0,L|353:153,1,88.000002685547,2|0,0:2|1:2,0:2:0:0:
278,25,32890,6,0,P|263:65|273:108,1,88.000002685547,2|0,0:2|3:2,0:2:0:0:
444,203,33275,2,0,P|454:160|439:119,1,88.000002685547,2|0,0:2|1:2,0:2:0:0:
191,149,33659,2,0,P|219:181|260:194,1,88.000002685547,2|0,0:2|3:2,0:2:0:0:
439,119,34044,1,2,0:2:0:0:
278,25,34236,1,4,1:2:0:0:
341,239,34428,1,2,0:2:0:0:
487,57,34621,6,0,B|416:47|431:100|363:90,1,132.00000402832,4|0,3:2|2:0,0:2:0:0:
366,14,35005,1,2,1:2:0:0:
512,171,35198,1,2,0:2:0:0:
341,239,35390,2,0,P|314:196|325:131,1,88.000002685547,0|0,3:2|0:2,0:2:0:0:
487,57,35775,1,0,1:2:0:0:
512,282,35967,5,0,3:2:0:0:
512,282,36063,1,0,3:2:0:0:
512,282,36159,2,0,L|407:269,1,88.000002685547,2|0,3:2|0:2,0:2:0:0:
176,357,36544,2,0,L|281:344,1,88.000002685547,6|0,1:2|0:2,0:2:0:0:
410,178,36928,1,2,3:2:0:0:
410,178,37025,1,0,3:2:0:0:
410,178,37121,1,0,3:2:0:0:
159,72,37313,2,0,L|175:215,1,132.00000402832,6|0,1:2|2:0,0:2:0:0:
247,227,37698,6,0,B|176:217|191:270|123:260,1,132.00000402832,4|0,3:2|2:0,0:2:0:0:
60,213,38083,1,2,1:2:0:0:
251,310,38275,1,2,0:2:0:0:
211,136,38467,1,2,3:2:0:0:
54,290,38659,2,0,L|66:377,1,88.000002685547,2|0,0:2|1:2,0:2:0:0:
251,310,39044,6,0,P|261:267|246:226,1,88.000002685547,2|0,0:2|3:2,0:2:0:0:
55,129,39428,2,0,P|44:171|59:212,1,88.000002685547,2|0,0:2|1:2,0:2:0:0:
304,175,39813,2,0,P|267:150|196:164,1,88.000002685547,2|0,0:2|3:2,0:2:0:0:
143,268,40198,1,2,0:2:0:0:
304,175,40390,1,4,1:2:0:0:
140,85,40583,1,2,0:2:0:0:
366,246,40775,6,0,B|399:206|399:206|375:110,1,132.00000402832,4|0,3:2|2:0,0:2:0:0:
282,89,41159,2,0,L|309:198,1,88.000002685547,2|0,1:2|0:2,0:2:0:0:
480,174,41544,1,2,3:2:0:0:
358,42,41736,2,0,L|385:151,1,88.000002685547,2|0,0:2|1:2,0:2:0:0:
261,277,42121,6,0,P|297:254|341:252,1,88.000002685547,2|0,0:2|3:2,0:2:0:0:
485,372,42505,2,0,P|441:369|404:346,1,88.000002685547,2|0,0:2|1:2,0:2:0:0:
480,174,42890,2,0,L|473:262,1,88.000002685547,2|0,0:2|3:2,0:2:0:0:
472,297,43179,1,0,3:2:0:0:
472,297,43275,1,2,3:2:0:0:
379,127,43467,1,4,1:2:0:0:
261,277,43659,1,2,0:2:0:0:
163,150,43851,6,0,B|245:134|245:134|271:154|305:157,1,132.00000402832,4|0,3:2|2:0,0:2:0:0:
304,74,44236,1,2,1:2:0:0:
175,241,44428,1,2,0:2:0:0:
351,212,44621,1,2,3:2:0:0:
168,62,44813,2,0,L|160:191,1,88.000002685547,2|0,0:2|1:2,0:2:0:0:
64,368,45198,6,0,P|56:322|73:283,1,88.000002685547,2|0,0:2|3:2,0:2:0:0:
255,205,45582,2,0,P|262:250|245:289,1,88.000002685547,2|0,0:2|1:2,0:2:0:0:
25,218,45967,2,0,P|90:202|120:218,1,88.000002685547,2|0,0:2|3:2,0:2:0:0:
217,363,46351,1,2,0:2:0:0:
328,156,46544,1,4,1:2:0:0:
149,225,46736,1,2,0:2:0:0:
328,347,46928,6,0,P|381:311|464:332,1,132.00000402832,4|0,3:2|2:0,0:2:0:0:
507,361,47313,1,2,1:2:0:0:
327,242,47505,1,2,0:2:0:0:
469,132,47698,2,0,L|462:245,1,88.000002685547,0|0,3:2|0:2,0:2:0:0:
321,329,48082,2,0,L|326:241,1,88.000002685547,0|0,1:2|0:2,0:2:0:0:
213,47,48467,5,2,3:2:0:0:
53,246,48659,1,6,1:2:0:0:
53,246,49044,5,2,1:2:0:0:
121,18,49236,1,6,1:2:0:0:
233,175,49428,1,2,3:2:0:0:
0,113,49621,2,0,L|138:96,1,132.00000402832,6|0,1:2|2:0,0:2:0:0:
131,96,50005,5,6,3:2:0:0:
20,357,50390,2,0,L|82:348,1,55.9999982910157,2|2,3:2|0:2,0:2:0:0:
150,283,50775,2,0,B|191:292|191:292|209:313|209:313|268:326,1,111.999996582031,2|2,3:2|3:2,0:2:0:0:
373,247,51351,2,0,L|292:259,1,55.9999982910157,2|0,0:2|3:2,0:2:0:0:
247,188,51736,1,2,0:2:0:0:
345,110,51928,2,0,L|333:180,1,55.9999982910157,2|2,3:2|0:2,0:2:0:0:
237,243,52313,2,0,L|249:172,1,55.9999982910157,2|2,3:2|0:2,0:2:0:0:
195,84,52698,2,0,P|167:113|177:178,1,83.9999974365235,2|0,3:2|2:0,0:2:0:0:
164,154,53082,5,0,3:2:0:0:
55,52,53467,2,0,L|125:45,1,55.9999982910157,2|2,3:2|0:2,0:2:0:0:
247,20,53851,2,0,P|281:80|261:137,1,111.999996582031,2|2,3:2|3:2,0:2:0:0:
139,189,54428,2,0,P|169:170|214:176,1,55.9999982910157,2|0,0:2|3:2,0:2:0:0:
292,196,54813,1,2,0:2:0:0:
232,291,55005,2,0,L|222:230,1,55.9999982910157,2|2,3:2|0:2,0:2:0:0:
273,119,55390,2,0,L|285:181,1,55.9999982910157,2|0,3:2|0:2,0:2:0:0:
338,271,55775,2,0,P|366:262|408:267,1,55.9999982910157,0|2,3:2|0:2,0:2:0:0:
426,275,56063,1,2,0:2:0:0:
426,275,56159,5,2,3:2:0:0:
508,103,56544,2,0,L|503:178,1,55.9999982910157,2|2,3:2|0:2,0:2:0:0:
414,184,56929,2,0,L|423:54,1,111.999996582031,2|2,3:2|3:2,0:2:0:0:
319,10,57505,2,0,L|329:83,1,55.9999982910157,2|0,0:2|3:2,0:2:0:0:
229,153,57890,1,2,0:2:0:0:
184,83,58082,2,0,P|209:71|237:69,1,55.9999982910157,2|0,3:2|0:2,0:2:0:0:
368,152,58467,2,0,L|291:140,1,55.9999982910157,2|0,3:2|0:2,0:2:0:0:
225,237,58851,2,0,L|153:226,1,55.9999982910157,2|0,3:2|0:2,0:2:0:0:
111,168,59236,5,0,3:2:0:0:
79,381,59621,1,2,3:2:0:0:
167,355,59814,1,2,0:2:0:0:
94,248,60006,2,0,L|103:311,1,55.9999982910157,2|0,3:2|0:2,0:2:0:0:
1,249,60390,5,2,1:2:0:0:
251,341,60582,1,2,3:2:0:0:
343,101,61159,5,2,0:3:0:0:
403,156,61351,2,0,P|421:122|421:85,1,71.9999978027344,2|0,0:2|0:2,0:2:0:0:
369,22,61736,5,8,0:3:0:0:
263,118,61928,1,4,0:3:0:0:
403,156,62121,1,0,3:2:0:0:
178,0,62313,6,0,L|183:73,1,71.9999978027344,4|0,3:2|0:2,0:2:0:0:
117,220,62698,1,2,1:2:0:0:
244,123,62890,1,2,0:2:0:0:
23,137,63082,2,0,B|117:119|117:119|140:141|170:150,1,143.999995605469,2|2,3:2|1:2,0:2:0:0:
324,144,63659,6,0,P|328:108|314:76,1,71.9999978027344,2|0,0:2|3:2,0:2:0:0:
175,68,64044,1,2,0:2:0:0:
324,144,64236,1,2,1:2:0:0:
176,223,64428,1,2,0:2:0:0:
325,280,64621,1,2,3:2:0:0:
236,129,64813,1,2,0:2:0:0:
116,284,65005,2,0,L|36:271,1,71.9999978027344,2|0,1:2|0:2,0:2:0:0:
23,137,65390,6,0,L|94:148,1,71.9999978027344,2|0,3:2|0:2,0:2:0:0:
295,62,65775,1,2,1:2:0:0:
137,22,65967,1,2,0:2:0:0:
179,195,66159,2,0,P|229:163|326:180,1,143.999995605469,2|2,3:2|1:2,0:2:0:0:
456,305,66736,6,0,P|400:301|370:278,1,71.9999978027344,2|0,0:2|3:2,0:2:0:0:
310,170,67121,1,2,0:2:0:0:
434,226,67313,1,2,1:2:0:0:
303,311,67505,1,2,3:2:0:0:
303,311,67601,1,0,3:2:0:0:
303,311,67698,1,2,3:2:0:0:
215,130,67890,1,2,1:2:0:0:
88,247,68082,2,0,P|140:233|179:251,1,71.9999978027344,2|0,1:2|3:2,0:2:0:0:
210,300,68371,5,0,3:2:0:0:
210,300,68467,2,0,L|197:392,1,71.9999978027344,4|0,3:2|0:2,0:2:0:0:
88,247,68851,1,2,1:2:0:0:
218,165,69044,1,2,0:2:0:0:
26,92,69236,2,0,P|62:151|131:153,1,143.999995605469,2|2,3:2|1:2,0:2:0:0:
252,5,69813,6,0,L|240:81,1,71.9999978027344,2|0,0:2|3:2,0:2:0:0:
131,152,70198,1,2,0:2:0:0:
210,249,70390,2,0,L|307:239,1,71.9999978027344,2|2,1:2|0:2,0:2:0:0:
396,129,70775,1,2,3:2:0:0:
281,241,70967,1,2,0:2:0:0:
452,364,71159,1,2,1:2:0:0:
386,221,71351,1,0,3:0:0:0:
386,221,71447,1,0,3:0:0:0:
386,221,71544,6,0,L|372:293,1,71.9999978027344,0|0,3:2|0:2,0:2:0:0:
271,379,71928,2,0,P|209:371|187:346,1,71.9999978027344,2|0,1:2|3:2,0:2:0:0:
253,224,72217,1,0,3:2:0:0:
253,224,72313,2,0,L|244:304,1,71.9999978027344,2|0,3:2|0:2,0:2:0:0:
95,367,72698,2,0,L|86:287,1,71.9999978027344,2|0,1:2|0:2,0:2:0:0:
90,83,73082,5,6,3:2:0:0:
164,258,73275,1,0,1:2:0:0:
39,206,73467,1,0,3:2:0:0:
220,133,73659,1,0,3:2:0:0:
220,133,73755,1,0,3:2:0:0:
220,133,73851,5,2,1:2:0:0:
253,224,74044,1,8,0:3:0:0:
164,258,74236,1,4,0:3:0:0:
125,167,74428,1,0,3:2:0:0:
257,236,74621,6,0,B|308:244|364:212|313:155|382:116|448:149,1,215.999993408203,2|0,0:1|0:2,0:2:0:0:
509,151,75390,2,0,L|513:98,1,40,2|0,0:2|0:2,0:2:0:0:
433,102,75775,2,0,L|429:141,1,40,2|0,0:2|0:2,0:2:0:0:
425,241,76159,6,0,B|374:249|318:217|369:160|300:121|234:154,1,215.999993408203,2|0,0:1|0:2,0:2:0:0:
190,197,76928,2,0,L|137:201,1,40,2|0,0:2|0:2,0:2:0:0:
141,120,77313,2,0,L|180:116,1,40,2|0,0:2|0:2,0:2:0:0:
271,99,77698,6,0,P|281:46|234:-3,1,107.999996704102,2|0,0:1|2:0,0:2:0:0:
160,22,78082,2,0,P|150:75|197:124,1,107.999996704102,2|0,0:1|2:0,0:2:0:0:
246,177,78467,6,0,P|265:180|285:178,1,40,2|0,0:2|0:2,0:2:0:0:
310,99,78851,2,0,P|290:95|271:98,1,40,2|0,0:2|0:2,0:2:0:0:
199,246,79236,6,0,B|148:254|92:222|143:165|74:126|6:155,1,215.999993408203,2|0,0:1|0:2,0:2:0:0:
130,264,80005,2,0,P|179:246|224:251,1,71.9999978027344,2|0,0:2|3:2,0:2:0:0:
313,322,80390,1,2,1:2:0:0:
457,234,80582,5,2,1:2:0:0:
457,234,80678,1,2,1:2:0:0:
457,234,80775,2,0,B|416:256|416:256|300:230,1,143.999995605469,6|0,3:2|0:2,0:2:0:0:
256,119,81351,1,0,3:2:0:0:
333,81,81544,2,0,P|340:115|334:151,1,71.9999978027344,2|0,1:2|0:2,0:2:0:0:
247,206,81928,2,0,P|215:188|180:185,1,71.9999978027344,2|0,3:2|3:2,0:2:0:0:
55,163,82313,6,0,L|46:91,1,71.9999978027344,2|0,3:2|1:2,0:2:0:0:
180,185,82698,2,0,L|171:256,1,71.9999978027344,2|0,3:2|3:2,0:2:0:0:
41,358,83082,1,2,1:2:0:0:
92,266,83275,1,0,3:2:0:0:
166,360,83467,2,0,P|233:334|281:349,1,107.999996704102,6|0,1:2|2:0,0:2:0:0:
336,382,83851,6,0,P|345:342|317:285,1,71.9999978027344,6|0,3:2|0:2,0:2:0:0:
296,187,84236,1,2,3:2:0:0:
452,257,84428,2,0,L|370:243,1,71.9999978027344,2|0,1:2|0:2,0:2:0:0:
211,188,84813,2,0,L|293:174,1,71.9999978027344,2|0,3:2|1:2,0:2:0:0:
372,72,85198,1,2,3:2:0:0:
432,167,85390,5,4,1:2:0:0:
432,167,85775,1,0,1:2:0:0:
282,247,85967,1,0,1:2:0:0:
372,72,86159,1,0,1:2:0:0:
425,262,86351,1,0,1:2:0:0:
272,100,86544,1,0,1:2:0:0:
483,46,86736,1,0,1:2:0:0:
396,160,86928,5,0,1:2:0:0:
189,91,87313,6,0,L|195:162,1,71.9999978027344,2|0,0:2|0:2,0:2:0:0:
73,282,87698,2,0,L|79:210,1,71.9999978027344,2|0,0:2|0:2,0:2:0:0:
15,57,88082,5,2,1:2:0:0:
164,250,88275,1,0,3:2:0:0:
164,250,88371,1,0,3:2:0:0:
164,250,88467,5,6,3:2:0:0:
202,79,88659,1,2,0:2:0:0:
65,184,88851,1,2,1:2:0:0:
233,334,89044,2,0,B|272:283|272:283|240:164,1,176.000005371094,2|2,0:2|0:2,0:2:0:0:
172,0,89621,1,2,1:2:0:0:
311,113,89813,1,2,0:2:0:0:
149,182,90005,5,2,3:2:0:0:
271,25,90198,2,0,B|390:44,1,88.000002685547,2|0,0:2|1:2,0:2:0:0:
459,152,90582,1,2,0:2:0:0:
334,191,90775,2,0,P|307:142|323:91,1,88.000002685547,0|0,3:2|0:2,0:2:0:0:
485,269,91159,2,0,P|486:312|461:347,1,88.000002685547,4|0,1:2|0:2,0:2:0:0:
243,287,91544,5,6,3:2:0:0:
310,112,91736,1,2,0:2:0:0:
400,270,91928,1,2,1:2:0:0:
210,154,92121,1,2,0:2:0:0:
413,64,92313,5,2,3:2:0:0:
305,215,92505,1,2,0:2:0:0:
219,37,92698,1,2,1:2:0:0:
117,209,92890,1,2,0:2:0:0:
310,112,93082,5,6,3:2:0:0:
120,14,93275,2,0,L|135:105,1,88.000002685547,2|0,0:2|1:2,0:2:0:0:
52,269,93659,2,0,P|128:228|232:278,1,176.000005371094,2|2,0:2|0:2,0:2:0:0:
325,373,94236,1,2,1:2:0:0:
138,328,94428,1,2,0:2:0:0:
310,112,94621,6,0,L|288:300,1,176.000005371094,6|2,3:2|1:2,0:2:0:0:
472,216,95198,2,0,L|373:189,1,88.000002685547,2|0,0:2|3:2,0:2:0:0:
223,68,95582,1,2,0:2:0:0:
394,46,95775,1,2,1:2:0:0:
270,183,95967,1,2,0:2:0:0:
137,15,96159,5,2,3:2:0:0:
11,156,96351,2,0,P|59:139|109:146,1,88.000002685547,2|0,0:2|1:2,0:2:0:0:
217,258,96736,2,0,P|173:259|132:243,1,88.000002685547,2|0,0:2|3:2,0:2:0:0:
40,85,97121,1,2,0:2:0:0:
215,59,97313,2,0,L|195:166,1,88.000002685547,6|0,1:2|0:2,0:2:0:0:
11,344,97698,5,6,3:2:0:0:
217,258,97890,1,2,0:2:0:0:
58,231,98082,1,2,1:2:0:0:
238,380,98275,1,2,0:2:0:0:
277,164,98467,1,2,3:2:0:0:
124,289,98659,2,0,L|214:272,1,88.000002685547,2|0,0:2|1:2,0:2:0:0:
386,159,99044,5,2,3:2:0:0:
386,159,99140,1,0,3:2:0:0:
386,159,99236,1,0,1:2:0:0:
216,87,99428,1,0,1:2:0:0:
345,250,99621,1,6,1:2:0:0:
436,68,99813,1,0,3:2:0:0:
257,187,100005,2,0,L|162:176,1,88.000002685547,2|0,1:2|3:2,0:2:0:0:
103,56,100294,1,0,3:2:0:0:
103,56,100390,2,0,P|178:50|219:94,1,132.00000402832,4|0,1:2|2:0,0:2:0:0:
257,187,100775,6,0,B|325:193|325:193|354:219|354:219|448:223,1,176.000005371094,6|2,3:2|1:2,0:2:0:0:
267,350,101351,2,0,P|261:303|279:265,1,88.000002685547,2|0,0:2|3:2,0:2:0:0:
403,138,101736,1,2,0:2:0:0:
342,316,101928,1,2,1:2:0:0:
219,169,102121,1,2,0:2:0:0:
445,253,102313,5,2,3:2:0:0:
303,91,102505,2,0,L|317:203,1,88.000002685547,2|0,0:2|1:2,0:2:0:0:
185,283,102890,1,2,0:2:0:0:
125,136,103082,2,0,P|192:139|223:179,1,88.000002685547,0|0,3:2|0:2,0:2:0:0:
342,316,103467,2,0,P|274:312|243:272,1,88.000002685547,4|0,1:2|0:2,0:2:0:0:
38,82,103851,5,6,3:2:0:0:
159,210,104044,1,2,0:2:0:0:
217,43,104236,1,2,1:2:0:0:
73,183,104428,1,2,0:2:0:0:
272,236,104621,5,2,3:2:0:0:
150,109,104813,1,2,0:2:0:0:
96,284,105005,1,2,1:2:0:0:
245,140,105198,1,2,0:2:0:0:
306,333,105390,5,2,3:2:0:0:
434,188,105582,2,0,P|386:175|329:197,1,88.000002685547,2|0,0:2|1:2,0:2:0:0:
96,284,105967,2,0,P|158:298|220:246,1,132.00000402832,2|0,0:2|2:0,0:2:0:0:
259,192,106351,1,2,0:2:0:0:
86,373,106544,1,6,1:2:0:0:
144,209,106736,1,2,0:2:0:0:
306,333,106928,6,0,B|371:322|371:322|410:348|410:348|494:334,1,176.000005371094,6|2,3:2|1:2,0:2:0:0:
402,148,107505,2,0,L|384:276,1,88.000002685547,2|0,0:2|3:2,0:2:0:0:
306,333,107890,1,2,0:2:0:0:
476,250,108082,1,2,1:2:0:0:
301,147,108275,1,2,0:2:0:0:
466,86,108467,5,2,3:2:0:0:
291,232,108659,2,0,L|193:216,1,88.000002685547,2|0,0:2|1:2,0:2:0:0:
32,155,109044,2,0,L|130:139,1,88.000002685547,2|0,0:2|3:2,0:2:0:0:
236,6,109428,1,2,3:2:0:0:
236,6,109525,1,0,3:2:0:0:
236,6,109621,2,0,L|211:147,1,132.00000402832,6|0,1:2|2:0,0:2:0:0:
204,217,110005,5,6,3:2:0:0:
125,35,110198,1,2,0:2:0:0:
306,112,110390,1,6,1:2:0:0:
110,237,110582,1,2,3:2:0:0:
110,237,110678,1,0,3:2:0:0:
110,237,110775,1,2,1:2:0:0:
214,112,110967,2,0,L|209:59,2,44.0000013427735,2|0|0,3:2|3:2|1:2,0:2:0:0:
271,270,111351,1,2,3:2:0:0:
49,171,111544,6,0,P|104:145|184:204,1,132.00000402832,4|0,3:2|2:0,0:2:0:0:
124,342,111928,6,0,B|82:312|82:312|116:217,1,132.00000402832,6|0,3:2|2:0,0:2:0:0:
255,175,112313,6,0,B|329:164|309:218|378:207,1,132.00000402832,6|0,3:2|2:0,0:2:0:0:
484,66,112698,6,0,P|475:93|488:72,1,88.000002685547,12|0,3:1|0:2,0:2:0:0:
474,80,112986,1,0,3:2:0:0:
474,80,113082,6,0,B|403:70|418:123|350:113,1,132.00000402832,4|0,3:2|2:0,0:2:0:0:
278,82,113467,1,2,1:2:0:0:
463,157,113659,1,2,0:2:0:0:
378,13,113851,1,2,3:2:0:0:
275,167,114043,2,0,L|174:154,1,88.000002685547,2|0,0:2|1:2,0:2:0:0:
38,84,114428,6,0,P|39:40|63:4,1,88.000002685547,2|0,0:2|3:2,0:2:0:0:
187,155,114813,2,0,P|185:198|161:234,1,88.000002685547,2|0,0:2|1:2,0:2:0:0:
15,193,115197,2,0,P|52:168|123:182,1,88.000002685547,2|0,0:2|3:2,0:2:0:0:
238,278,115582,1,2,0:2:0:0:
193,120,115774,1,4,1:2:0:0:
77,247,115967,1,2,0:2:0:0:
256,358,116159,6,0,B|283:355|299:338|299:338|385:353,1,132.00000402832,4|0,3:2|2:0,0:2:0:0:
466,380,116543,2,0,L|459:293,1,88.000002685547,2|0,1:2|0:2,0:2:0:0:
361,150,116928,1,2,3:2:0:0:
512,196,117120,2,0,L|418:210,1,88.000002685547,2|0,0:2|1:2,0:2:0:0:
300,92,117505,6,0,P|337:67|408:81,1,88.000002685547,2|0,0:2|3:2,0:2:0:0:
252,248,117890,2,0,P|208:246|172:222,1,88.000002685547,2|0,0:2|1:2,0:2:0:0:
217,49,118274,2,0,L|224:137,1,88.000002685547,2|0,3:2|3:2,0:2:0:0:
231,165,118563,1,0,3:2:0:0:
231,165,118659,1,2,3:2:0:0:
138,298,118851,1,4,1:2:0:0:
318,180,119043,1,2,0:2:0:0:
112,59,119236,6,0,B|91:109|91:109|118:182,1,132.00000402832,4|0,3:2|2:0,0:2:0:0:
189,236,119620,1,2,1:2:0:0:
8,63,119813,1,2,0:2:0:0:
189,119,120005,1,2,3:2:0:0:
37,271,120197,2,0,L|28:183,1,88.000002685547,2|0,0:2|1:2,0:2:0:0:
142,41,120582,6,0,P|182:25|224:35,1,88.000002685547,2|0,0:2|3:2,0:2:0:0:
388,203,120967,2,0,P|345:213|304:198,1,88.000002685547,2|0,0:2|1:2,0:2:0:0:
330,42,121351,2,0,P|351:78|351:121,1,88.000002685547,2|0,0:2|3:2,0:2:0:0:
189,247,121736,1,2,0:2:0:0:
274,100,121928,1,4,1:2:0:0:
388,203,122120,1,2,0:2:0:0:
196,165,122313,6,0,B|125:155|140:208|72:198,1,132.00000402832,4|0,3:2|2:0,0:2:0:0:
9,145,122697,1,2,1:2:0:0:
189,247,122890,1,2,0:2:0:0:
128,47,123082,2,0,L|120:134,1,88.000002685547,0|0,3:2|0:2,0:2:0:0:
18,288,123467,1,0,1:2:0:0:
246,163,123659,5,0,3:2:0:0:
246,163,123755,1,0,3:2:0:0:
246,163,123851,2,0,P|220:162|248:159,1,88.000002685547,4|0,3:2|0:2,0:2:0:0:
499,351,124813,5,0,3:2:0:0:
400,167,125005,2,0,B|401:190|393:219|393:219|404:247|404:247|393:304,1,132.00000402832,2|0,1:2|2:0,0:2:0:0:
421,331,125390,6,0,P|388:318|353:318,1,71.9999978027344,6|0,3:2|0:2,0:2:0:0:
205,374,125775,2,0,P|181:344|177:310,1,71.9999978027344,2|0,1:2|0:2,0:2:0:0:
250,176,126159,2,0,B|282:217|282:217|254:320,1,143.999995605469,2|2,3:2|1:2,0:2:0:0:
108,322,126736,6,0,P|141:309|179:312,1,71.9999978027344,2|0,0:2|3:2,0:2:0:0:
311,382,127121,1,2,0:2:0:0:
402,254,127313,1,2,1:2:0:0:
252,326,127505,1,2,0:2:0:0:
399,367,127698,2,0,L|471:356,1,71.9999978027344,2|2,3:2|0:2,0:2:0:0:
309,265,128082,2,0,P|322:200|348:181,1,71.9999978027344,2|0,1:2|3:2,0:2:0:0:
405,162,128371,5,0,3:2:0:0:
405,162,128467,2,0,L|417:62,1,71.9999978027344,0|0,3:2|0:2,0:2:0:0:
383,11,128851,1,2,1:2:0:0:
491,73,129044,1,2,0:2:0:0:
328,113,129236,2,0,P|255:101|176:90,1,143.999995605469,2|0,3:2|1:2,0:2:0:0:
35,169,129813,5,6,3:2:0:0:
35,169,130390,2,0,B|14:140|14:140|20:96,1,71.9999978027344,2|0,0:2|0:2,0:2:0:0:
111,78,130775,2,0,B|132:107|132:107|126:151,1,71.9999978027344,2|0,0:2|0:2,0:2:0:0:
21,272,131159,2,0,P|66:240|121:248,1,107.999996704102,2|0,1:2|2:0,0:2:0:0:
147,276,131544,6,0,L|226:268,1,71.9999978027344,4|0,3:2|0:2,0:2:0:0:
375,259,131928,1,2,1:2:0:0:
276,187,132121,1,2,0:2:0:0:
325,326,132313,2,0,P|380:290|470:307,1,143.999995605469,2|2,3:2|1:2,0:2:0:0:
511,194,132890,5,2,3:2:0:0:
511,194,132986,1,0,3:2:0:0:
511,194,133082,2,0,P|473:190|441:176,1,71.9999978027344,0|2,3:2|0:2,0:2:0:0:
290,113,133467,2,0,P|327:109|359:95,1,71.9999978027344,2|2,1:2|0:2,0:2:0:0:
463,13,133851,2,0,L|457:105,1,71.9999978027344,2|0,3:2|0:2,0:2:0:0:
364,175,134236,2,0,L|385:311,1,107.999996704102,6|0,1:2|2:0,0:2:0:0:
413,320,134621,6,0,L|325:313,1,71.9999978027344,4|0,3:2|0:2,0:2:0:0:
228,251,135005,2,0,L|209:175,1,71.9999978027344,2|0,1:2|3:2,0:2:0:0:
283,76,135294,1,0,3:0:0:0:
283,76,135390,2,2,P|294:109|286:143,1,71.9999978027344,2|2,3:2|0:2,0:2:0:0:
131,151,135775,2,2,L|42:142,1,71.9999978027344,6|2,1:2|0:2,0:2:0:0:
181,61,136159,5,6,1:2:0:0:
228,251,136351,2,0,L|182:259,1,35.9999989013672,0|0,3:2|3:2,0:2:0:0:
59,143,136544,1,0,3:2:0:0:
289,112,136736,5,6,1:2:0:0:
100,262,136928,1,0,3:2:0:0:
181,61,137121,1,0,3:2:0:0:
313,240,137313,5,6,1:2:0:0:
339,234,137409,1,0,1:2:0:0:
366,236,137505,1,0,1:2:0:0:
391,246,137601,1,0,1:2:0:0:
412,262,137698,6,0,L|424:178,1,80,4|0,3:2|0:2,0:2:0:0:
305,35,138082,2,0,L|316:118,1,80,2|0,1:2|0:2,0:2:0:0:
423,182,138467,1,2,3:2:0:0:
491,53,138659,2,0,L|382:72,1,80,2|0,0:2|1:2,0:2:0:0:
239,180,139044,1,2,0:2:0:0:
177,48,139236,5,2,3:2:0:0:
329,199,139428,2,0,L|346:308,1,80,2|0,0:0|1:0,0:0:0:0:
131,155,139813,1,2,0:2:0:0:
315,114,140005,1,2,3:2:0:0:
205,279,140198,1,2,0:2:0:0:
1,246,140390,2,0,P|55:227|110:260,1,120,6|0,1:2|2:0,0:2:0:0:
126,284,140775,6,0,L|217:279,1,80,6|0,3:2|0:2,0:2:0:0:
353,156,141159,1,2,1:2:0:0:
180,190,141351,1,2,0:2:0:0:
323,294,141544,1,2,3:2:0:0:
271,129,141736,2,0,L|262:229,1,80,2|0,0:2|1:2,0:2:0:0:
397,349,142121,1,2,0:2:0:0:
353,156,142313,5,4,3:2:0:0:
208,322,142505,2,0,L|106:325,1,80,2|0,0:2|1:2,0:2:0:0:
23,132,142890,1,2,0:2:0:0:
157,209,143082,1,0,3:2:0:0:
157,209,143178,1,0,3:2:0:0:
157,209,143275,1,2,3:2:0:0:
17,335,143467,2,0,L|-2:234,1,80,4|2,1:2|0:2,0:2:0:0:
91,84,143851,6,0,B|141:93|141:93|155:111|155:111|228:125,1,120,4|0,3:2|2:0,0:2:0:0:
274,81,144236,1,2,1:2:0:0:
81,161,144428,1,2,0:2:0:0:
170,22,144621,1,2,3:2:0:0:
271,172,144813,2,0,L|358:159,1,80,2|0,0:2|1:2,0:2:0:0:
469,32,145198,1,2,0:2:0:0:
418,217,145390,6,0,P|372:154|392:79,1,160,2|0,3:2|1:2,0:2:0:0:
492,282,145967,1,2,3:2:0:0:
492,282,146063,1,2,3:2:0:0:
492,282,146159,2,0,P|437:305|382:293,1,80,2|0,3:2|0:2,0:2:0:0:
271,172,146544,1,6,1:2:0:0:
203,357,146736,1,2,0:2:0:0:
332,272,146928,6,0,L|345:216,3,40,6|2|2|2,3:2|0:2|0:2|0:2,0:2:0:0:
289,346,147313,2,0,L|302:402,3,40,2|2|2|2,1:2|0:2|0:2|0:2,0:2:0:0:
232,267,147698,1,2,3:2:0:0:
232,267,147794,1,2,0:2:0:0:
232,267,147890,2,0,L|169:255,1,40,2|2,0:2|0:2,0:2:0:0:
44,215,148082,1,2,1:2:0:0:
44,215,148178,1,2,0:2:0:0:
44,215,148274,2,2,L|107:203,1,40,2|2,0:2|0:2,0:2:0:0:
174,147,148467,5,2,3:2:0:0:
66,303,148659,1,2,3:2:0:0:
2,110,148851,1,6,1:2:0:0:
166,248,149044,1,2,3:2:0:0:
261,85,149236,1,2,3:2:0:0:
290,81,149332,1,2,3:2:0:0:
320,78,149428,1,2,3:2:0:0:
350,75,149524,1,2,3:2:0:0:
380,72,149621,2,0,B|406:111|406:111|387:221,1,120,6|0,1:2|2:0,0:2:0:0:
427,228,150005,6,0,L|331:208,1,80,14|0,3:2|0:2,0:2:0:0:
166,309,150390,2,0,L|262:289,1,80,10|0,1:2|0:2,0:2:0:0:
370,348,150775,1,10,3:2:0:0:
244,292,150967,1,10,0:2:0:0:
335,132,151159,2,0,L|348:210,1,80,10|2,1:2|0:2,0:2:0:0:
283,373,151543,5,8,3:2:0:0:
166,309,151736,2,0,L|152:230,1,80,10|0,0:2|1:2,0:2:0:0:
103,37,152121,1,10,0:2:0:0:
19,139,152313,2,0,L|114:152,1,80,10|0,3:2|0:2,0:2:0:0:
303,263,152698,2,0,P|336:215|322:158,1,120,6|0,1:2|2:0,0:2:0:0:
275,137,153082,6,0,L|363:122,1,80,14|0,3:2|0:2,0:2:0:0:
502,222,153467,2,0,L|423:208,1,80,10|0,1:2|0:2,0:2:0:0:
275,137,153851,1,10,3:2:0:0:
423,208,154044,1,10,0:2:0:0:
217,332,154236,2,0,P|206:293|212:254,1,80,10|2,1:2|0:2,0:2:0:0:
343,193,154621,5,8,3:2:0:0:
268,57,154813,2,0,L|274:136,1,80,10|0,0:2|1:2,0:2:0:0:
212,254,155198,1,10,0:2:0:0:
358,364,155390,2,0,P|374:324|362:284,1,80,10|0,3:2|0:2,0:2:0:0:
204,358,155775,2,0,B|130:345|130:345|98:361|68:361,1,120,6|0,1:2|2:0,0:2:0:0:
56,357,156159,6,0,P|33:311|45:265,1,80,14|0,3:2|0:2,0:2:0:0:
116,160,156544,2,2,P|139:206|127:252,1,80,10|2,1:2|0:2,0:2:0:0:
204,358,156928,1,10,3:2:0:0:
276,234,157121,1,10,0:2:0:0:
384,353,157313,2,0,L|304:342,1,80,10|2,1:2|0:2,0:2:0:0:
191,384,157698,5,8,3:2:0:0:
101,261,157890,2,0,L|208:248,1,80,10|0,0:2|1:2,0:2:0:0:
316,151,158275,1,10,0:2:0:0:
404,273,158467,2,0,P|418:236|405:199,1,80,10|0,3:2|3:2,0:2:0:0:
330,230,158755,1,0,3:2:0:0:
330,230,158851,2,0,P|277:193|206:197,1,120,6|0,1:2|2:0,0:2:0:0:
191,237,159236,6,0,L|180:155,1,80,10|0,3:2|3:2,0:2:0:0:
85,79,159525,1,0,3:2:0:0:
85,79,159621,2,0,L|96:161,1,80,14|0,1:2|3:2,0:2:0:0:
46,238,159909,1,0,3:2:0:0:
46,238,160005,1,10,3:2:0:0:
192,71,160198,2,0,L|237:63,2,40,10|0|10,1:2|1:2|1:2,0:2:0:0:
4,31,160582,5,14,3:2:0:0:
2,338,161736,5,0,3:2:0:0:
2,338,161832,1,0,3:2:0:0:
2,338,161928,2,0,B|81:325|81:325|98:343|126:348,1,120,4|0,1:2|2:0,0:2:0:0:
193,371,162313,6,0,L|184:285,1,80,6|0,1:2|0:2,0:2:0:0:
276,119,162698,2,0,L|284:198,1,80,2|0,1:2|0:2,0:2:0:0:
408,344,163082,1,2,1:2:0:0:
184,291,163275,1,0,3:2:0:0:
394,258,163467,1,2,1:2:0:0:
198,379,163659,1,0,3:2:0:0:
52,192,163851,6,0,P|88:177|128:180,1,80,2|0,1:2|0:2,0:2:0:0:
260,302,164236,2,0,P|220:305|184:291,1,80,0|2,1:2|0:2,0:2:0:0:
52,192,164621,1,2,1:2:0:0:
221,129,164813,1,0,3:2:0:0:
221,129,164909,1,0,3:2:0:0:
221,129,165005,2,0,L|231:232,1,80,4|0,1:2|0:2,0:2:0:0:
334,344,165390,6,0,P|344:282|319:238,1,80,6|0,1:2|0:2,0:2:0:0:
117,242,165775,2,0,P|107:304|132:348,1,80,2|0,1:2|0:2,0:2:0:0:
228,208,166159,1,2,1:2:0:0:
48,110,166351,1,0,3:2:0:0:
37,308,166544,1,2,1:2:0:0:
161,118,166736,1,0,3:2:0:0:
257,295,166928,6,0,L|347:313,1,80,2|0,1:2|0:2,0:2:0:0:
481,184,167313,1,0,1:2:0:0:
331,222,167505,1,2,3:2:0:0:
470,330,167698,5,6,1:2:0:0:
394,136,167890,1,4,1:2:0:0:
257,295,168082,2,0,L|161:305,1,80,4|0,1:2|0:2,0:2:0:0:
38,247,168467,6,0,P|19:199|37:142,1,80,6|0,1:2|0:2,0:2:0:0:
164,15,168851,2,0,L|151:132,1,80,2|0,1:2|0:2,0:2:0:0:
215,222,169236,1,2,1:2:0:0:
289,44,169428,1,0,3:2:0:0:
339,173,169621,1,2,1:2:0:0:
155,94,169813,1,0,3:2:0:0:
56,267,170005,6,0,L|138:250,1,80,2|0,1:2|0:2,0:2:0:0:
297,333,170390,2,0,L|215:316,1,80,0|2,1:2|0:2,0:2:0:0:
99,167,170775,1,6,1:2:0:0:
28,350,170967,1,0,3:2:0:0:
28,350,171063,1,0,3:2:0:0:
28,350,171159,1,0,1:2:0:0:
142,281,171351,1,0,3:2:0:0:
297,333,171544,6,0,B|393:321|393:321|419:346|465:355,1,160,6|2,3:2|0:2,0:2:0:0:
297,333,172121,1,0,3:2:0:0:
471,187,172313,2,0,L|454:286,1,80,2|0,1:2|0:2,0:2:0:0:
334,238,172698,2,0,L|347:159,1,80,2|0,3:2|1:2,0:2:0:0:
411,97,172986,1,0,3:0:0:0:
411,97,173082,6,0,B|323:82|348:149|256:129,1,160,2|0,3:2|3:2,0:2:0:0:
142,25,173659,1,2,3:2:0:0:
193,155,173851,2,0,P|212:94|200:72,1,80,2|0,1:2|3:2,0:2:0:0:
61,21,174236,1,0,1:2:0:0:
61,21,174332,1,0,1:2:0:0:
61,21,174428,2,0,L|69:73,1,40,0|0,1:2|1:2,0:2:0:0:
37,202,174621,6,0,L|135:191,1,80,6|2,3:2|0:2,0:2:0:0:
193,155,174909,1,2,0:2:0:0:
193,155,175005,2,0,L|202:210,1,40,2|2,1:2|0:2,0:2:0:0:
148,315,175198,2,0,L|139:260,1,40,2|2,0:2|0:2,0:2:0:0:
276,127,175390,5,2,3:2:0:0:
276,127,175486,2,0,L|287:225,1,80,2|2,0:2|2:0,0:2:0:0:
274,281,175775,2,0,L|329:274,1,40,2|2,1:2|0:2,0:2:0:0:
450,176,175967,2,0,L|410:181,1,40,2|2,0:2|0:2,0:2:0:0:
325,60,176159,6,0,P|274:42|228:60,1,80,2|0,3:2|0:2,0:2:0:0:
120,177,176544,2,0,P|159:180|195:163,1,80,2|0,1:2|0:2,0:2:0:0:
132,16,176928,2,0,L|143:119,1,80,2|0,3:2|0:2,0:2:0:0:
39,227,177313,2,0,L|30:147,1,80,4|0,1:2|0:2,0:2:0:0:
227,68,177698,6,0,L|221:28,3,40,6|2|2|2,3:2|0:2|0:2|0:2,0:2:0:0:
298,125,178082,2,0,L|303:164,3,40,2|2|2|2,1:2|0:2|0:2|0:2,0:2:0:0:
311,38,178467,1,2,3:2:0:0:
311,38,178563,1,2,0:2:0:0:
311,38,178659,2,0,L|359:43,1,40,2|2,0:2|0:2,0:2:0:0:
498,115,178851,2,0,L|458:123,1,40,2|2,1:2|0:2,0:2:0:0:
336,191,179043,5,2,0:2:0:0:
336,191,179140,1,2,0:2:0:0:
336,191,179236,1,2,3:2:0:0:
470,247,179428,1,2,0:2:0:0:
385,346,179621,2,0,P|370:309|378:268,1,80,2|0,1:2|0:2,0:2:0:0:
462,171,180005,2,0,P|477:208|468:248,1,80,2|0,3:2|0:2,0:2:0:0:
312,315,180390,2,0,B|234:298|234:298|217:309|193:316,1,120,4|0,1:2|2:0,0:2:0:0:
169,328,180775,5,6,3:2:0:0:
288,219,180967,1,2,0:2:0:0:
243,381,181159,1,2,1:2:0:0:
163,221,181351,1,2,0:2:0:0:
46,289,181544,1,2,3:2:0:0:
46,289,181640,1,2,0:2:0:0:
46,289,181736,2,0,L|105:283,1,40,2|2,0:2|0:2,0:2:0:0:
233,165,181928,1,2,1:2:0:0:
96,127,182121,1,2,0:2:0:0:
178,11,182313,6,0,L|171:108,1,80,2|0,3:2|0:2,0:2:0:0:
307,201,182698,2,0,P|314:148|275:101,1,80,2|0,1:2|0:2,0:2:0:0:
140,238,183082,2,0,P|190:220|244:248,1,80,2|0,3:2|3:2,0:2:0:0:
426,339,183467,2,0,B|451:306|451:306|432:217,1,120,4|0,1:2|2:0,0:2:0:0:
468,191,183851,6,0,L|370:209,1,80,2|0,3:2|0:2,0:2:0:0:
226,108,184236,2,0,L|304:122,1,80,2|0,3:2|3:2,0:2:0:0:
435,25,184621,1,2,3:2:0:0:
393,118,184813,1,0,3:2:0:0:
345,39,185005,1,2,3:2:0:0:
481,100,185198,1,0,3:2:0:0:
326,200,185390,5,6,3:2:0:0:
326,200,185486,1,0,3:2:0:0:
326,200,185582,2,0,L|312:132,1,40,0|0,3:2|3:2,0:2:0:0:
243,37,185775,1,0,1:2:0:0:
243,37,185871,1,0,1:2:0:0:
243,37,185967,1,0,1:2:0:0:
131,188,186159,6,0,P|71:192|27:154,1,120,6|0,1:2|2:0,0:2:0:0:
64,46,186544,2,0,P|121:42|168:80,1,120,4|0,1:2|2:0,0:2:0:0:
98,117,186928,5,2,0:2:0:0:
131,188,188467,5,2,0:2:0:0:
165,259,190005,5,2,0:2:0:0:
199,330,191544,5,2,0:2:0:0:
280,341,192313,5,2,0:2:0:0:
361,352,193082,5,2,0:2:0:0:
396,273,194621,5,2,0:2:0:0:
318,223,195390,5,2,0:2:0:0:
222,224,196159,5,2,0:2:0:0:
424,132,196928,5,2,0:2:0:0:
406,347,197698,5,2,0:2:0:0:
352,235,198467,5,2,0:2:0:0:
352,235,199236,6,0,B|266:216|284:293|193:274,1,160,2|0,0:2|0:2,0:2:0:0:
204,275,200390,1,2,0:2:0:0:
53,190,200775,6,0,P|123:210|190:156,1,160,2|0,0:2|0:2,0:2:0:0:
192,165,201928,1,2,0:2:0:0:
192,165,202121,1,2,0:2:0:0:
91,55,202313,6,0,B|117:17|117:17|111:139,1,160,2|0,0:2|0:2,0:2:0:0:
111,130,203467,1,2,0:2:0:0:
0,232,203851,6,0,P|36:211|75:213,1,80,2|0,0:2|0:2,0:2:0:0:
261,353,204621,2,0,P|221:353|187:333,1,80,2|0,0:2|0:2,0:2:0:0:
129,275,205198,1,2,0:2:0:0:
249,273,205390,6,0,B|319:259|319:259|334:275|360:283,1,111.999996582031,6|0,3:2|0:2,0:2:0:0:
249,273,205967,1,0,3:2:0:0:
372,146,206159,2,0,P|382:177|380:205,1,55.9999982910157,0|0,1:2|0:2,0:2:0:0:
299,216,206544,2,0,P|289:185|291:157,1,55.9999982910157,2|0,3:2|0:2,0:2:0:0:
319,67,206928,6,0,L|324:4,2,55.9999982910157,2|0|2,3:2|1:2|3:2,0:2:0:0:
319,67,207409,1,0,3:2:0:0:
319,67,207505,1,0,3:2:0:0:
244,151,207698,2,0,B|200:145|200:145|185:154|185:154|122:145,1,107.999996704102,4|0,1:2|2:0,0:2:0:0:
66,99,208082,2,0,P|57:62|69:27,1,71.9999978027344,2|0,3:2|0:2,0:2:0:0:
139,147,208467,6,0,L|128:234,1,71.9999978027344,6|0,3:2|0:2,0:2:0:0:
51,329,208851,2,0,P|93:314|133:323,1,71.9999978027344,2|2,3:2|0:2,0:2:0:0:
274,296,209236,5,0,1:2:0:0:
214,192,209428,1,2,1:2:0:0:
379,304,209621,1,0,1:2:0:0:
198,384,209813,1,6,1:2:0:0:
256,192,209909,12,4,211544,3:2:0:0:
255,192,213082,5,4,3:2:0:0:
2,123,214044,5,0,3:2:0:0:
107,193,214236,1,4,1:2:0:0:
0,248,214428,1,0,1:2:0:0:
0,248,214525,1,0,1:2:0:0:
0,248,214621,5,6,3:2:0:0:
193,275,214813,1,2,0:2:0:0:
81,119,215005,1,2,1:2:0:0:
0,346,215198,2,0,B|120:322|120:322|142:348|170:358,1,176.000005371094,2|2,0:2|0:2,0:2:0:0:
268,225,215775,1,2,1:2:0:0:
78,295,215967,1,2,0:2:0:0:
146,132,216159,5,2,3:2:0:0:
250,331,216352,2,0,L|346:351,1,88.000002685547,2|0,0:2|1:2,0:2:0:0:
410,235,216736,1,2,0:2:0:0:
291,146,216929,2,0,P|265:181|267:224,1,88.000002685547,0|0,3:2|0:2,0:2:0:0:
451,378,217313,2,0,P|475:342|474:299,1,88.000002685547,4|0,1:2|0:2,0:2:0:0:
303,71,217698,5,6,3:2:0:0:
190,231,217890,1,2,0:2:0:0:
369,267,218082,1,2,1:2:0:0:
206,120,218275,1,2,0:2:0:0:
117,309,218467,5,2,3:2:0:0:
289,200,218659,1,2,0:2:0:0:
198,358,218852,1,2,1:2:0:0:
92,191,219044,1,2,0:2:0:0:
286,291,219236,5,6,3:2:0:0:
180,91,219429,2,0,L|176:182,1,88.000002685547,2|0,0:2|1:2,0:2:0:0:
35,263,219813,2,0,P|5:176|62:111,1,176.000005371094,2|2,0:2|0:2,0:2:0:0:
262,75,220390,1,6,1:2:0:0:
92,191,220582,1,2,0:2:0:0:
243,284,220775,6,0,B|307:296|307:296|337:325|337:325|433:344,1,176.000005371094,6|2,3:2|1:2,0:2:0:0:
338,132,221352,2,0,L|342:234,1,88.000002685547,2|0,0:2|3:2,0:2:0:0:
259,369,221736,1,2,0:2:0:0:
421,253,221929,1,2,1:2:0:0:
246,179,222121,1,2,0:2:0:0:
391,50,222313,5,2,3:2:0:0:
421,253,222505,2,0,P|377:255|337:239,1,88.000002685547,2|0,0:2|1:2,0:2:0:0:
189,114,222890,2,0,P|229:98|273:99,1,88.000002685547,2|0,0:2|3:2,0:2:0:0:
186,238,223275,1,2,0:2:0:0:
71,91,223467,1,6,1:2:0:0:
189,114,223659,1,2,0:2:0:0:
46,263,223852,5,6,3:2:0:0:
235,329,224044,1,2,0:2:0:0:
54,359,224236,1,2,1:2:0:0:
117,180,224429,1,2,0:2:0:0:
159,379,224621,1,2,3:2:0:0:
305,248,224813,2,0,L|215:231,1,88.000002685547,2|0,0:2|1:2,0:2:0:0:
29,132,225198,5,0,3:2:0:0:
29,132,225294,1,0,3:2:0:0:
29,132,225390,1,4,1:2:0:0:
216,87,225582,1,0,1:2:0:0:
46,263,225775,1,2,3:2:0:0:
116,41,225967,1,4,1:2:0:0:
218,231,226159,2,0,L|313:220,1,88.000002685547,2|0,1:2|3:2,0:2:0:0:
422,286,226448,1,0,3:2:0:0:
422,286,226544,2,0,B|391:249|391:249|413:154,1,132.00000402832,4|0,1:2|2:0,0:2:0:0:
476,111,226928,6,0,B|408:117|408:117|379:143|379:143|287:142,1,176.000005371094,6|2,3:2|1:2,0:2:0:0:
168,114,227505,2,0,P|152:62|181:16,1,88.000002685547,2|0,0:2|3:2,0:2:0:0:
311,143,227890,1,2,0:2:0:0:
136,236,228082,1,2,1:2:0:0:
239,63,228275,1,2,0:2:0:0:
261,251,228467,5,2,3:2:0:0:
38,168,228659,2,0,L|52:280,1,88.000002685547,2|0,0:2|1:2,0:2:0:0:
163,356,229044,1,2,0:2:0:0:
219,179,229236,2,0,P|176:173|138:194,1,88.000002685547,0|0,3:2|0:2,0:2:0:0:
251,365,229621,2,0,P|289:385|332:379,1,88.000002685547,4|0,1:2|0:2,0:2:0:0:
363,161,230005,5,6,3:2:0:0:
424,361,230198,1,2,0:2:0:0:
261,251,230390,1,2,1:2:0:0:
482,224,230582,1,2,0:2:0:0:
320,336,230775,5,2,3:2:0:0:
445,150,230967,1,2,0:2:0:0:
512,347,231159,1,2,1:2:0:0:
282,172,231352,1,2,0:2:0:0:
494,43,231544,5,2,3:2:0:0:
368,198,231736,2,0,L|358:98,1,88.000002685547,2|0,0:2|1:2,0:2:0:0:
170,28,232121,2,0,L|185:160,1,132.00000402832,2|0,0:2|2:0,0:2:0:0:
201,236,232505,1,2,0:2:0:0:
246,39,232698,1,6,1:2:0:0:
97,124,232890,1,2,0:2:0:0:
347,266,233082,6,0,B|281:275|281:275|252:312|252:312|168:325,1,176.000005371094,6|2,3:2|1:2,0:2:0:0:
72,281,233659,2,0,P|56:249|74:199,1,88.000002685547,2|0,0:2|3:2,0:2:0:0:
193,111,234044,1,2,0:2:0:0:
72,281,234236,1,2,1:2:0:0:
15,91,234429,1,2,0:2:0:0:
204,226,234621,5,2,3:2:0:0:
115,13,234813,2,0,L|99:111,1,88.000002685547,2|0,0:2|1:2,0:2:0:0:
292,249,235198,2,0,L|276:151,1,88.000002685547,2|0,0:2|3:2,0:2:0:0:
419,71,235582,1,2,3:2:0:0:
419,71,235679,1,0,3:2:0:0:
419,71,235775,2,0,L|278:46,1,132.00000402832,6|0,1:2|2:0,0:2:0:0:
207,101,236159,5,6,3:2:0:0:
360,11,236352,1,2,0:2:0:0:
417,218,236544,1,6,1:2:0:0:
289,47,236736,1,2,3:2:0:0:
289,47,236832,1,0,3:2:0:0:
289,47,236929,1,2,3:2:0:0:
232,246,237121,2,0,L|227:299,2,44.0000013427735,2|0|0,1:2|1:2|1:2,0:2:0:0:
373,143,237505,1,2,3:2:0:0:
461,285,237698,6,0,P|397:245|338:272,1,132.00000402832,4|0,3:2|2:0,0:2:0:0:
201,361,238082,6,0,B|174:341|174:341|294:349,1,132.00000402832,2|0,1:2|2:0,0:2:0:0:
374,383,238467,6,0,B|387:344|387:344|340:245,1,132.00000402832,2|0,1:2|2:0,0:2:0:0:
252,190,238851,6,0,B|181:177|209:242|129:226,1,132.00000402832,2|0,1:2|2:0,0:2:0:0:
67,188,239236,5,4,3:2:0:0:
252,268,239428,1,0,3:2:0:0:
169,92,239621,6,0,B|191:65|191:65|177:167,1,132.00000402832,2|0,1:2|2:0,0:2:0:0:
20,249,240005,6,0,P|71:211|139:232,1,132.00000402832,2|0,1:2|2:0,0:2:0:0:
89,288,240390,1,2,1:2:0:0:
177,161,240582,1,0,3:2:0:0:
177,161,240678,1,0,3:2:0:0:
177,161,240775,5,4,3:2:0:0:
18,327,240967,1,0,3:2:0:0:
189,356,241159,6,0,B|277:339|277:339|295:358|313:365,1,132.00000402832,2|0,1:2|2:0,0:2:0:0:
458,314,241544,6,0,P|388:323|340:255,1,132.00000402832,2|0,1:2|2:0,0:2:0:0:
318,214,241928,1,2,1:2:0:0:
189,356,242121,1,0,3:2:0:0:
189,356,242217,1,0,3:2:0:0:
189,356,242313,1,4,1:2:0:0:
30,279,244621,6,0,B|115:273|115:273|134:298|170:309,1,132.00000402832,4|0,3:2|2:0,0:2:0:0:
185,234,245006,1,2,1:2:0:0:
11,356,245198,1,2,0:2:0:0:
81,196,245390,1,2,3:2:0:0:
211,350,245582,2,0,L|302:340,1,88.000002685547,2|0,0:2|1:2,0:2:0:0:
439,298,245967,6,0,P|395:296|359:272,1,88.000002685547,2|0,0:2|3:2,0:2:0:0:
396,100,246352,2,0,P|421:137|407:208,1,88.000002685547,2|0,0:2|1:2,0:2:0:0:
298,340,246736,2,0,P|273:303|287:232,1,88.000002685547,2|0,0:2|3:2,0:2:0:0:
421,179,247121,1,2,0:2:0:0:
298,340,247313,1,4,1:2:0:0:
234,149,247506,1,2,0:2:0:0:
497,298,247698,6,0,B|457:267|419:282|419:282|401:315|351:313,1,132.00000402832,4|0,3:2|2:0,0:2:0:0:
298,340,248082,2,0,L|198:332,1,88.000002685547,2|0,1:2|0:2,0:2:0:0:
135,142,248467,1,2,3:2:0:0:
344,236,248659,2,0,L|244:228,1,88.000002685547,2|0,0:2|1:2,0:2:0:0:
64,206,249044,6,0,P|39:169|53:98,1,88.000002685547,2|4,0:2|3:2,0:2:0:0:
167,238,249429,2,0,P|165:281|141:317,1,88.000002685547,2|0,0:2|1:2,0:2:0:0:
135,142,249813,2,0,L|223:149,1,88.000002685547,2|0,0:2|3:2,0:2:0:0:
254,138,250102,1,0,3:2:0:0:
254,138,250198,1,2,3:2:0:0:
64,206,250390,1,4,1:2:0:0:
176,67,250582,1,2,0:2:0:0:
298,212,250775,6,0,B|373:193|373:193|400:209|430:214,1,132.00000402832,4|0,3:2|2:0,0:2:0:0:
505,190,251159,1,2,1:2:0:0:
311,131,251352,1,2,0:2:0:0:
402,301,251544,1,2,3:2:0:0:
432,134,251736,2,2,L|443:47,1,88.000002685547,2|0,0:2|1:2,0:2:0:0:
236,82,252121,6,0,P|221:122|231:165,1,88.000002685547,2|0,0:2|3:2,0:2:0:0:
316,318,252506,2,0,P|326:275|311:234,1,88.000002685547,2|0,0:2|1:2,0:2:0:0:
143,205,252890,2,0,P|171:237|212:250,1,88.000002685547,2|0,0:2|3:2,0:2:0:0:
392,161,253275,1,2,0:2:0:0:
316,318,253467,1,4,1:2:0:0:
230,164,253659,1,2,0:2:0:0:
512,216,253852,6,0,B|441:206|456:259|388:249,1,132.00000402832,4|0,3:2|2:0,0:2:0:0:
352,168,254236,1,2,1:2:0:0:
511,290,254429,1,2,0:2:0:0:
316,318,254621,2,0,P|289:275|300:210,1,88.000002685547,0|0,3:2|0:2,0:2:0:0:
420,101,255006,1,0,1:2:0:0:
232,30,255198,5,0,1:2:0:0:
232,30,255294,1,0,1:2:0:0:
232,30,255390,2,0,L|245:135,1,88.000002685547,6|0,1:2|3:2,0:2:0:0:
219,197,255678,1,0,3:2:0:0:
219,197,255774,1,2,3:2:0:0:
135,25,255967,1,4,1:2:0:0:
349,168,256159,1,2,3:2:0:0:
349,168,256256,1,0,3:2:0:0:
349,168,256352,1,0,3:2:0:0:
121,326,256544,2,0,P|97:254|146:198,1,132.00000402832,6|0,1:2|2:0,0:2:0:0:
199,188,256929,6,0,B|268:189|253:242|320:244,1,132.00000402832,4|0,3:2|2:0,0:2:0:0:
396,230,257314,1,2,1:2:0:0:
193,270,257506,1,2,0:2:0:0:
372,316,257698,1,2,3:2:0:0:
288,85,257890,2,0,L|276:172,1,88.000002685547,2|0,0:2|1:2,0:2:0:0:
119,309,258275,6,0,P|108:266|123:225,1,88.000002685547,2|0,0:2|3:2,0:2:0:0:
191,72,258659,2,0,P|202:114|187:155,1,88.000002685547,2|0,0:2|1:2,0:2:0:0:
18,167,259044,2,0,P|55:142|126:156,1,88.000002685547,2|0,0:2|3:2,0:2:0:0:
209,245,259429,1,2,0:2:0:0:
18,167,259621,1,4,1:2:0:0:
191,72,259814,1,2,0:2:0:0:
273,310,260005,6,0,B|358:302|358:302|377:325|393:331,1,132.00000402832,4|0,3:2|2:0,0:2:0:0:
512,278,260390,2,0,P|465:278|413:253,1,88.000002685547,2|0,1:2|0:2,0:2:0:0:
346,144,260775,1,2,3:2:0:0:
495,98,260967,2,0,L|489:210,1,88.000002685547,2|0,0:2|1:2,0:2:0:0:
360,230,261352,6,0,P|316:229|280:206,1,88.000002685547,2|4,0:2|3:2,0:2:0:0:
177,54,261736,2,0,P|221:57|258:80,1,88.000002685547,2|0,0:2|1:2,0:2:0:0:
201,255,262121,2,0,L|194:167,1,88.000002685547,2|0,0:2|3:2,0:2:0:0:
193,148,262410,1,0,3:2:0:0:
193,148,262506,1,2,3:2:0:0:
121,293,262698,1,4,1:2:0:0:
280,206,262890,1,2,0:2:0:0:
105,77,263082,6,0,B|82:121|82:121|103:204,1,132.00000402832,4|0,3:2|2:0,0:2:0:0:
184,241,263467,1,2,1:2:0:0:
12,125,263659,1,2,0:2:0:0:
193,148,263852,1,2,3:2:0:0:
0,291,264044,2,0,L|113:276,1,88.000002685547,2|0,0:2|1:2,0:2:0:0:
414,348,264429,6,0,P|368:356|329:339,1,88.000002685547,2|0,0:2|3:2,0:2:0:0:
199,232,264813,2,0,P|244:225|283:242,1,88.000002685547,2|0,0:2|1:2,0:2:0:0:
243,384,265198,2,0,P|227:319|243:289,1,88.000002685547,2|0,0:2|3:2,0:2:0:0:
376,160,265582,1,2,0:2:0:0:
199,232,265775,1,4,1:2:0:0:
330,340,265967,1,2,0:2:0:0:
238,148,266159,6,0,P|173:139|120:175,1,132.00000402832,4|0,3:2|2:0,0:2:0:0:
74,239,266544,1,2,1:2:0:0:
165,98,266736,1,2,3:2:0:0:
165,98,266832,1,0,3:0:0:0:
165,98,266928,1,0,3:0:0:0:
71,253,267121,1,0,3:0:0:0:
71,253,267217,1,0,3:0:0:0:
71,253,267313,1,0,1:0:0:0:
0,89,267505,5,0,3:2:0:0:
0,89,267601,1,0,3:2:0:0:
0,89,267697,1,6,1:2:0:0:
79,124,267890,2,0,L|85:52,1,55.9999982910157,2|0,0:2|0:2,0:2:0:0:
169,42,268274,1,2,0:2:0:0:
169,42,268467,2,0,L|164:97,1,55.9999982910157,2|0,0:2|0:2,0:2:0:0:
231,176,268852,2,0,L|332:160,1,83.9999974365235,2|0,0:2|2:0,0:2:0:0:
350,174,269236,5,2,0:2:0:0:
