osu file format v14

[General]
AudioFilename: audio.mp3
AudioLeadIn: 0
PreviewTime: 71704
Countdown: 0
SampleSet: None
StackLeniency: 0.3
Mode: 3
LetterboxInBreaks: 0
EpilepsyWarning: 1
SpecialStyle: 0
WidescreenStoryboard: 1

[Editor]
Bookmarks: 29662,74995,80078,86828,88162,110912,197662,244162,269995,274995
DistanceSpacing: 1
BeatDivisor: 4
GridSize: 4
TimelineZoom: 1.799999

[Metadata]
Title:runaway(Halozy Mix)
TitleUnicode:runaway(Halozy Mix)
Artist:Minase Mashiro
ArtistUnicode:水瀬ましろ
Creator:Zxozmo
Version:Mania Hot Sound
Source:東方星蓮船 ~ Undefined Fantastic Object.
Tags:HLZY-0026 Grand Slam Studio Comiket Comic Market 91 C91 アサヒ Asahi 法界の火 東方Project Touhou Seirensen Star Lotus Ship Team Shanghai Alice ZUN 法界の火 Fires of Hokkai no Hi 感情の摩天楼 Kanjou no Matenrou Emotional Skyscraper Cosmic Mind Stage 6 Boss Theme 聖 白蓮 Hijiri Byakuren Doujin xtrem3x Envory PeterEU Fadillsan
BeatmapID:1831475
BeatmapSetID:612157

[Difficulty]
HPDrainRate:8
CircleSize:7
OverallDifficulty:8
ApproachRate:9.6
SliderMultiplier:2.1
SliderTickRate:1

[Events]
//Background and Video events
0,0,"Mania.jpg",0,0
//Break Periods
2,219237,223861
2,224570,234528
//Storyboard Layer 0 (Background)
//Storyboard Layer 1 (Fail)
//Storyboard Layer 2 (Pass)
//Storyboard Layer 3 (Foreground)
Sprite,Foreground,Centre,"SB\gd2.png",320,240 S,0,11048,,0.8021819 M,0,11048,11215,966,389,544,387 M,0,11215,13548,544,387,446,386 M,0,13548,13715,446,386,436,386
//Storyboard Sound Samples

[TimingPoints]
371,333.333333333333,4,2,1,40,1,0
21370,-200,4,2,1,40,0,0
21537,-66.6666666666667,4,2,1,40,0,0
21620,-153.846153846153,4,2,1,40,0,0
21704,-100,4,2,1,70,0,0
72370,-100,4,2,1,70,0,1
80370,-100,4,2,1,70,0,0
83037,-100,4,2,1,70,0,1
91037,-100,4,2,1,80,0,0
93704,-100,4,2,1,80,0,1
114704,-333.333333333333,4,2,1,80,0,0
114954,-83.3333333333333,4,2,1,80,0,0
115037,-100,4,2,1,80,0,0
149537,-100,4,2,1,70,0,0
151870,-100,4,2,1,70,0,0
162870,-100,4,2,1,70,0,0
165704,-100,4,2,1,70,0,1
173704,-100,4,2,1,70,0,0
176370,-100,4,2,1,70,0,1
187037,-111.111111111111,4,2,1,70,0,0
192370,-100,4,2,1,70,0,0
195370,-100,4,2,1,70,0,0
197704,-100,4,2,1,70,0,1
205704,-100,4,2,1,70,0,0
208370,-100,4,2,1,70,0,1
219037,-142.857142857143,4,2,1,70,0,0
224370,-125,4,2,1,40,0,0
235037,-111.111111111111,4,2,1,40,0,0
245037,-105.263157894737,4,2,1,70,0,0
245704,-100,4,2,1,70,0,1
253704,-100,4,2,1,70,0,0
256037,-74.0740740740741,4,2,1,70,0,0
256204,-153.846153846154,4,2,1,70,0,0
256370,-100,4,2,1,70,0,1
264370,-100,4,2,1,70,0,0
267037,-100,4,2,1,70,0,1
277370,-74.0740740740741,4,2,1,70,0,1
277537,-153.846153846153,4,2,1,70,0,1
277704,-100,4,2,1,70,0,0
288037,-74.0740740740741,4,2,1,70,0,0
288204,-153.846153846153,4,2,1,70,0,0
288370,-100,4,2,1,70,0,1
309370,-80,4,2,1,70,0,1
309537,-181.818181818181,4,2,1,70,0,1
309704,-105.263157894737,4,2,1,70,0,0
312370,-111.111111111111,4,2,1,40,0,0
315037,-125,4,2,1,40,0,0
317704,-142.857142857143,4,2,1,40,0,0

[HitObjects]
256,192,11037,5,2,0:0:0:0:
402,192,11037,1,4,0:0:0:0:
256,192,13704,1,2,0:0:0:0:
402,192,13704,1,4,0:0:0:0:
256,192,15037,1,2,0:0:0:0:
402,192,15037,1,4,0:0:0:0:
256,192,16370,1,2,0:0:0:0:
402,192,16370,1,4,0:0:0:0:
256,192,19037,1,2,0:0:0:0:
402,192,19037,1,4,0:0:0:0:
109,192,20537,1,8,0:0:0:0:
256,192,20537,1,2,0:0:0:0:
256,192,21037,1,2,0:0:0:0:
109,192,21037,1,8,0:0:0:0:
256,192,21370,1,2,0:0:0:0:
109,192,21370,1,8,0:0:0:0:
402,192,21704,1,4,0:0:0:0:
256,192,21704,1,2,0:0:0:0:
475,192,21704,1,0,0:0:0:80:drum-hitfinish.wav
109,192,22037,1,8,0:0:0:0:
256,192,22370,1,2,0:0:0:0:
109,192,22704,1,8,0:0:0:0:
256,192,23037,1,2,0:0:0:0:
109,192,23370,1,8,0:0:0:0:
256,192,23704,1,2,0:0:0:0:
109,192,24037,1,8,0:0:0:0:
256,192,24370,1,2,0:0:0:0:
402,192,24370,1,4,0:0:0:0:
109,192,24704,1,8,0:0:0:0:
256,192,25037,1,2,0:0:0:0:
109,192,25370,1,8,0:0:0:0:
256,192,25704,1,2,0:0:0:0:
109,192,26037,1,8,0:0:0:0:
256,192,26370,1,2,0:0:0:0:
109,192,26704,1,8,0:0:0:0:
256,192,27037,1,2,0:0:0:0:
402,192,27037,1,4,0:0:0:0:
109,192,27370,1,8,0:0:0:0:
256,192,27704,1,2,0:0:0:0:
109,192,28037,1,8,0:0:0:0:
256,192,28370,1,2,0:0:0:0:
109,192,28704,1,8,0:0:0:0:
256,192,29037,1,2,0:0:0:0:
109,192,29370,1,8,0:0:0:0:
256,192,29704,1,2,0:0:0:0:
402,192,29704,1,4,0:0:0:0:
109,192,30037,1,8,0:0:0:0:
256,192,30370,1,2,0:0:0:0:
109,192,30704,1,8,0:0:0:0:
256,192,31037,1,2,0:0:0:0:
109,192,31370,1,8,0:0:0:0:
256,192,31704,1,2,0:0:0:0:
402,192,31704,1,4,0:0:0:0:
109,192,31704,1,8,0:0:0:0:
109,192,32037,1,8,0:0:0:0:
402,192,32370,1,4,0:0:0:0:
256,192,32370,1,2,0:0:0:0:
475,192,32370,1,0,0:0:0:80:drum-hitfinish.wav
109,192,32704,1,8,0:0:0:0:
256,192,33037,1,2,0:0:0:0:
109,192,33370,1,8,0:0:0:0:
256,192,33704,1,2,0:0:0:0:
109,192,34037,1,8,0:0:0:0:
256,192,34370,1,2,0:0:0:0:
109,192,34704,1,8,0:0:0:0:
256,192,35037,1,2,0:0:0:0:
402,192,35037,1,4,0:0:0:0:
109,192,35370,1,8,0:0:0:0:
256,192,35704,1,2,0:0:0:0:
109,192,36037,1,8,0:0:0:0:
256,192,36370,1,2,0:0:0:0:
109,192,36704,1,8,0:0:0:0:
256,192,37037,1,2,0:0:0:0:
109,192,37370,1,8,0:0:0:0:
256,192,37704,1,2,0:0:0:0:
402,192,37704,1,4,0:0:0:0:
109,192,38037,1,8,0:0:0:0:
256,192,38370,1,2,0:0:0:0:
109,192,38704,1,8,0:0:0:0:
256,192,39037,1,2,0:0:0:0:
109,192,39370,1,8,0:0:0:0:
256,192,39704,1,2,0:0:0:0:
109,192,40037,1,8,0:0:0:0:
256,192,40370,1,2,0:0:0:0:
402,192,40370,1,4,0:0:0:0:
109,192,40704,1,8,0:0:0:0:
256,192,41037,1,2,0:0:0:0:
109,192,41370,1,8,0:0:0:0:
109,192,41870,1,8,0:0:0:0:
402,192,41870,1,4,0:0:0:0:
109,192,42204,1,8,0:0:0:0:
109,192,42287,1,8,0:0:0:0:
109,192,42370,1,8,0:0:0:0:
109,192,42704,1,8,0:0:0:0:
402,192,43037,1,4,0:0:0:0:
402,192,43204,1,4,0:0:0:0:
109,192,48037,1,8,0:0:0:0:
402,192,48370,1,4,0:0:0:0:
256,192,48370,1,2,0:0:0:0:
109,192,48704,1,8,0:0:0:0:
256,192,49037,1,2,0:0:0:0:
109,192,49370,1,8,0:0:0:0:
256,192,49704,1,2,0:0:0:0:
109,192,50037,1,8,0:0:0:0:
256,192,50370,1,2,0:0:0:0:
109,192,50704,1,8,0:0:0:0:
256,192,51037,1,2,0:0:0:0:
109,192,51370,1,8,0:0:0:0:
256,192,51704,1,2,0:0:0:0:
109,192,52037,1,8,0:0:0:0:
256,192,52370,1,2,0:0:0:0:
109,192,52704,1,8,0:0:0:0:
109,192,52870,1,8,0:0:0:0:
109,192,52954,1,8,0:0:0:0:
109,192,53037,1,8,0:0:0:0:
109,192,53370,1,8,0:0:0:0:
402,192,53704,1,4,0:0:0:0:
402,192,53870,1,4,0:0:0:0:
402,192,56204,1,4,0:0:0:0:
402,192,56537,1,4,0:0:0:0:
109,192,58704,1,8,0:0:0:0:
256,192,58704,1,2,0:0:0:0:
256,192,59037,1,2,0:0:0:0:
402,192,59037,1,4,0:0:0:0:
109,192,59370,1,8,0:0:0:0:
256,192,59704,1,2,0:0:0:0:
109,192,60037,1,8,0:0:0:0:
256,192,60370,1,2,0:0:0:0:
109,192,60704,1,8,0:0:0:0:
256,192,61037,1,2,0:0:0:0:
109,192,61370,1,8,0:0:0:0:
256,192,61704,1,2,0:0:0:0:
109,192,62037,1,8,0:0:0:0:
256,192,62370,1,2,0:0:0:0:
109,192,62704,1,8,0:0:0:0:
256,192,63037,1,2,0:0:0:0:
109,192,63370,1,8,0:0:0:0:
109,192,63537,1,8,0:0:0:0:
109,192,63620,1,8,0:0:0:0:
109,192,63704,1,8,0:0:0:0:
109,192,64037,1,8,0:0:0:0:
109,192,64370,1,0,0:0:0:20:soft-hitclap.wav
402,192,64370,1,4,0:0:0:0:
109,192,64454,1,0,0:0:0:20:soft-hitclap.wav
109,192,64537,1,0,0:0:0:20:soft-hitclap.wav
109,192,64620,1,0,0:0:0:20:soft-hitclap.wav
109,192,64704,1,0,0:0:0:20:soft-hitclap.wav
109,192,64787,1,0,0:0:0:20:soft-hitclap.wav
109,192,64870,1,0,0:0:0:20:soft-hitclap.wav
109,192,64954,1,0,0:0:0:20:soft-hitclap.wav
109,192,65037,1,0,0:0:0:20:soft-hitclap.wav
109,192,65120,1,0,0:0:0:20:soft-hitclap.wav
109,192,65204,1,0,0:0:0:20:soft-hitclap.wav
109,192,65287,1,0,0:0:0:20:soft-hitclap.wav
109,192,65370,1,0,0:0:0:20:soft-hitclap.wav
109,192,65454,1,0,0:0:0:20:soft-hitclap.wav
109,192,65537,1,0,0:0:0:20:soft-hitclap.wav
109,192,65620,1,0,0:0:0:20:soft-hitclap.wav
109,192,65704,1,0,0:0:0:20:soft-hitclap.wav
109,192,65787,1,0,0:0:0:20:soft-hitclap.wav
109,192,65870,1,0,0:0:0:20:soft-hitclap.wav
109,192,65954,1,0,0:0:0:20:soft-hitclap.wav
109,192,66037,1,0,0:0:0:20:soft-hitclap.wav
109,192,66120,1,0,0:0:0:20:soft-hitclap.wav
109,192,66204,1,0,0:0:0:20:soft-hitclap.wav
109,192,66287,1,0,0:0:0:20:soft-hitclap.wav
109,192,66370,1,0,0:0:0:20:soft-hitclap.wav
109,192,66454,1,0,0:0:0:20:soft-hitclap.wav
109,192,66537,1,0,0:0:0:20:soft-hitclap.wav
109,192,66620,1,0,0:0:0:20:soft-hitclap.wav
109,192,66704,1,0,0:0:0:20:soft-hitclap.wav
109,192,66787,1,0,0:0:0:20:soft-hitclap.wav
109,192,66870,1,0,0:0:0:20:soft-hitclap.wav
109,192,66954,1,0,0:0:0:20:soft-hitclap.wav
109,192,67037,1,0,0:0:0:20:soft-hitclap.wav
109,192,67120,1,0,0:0:0:20:soft-hitclap.wav
109,192,67204,1,0,0:0:0:20:soft-hitclap.wav
109,192,67287,1,0,0:0:0:20:soft-hitclap.wav
109,192,67370,1,0,0:0:0:20:soft-hitclap.wav
109,192,67454,1,0,0:0:0:20:soft-hitclap.wav
109,192,67537,1,0,0:0:0:20:soft-hitclap.wav
109,192,67620,1,0,0:0:0:20:soft-hitclap.wav
109,192,67704,1,0,0:0:0:20:soft-hitclap.wav
109,192,67787,1,0,0:0:0:20:soft-hitclap.wav
109,192,67870,1,0,0:0:0:20:soft-hitclap.wav
109,192,67954,1,0,0:0:0:20:soft-hitclap.wav
109,192,68037,1,0,0:0:0:20:soft-hitclap.wav
109,192,68120,1,0,0:0:0:20:soft-hitclap.wav
109,192,68204,1,0,0:0:0:20:soft-hitclap.wav
109,192,68287,1,0,0:0:0:20:soft-hitclap.wav
109,192,68370,1,0,0:0:0:20:soft-hitclap.wav
109,192,68454,1,0,0:0:0:20:soft-hitclap.wav
109,192,68537,1,0,0:0:0:20:soft-hitclap.wav
109,192,68620,1,0,0:0:0:20:soft-hitclap.wav
109,192,68704,1,0,0:0:0:20:soft-hitclap.wav
109,192,68787,1,0,0:0:0:20:soft-hitclap.wav
109,192,68870,1,0,0:0:0:20:soft-hitclap.wav
109,192,68954,1,0,0:0:0:20:soft-hitclap.wav
109,192,69037,1,0,0:0:0:20:soft-hitclap.wav
109,192,69120,1,0,0:0:0:20:soft-hitclap.wav
109,192,69204,1,0,0:0:0:20:soft-hitclap.wav
109,192,69287,1,0,0:0:0:20:soft-hitclap.wav
109,192,69370,1,8,0:0:0:0:
256,192,69370,1,2,0:0:0:0:
256,192,69704,1,2,0:0:0:0:
109,192,69704,1,8,0:0:0:0:
109,192,70204,1,8,0:0:0:0:
256,192,70204,1,2,0:0:0:0:
109,192,70704,1,8,0:0:0:0:
256,192,70704,1,2,0:0:0:0:
109,192,71037,1,8,0:0:0:0:
402,192,71037,1,4,0:0:0:0:
402,192,71204,1,4,0:0:0:0:
402,192,71537,1,4,0:0:0:0:
475,192,72370,1,0,0:0:0:80:drum-hitfinish.wav
256,192,72370,1,2,0:0:0:0:
402,192,72370,1,4,0:0:0:0:
109,192,72704,1,8,0:0:0:0:
256,192,73037,1,2,0:0:0:0:
109,192,73370,1,8,0:0:0:0:
256,192,73704,1,2,0:0:0:0:
109,192,74037,1,8,0:0:0:0:
256,192,74370,1,2,0:0:0:0:
109,192,74704,1,8,0:0:0:0:
256,192,75037,1,2,0:0:0:0:
109,192,75370,1,8,0:0:0:0:
256,192,75704,1,2,0:0:0:0:
109,192,76037,1,8,0:0:0:0:
256,192,76370,1,2,0:0:0:0:
109,192,76704,1,8,0:0:0:0:
256,192,77037,1,2,0:0:0:0:
109,192,77370,1,8,0:0:0:0:
256,192,77704,1,2,0:0:0:0:
402,192,77704,1,4,0:0:0:0:
109,192,78037,1,8,0:0:0:0:
256,192,78370,1,2,0:0:0:0:
109,192,78704,1,8,0:0:0:0:
256,192,79037,1,2,0:0:0:0:
109,192,79370,1,8,0:0:0:0:
256,192,79704,1,2,0:0:0:0:
109,192,80037,1,8,0:0:0:0:
256,192,80370,1,2,0:0:0:0:
109,192,80370,1,8,0:0:0:0:
109,192,80870,1,8,0:0:0:0:
256,192,80870,1,2,0:0:0:0:
109,192,81370,1,8,0:0:0:0:
256,192,81370,1,2,0:0:0:0:
256,192,81870,1,2,0:0:0:0:
109,192,81870,1,8,0:0:0:0:
256,192,82370,1,2,0:0:0:0:
109,192,82370,1,8,0:0:0:0:
256,192,82704,1,2,0:0:0:0:
109,192,82704,1,8,0:0:0:0:
256,192,83037,1,2,0:0:0:0:
402,192,83037,1,4,0:0:0:0:
109,192,83370,1,8,0:0:0:0:
256,192,83704,1,2,0:0:0:0:
109,192,84037,1,8,0:0:0:0:
256,192,84370,1,2,0:0:0:0:
109,192,84704,1,8,0:0:0:0:
256,192,85037,1,2,0:0:0:0:
109,192,85370,1,8,0:0:0:0:
256,192,85704,1,2,0:0:0:0:
109,192,86037,1,8,0:0:0:0:
256,192,86370,1,2,0:0:0:0:
109,192,86704,1,8,0:0:0:0:
256,192,87037,1,2,0:0:0:0:
109,192,87370,1,8,0:0:0:0:
256,192,87704,1,2,0:0:0:0:
109,192,88037,1,8,0:0:0:0:
256,192,88370,1,2,0:0:0:0:
402,192,88370,1,4,0:0:0:0:
109,192,88704,1,8,0:0:0:0:
256,192,89037,1,2,0:0:0:0:
109,192,89370,1,8,0:0:0:0:
256,192,89704,1,2,0:0:0:0:
109,192,90037,1,8,0:0:0:0:
256,192,90370,1,2,0:0:0:0:
109,192,90704,1,8,0:0:0:0:
256,192,91037,1,2,0:0:0:0:
109,192,91370,1,8,0:0:0:0:
256,192,91704,1,2,0:0:0:0:
109,192,92037,1,8,0:0:0:0:
256,192,92370,1,2,0:0:0:0:
109,192,92704,1,8,0:0:0:0:
109,192,93037,1,8,0:0:0:0:
109,192,93370,1,8,0:0:0:0:
256,192,93704,1,2,0:0:0:0:
402,192,93704,1,4,0:0:0:0:
475,192,93704,1,0,0:0:0:80:drum-hitfinish.wav
109,192,94037,1,8,0:0:0:0:
256,192,94370,1,2,0:0:0:0:
109,192,94704,1,8,0:0:0:0:
256,192,95037,1,2,0:0:0:0:
109,192,95370,1,8,0:0:0:0:
256,192,95704,1,2,0:0:0:0:
109,192,96037,1,8,0:0:0:0:
256,192,96370,1,2,0:0:0:0:
109,192,96704,1,8,0:0:0:0:
256,192,97037,1,2,0:0:0:0:
109,192,97370,1,8,0:0:0:0:
256,192,97704,1,2,0:0:0:0:
109,192,98037,1,8,0:0:0:0:
256,192,98370,1,2,0:0:0:0:
109,192,98704,1,8,0:0:0:0:
256,192,99037,1,2,0:0:0:0:
109,192,99370,1,8,0:0:0:0:
256,192,99704,1,2,0:0:0:0:
109,192,100037,1,8,0:0:0:0:
256,192,100370,1,2,0:0:0:0:
109,192,100704,1,8,0:0:0:0:
256,192,101037,1,2,0:0:0:0:
109,192,101370,1,8,0:0:0:0:
256,192,101704,1,2,0:0:0:0:
109,192,102037,1,8,0:0:0:0:
256,192,102370,1,2,0:0:0:0:
109,192,102704,1,8,0:0:0:0:
109,192,103204,1,8,0:0:0:0:
256,192,103204,1,2,0:0:0:0:
109,192,103704,1,8,0:0:0:0:
256,192,103704,1,2,0:0:0:0:
109,192,104037,1,8,0:0:0:0:
256,192,104037,1,2,0:0:0:0:
256,192,104370,1,2,0:0:0:0:
402,192,104370,1,4,0:0:0:0:
475,192,104370,1,0,0:0:0:80:drum-hitfinish.wav
109,192,104704,1,8,0:0:0:0:
256,192,105037,1,2,0:0:0:0:
109,192,105370,1,8,0:0:0:0:
256,192,105704,1,2,0:0:0:0:
109,192,106037,1,8,0:0:0:0:
256,192,106370,1,2,0:0:0:0:
109,192,106704,1,8,0:0:0:0:
256,192,107037,1,2,0:0:0:0:
109,192,107370,1,8,0:0:0:0:
256,192,107704,1,2,0:0:0:0:
109,192,108037,1,8,0:0:0:0:
256,192,108370,1,2,0:0:0:0:
109,192,108704,1,8,0:0:0:0:
256,192,109037,1,2,0:0:0:0:
109,192,109370,1,8,0:0:0:0:
256,192,109704,1,2,0:0:0:0:
109,192,110037,1,8,0:0:0:0:
256,192,110370,1,2,0:0:0:0:
109,192,110704,1,8,0:0:0:0:
256,192,111037,1,2,0:0:0:0:
109,192,111370,1,8,0:0:0:0:
256,192,111704,1,2,0:0:0:0:
109,192,112037,1,8,0:0:0:0:
256,192,112370,1,2,0:0:0:0:
109,192,112704,1,8,0:0:0:0:
256,192,113037,1,2,0:0:0:0:
109,192,113370,1,8,0:0:0:0:
109,192,113870,1,8,0:0:0:0:
256,192,113870,1,2,0:0:0:0:
109,192,114204,1,8,0:0:0:0:
109,192,114287,1,8,0:0:0:0:
109,192,114370,1,8,0:0:0:0:
256,192,114370,1,2,0:0:0:0:
256,192,114704,1,2,0:0:0:0:
109,192,114704,1,8,0:0:0:0:
402,192,115037,1,4,0:0:0:0:
256,192,115037,1,2,0:0:0:0:
475,192,115037,1,0,0:0:0:80:drum-hitfinish.wav
109,192,115370,1,8,0:0:0:0:
256,192,115704,1,2,0:0:0:0:
109,192,116037,1,8,0:0:0:0:
256,192,116370,1,2,0:0:0:0:
109,192,116704,1,8,0:0:0:0:
256,192,117037,1,2,0:0:0:0:
109,192,117370,1,8,0:0:0:0:
256,192,117704,1,2,0:0:0:0:
109,192,118037,1,8,0:0:0:0:
256,192,118370,1,2,0:0:0:0:
109,192,118704,1,8,0:0:0:0:
256,192,119037,1,2,0:0:0:0:
109,192,119370,1,8,0:0:0:0:
256,192,119704,1,2,0:0:0:0:
109,192,120037,1,8,0:0:0:0:
256,192,120370,1,2,0:0:0:0:
109,192,120704,1,8,0:0:0:0:
256,192,121037,1,2,0:0:0:0:
109,192,121370,1,8,0:0:0:0:
256,192,121704,1,2,0:0:0:0:
109,192,122037,1,8,0:0:0:0:
256,192,122370,1,2,0:0:0:0:
109,192,122704,1,8,0:0:0:0:
256,192,123037,1,2,0:0:0:0:
109,192,123370,1,8,0:0:0:0:
256,192,123704,1,2,0:0:0:0:
109,192,124037,1,8,0:0:0:0:
256,192,124370,1,2,0:0:0:0:
109,192,124704,1,8,0:0:0:0:
109,192,125037,1,8,0:0:0:0:
109,192,125370,1,8,0:0:0:0:
256,192,125704,1,2,0:0:0:0:
402,192,125704,1,4,0:0:0:0:
109,192,126037,1,8,0:0:0:0:
256,192,126370,1,2,0:0:0:0:
109,192,126704,1,8,0:0:0:0:
256,192,127037,1,2,0:0:0:0:
109,192,127370,1,8,0:0:0:0:
256,192,127704,1,2,0:0:0:0:
109,192,128037,1,8,0:0:0:0:
256,192,128370,1,2,0:0:0:0:
109,192,128704,1,8,0:0:0:0:
256,192,129037,1,2,0:0:0:0:
109,192,129370,1,8,0:0:0:0:
256,192,129704,1,2,0:0:0:0:
109,192,130037,1,8,0:0:0:0:
256,192,130370,1,2,0:0:0:0:
109,192,130704,1,8,0:0:0:0:
256,192,131037,1,2,0:0:0:0:
109,192,131370,1,8,0:0:0:0:
256,192,131704,1,2,0:0:0:0:
109,192,132037,1,8,0:0:0:0:
256,192,132370,1,2,0:0:0:0:
109,192,132704,1,8,0:0:0:0:
256,192,133037,1,2,0:0:0:0:
109,192,133370,1,8,0:0:0:0:
256,192,133704,1,2,0:0:0:0:
109,192,134037,1,8,0:0:0:0:
256,192,134370,1,2,0:0:0:0:
109,192,134704,1,8,0:0:0:0:
109,192,135204,1,8,0:0:0:0:
256,192,135204,1,2,0:0:0:0:
109,192,135537,1,8,0:0:0:0:
109,192,135620,1,8,0:0:0:0:
256,192,135704,1,2,0:0:0:0:
109,192,135704,1,8,0:0:0:0:
109,192,136037,1,8,0:0:0:0:
402,192,136370,1,4,0:0:0:0:
402,192,136537,1,4,0:0:0:0:
109,192,141370,1,8,0:0:0:0:
402,192,141704,1,4,0:0:0:0:
256,192,141704,1,2,0:0:0:0:
109,192,142037,1,8,0:0:0:0:
256,192,142370,1,2,0:0:0:0:
109,192,142704,1,8,0:0:0:0:
256,192,143037,1,2,0:0:0:0:
109,192,143370,1,8,0:0:0:0:
256,192,143704,1,2,0:0:0:0:
109,192,144037,1,8,0:0:0:0:
256,192,144370,1,2,0:0:0:0:
109,192,144704,1,8,0:0:0:0:
256,192,145037,1,2,0:0:0:0:
109,192,145370,1,8,0:0:0:0:
256,192,145704,1,2,0:0:0:0:
109,192,146037,1,8,0:0:0:0:
109,192,146204,1,8,0:0:0:0:
109,192,146287,1,8,0:0:0:0:
109,192,146370,1,8,0:0:0:0:
109,192,146704,1,8,0:0:0:0:
402,192,147037,1,4,0:0:0:0:
402,192,147204,1,4,0:0:0:0:
402,192,149537,1,4,0:0:0:0:
402,192,149870,1,4,0:0:0:0:
109,192,152037,1,8,0:0:0:0:
402,192,152370,1,4,0:0:0:0:
256,192,152370,1,2,0:0:0:0:
109,192,152704,1,8,0:0:0:0:
256,192,153037,1,2,0:0:0:0:
109,192,153370,1,8,0:0:0:0:
256,192,153704,1,2,0:0:0:0:
109,192,154037,1,8,0:0:0:0:
256,192,154370,1,2,0:0:0:0:
109,192,154704,1,8,0:0:0:0:
256,192,155037,1,2,0:0:0:0:
109,192,155370,1,8,0:0:0:0:
256,192,155704,1,2,0:0:0:0:
109,192,156037,1,8,0:0:0:0:
256,192,156370,1,2,0:0:0:0:
109,192,156704,1,8,0:0:0:0:
109,192,156870,1,8,0:0:0:0:
109,192,156954,1,8,0:0:0:0:
109,192,157037,1,8,0:0:0:0:
109,192,157370,1,8,0:0:0:0:
256,192,157370,1,2,0:0:0:0:
109,192,157704,1,8,0:0:0:20:soft-hitclap.wav
109,192,157787,1,8,0:0:0:20:soft-hitclap.wav
109,192,157870,1,8,0:0:0:20:soft-hitclap.wav
109,192,157954,1,8,0:0:0:20:soft-hitclap.wav
109,192,158037,1,8,0:0:0:20:soft-hitclap.wav
109,192,158120,1,8,0:0:0:20:soft-hitclap.wav
109,192,158204,1,8,0:0:0:20:soft-hitclap.wav
109,192,158287,1,8,0:0:0:20:soft-hitclap.wav
109,192,158370,1,8,0:0:0:20:soft-hitclap.wav
109,192,158454,1,8,0:0:0:20:soft-hitclap.wav
109,192,158537,1,8,0:0:0:20:soft-hitclap.wav
109,192,158620,1,8,0:0:0:20:soft-hitclap.wav
109,192,158704,1,8,0:0:0:20:soft-hitclap.wav
109,192,158787,1,8,0:0:0:20:soft-hitclap.wav
109,192,158870,1,8,0:0:0:20:soft-hitclap.wav
109,192,158954,1,8,0:0:0:20:soft-hitclap.wav
109,192,159037,1,8,0:0:0:20:soft-hitclap.wav
109,192,159120,1,8,0:0:0:20:soft-hitclap.wav
109,192,159204,1,8,0:0:0:20:soft-hitclap.wav
109,192,159287,1,8,0:0:0:20:soft-hitclap.wav
109,192,159370,1,8,0:0:0:20:soft-hitclap.wav
109,192,159454,1,8,0:0:0:20:soft-hitclap.wav
109,192,159537,1,8,0:0:0:20:soft-hitclap.wav
109,192,159620,1,8,0:0:0:20:soft-hitclap.wav
109,192,159704,1,8,0:0:0:20:soft-hitclap.wav
109,192,159787,1,8,0:0:0:20:soft-hitclap.wav
109,192,159870,1,8,0:0:0:20:soft-hitclap.wav
109,192,159954,1,8,0:0:0:20:soft-hitclap.wav
109,192,160037,1,8,0:0:0:20:soft-hitclap.wav
109,192,160120,1,8,0:0:0:20:soft-hitclap.wav
109,192,160204,1,8,0:0:0:20:soft-hitclap.wav
109,192,160287,1,8,0:0:0:20:soft-hitclap.wav
109,192,160370,1,8,0:0:0:20:soft-hitclap.wav
109,192,160454,1,8,0:0:0:20:soft-hitclap.wav
109,192,160537,1,8,0:0:0:20:soft-hitclap.wav
109,192,160620,1,8,0:0:0:20:soft-hitclap.wav
109,192,160704,1,8,0:0:0:20:soft-hitclap.wav
109,192,160787,1,8,0:0:0:20:soft-hitclap.wav
109,192,160870,1,8,0:0:0:20:soft-hitclap.wav
109,192,160954,1,8,0:0:0:20:soft-hitclap.wav
109,192,161037,1,8,0:0:0:20:soft-hitclap.wav
109,192,161120,1,8,0:0:0:20:soft-hitclap.wav
109,192,161204,1,8,0:0:0:20:soft-hitclap.wav
109,192,161287,1,8,0:0:0:20:soft-hitclap.wav
109,192,161370,1,8,0:0:0:20:soft-hitclap.wav
109,192,161454,1,8,0:0:0:20:soft-hitclap.wav
109,192,161537,1,8,0:0:0:20:soft-hitclap.wav
109,192,161620,1,8,0:0:0:20:soft-hitclap.wav
109,192,161704,1,8,0:0:0:20:soft-hitclap.wav
109,192,161787,1,8,0:0:0:20:soft-hitclap.wav
109,192,161870,1,8,0:0:0:20:soft-hitclap.wav
109,192,161954,1,8,0:0:0:20:soft-hitclap.wav
109,192,162037,1,8,0:0:0:20:soft-hitclap.wav
109,192,162120,1,8,0:0:0:20:soft-hitclap.wav
109,192,162204,1,8,0:0:0:20:soft-hitclap.wav
109,192,162287,1,8,0:0:0:20:soft-hitclap.wav
109,192,162370,1,8,0:0:0:20:soft-hitclap.wav
109,192,162454,1,8,0:0:0:20:soft-hitclap.wav
109,192,162537,1,8,0:0:0:20:soft-hitclap.wav
109,192,162620,1,8,0:0:0:20:soft-hitclap.wav
109,192,162704,1,8,0:0:0:0:
256,192,162704,1,2,0:0:0:0:
109,192,163037,1,8,0:0:0:0:
256,192,163037,1,2,0:0:0:0:
109,192,163537,1,8,0:0:0:0:
256,192,163537,1,2,0:0:0:0:
109,192,164037,1,8,0:0:0:0:
256,192,164037,1,2,0:0:0:0:
402,192,164370,1,4,0:0:0:0:
256,192,164370,1,2,0:0:0:0:
109,192,165370,1,8,0:0:0:0:
475,192,165704,1,0,0:0:0:80:drum-hitfinish.wav
256,192,165704,1,2,0:0:0:0:
402,192,165704,1,4,0:0:0:0:
109,192,166037,1,8,0:0:0:0:
256,192,166370,1,2,0:0:0:0:
109,192,166704,1,8,0:0:0:0:
256,192,167037,1,2,0:0:0:0:
109,192,167370,1,8,0:0:0:0:
256,192,167704,1,2,0:0:0:0:
109,192,168037,1,8,0:0:0:0:
256,192,168370,1,2,0:0:0:0:
109,192,168704,1,8,0:0:0:0:
256,192,169037,1,2,0:0:0:0:
109,192,169370,1,8,0:0:0:0:
256,192,169704,1,2,0:0:0:0:
109,192,170037,1,8,0:0:0:0:
256,192,170370,1,2,0:0:0:0:
109,192,170704,1,8,0:0:0:0:
256,192,171037,1,2,0:0:0:0:
402,192,171037,1,4,0:0:0:0:
109,192,171370,1,8,0:0:0:0:
256,192,171704,1,2,0:0:0:0:
109,192,172037,1,8,0:0:0:0:
256,192,172370,1,2,0:0:0:0:
109,192,172704,1,8,0:0:0:0:
256,192,173037,1,2,0:0:0:0:
109,192,173370,1,8,0:0:0:0:
256,192,173704,1,2,0:0:0:0:
109,192,173704,1,8,0:0:0:0:
109,192,174204,1,8,0:0:0:0:
256,192,174204,1,2,0:0:0:0:
109,192,174704,1,8,0:0:0:0:
256,192,174704,1,2,0:0:0:0:
256,192,175204,1,2,0:0:0:0:
109,192,175204,1,8,0:0:0:0:
256,192,175704,1,2,0:0:0:0:
109,192,175704,1,8,0:0:0:0:
256,192,176037,1,2,0:0:0:0:
109,192,176037,1,8,0:0:0:0:
256,192,176370,1,2,0:0:0:0:
402,192,176370,1,4,0:0:0:0:
109,192,176704,1,8,0:0:0:0:
256,192,177037,1,2,0:0:0:0:
109,192,177370,1,8,0:0:0:0:
256,192,177704,1,2,0:0:0:0:
109,192,178037,1,8,0:0:0:0:
256,192,178370,1,2,0:0:0:0:
109,192,178704,1,8,0:0:0:0:
256,192,179037,1,2,0:0:0:0:
109,192,179370,1,8,0:0:0:0:
256,192,179704,1,2,0:0:0:0:
109,192,180037,1,8,0:0:0:0:
256,192,180370,1,2,0:0:0:0:
109,192,180704,1,8,0:0:0:0:
256,192,181037,1,2,0:0:0:0:
109,192,181370,1,8,0:0:0:0:
256,192,181704,1,2,0:0:0:0:
402,192,181704,1,4,0:0:0:0:
109,192,182037,1,8,0:0:0:0:
256,192,182370,1,2,0:0:0:0:
109,192,182704,1,8,0:0:0:0:
256,192,183037,1,2,0:0:0:0:
109,192,183370,1,8,0:0:0:0:
256,192,183704,1,2,0:0:0:0:
109,192,184037,1,8,0:0:0:0:
256,192,184370,1,2,0:0:0:0:
109,192,184704,1,8,0:0:0:0:
256,192,185037,1,2,0:0:0:0:
109,192,185370,1,8,0:0:0:0:
256,192,185704,1,2,0:0:0:0:
109,192,186037,1,8,0:0:0:0:
109,192,186370,1,8,0:0:0:0:
109,192,186704,1,8,0:0:0:0:
256,192,187037,1,2,0:0:0:0:
402,192,187037,1,4,0:0:0:0:
475,192,187037,1,0,0:0:0:80:drum-hitfinish.wav
402,192,189704,1,4,0:0:0:0:
256,192,189704,1,2,0:0:0:0:
256,192,191037,1,2,0:0:0:0:
402,192,191037,1,4,0:0:0:0:
402,192,192370,1,4,0:0:0:0:
256,192,192370,1,2,0:0:0:0:
475,192,192370,1,0,0:0:0:80:drum-hitfinish.wav
402,192,195037,1,4,0:0:0:0:
256,192,195037,1,2,0:0:0:0:
402,192,196537,1,4,0:0:0:0:
256,192,196537,1,2,0:0:0:0:
109,192,196537,1,8,0:0:0:0:
109,192,197037,1,8,0:0:0:20:soft-hitclap.wav
109,192,197120,1,8,0:0:0:20:soft-hitclap.wav
109,192,197204,1,8,0:0:0:20:soft-hitclap.wav
109,192,197287,1,8,0:0:0:20:soft-hitclap.wav
109,192,197370,1,8,0:0:0:20:soft-hitclap.wav
109,192,197454,1,8,0:0:0:20:soft-hitclap.wav
109,192,197537,1,8,0:0:0:20:soft-hitclap.wav
109,192,197620,1,8,0:0:0:20:soft-hitclap.wav
475,192,197704,1,0,0:0:0:80:drum-hitfinish.wav
256,192,197704,1,2,0:0:0:0:
402,192,197704,1,4,0:0:0:0:
109,192,197704,1,8,0:0:0:0:
109,192,198037,1,8,0:0:0:0:
256,192,198370,1,2,0:0:0:0:
109,192,198704,1,8,0:0:0:0:
256,192,199037,1,2,0:0:0:0:
109,192,199370,1,8,0:0:0:0:
256,192,199704,1,2,0:0:0:0:
109,192,200037,1,8,0:0:0:0:
256,192,200370,1,2,0:0:0:0:
109,192,200704,1,8,0:0:0:0:
256,192,201037,1,2,0:0:0:0:
109,192,201370,1,8,0:0:0:0:
256,192,201704,1,2,0:0:0:0:
109,192,202037,1,8,0:0:0:0:
256,192,202370,1,2,0:0:0:0:
109,192,202704,1,8,0:0:0:0:
402,192,203037,1,4,0:0:0:0:
256,192,203037,1,2,0:0:0:0:
109,192,203370,1,8,0:0:0:0:
256,192,203704,1,2,0:0:0:0:
109,192,204037,1,8,0:0:0:0:
256,192,204370,1,2,0:0:0:0:
109,192,204704,1,8,0:0:0:0:
256,192,205037,1,2,0:0:0:0:
109,192,205370,1,8,0:0:0:0:
109,192,205704,1,8,0:0:0:0:
256,192,205704,1,2,0:0:0:0:
109,192,206204,1,8,0:0:0:0:
256,192,206204,1,2,0:0:0:0:
109,192,206704,1,8,0:0:0:0:
256,192,206704,1,2,0:0:0:0:
256,192,207204,1,2,0:0:0:0:
109,192,207204,1,8,0:0:0:0:
109,192,207704,1,8,0:0:0:0:
256,192,207704,1,2,0:0:0:0:
109,192,208037,1,8,0:0:0:0:
256,192,208037,1,2,0:0:0:0:
256,192,208370,1,2,0:0:0:0:
402,192,208370,1,4,0:0:0:0:
109,192,208704,1,8,0:0:0:0:
256,192,209037,1,2,0:0:0:0:
109,192,209370,1,8,0:0:0:0:
256,192,209704,1,2,0:0:0:0:
109,192,210037,1,8,0:0:0:0:
256,192,210370,1,2,0:0:0:0:
109,192,210704,1,8,0:0:0:0:
256,192,211037,1,2,0:0:0:0:
109,192,211370,1,8,0:0:0:0:
256,192,211704,1,2,0:0:0:0:
109,192,212037,1,8,0:0:0:0:
256,192,212370,1,2,0:0:0:0:
109,192,212704,1,8,0:0:0:0:
256,192,213037,1,2,0:0:0:0:
109,192,213370,1,8,0:0:0:0:
402,192,213704,1,4,0:0:0:0:
256,192,213704,1,2,0:0:0:0:
109,192,214037,1,8,0:0:0:0:
256,192,214370,1,2,0:0:0:0:
109,192,214704,1,8,0:0:0:0:
256,192,215037,1,2,0:0:0:0:
109,192,215370,1,8,0:0:0:0:
256,192,215704,1,2,0:0:0:0:
109,192,216037,1,8,0:0:0:0:
256,192,216370,1,2,0:0:0:0:
109,192,216704,1,8,0:0:0:0:
256,192,217037,1,2,0:0:0:0:
109,192,217370,1,8,0:0:0:0:
256,192,217704,1,2,0:0:0:0:
109,192,218037,1,8,0:0:0:0:
109,192,218370,1,8,0:0:0:0:
109,192,218704,1,8,0:0:0:0:
402,192,219037,1,4,0:0:0:0:
256,192,219037,1,2,0:0:0:0:
475,192,219037,1,0,0:0:0:80:drum-hitfinish.wav
109,192,224370,5,8,0:0:0:0:
256,192,224370,1,2,0:0:0:0:
256,192,235037,5,2,0:0:0:0:
256,192,235370,1,2,0:0:0:0:
256,192,235704,1,2,0:0:0:0:
256,192,236037,1,2,0:0:0:0:
256,192,236370,1,2,0:0:0:0:
256,192,236704,1,2,0:0:0:0:
256,192,237037,1,2,0:0:0:0:
256,192,237370,1,2,0:0:0:0:
256,192,237704,1,2,0:0:0:0:
256,192,238037,1,2,0:0:0:0:
256,192,238370,1,2,0:0:0:0:
256,192,238704,1,2,0:0:0:0:
256,192,239037,1,2,0:0:0:0:
256,192,239370,1,2,0:0:0:0:
256,192,239704,1,2,0:0:0:0:
256,192,240037,1,2,0:0:0:0:
256,192,240370,1,2,0:0:0:0:
256,192,240704,1,2,0:0:0:0:
256,192,241037,1,2,0:0:0:0:
256,192,241370,1,2,0:0:0:0:
256,192,241704,1,2,0:0:0:0:
256,192,242037,1,2,0:0:0:0:
256,192,242370,1,2,0:0:0:0:
256,192,242704,1,2,0:0:0:0:
256,192,243037,1,2,0:0:0:0:
256,192,243370,1,2,0:0:0:0:
256,192,243704,1,2,0:0:0:0:
256,192,244037,1,2,0:0:0:0:
256,192,244704,1,2,0:0:0:0:
109,192,245370,1,8,0:0:0:0:
109,192,245537,1,8,0:0:0:0:
109,192,245620,1,8,0:0:0:0:
475,192,245704,1,0,0:0:0:80:drum-hitfinish.wav
256,192,245704,1,2,0:0:0:0:
402,192,245704,1,4,0:0:0:0:
109,192,246037,1,8,0:0:0:0:
256,192,246370,1,2,0:0:0:0:
109,192,246704,1,8,0:0:0:0:
256,192,247037,1,2,0:0:0:0:
109,192,247370,1,8,0:0:0:0:
256,192,247704,1,2,0:0:0:0:
109,192,248037,1,8,0:0:0:0:
256,192,248370,1,2,0:0:0:0:
109,192,248704,1,8,0:0:0:0:
256,192,249037,1,2,0:0:0:0:
109,192,249370,1,8,0:0:0:0:
256,192,249704,1,2,0:0:0:0:
109,192,250037,1,8,0:0:0:0:
256,192,250370,1,2,0:0:0:0:
109,192,250704,1,8,0:0:0:0:
256,192,251037,1,2,0:0:0:0:
402,192,251037,1,4,0:0:0:0:
109,192,251370,1,8,0:0:0:0:
256,192,251704,1,2,0:0:0:0:
109,192,252037,1,8,0:0:0:0:
256,192,252370,1,2,0:0:0:0:
109,192,252704,1,8,0:0:0:0:
256,192,253037,1,2,0:0:0:0:
109,192,253370,1,8,0:0:0:0:
256,192,253704,1,2,0:0:0:0:
109,192,253704,1,8,0:0:0:0:
109,192,254204,1,8,0:0:0:0:
256,192,254204,1,2,0:0:0:0:
109,192,254704,1,8,0:0:0:0:
256,192,254704,1,2,0:0:0:0:
256,192,255204,1,2,0:0:0:0:
109,192,255204,1,8,0:0:0:0:
256,192,255704,1,2,0:0:0:0:
109,192,255704,1,8,0:0:0:0:
256,192,256037,1,2,0:0:0:0:
109,192,256037,1,8,0:0:0:0:
256,192,256370,1,2,0:0:0:0:
402,192,256370,1,4,0:0:0:0:
109,192,256370,1,8,0:0:0:0:
109,192,256704,1,8,0:0:0:0:
109,192,257037,1,8,0:0:0:0:
109,192,257370,1,8,0:0:0:0:
109,192,257704,1,8,0:0:0:0:
109,192,258037,1,8,0:0:0:0:
109,192,258370,1,8,0:0:0:0:
109,192,258704,1,8,0:0:0:0:
109,192,259037,1,8,0:0:0:0:
109,192,259370,1,8,0:0:0:0:
109,192,259704,1,8,0:0:0:0:
109,192,260037,1,8,0:0:0:0:
109,192,260370,1,8,0:0:0:0:
109,192,260704,1,8,0:0:0:0:
109,192,261037,1,8,0:0:0:0:
109,192,261370,1,8,0:0:0:0:
256,192,261704,1,2,0:0:0:0:
402,192,261704,1,4,0:0:0:0:
109,192,261704,1,8,0:0:0:0:
109,192,262037,1,8,0:0:0:0:
109,192,262370,1,8,0:0:0:0:
109,192,262704,1,8,0:0:0:0:
109,192,263037,1,8,0:0:0:0:
109,192,263370,1,8,0:0:0:0:
109,192,263704,1,8,0:0:0:0:
109,192,264037,1,8,0:0:0:0:
109,192,264370,1,8,0:0:0:0:
109,192,264704,1,8,0:0:0:0:
109,192,265037,1,8,0:0:0:0:
109,192,265370,1,8,0:0:0:0:
256,192,265370,1,2,0:0:0:0:
109,192,266037,1,8,0:0:0:0:
256,192,266037,1,2,0:0:0:0:
109,192,266370,1,8,0:0:0:0:
256,192,267037,1,2,0:0:0:0:
402,192,267037,1,4,0:0:0:0:
475,192,267037,1,0,0:0:0:80:drum-hitfinish.wav
109,192,267370,1,8,0:0:0:0:
256,192,267704,1,2,0:0:0:0:
109,192,268037,1,8,0:0:0:0:
256,192,268370,1,2,0:0:0:0:
109,192,268704,1,8,0:0:0:0:
256,192,269037,1,2,0:0:0:0:
109,192,269370,1,8,0:0:0:0:
256,192,269704,1,2,0:0:0:0:
109,192,270037,1,8,0:0:0:0:
256,192,270370,1,2,0:0:0:0:
109,192,270704,1,8,0:0:0:0:
256,192,271037,1,2,0:0:0:0:
109,192,271370,1,8,0:0:0:0:
256,192,271704,1,2,0:0:0:0:
109,192,272037,1,8,0:0:0:0:
256,192,272370,1,2,0:0:0:0:
109,192,272704,1,8,0:0:0:0:
256,192,273037,1,2,0:0:0:0:
109,192,273370,1,8,0:0:0:0:
256,192,273704,1,2,0:0:0:0:
109,192,274037,1,8,0:0:0:0:
256,192,274370,1,2,0:0:0:0:
109,192,274704,1,8,0:0:0:0:
256,192,275037,1,2,0:0:0:0:
109,192,275370,1,8,0:0:0:0:
256,192,275704,1,2,0:0:0:0:
109,192,276037,1,8,0:0:0:0:
109,192,276537,1,8,0:0:0:0:
256,192,276537,1,2,0:0:0:0:
109,192,277037,1,8,0:0:0:0:
256,192,277037,1,2,0:0:0:0:
109,192,277370,1,8,0:0:0:0:
256,192,277370,1,2,0:0:0:0:
256,192,277704,1,2,0:0:0:0:
402,192,277704,1,4,0:0:0:0:
475,192,277704,1,0,0:0:0:80:drum-hitfinish.wav
109,192,278037,1,8,0:0:0:0:
256,192,278370,1,2,0:0:0:0:
109,192,278704,1,8,0:0:0:0:
256,192,279037,1,2,0:0:0:0:
109,192,279370,1,8,0:0:0:0:
256,192,279704,1,2,0:0:0:0:
109,192,280037,1,8,0:0:0:0:
256,192,280370,1,2,0:0:0:0:
109,192,280704,1,8,0:0:0:0:
256,192,281037,1,2,0:0:0:0:
109,192,281370,1,8,0:0:0:0:
256,192,281704,1,2,0:0:0:0:
109,192,282037,1,8,0:0:0:0:
256,192,282370,1,2,0:0:0:0:
109,192,282704,1,8,0:0:0:0:
256,192,283037,1,2,0:0:0:0:
109,192,283370,1,8,0:0:0:0:
256,192,283704,1,2,0:0:0:0:
109,192,284037,1,8,0:0:0:0:
256,192,284370,1,2,0:0:0:0:
109,192,284704,1,8,0:0:0:0:
256,192,285037,1,2,0:0:0:0:
109,192,285370,1,8,0:0:0:0:
256,192,285704,1,2,0:0:0:0:
109,192,286037,1,8,0:0:0:0:
256,192,286370,1,2,0:0:0:0:
109,192,286704,1,8,0:0:0:0:
109,192,287204,1,8,0:0:0:0:
256,192,287204,1,2,0:0:0:0:
109,192,287537,1,8,0:0:0:0:
109,192,287620,1,8,0:0:0:0:
109,192,287704,1,8,0:0:0:0:
256,192,287704,1,2,0:0:0:0:
109,192,288037,1,8,0:0:0:0:
256,192,288037,1,2,0:0:0:0:
475,192,288370,1,0,0:0:0:80:drum-hitfinish.wav
256,192,288370,1,2,0:0:0:0:
402,192,288370,1,4,0:0:0:0:
109,192,288704,1,8,0:0:0:0:
256,192,289037,1,2,0:0:0:0:
109,192,289370,1,8,0:0:0:0:
256,192,289704,1,2,0:0:0:0:
109,192,290037,1,8,0:0:0:0:
256,192,290370,1,2,0:0:0:0:
109,192,290704,1,8,0:0:0:0:
256,192,291037,1,2,0:0:0:0:
402,192,291037,1,4,0:0:0:0:
109,192,291370,1,8,0:0:0:0:
256,192,291704,1,2,0:0:0:0:
109,192,292037,1,8,0:0:0:0:
256,192,292370,1,2,0:0:0:0:
109,192,292704,1,8,0:0:0:0:
256,192,293037,1,2,0:0:0:0:
109,192,293370,1,8,0:0:0:0:
256,192,293704,1,2,0:0:0:0:
402,192,293704,1,4,0:0:0:0:
109,192,294037,1,8,0:0:0:0:
256,192,294370,1,2,0:0:0:0:
109,192,294704,1,8,0:0:0:0:
256,192,295037,1,2,0:0:0:0:
109,192,295370,1,8,0:0:0:0:
256,192,295704,1,2,0:0:0:0:
109,192,296037,1,8,0:0:0:0:
256,192,296370,1,2,0:0:0:0:
402,192,296370,1,4,0:0:0:0:
109,192,296704,1,8,0:0:0:0:
256,192,297037,1,2,0:0:0:0:
109,192,297370,1,8,0:0:0:0:
256,192,297704,1,2,0:0:0:0:
109,192,298037,1,8,0:0:0:0:
256,192,298037,1,2,0:0:0:0:
109,192,298370,1,8,0:0:0:0:
402,192,298370,1,4,0:0:0:0:
109,192,298704,1,8,0:0:0:0:
256,192,298704,1,2,0:0:0:0:
256,192,299037,1,2,0:0:0:0:
402,192,299037,1,4,0:0:0:0:
475,192,299037,1,0,0:0:0:80:drum-hitfinish.wav
109,192,299370,1,8,0:0:0:0:
256,192,299704,1,2,0:0:0:0:
109,192,300037,1,8,0:0:0:0:
256,192,300370,1,2,0:0:0:0:
109,192,300704,1,8,0:0:0:0:
256,192,301037,1,2,0:0:0:0:
109,192,301370,1,8,0:0:0:0:
256,192,301704,1,2,0:0:0:0:
402,192,301704,1,4,0:0:0:0:
109,192,302037,1,8,0:0:0:0:
256,192,302370,1,2,0:0:0:0:
109,192,302704,1,8,0:0:0:0:
256,192,303037,1,2,0:0:0:0:
109,192,303370,1,8,0:0:0:0:
256,192,303704,1,2,0:0:0:0:
109,192,304037,1,8,0:0:0:0:
402,192,304370,1,4,0:0:0:0:
256,192,304370,1,2,0:0:0:0:
109,192,304704,1,8,0:0:0:0:
256,192,305037,1,2,0:0:0:0:
109,192,305370,1,8,0:0:0:0:
256,192,305704,1,2,0:0:0:0:
109,192,306037,1,8,0:0:0:0:
256,192,306370,1,2,0:0:0:0:
109,192,306704,1,8,0:0:0:0:
256,192,307037,1,2,0:0:0:0:
402,192,307037,1,4,0:0:0:0:
109,192,307370,1,8,0:0:0:0:
256,192,307704,1,2,0:0:0:0:
109,192,308037,1,8,0:0:0:0:
109,192,308537,1,8,0:0:0:0:
256,192,308537,1,2,0:0:0:0:
109,192,308870,1,8,0:0:0:0:
109,192,308954,1,8,0:0:0:0:
109,192,309037,1,8,0:0:0:0:
109,192,309370,1,8,0:0:0:0:
402,192,309704,1,4,0:0:0:0:
256,192,309704,1,2,0:0:0:0:
475,192,309704,1,0,0:0:0:80:drum-hitfinish.wav
