osu file format v14

[General]
AudioFilename: audio.mp3
AudioLeadIn: 0
PreviewTime: 71704
Countdown: 0
SampleSet: Normal
StackLeniency: 0.3
Mode: 1
LetterboxInBreaks: 0
EpilepsyWarning: 1
WidescreenStoryboard: 1

[Editor]
Bookmarks: 32335
DistanceSpacing: 2.2
BeatDivisor: 4
GridSize: 32
TimelineZoom: 1.9

[Metadata]
Title:runaway(Halozy Mix)
TitleUnicode:runaway(Halozy Mix)
Artist:Minase Mashiro
ArtistUnicode:水瀬ましろ
Creator:Zxozmo
Version:Taiko Tension
Source:東方星蓮船 ~ Undefined Fantastic Object.
Tags:HLZY-0026 Grand Slam Studio Comiket Comic Market 91 C91 アサヒ Asahi 法界の火 東方Project Touhou Seirensen Star Lotus Ship Team Shanghai Alice ZUN 法界の火 Fires of Hokkai no Hi 感情の摩天楼 Kanjou no Matenrou Emotional Skyscraper Cosmic Mind Stage 6 Boss Theme 聖 白蓮 Hijiri Byakuren Doujin xtrem3x Envory PeterEU Fadillsan
BeatmapID:1455564
BeatmapSetID:612157

[Difficulty]
HPDrainRate:6.6
CircleSize:2
OverallDifficulty:6.6
ApproachRate:6
SliderMultiplier:1.4
SliderTickRate:1

[Events]
//Background and Video events
0,0,"Staff.jpg",0,0
//Break Periods
//Storyboard Layer 0 (Background)
//Storyboard Layer 1 (Fail)
//Storyboard Layer 2 (Pass)
//Storyboard Layer 3 (Foreground)
Sprite,Foreground,Centre,"SB\GD1.png",320,240 S,0,11048,,0.8021819 M,0,11048,11215,966.4001,389.5273,544.0001,387.7818 M,0,11215,13548,544.0001,387.7818,446.6588,386.6391 M,0,13548,13715,446.6588,386.6391,436.7679,386.6391
//Storyboard Sound Samples

[TimingPoints]
371,333.333333333333,4,1,0,40,1,0
371,-200,4,1,0,50,0,0
11037,-133.333333333333,4,1,0,60,0,0
21704,-100,4,1,0,80,0,0
45704,-100,4,1,0,40,0,0
48037,-100,4,1,0,80,0,0
56037,-100,4,1,0,40,0,0
58704,-100,4,1,0,80,0,0
72370,-100,4,1,0,80,0,1
82870,-100,4,1,0,80,0,0
83037,-100,4,1,0,80,0,1
93370,-100,4,1,0,80,0,0
139037,-100,4,1,0,40,0,0
141370,-100,4,1,0,80,0,0
149370,-100,4,1,0,40,0,0
152037,-100,4,1,0,80,0,0
165704,-100,4,1,0,80,0,1
176204,-100,4,1,0,80,0,0
176370,-100,4,1,0,80,0,1
187037,-125,4,1,0,80,0,0
189704,-200,4,1,0,40,0,0
197704,-100,4,1,0,80,0,0
224370,-200,4,1,0,40,0,0
235037,-133.333333333333,4,1,0,60,0,0
245037,-40,4,1,0,80,0,0
245704,-100,4,1,0,80,0,1
256037,-100,4,1,0,80,0,0
256370,-100,4,1,0,80,0,1
269537,-100,4,1,0,80,0,0
288370,-100,4,1,0,80,0,1
309704,-111.111111111111,4,1,0,70,0,0
312370,-125,4,1,0,60,0,0
315037,-142.857142857143,4,1,0,50,0,0
317704,-166.666666666667,4,1,0,30,0,0
319704,-200,4,1,0,20,0,0

[Colours]
Combo1 : 67,52,254
Combo2 : 241,1,241
Combo3 : 247,242,79
Combo4 : 18,245,35
Combo5 : 255,0,0

[HitObjects]
256,192,371,5,2,0:0:0:0:
256,192,870,1,2,0:0:0:0:
256,192,1370,1,2,0:0:0:0:
256,192,1870,1,2,0:0:0:0:
256,192,2370,1,0,0:0:0:0:
256,192,2704,1,0,0:0:0:0:
256,192,3037,1,2,0:0:0:0:
256,192,3537,1,2,0:0:0:0:
256,192,4037,1,2,0:0:0:0:
256,192,4537,1,2,0:0:0:0:
256,192,5037,1,0,0:0:0:0:
256,192,5370,1,0,0:0:0:0:
256,192,5704,1,2,0:0:0:0:
256,192,6204,1,2,0:0:0:0:
256,192,6704,1,2,0:0:0:0:
256,192,7204,1,2,0:0:0:0:
256,192,7704,1,0,0:0:0:0:
256,192,8037,1,0,0:0:0:0:
256,192,8370,1,2,0:0:0:0:
256,192,8870,1,2,0:0:0:0:
256,192,9370,1,2,0:0:0:0:
256,192,9870,1,2,0:0:0:0:
256,192,10370,1,2,0:0:0:0:
256,192,10704,1,2,0:0:0:0:
256,192,11037,1,4,0:0:0:0:
256,192,11370,1,0,0:0:0:0:
256,192,11537,1,0,0:0:0:0:
256,192,11704,1,0,0:0:0:0:
256,192,12037,1,0,0:0:0:0:
256,192,12370,1,0,0:0:0:0:
256,192,12537,1,0,0:0:0:0:
256,192,12704,1,0,0:0:0:0:
256,192,13037,1,0,0:0:0:0:
256,192,13370,1,0,0:0:0:0:
256,192,13704,1,4,0:0:0:0:
256,192,14037,1,0,0:0:0:0:
256,192,14204,1,0,0:0:0:0:
256,192,14370,1,0,0:0:0:0:
256,192,14704,1,0,0:0:0:0:
256,192,15037,1,4,0:0:0:0:
256,192,15370,1,0,0:0:0:0:
256,192,15537,1,0,0:0:0:0:
256,192,15704,1,0,0:0:0:0:
256,192,16037,1,0,0:0:0:0:
256,192,16370,1,4,0:0:0:0:
256,192,16704,1,0,0:0:0:0:
256,192,16870,1,0,0:0:0:0:
256,192,17038,1,0,0:0:0:0:
256,192,17370,1,0,0:0:0:0:
256,192,17704,1,0,0:0:0:0:
256,192,17870,1,8,0:0:0:0:
256,192,18037,1,0,0:0:0:0:
256,192,18204,1,0,0:0:0:0:
256,192,18370,1,8,0:0:0:0:
256,192,18704,1,8,0:0:0:0:
256,192,19037,1,4,0:0:0:0:
256,192,19370,1,8,0:0:0:0:
256,192,19537,1,0,0:0:0:0:
256,192,19620,1,0,0:0:0:0:
256,192,19704,1,0,0:0:0:0:
256,192,19870,1,8,0:0:0:0:
256,192,20037,1,8,0:0:0:0:
256,192,20204,1,8,0:0:0:0:
256,192,20370,1,0,0:0:0:0:
256,192,20454,1,0,0:0:0:0:
256,192,20537,1,0,0:0:0:0:
256,192,20870,1,8,0:0:0:0:
256,192,21037,1,4,0:0:0:0:
256,192,21370,1,4,0:0:0:0:
256,192,21704,1,12,0:0:0:0:
256,192,22037,1,0,0:0:0:0:
256,192,22204,1,8,0:0:0:0:
256,192,22370,1,0,0:0:0:0:
256,192,22537,1,0,0:0:0:0:
256,192,22704,1,8,0:0:0:0:
256,192,23037,1,0,0:0:0:0:
256,192,23204,1,8,0:0:0:0:
256,192,23370,1,0,0:0:0:0:
256,192,23537,1,0,0:0:0:0:
256,192,23620,1,0,0:0:0:0:
256,192,23704,1,8,0:0:0:0:
256,192,23870,1,0,0:0:0:0:
256,192,24037,1,8,0:0:0:0:
256,192,24204,1,0,0:0:0:0:
256,192,24370,1,8,0:0:0:0:
256,192,24704,1,0,0:0:0:0:
256,192,24870,1,8,0:0:0:0:
256,192,25037,1,0,0:0:0:0:
256,192,25204,1,0,0:0:0:0:
256,192,25370,1,8,0:0:0:0:
256,192,25704,1,0,0:0:0:0:
256,192,25870,1,8,0:0:0:0:
256,192,25954,1,0,0:0:0:0:
256,192,26037,1,0,0:0:0:0:
256,192,26204,1,0,0:0:0:0:
256,192,26370,1,8,0:0:0:0:
256,192,26537,1,0,0:0:0:0:
256,192,26704,1,8,0:0:0:0:
256,192,26787,1,0,0:0:0:0:
256,192,26871,1,0,0:0:0:0:
256,192,26954,1,0,0:0:0:0:
256,192,27037,1,8,0:0:0:0:
256,192,27370,1,0,0:0:0:0:
256,192,27537,1,8,0:0:0:0:
256,192,27704,1,0,0:0:0:0:
256,192,27871,1,0,0:0:0:0:
256,192,28037,1,8,0:0:0:0:
256,192,28370,1,0,0:0:0:0:
256,192,28537,1,8,0:0:0:0:
256,192,28620,1,0,0:0:0:0:
256,192,28704,1,8,0:0:0:0:
256,192,28870,1,0,0:0:0:0:
256,192,29037,1,8,0:0:0:0:
256,192,29121,1,0,0:0:0:0:
256,192,29204,1,0,0:0:0:0:
256,192,29287,1,0,0:0:0:0:
256,192,29370,1,8,0:0:0:0:
256,192,29537,1,8,0:0:0:0:
256,192,29704,1,8,0:0:0:0:
256,192,29871,1,0,0:0:0:0:
256,192,29954,1,0,0:0:0:0:
256,192,30037,1,0,0:0:0:0:
256,192,30204,1,8,0:0:0:0:
256,192,30371,1,0,0:0:0:0:
256,192,30454,1,0,0:0:0:0:
256,192,30537,1,0,0:0:0:0:
256,192,30704,1,8,0:0:0:0:
256,192,30871,1,0,0:0:0:0:
256,192,30954,1,0,0:0:0:0:
256,192,31037,1,0,0:0:0:0:
256,192,31204,1,8,0:0:0:0:
256,192,31370,1,8,0:0:0:0:
256,192,31537,1,0,0:0:0:0:
256,192,31620,1,0,0:0:0:0:
256,192,31704,1,8,0:0:0:0:
256,192,31870,1,8,0:0:0:0:
256,192,32037,1,8,0:0:0:0:
256,192,32204,1,0,0:0:0:0:
256,192,32370,1,12,0:0:0:0:
256,192,32704,1,0,0:0:0:0:
256,192,32870,1,8,0:0:0:0:
256,192,33037,1,0,0:0:0:0:
256,192,33204,1,0,0:0:0:0:
256,192,33370,1,8,0:0:0:0:
256,192,33704,1,0,0:0:0:0:
256,192,33870,1,8,0:0:0:0:
256,192,33954,1,0,0:0:0:0:
256,192,34038,1,0,0:0:0:0:
256,192,34204,1,0,0:0:0:0:
256,192,34370,1,8,0:0:0:0:
256,192,34537,1,0,0:0:0:0:
256,192,34704,1,8,0:0:0:0:
256,192,35037,1,8,0:0:0:0:
256,192,35204,1,0,0:0:0:0:
256,192,35370,1,0,0:0:0:0:
256,192,35537,1,8,0:0:0:0:
256,192,35704,1,0,0:0:0:0:
256,192,35870,1,0,0:0:0:0:
256,192,36037,1,8,0:0:0:0:
256,192,36370,1,0,0:0:0:0:
256,192,36537,1,0,0:0:0:0:
256,192,36620,1,0,0:0:0:0:
256,192,36704,1,8,0:0:0:0:
256,192,36870,1,0,0:0:0:0:
256,192,37037,1,8,0:0:0:0:
256,192,37204,1,0,0:0:0:0:
256,192,37370,1,8,0:0:0:0:
256,192,37454,1,0,0:0:0:0:
256,192,37537,1,0,0:0:0:0:
256,192,37704,1,8,0:0:0:0:
256,192,38037,1,0,0:0:0:0:
256,192,38204,1,8,0:0:0:0:
256,192,38370,1,0,0:0:0:0:
256,192,38537,1,0,0:0:0:0:
256,192,38704,1,8,0:0:0:0:
256,192,39037,1,0,0:0:0:0:
256,192,39204,1,8,0:0:0:0:
256,192,39287,1,0,0:0:0:0:
256,192,39370,1,0,0:0:0:0:
256,192,39537,1,0,0:0:0:0:
256,192,39704,1,8,0:0:0:0:
256,192,39787,1,8,0:0:0:0:
256,192,39870,1,0,0:0:0:0:
256,192,39954,1,0,0:0:0:0:
256,192,40037,1,8,0:0:0:0:
256,192,40204,1,8,0:0:0:0:
256,192,40287,1,0,0:0:0:0:
256,192,40370,1,8,0:0:0:0:
256,192,40537,1,0,0:0:0:0:
256,192,40704,1,0,0:0:0:0:
256,192,40871,1,8,0:0:0:0:
256,192,41037,1,0,0:0:0:0:
256,192,41204,1,0,0:0:0:0:
256,192,41371,1,8,0:0:0:0:
256,192,41870,1,4,0:0:0:0:
256,192,42037,1,4,0:0:0:0:
256,192,42204,1,8,0:0:0:0:
256,192,42287,1,8,0:0:0:0:
256,192,42370,1,8,0:0:0:0:
256,192,42537,1,0,0:0:0:0:
256,192,42704,1,8,0:0:0:0:
256,192,42787,1,8,0:0:0:0:
256,192,42870,1,8,0:0:0:0:
256,192,42954,1,8,0:0:0:0:
256,192,43037,1,0,0:0:0:0:
256,192,43204,1,0,0:0:0:0:
256,192,45704,1,0,0:0:0:0:
256,192,46370,1,0,0:0:0:0:
256,192,47870,1,0,0:0:0:0:
256,192,48037,1,8,0:0:0:0:
256,192,48370,1,4,0:0:0:0:
256,192,48704,1,0,0:0:0:0:
256,192,48870,1,8,0:0:0:0:
256,192,49037,1,0,0:0:0:0:
256,192,49370,1,0,0:0:0:0:
256,192,49704,1,0,0:0:0:0:
256,192,49870,1,8,0:0:0:0:
256,192,50037,1,8,0:0:0:0:
256,192,50204,1,0,0:0:0:0:
256,192,50370,1,8,0:0:0:0:
256,192,50537,1,0,0:0:0:0:
256,192,50704,1,8,0:0:0:0:
256,192,51037,1,0,0:0:0:0:
256,192,51370,1,8,0:0:0:0:
256,192,51704,1,0,0:0:0:0:
256,192,51870,1,0,0:0:0:0:
256,192,52037,1,8,0:0:0:0:
256,192,52370,1,0,0:0:0:0:
256,192,52704,1,0,0:0:0:0:
256,192,52870,1,8,0:0:0:0:
256,192,52954,1,8,0:0:0:0:
256,192,53037,1,8,0:0:0:0:
256,192,53204,1,0,0:0:0:0:
256,192,53370,1,8,0:0:0:0:
256,192,53704,1,0,0:0:0:0:
256,192,53870,1,0,0:0:0:0:
256,192,56037,1,0,0:0:0:0:
256,192,56204,1,4,0:0:0:0:
256,192,56537,1,4,0:0:0:0:
256,192,58537,1,0,0:0:0:0:
256,192,58704,1,8,0:0:0:0:
256,192,59037,1,4,0:0:0:0:
256,192,59370,1,8,0:0:0:0:
256,192,59704,1,0,0:0:0:0:
256,192,59870,1,0,0:0:0:0:
256,192,60037,1,8,0:0:0:0:
256,192,60370,1,0,0:0:0:0:
256,192,60704,1,8,0:0:0:0:
256,192,61037,1,8,0:0:0:0:
256,192,61204,1,8,0:0:0:0:
256,192,61370,1,0,0:0:0:0:
256,192,61537,1,0,0:0:0:0:
256,192,61704,1,8,0:0:0:0:
256,192,62037,1,8,0:0:0:0:
256,192,62370,1,8,0:0:0:0:
256,192,62537,1,0,0:0:0:0:
256,192,62704,1,8,0:0:0:0:
256,192,63037,1,8,0:0:0:0:
256,192,63204,1,0,0:0:0:0:
256,192,63370,1,8,0:0:0:0:
256,192,63537,1,8,0:0:0:0:
256,192,63620,1,8,0:0:0:0:
256,192,63704,1,8,0:0:0:0:
256,192,63870,1,0,0:0:0:0:
256,192,64037,1,8,0:0:0:0:
160,64,64370,2,0,L|256:64,30,70
256,192,69704,1,12,0:0:0:0:
256,192,69870,1,0,0:0:0:0:
256,192,69954,1,0,0:0:0:0:
256,192,70037,1,0,0:0:0:0:
256,192,70204,1,12,0:0:0:0:
256,192,70370,1,0,0:0:0:0:
256,192,70454,1,0,0:0:0:0:
256,192,70537,1,0,0:0:0:0:
256,192,70704,1,12,0:0:0:0:
256,192,70870,1,8,0:0:0:0:
256,192,71037,1,0,0:0:0:0:
256,192,71204,1,0,0:0:0:0:
256,192,71537,1,4,0:0:0:0:
256,192,72370,1,4,0:0:0:0:
256,192,72704,1,8,0:0:0:0:
256,192,72870,1,8,0:0:0:0:
256,192,73037,1,0,0:0:0:0:
256,192,73204,1,0,0:0:0:0:
256,192,73370,1,8,0:0:0:0:
256,192,73537,1,0,0:0:0:0:
256,192,73870,1,0,0:0:0:0:
256,192,74037,1,8,0:0:0:0:
256,192,74204,1,0,0:0:0:0:
256,192,74287,1,0,0:0:0:0:
256,192,74370,1,8,0:0:0:0:
256,192,74537,1,0,0:0:0:0:
256,192,74704,1,8,0:0:0:0:
256,192,75037,1,8,0:0:0:0:
256,192,75370,1,8,0:0:0:0:
256,192,75537,1,8,0:0:0:0:
256,192,75704,1,0,0:0:0:0:
256,192,75870,1,8,0:0:0:0:
256,192,76037,1,0,0:0:0:0:
256,192,76204,1,8,0:0:0:0:
256,192,76537,1,8,0:0:0:0:
256,192,76620,1,8,0:0:0:0:
256,192,76704,1,8,0:0:0:0:
256,192,76870,1,8,0:0:0:0:
256,192,77037,1,0,0:0:0:0:
256,192,77204,1,8,0:0:0:0:
256,192,77287,1,8,0:0:0:0:
256,192,77370,1,8,0:0:0:0:
256,192,77537,1,8,0:0:0:0:
256,192,77704,1,0,0:0:0:0:
256,192,77870,1,0,0:0:0:0:
256,192,78037,1,8,0:0:0:0:
256,192,78204,1,8,0:0:0:0:
256,192,78537,1,8,0:0:0:0:
256,192,78704,1,0,0:0:0:0:
256,192,78870,1,8,0:0:0:0:
256,192,79204,1,0,0:0:0:0:
256,192,79287,1,0,0:0:0:0:
256,192,79370,1,8,0:0:0:0:
256,192,79537,1,8,0:0:0:0:
256,192,79704,1,0,0:0:0:0:
256,192,79870,1,0,0:0:0:0:
256,192,80037,1,8,0:0:0:0:
256,192,80370,1,12,0:0:0:0:
256,192,80704,1,0,0:0:0:0:
256,192,80870,1,12,0:0:0:0:
256,192,81204,1,0,0:0:0:0:
256,192,81370,1,12,0:0:0:0:
256,192,81704,1,0,0:0:0:0:
256,192,81870,1,12,0:0:0:0:
256,192,82204,1,8,0:0:0:0:
256,192,82370,1,0,0:0:0:0:
256,192,82454,1,0,0:0:0:0:
256,192,82537,1,0,0:0:0:0:
256,192,82620,1,0,0:0:0:0:
256,192,82704,1,8,0:0:0:0:
256,192,83037,1,4,0:0:0:0:
256,192,83370,1,8,0:0:0:0:
256,192,83537,1,8,0:0:0:0:
256,192,83704,1,8,0:0:0:0:
256,192,83870,1,0,0:0:0:0:
256,192,83954,1,0,0:0:0:0:
256,192,84037,1,8,0:0:0:0:
256,192,84204,1,8,0:0:0:0:
256,192,84537,1,8,0:0:0:0:
256,192,84704,1,0,0:0:0:0:
256,192,84870,1,8,0:0:0:0:
256,192,84954,1,0,0:0:0:0:
256,192,85037,1,8,0:0:0:0:
256,192,85204,1,0,0:0:0:0:
256,192,85370,1,8,0:0:0:0:
256,192,85704,1,8,0:0:0:0:
256,192,85870,1,0,0:0:0:0:
256,192,86037,1,8,0:0:0:0:
256,192,86204,1,8,0:0:0:0:
256,192,86370,1,0,0:0:0:0:
256,192,86537,1,8,0:0:0:0:
256,192,86620,1,0,0:0:0:0:
256,192,86704,1,0,0:0:0:0:
256,192,86870,1,8,0:0:0:0:
256,192,87204,1,8,0:0:0:0:
256,192,87370,1,0,0:0:0:0:
256,192,87537,1,8,0:0:0:0:
256,192,87704,1,8,0:0:0:0:
256,192,87787,1,0,0:0:0:0:
256,192,87870,1,0,0:0:0:0:
256,192,87954,1,0,0:0:0:0:
256,192,88037,1,8,0:0:0:0:
256,192,88370,1,0,0:0:0:0:
256,192,88537,1,0,0:0:0:0:
256,192,88704,1,8,0:0:0:0:
256,192,88870,1,8,0:0:0:0:
256,192,89204,1,0,0:0:0:0:
256,192,89287,1,0,0:0:0:0:
256,192,89370,1,8,0:0:0:0:
256,192,89537,1,8,0:0:0:0:
256,192,89870,1,8,0:0:0:0:
256,192,89954,1,0,0:0:0:0:
256,192,90037,1,0,0:0:0:0:
256,192,90204,1,8,0:0:0:0:
256,192,90371,1,0,0:0:0:0:
256,192,90538,1,8,0:0:0:0:
256,192,90620,1,0,0:0:0:0:
256,192,90704,1,8,0:0:0:0:
256,192,91037,1,8,0:0:0:0:
256,192,91204,1,0,0:0:0:0:
256,192,91287,1,0,0:0:0:0:
256,192,91370,1,8,0:0:0:0:
256,192,91537,1,8,0:0:0:0:
256,192,91704,1,0,0:0:0:0:
256,192,91787,1,0,0:0:0:0:
256,192,91870,1,8,0:0:0:0:
256,192,92037,1,8,0:0:0:0:
256,192,92204,1,0,0:0:0:0:
256,192,92287,1,0,0:0:0:0:
256,192,92370,1,8,0:0:0:0:
256,192,92537,1,8,0:0:0:0:
256,192,92870,1,8,0:0:0:0:
256,192,93037,1,0,0:0:0:0:
256,192,93120,1,0,0:0:0:0:
256,192,93204,1,0,0:0:0:0:
256,192,93287,1,0,0:0:0:0:
256,192,93370,1,8,0:0:0:0:
256,192,93704,1,8,0:0:0:0:
256,192,93870,1,0,0:0:0:0:
256,192,94037,1,0,0:0:0:0:
256,192,94204,1,8,0:0:0:0:
256,192,94370,1,0,0:0:0:0:
256,192,94537,1,0,0:0:0:0:
256,192,94704,1,8,0:0:0:0:
256,192,94870,1,0,0:0:0:0:
256,192,95037,1,0,0:0:0:0:
256,192,95204,1,8,0:0:0:0:
256,192,95370,1,8,0:0:0:0:
256,192,95537,1,0,0:0:0:0:
256,192,95704,1,8,0:0:0:0:
256,192,95870,1,0,0:0:0:0:
256,192,96037,1,8,0:0:0:0:
256,192,96204,1,8,0:0:0:0:
256,192,96370,1,8,0:0:0:0:
256,192,96704,1,8,0:0:0:0:
256,192,96870,1,8,0:0:0:0:
256,192,97037,1,0,0:0:0:0:
256,192,97204,1,8,0:0:0:0:
256,192,97370,1,8,0:0:0:0:
256,192,97537,1,0,0:0:0:0:
256,192,97704,1,8,0:0:0:0:
256,192,97870,1,8,0:0:0:0:
256,192,98037,1,0,0:0:0:0:
256,192,98204,1,0,0:0:0:0:
256,192,98370,1,8,0:0:0:0:
256,192,98537,1,0,0:0:0:0:
256,192,98704,1,8,0:0:0:0:
256,192,99037,1,8,0:0:0:0:
256,192,99204,1,0,0:0:0:0:
256,192,99370,1,0,0:0:0:0:
256,192,99537,1,8,0:0:0:0:
256,192,99704,1,0,0:0:0:0:
256,192,99870,1,0,0:0:0:0:
256,192,100037,1,8,0:0:0:0:
256,192,100204,1,8,0:0:0:0:
256,192,100370,1,0,0:0:0:0:
256,192,100537,1,8,0:0:0:0:
256,192,100704,1,0,0:0:0:0:
256,192,100870,1,0,0:0:0:0:
256,192,101037,1,8,0:0:0:0:
256,192,101204,1,0,0:0:0:0:
256,192,101370,1,8,0:0:0:0:
256,192,101704,1,8,0:0:0:0:
256,192,101870,1,0,0:0:0:0:
256,192,102037,1,0,0:0:0:0:
256,192,102204,1,8,0:0:0:0:
256,192,102370,1,0,0:0:0:0:
256,192,102537,1,0,0:0:0:0:
256,192,102704,1,8,0:0:0:0:
256,192,102870,1,8,0:0:0:0:
256,192,103204,1,12,0:0:0:0:
256,192,103537,1,0,0:0:0:0:
256,192,103704,1,8,0:0:0:0:
256,192,103870,1,0,0:0:0:0:
256,192,104037,1,8,0:0:0:0:
256,192,104370,1,8,0:0:0:0:
256,192,104537,1,0,0:0:0:0:
256,192,104704,1,0,0:0:0:0:
256,192,104870,1,8,0:0:0:0:
256,192,105037,1,0,0:0:0:0:
256,192,105204,1,0,0:0:0:0:
256,192,105370,1,8,0:0:0:0:
256,192,105536,1,8,0:0:0:0:
256,192,105703,1,0,0:0:0:0:
256,192,105870,1,8,0:0:0:0:
256,192,106037,1,0,0:0:0:0:
256,192,106204,1,0,0:0:0:0:
256,192,106370,1,8,0:0:0:0:
256,192,106537,1,0,0:0:0:0:
256,192,106704,1,8,0:0:0:0:
256,192,106870,1,0,0:0:0:0:
256,192,106954,1,0,0:0:0:0:
256,192,107037,1,8,0:0:0:0:
256,192,107204,1,8,0:0:0:0:
256,192,107370,1,0,0:0:0:0:
256,192,107537,1,8,0:0:0:0:
256,192,107704,1,8,0:0:0:0:
256,192,107870,1,0,0:0:0:0:
256,192,108037,1,8,0:0:0:0:
256,192,108203,1,0,0:0:0:0:
256,192,108370,1,8,0:0:0:0:
256,192,108536,1,8,0:0:0:0:
256,192,108620,1,8,0:0:0:0:
256,192,108703,1,0,0:0:0:0:
256,192,108870,1,0,0:0:0:0:
256,192,109036,1,0,0:0:0:0:
256,192,109120,1,0,0:0:0:0:
256,192,109203,1,0,0:0:0:0:
256,192,109286,1,0,0:0:0:0:
256,192,109370,1,8,0:0:0:0:
256,192,109704,1,8,0:0:0:0:
256,192,109870,1,8,0:0:0:0:
256,192,110036,1,0,0:0:0:0:
256,192,110203,1,8,0:0:0:0:
256,192,110370,1,8,0:0:0:0:
256,192,110536,1,0,0:0:0:0:
256,192,110703,1,8,0:0:0:0:
256,192,110870,1,0,0:0:0:0:
256,192,111036,1,8,0:0:0:0:
256,192,111203,1,0,0:0:0:0:
256,192,111286,1,0,0:0:0:0:
256,192,111370,1,8,0:0:0:0:
256,192,111536,1,0,0:0:0:0:
256,192,111703,1,8,0:0:0:0:
256,192,111786,1,0,0:0:0:0:
256,192,111870,1,0,0:0:0:0:
256,192,111953,1,0,0:0:0:0:
256,192,112036,1,8,0:0:0:0:
256,192,112204,1,0,0:0:0:0:
256,192,112370,1,8,0:0:0:0:
256,192,112537,1,8,0:0:0:0:
256,192,112703,1,8,0:0:0:0:
256,192,112870,1,0,0:0:0:0:
256,192,113037,1,8,0:1:0:0:
256,192,113203,1,8,0:1:0:0:
256,192,113370,1,8,0:1:0:0:
256,192,113537,1,0,0:0:0:0:
256,192,113704,1,0,0:0:0:0:
256,192,113871,1,12,0:0:0:0:
256,192,114204,1,0,0:0:0:0:
256,192,114287,1,0,0:0:0:0:
256,192,114370,1,8,0:0:0:0:
256,192,114537,1,0,0:0:0:0:
256,192,114704,1,8,0:0:0:0:
256,192,114870,1,8,0:0:0:0:
256,192,115037,1,4,0:0:0:0:
256,192,115370,1,0,0:0:0:0:
256,192,115537,1,8,0:0:0:0:
256,192,115703,1,0,0:0:0:0:
256,192,115870,1,0,0:0:0:0:
256,192,116037,1,8,0:0:0:0:
256,192,116370,1,0,0:0:0:0:
256,192,116537,1,8,0:0:0:0:
256,192,116703,1,0,0:0:0:0:
256,192,116870,1,0,0:0:0:0:
256,192,116953,1,0,0:0:0:0:
256,192,117037,1,8,0:0:0:0:
256,192,117203,1,0,0:0:0:0:
256,192,117370,1,8,0:0:0:0:
256,192,117537,1,8,0:0:0:0:
256,192,117703,1,0,0:0:0:0:
256,192,118037,1,0,0:0:0:0:
256,192,118203,1,8,0:0:0:0:
256,192,118370,1,0,0:0:0:0:
256,192,118537,1,0,0:0:0:0:
256,192,118703,1,8,0:0:0:0:
256,192,119037,1,0,0:0:0:0:
256,192,119203,1,8,0:0:0:0:
256,192,119287,1,0,0:0:0:0:
256,192,119370,1,8,0:0:0:0:
256,192,119537,1,0,0:0:0:0:
256,192,119703,1,8,0:0:0:0:
256,192,119870,1,8,0:0:0:0:
256,192,120037,1,8,0:0:0:0:
256,192,120120,1,0,0:0:0:0:
256,192,120204,1,8,0:0:0:0:
256,192,120287,1,8,0:0:0:0:
256,192,120370,1,0,0:0:0:0:
256,192,120703,1,0,0:0:0:0:
256,192,120870,1,8,0:0:0:0:
256,192,121037,1,0,0:0:0:0:
256,192,121204,1,0,0:0:0:0:
256,192,121370,1,8,0:0:0:0:
256,192,121703,1,0,0:0:0:0:
256,192,121870,1,8,0:0:0:0:
256,192,121953,1,0,0:0:0:0:
256,192,122037,1,0,0:0:0:0:
256,192,122203,1,0,0:0:0:0:
256,192,122370,1,8,0:0:0:0:
256,192,122454,1,0,0:0:0:0:
256,192,122537,1,0,0:0:0:0:
256,192,122620,1,0,0:0:0:0:
256,192,122703,1,8,0:0:0:0:
256,192,122870,1,8,0:0:0:0:
256,192,123037,1,8,0:0:0:0:
256,192,123204,1,0,0:0:0:0:
256,192,123287,1,0,0:0:0:0:
256,192,123370,1,0,0:0:0:0:
256,192,123537,1,8,0:0:0:0:
256,192,123704,1,0,0:0:0:0:
256,192,123787,1,0,0:0:0:0:
256,192,123870,1,0,0:0:0:0:
256,192,123954,1,0,0:0:0:0:
256,192,124037,1,8,0:0:0:0:
256,192,124204,1,8,0:0:0:0:
256,192,124370,1,0,0:0:0:0:
256,192,124537,1,8,0:0:0:0:
256,192,124703,1,8,0:0:0:0:
256,192,124870,1,0,0:0:0:0:
256,192,124953,1,0,0:0:0:0:
256,192,125037,1,8,0:0:0:0:
256,192,125203,1,0,0:0:0:0:
256,192,125370,1,0,0:0:0:0:
256,192,125454,1,0,0:0:0:0:
256,192,125537,1,8,0:0:0:0:
256,192,125703,1,4,0:0:0:0:
256,192,126037,1,0,0:0:0:0:
256,192,126203,1,8,0:0:0:0:
256,192,126370,1,0,0:0:0:0:
256,192,126537,1,0,0:0:0:0:
256,192,126703,1,8,0:0:0:0:
256,192,127037,1,0,0:0:0:0:
256,192,127203,1,8,0:0:0:0:
256,192,127287,1,0,0:0:0:0:
256,192,127371,1,0,0:0:0:0:
256,192,127537,1,0,0:0:0:0:
256,192,127703,1,8,0:0:0:0:
256,192,127870,1,0,0:0:0:0:
256,192,128037,1,8,0:0:0:0:
256,192,128370,1,8,0:0:0:0:
256,192,128537,1,0,0:0:0:0:
256,192,128703,1,0,0:0:0:0:
256,192,128870,1,8,0:0:0:0:
256,192,129037,1,0,0:0:0:0:
256,192,129203,1,0,0:0:0:0:
256,192,129370,1,8,0:0:0:0:
256,192,129703,1,0,0:0:0:0:
256,192,129870,1,8,0:0:0:0:
256,192,129953,1,0,0:0:0:0:
256,192,130037,1,8,0:0:0:0:
256,192,130203,1,0,0:0:0:0:
256,192,130370,1,8,0:0:0:0:
256,192,130537,1,8,0:0:0:0:
256,192,130703,1,8,0:0:0:0:
256,192,130787,1,8,0:0:0:0:
256,192,130870,1,8,0:0:0:0:
256,192,131037,1,0,0:0:0:0:
256,192,131370,1,0,0:0:0:0:
256,192,131537,1,8,0:0:0:0:
256,192,131703,1,0,0:0:0:0:
256,192,131870,1,0,0:0:0:0:
256,192,132037,1,8,0:0:0:0:
256,192,132370,1,0,0:0:0:0:
256,192,132537,1,8,0:0:0:0:
256,192,132620,1,8,0:0:0:0:
256,192,132703,1,8,0:0:0:0:
256,192,132870,1,0,0:0:0:0:
256,192,133037,1,8,0:0:0:0:
256,192,133120,1,8,0:0:0:0:
256,192,133203,1,0,0:0:0:0:
256,192,133287,1,0,0:0:0:0:
256,192,133370,1,8,0:0:0:0:
256,192,133537,1,8,0:0:0:0:
256,192,133620,1,0,0:0:0:0:
256,192,133703,1,8,0:0:0:0:
256,192,133870,1,0,0:0:0:0:
256,192,134037,1,0,0:0:0:0:
256,192,134204,1,8,0:0:0:0:
256,192,134370,1,0,0:0:0:0:
256,192,134537,1,0,0:0:0:0:
256,192,134704,1,8,0:0:0:0:
256,192,135203,1,4,0:0:0:0:
256,192,135370,1,4,0:0:0:0:
256,192,135537,1,8,0:0:0:0:
256,192,135620,1,8,0:0:0:0:
256,192,135703,1,8,0:0:0:0:
256,192,135870,1,0,0:0:0:0:
256,192,136037,1,8,0:0:0:0:
256,192,136203,1,8,0:0:0:0:
256,192,136370,1,0,0:0:0:0:
256,192,136537,1,0,0:0:0:0:
256,192,139037,1,0,0:0:0:0:
256,192,139703,1,0,0:0:0:0:
256,192,141203,1,0,0:0:0:0:
256,192,141370,1,8,0:0:0:0:
256,192,141703,1,4,0:0:0:0:
256,192,142037,1,0,0:0:0:0:
256,192,142203,1,8,0:0:0:0:
256,192,142370,1,0,0:0:0:0:
256,192,142703,1,0,0:0:0:0:
256,192,143037,1,0,0:0:0:0:
256,192,143203,1,8,0:0:0:0:
256,192,143287,1,8,0:0:0:0:
256,192,143370,1,8,0:0:0:0:
256,192,143537,1,0,0:0:0:0:
256,192,143703,1,8,0:0:0:0:
256,192,143870,1,0,0:0:0:0:
256,192,144037,1,8,0:0:0:0:
256,192,144370,1,0,0:0:0:0:
256,192,144703,1,8,0:0:0:0:
256,192,145037,1,0,0:0:0:0:
256,192,145203,1,0,0:0:0:0:
256,192,145370,1,8,0:0:0:0:
256,192,145703,1,0,0:0:0:0:
256,192,146037,1,0,0:0:0:0:
256,192,146203,1,8,0:0:0:0:
256,192,146287,1,8,0:0:0:0:
256,192,146370,1,8,0:0:0:0:
256,192,146537,1,0,0:0:0:0:
256,192,146703,1,8,0:0:0:0:
256,192,147037,1,0,0:0:0:0:
256,192,147203,1,0,0:0:0:0:
256,192,149370,1,0,0:0:0:0:
256,192,149537,1,4,0:0:0:0:
256,192,149870,1,4,0:0:0:0:
256,192,151870,1,0,0:0:0:0:
256,192,152037,1,8,0:0:0:0:
256,192,152370,1,4,0:0:0:0:
256,192,152704,1,8,0:0:0:0:
256,192,153037,1,0,0:0:0:0:
256,192,153203,1,0,0:0:0:0:
256,192,153370,1,8,0:0:0:0:
256,192,153703,1,8,0:0:0:0:
256,192,153870,1,0,0:0:0:0:
256,192,154037,1,8,0:0:0:0:
256,192,154370,1,8,0:0:0:0:
256,192,154537,1,8,0:0:0:0:
256,192,154703,1,0,0:0:0:0:
256,192,154870,1,0,0:0:0:0:
256,192,155037,1,8,0:0:0:0:
256,192,155370,1,0,0:0:0:0:
256,192,155703,1,8,0:0:0:0:
256,192,155870,1,0,0:0:0:0:
256,192,156037,1,8,0:0:0:0:
256,192,156370,1,8,0:0:0:0:
256,192,156537,1,0,0:0:0:0:
256,192,156703,1,8,0:0:0:0:
256,192,156870,1,8,0:0:0:0:
256,192,156953,1,8,0:0:0:0:
256,192,157037,1,8,0:0:0:0:
256,192,157203,1,0,0:0:0:0:
256,192,157370,1,8,0:0:0:0:
160,64,157704,2,0,L|256:64,30,70
256,192,163037,5,12,0:0:0:0:
256,192,163203,1,0,0:0:0:0:
256,192,163287,1,0,0:0:0:0:
256,192,163370,1,0,0:0:0:0:
256,192,163537,1,12,0:0:0:0:
256,192,163703,1,0,0:0:0:0:
256,192,163787,1,0,0:0:0:0:
256,192,163870,1,0,0:0:0:0:
256,192,164037,1,12,0:0:0:0:
256,192,164203,1,8,0:0:0:0:
256,192,164370,1,4,0:0:0:0:
256,192,164537,1,8,0:0:0:0:
256,192,164620,1,8,0:0:0:0:
256,192,164704,1,8,0:0:0:0:
256,192,164870,12,0,165370,0:0:0:0:
256,192,165704,5,4,0:0:0:0:
256,192,166038,1,8,0:0:0:0:
256,192,166204,1,8,0:0:0:0:
256,192,166371,1,0,0:0:0:0:
256,192,166538,1,0,0:0:0:0:
256,192,166704,1,8,0:0:0:0:
256,192,167038,1,8,0:0:0:0:
256,192,167204,1,0,0:0:0:0:
256,192,167371,1,8,0:0:0:0:
256,192,167538,1,0,0:0:0:0:
256,192,167621,1,0,0:0:0:0:
256,192,167704,1,8,0:0:0:0:
256,192,167871,1,0,0:0:0:0:
256,192,168038,1,8,0:0:0:0:
256,192,168371,1,8,0:0:0:0:
256,192,168704,1,8,0:0:0:0:
256,192,168871,1,8,0:0:0:0:
256,192,169038,1,8,0:0:0:0:
256,192,169204,1,0,0:0:0:0:
256,192,169287,1,0,0:0:0:0:
256,192,169371,1,8,0:0:0:0:
256,192,169538,1,8,0:0:0:0:
256,192,169871,1,8,0:0:0:0:
256,192,169954,1,8,0:0:0:0:
256,192,170038,1,8,0:0:0:0:
256,192,170204,1,8,0:0:0:0:
256,192,170371,1,0,0:0:0:0:
256,192,170538,1,8,0:0:0:0:
256,192,170621,1,0,0:0:0:0:
256,192,170704,1,8,0:0:0:0:
256,192,170871,1,8,0:0:0:0:
256,192,171038,1,0,0:0:0:0:
256,192,171204,1,0,0:0:0:0:
256,192,171371,1,8,0:0:0:0:
256,192,171538,1,8,0:0:0:0:
256,192,171871,1,8,0:0:0:0:
256,192,172038,1,0,0:0:0:0:
256,192,172204,1,8,0:0:0:0:
256,192,172371,1,0,0:0:0:0:
256,192,172538,1,0,0:0:0:0:
256,192,172621,1,0,0:0:0:0:
256,192,172704,1,8,0:0:0:0:
256,192,172871,1,8,0:0:0:0:
256,192,173204,1,0,0:0:0:0:
256,192,173371,1,8,0:0:0:0:
256,192,173538,1,0,0:0:0:0:
256,192,173704,1,12,0:0:0:0:
256,192,174038,1,0,0:0:0:0:
256,192,174204,1,12,0:0:0:0:
256,192,174538,1,0,0:0:0:0:
256,192,174704,1,12,0:0:0:0:
256,192,175038,1,0,0:0:0:0:
256,192,175204,1,12,0:0:0:0:
256,192,175538,1,8,0:0:0:0:
256,192,175704,1,0,0:0:0:0:
256,192,175788,1,0,0:0:0:0:
256,192,175871,1,0,0:0:0:0:
256,192,175954,1,0,0:0:0:0:
256,192,176038,1,8,0:0:0:0:
256,192,176371,1,4,0:0:0:0:
256,192,176704,1,8,0:0:0:0:
256,192,176871,1,8,0:0:0:0:
256,192,177038,1,8,0:0:0:0:
256,192,177204,1,0,0:0:0:0:
256,192,177288,1,0,0:0:0:0:
256,192,177371,1,8,0:0:0:0:
256,192,177538,1,8,0:0:0:0:
256,192,177871,1,8,0:0:0:0:
256,192,178038,1,0,0:0:0:0:
256,192,178204,1,8,0:0:0:0:
256,192,178288,1,0,0:0:0:0:
256,192,178371,1,8,0:0:0:0:
256,192,178538,1,0,0:0:0:0:
256,192,178704,1,8,0:0:0:0:
256,192,179038,1,8,0:0:0:0:
256,192,179204,1,0,0:0:0:0:
256,192,179371,1,8,0:0:0:0:
256,192,179454,1,8,0:0:0:0:
256,192,179538,1,8,0:0:0:0:
256,192,179704,1,0,0:0:0:0:
256,192,179871,1,8,0:0:0:0:
256,192,179954,1,0,0:0:0:0:
256,192,180038,1,0,0:0:0:0:
256,192,180204,1,8,0:0:0:0:
256,192,180537,1,8,0:0:0:0:
256,192,180704,1,0,0:0:0:0:
256,192,180871,1,8,0:0:0:0:
256,192,181038,1,8,0:0:0:0:
256,192,181121,1,0,0:0:0:0:
256,192,181204,1,0,0:0:0:0:
256,192,181288,1,0,0:0:0:0:
256,192,181371,1,8,0:0:0:0:
256,192,181704,1,0,0:0:0:0:
256,192,181871,1,0,0:0:0:0:
256,192,182038,1,8,0:0:0:0:
256,192,182204,1,8,0:0:0:0:
256,192,182371,1,0,0:0:0:0:
256,192,182538,1,0,0:0:0:0:
256,192,182621,1,0,0:0:0:0:
256,192,182704,1,8,0:0:0:0:
256,192,182871,1,8,0:0:0:0:
256,192,183204,1,8,0:0:0:0:
256,192,183288,1,0,0:0:0:0:
256,192,183371,1,0,0:0:0:0:
256,192,183538,1,8,0:0:0:0:
256,192,183705,1,0,0:0:0:0:
256,192,183870,1,8,0:0:0:0:
256,192,183954,1,0,0:0:0:0:
256,192,184038,1,8,0:0:0:0:
256,192,184204,1,0,0:0:0:0:
256,192,184371,1,8,0:0:0:0:
256,192,184538,1,0,0:0:0:0:
256,192,184621,1,0,0:0:0:0:
256,192,184704,1,8,0:0:0:0:
256,192,184871,1,8,0:0:0:0:
256,192,185038,1,0,0:0:0:0:
256,192,185121,1,0,0:0:0:0:
256,192,185204,1,8,0:0:0:0:
256,192,185371,1,8,0:0:0:0:
256,192,185538,1,0,0:0:0:0:
256,192,185621,1,0,0:0:0:0:
256,192,185704,1,8,0:0:0:0:
256,192,185871,1,8,0:0:0:0:
256,192,186038,1,8,0:0:0:0:
256,192,186371,1,0,0:0:0:0:
256,192,186454,1,0,0:0:0:0:
256,192,186538,1,0,0:0:0:0:
256,192,186621,1,0,0:0:0:0:
256,192,186704,1,8,0:0:0:0:
256,192,187037,1,4,0:0:0:0:
256,192,187120,12,0,189370,0:0:0:0:
256,192,189704,5,4,0:0:0:0:
256,192,191037,5,4,0:0:0:0:
256,192,192370,1,4,0:0:0:0:
256,192,193870,1,0,0:0:0:0:
256,192,194370,1,0,0:0:0:0:
256,192,194704,1,0,0:0:0:0:
256,192,195037,1,4,0:0:0:0:
256,192,195537,1,0,0:0:0:0:
256,192,195620,1,0,0:0:0:0:
256,192,195704,1,0,0:0:0:0:
256,192,195870,1,0,0:0:0:0:
256,192,196037,1,0,0:0:0:0:
256,192,196204,1,0,0:0:0:0:
256,192,196537,1,8,0:0:0:0:
256,192,196704,1,0,0:0:0:0:
256,192,196870,1,0,0:0:0:0:
256,192,197037,1,8,0:0:0:0:
256,192,197120,1,8,0:0:0:0:
256,192,197204,1,8,0:0:0:0:
256,192,197370,1,8,0:0:0:0:
256,192,197454,1,8,0:0:0:0:
256,192,197537,1,8,0:0:0:0:
256,192,197704,1,4,0:0:0:0:
256,192,198037,1,0,0:0:0:0:
256,192,198370,1,0,0:0:0:0:
256,192,198704,1,8,0:0:0:0:
256,192,198870,1,0,0:0:0:0:
256,192,199037,1,8,0:0:0:0:
256,192,199370,1,0,0:0:0:0:
256,192,199704,1,0,0:0:0:0:
256,192,200037,1,8,0:0:0:0:
256,192,200204,1,0,0:0:0:0:
256,192,200370,1,8,0:0:0:0:
256,192,200704,1,0,0:0:0:0:
256,192,200870,1,8,0:0:0:0:
256,192,201037,1,8,0:0:0:0:
256,192,201370,1,0,0:0:0:0:
256,192,201704,1,0,0:0:0:0:
256,192,202037,1,0,0:0:0:0:
256,192,202370,1,8,0:0:0:0:
256,192,202537,1,0,0:0:0:0:
256,192,202704,1,8,0:0:0:0:
256,192,202870,1,0,0:0:0:0:
256,192,203037,1,12,0:0:0:0:
256,192,203370,1,0,0:0:0:0:
256,192,203704,1,0,0:0:0:0:
256,192,204037,1,8,0:0:0:0:
256,192,204204,1,0,0:0:0:0:
256,192,204370,1,8,0:0:0:0:
256,192,204537,1,8,0:0:0:0:
256,192,204704,1,0,0:0:0:0:
256,192,204870,1,8,0:0:0:0:
256,192,205037,1,8,0:0:0:0:
256,192,205204,1,0,0:0:0:0:
256,192,205370,1,0,0:0:0:0:
256,192,205537,1,0,0:0:0:0:
256,192,205704,1,12,0:0:0:0:
256,192,206037,1,0,0:0:0:0:
256,192,206204,1,12,0:0:0:0:
256,192,206537,1,8,0:0:0:0:
256,192,206620,1,8,0:0:0:0:
256,192,206704,1,8,0:0:0:0:
256,192,207037,1,0,0:0:0:0:
256,192,207204,1,12,0:0:0:0:
256,192,207537,1,0,0:0:0:0:
256,192,207704,1,0,0:0:0:0:
256,192,207787,1,0,0:0:0:0:
256,192,207870,1,0,0:0:0:0:
256,192,207954,1,0,0:0:0:0:
256,192,208037,1,8,0:0:0:0:
256,192,208370,1,4,0:0:0:0:
256,192,208703,1,0,0:0:0:0:
256,192,209037,1,0,0:0:0:0:
256,192,209370,1,8,0:0:0:0:
256,192,209537,1,0,0:0:0:0:
256,192,209704,1,8,0:0:0:0:
256,192,209870,1,8,0:0:0:0:
256,192,210037,1,0,0:0:0:0:
256,192,210204,1,8,0:0:0:0:
256,192,210537,1,0,0:0:0:0:
256,192,210704,1,8,0:0:0:0:
256,192,210870,1,0,0:0:0:0:
256,192,211037,1,8,0:0:0:0:
256,192,211204,1,0,0:0:0:0:
256,192,211287,1,0,0:0:0:0:
256,192,211370,1,8,0:0:0:0:
256,192,211537,1,8,0:0:0:0:
256,192,211704,1,0,0:0:0:0:
256,192,211870,1,8,0:0:0:0:
256,192,212204,1,8,0:0:0:0:
256,192,212370,1,8,0:0:0:0:
256,192,212537,1,0,0:0:0:0:
256,192,212620,1,0,0:0:0:0:
256,192,212704,1,8,0:0:0:0:
256,192,212870,1,8,0:0:0:0:
256,192,213037,1,0,0:0:0:0:
256,192,213204,1,8,0:0:0:0:
256,192,213370,1,8,0:0:0:0:
256,192,213537,1,8,0:0:0:0:
256,192,213704,1,0,0:0:0:0:
256,192,214037,1,0,0:0:0:0:
256,192,214370,1,0,0:0:0:0:
256,192,214704,1,8,0:0:0:0:
256,192,214870,1,0,0:0:0:0:
256,192,215037,1,8,0:0:0:0:
256,192,215370,1,0,0:0:0:0:
256,192,215704,1,0,0:0:0:0:
256,192,216037,1,8,0:0:0:0:
256,192,216204,1,8,0:0:0:0:
256,192,216370,1,0,0:0:0:0:
256,192,216537,1,8,0:0:0:0:
256,192,216620,1,8,0:0:0:0:
256,192,216704,1,8,0:0:0:0:
256,192,216870,1,0,0:0:0:0:
256,192,217037,1,0,0:0:0:0:
256,192,217204,1,0,0:0:0:0:
256,192,217370,1,8,0:0:0:0:
256,192,217454,1,8,0:0:0:0:
256,192,217537,1,8,0:0:0:0:
256,192,217704,1,0,0:0:0:0:
256,192,217870,1,0,0:0:0:0:
256,192,217954,1,0,0:0:0:0:
256,192,218037,1,0,0:0:0:0:
256,192,218204,1,0,0:0:0:0:
256,192,218370,1,8,0:0:0:0:
256,192,218454,1,8,0:0:0:0:
256,192,218537,1,8,0:0:0:0:
256,192,218620,1,8,0:0:0:0:
256,192,218704,1,8,0:0:0:0:
256,192,219037,1,4,0:0:0:0:
256,192,219120,12,0,224037,0:0:0:0:
256,192,224370,5,4,0:0:0:0:
256,192,225037,1,0,0:0:0:0:
256,192,225704,1,0,0:0:0:0:
256,192,226370,1,0,0:0:0:0:
256,192,229704,1,0,0:0:0:0:
256,192,230370,1,0,0:0:0:0:
256,192,231037,1,0,0:0:0:0:
256,192,231704,1,0,0:0:0:0:
256,192,235037,1,8,0:0:0:0:
256,192,235704,1,8,0:0:0:0:
256,192,236370,1,8,0:0:0:0:
256,192,236704,1,8,0:0:0:0:
256,192,237037,1,8,0:0:0:0:
256,192,237704,1,8,0:0:0:0:
256,192,238037,1,8,0:0:0:0:
256,192,238370,1,8,0:0:0:0:
256,192,239037,1,8,0:0:0:0:
256,192,239370,1,8,0:0:0:0:
256,192,239704,1,8,0:0:0:0:
256,192,240370,1,8,0:0:0:0:
256,192,240537,1,8,0:0:0:0:
256,192,240704,1,8,0:0:0:0:
256,192,241037,1,8,0:0:0:0:
256,192,241370,1,8,0:0:0:0:
256,192,241704,1,8,0:0:0:0:
256,192,241870,1,8,0:0:0:0:
256,192,242037,1,8,0:0:0:0:
256,192,242370,1,8,0:0:0:0:
256,192,242704,1,8,0:0:0:0:
256,192,243037,1,8,0:0:0:0:
256,192,243204,1,8,0:0:0:0:
256,192,243370,1,8,0:0:0:0:
256,192,243704,1,8,0:0:0:0:
256,192,244037,1,8,0:0:0:0:
256,192,244204,1,8,0:0:0:0:
128,128,245037,2,0,L|480:128,1,350
256,192,245704,1,4,0:0:0:0:
256,192,246038,1,8,0:0:0:0:
256,192,246204,1,8,0:0:0:0:
256,192,246371,1,0,0:0:0:0:
256,192,246538,1,0,0:0:0:0:
256,192,246704,1,8,0:0:0:0:
256,192,247038,1,8,0:0:0:0:
256,192,247204,1,0,0:0:0:0:
256,192,247371,1,8,0:0:0:0:
256,192,247538,1,0,0:0:0:0:
256,192,247621,1,0,0:0:0:0:
256,192,247704,1,8,0:0:0:0:
256,192,247871,1,0,0:0:0:0:
256,192,248038,1,8,0:0:0:0:
256,192,248371,1,8,0:0:0:0:
256,192,248704,1,8,0:0:0:0:
256,192,248871,1,8,0:0:0:0:
256,192,249038,1,0,0:0:0:0:
256,192,249204,1,8,0:0:0:0:
256,192,249371,1,0,0:0:0:0:
256,192,249538,1,8,0:0:0:0:
256,192,249871,1,8,0:0:0:0:
256,192,249954,1,8,0:0:0:0:
256,192,250038,1,8,0:0:0:0:
256,192,250204,1,8,0:0:0:0:
256,192,250371,1,0,0:0:0:0:
256,192,250538,1,8,0:0:0:0:
256,192,250621,1,8,0:0:0:0:
256,192,250704,1,8,0:0:0:0:
256,192,250871,1,8,0:0:0:0:
256,192,251038,1,0,0:0:0:0:
256,192,251204,1,0,0:0:0:0:
256,192,251371,1,8,0:0:0:0:
256,192,251538,1,8,0:0:0:0:
256,192,251871,1,8,0:0:0:0:
256,192,252038,1,0,0:0:0:0:
256,192,252204,1,8,0:0:0:0:
256,192,252371,1,0,0:0:0:0:
256,192,252538,1,0,0:0:0:0:
256,192,252621,1,0,0:0:0:0:
256,192,252704,1,8,0:0:0:0:
256,192,252871,1,8,0:0:0:0:
256,192,253204,1,0,0:0:0:0:
256,192,253371,1,8,0:0:0:0:
256,192,253538,1,0,0:0:0:0:
256,192,253704,1,12,0:0:0:0:
256,192,254038,1,0,0:0:0:0:
256,192,254204,1,12,0:0:0:0:
256,192,254538,1,0,0:0:0:0:
256,192,254704,1,12,0:0:0:0:
256,192,255038,1,0,0:0:0:0:
256,192,255204,1,12,0:0:0:0:
256,192,255538,1,8,0:0:0:0:
256,192,255704,1,0,0:0:0:0:
256,192,255788,1,0,0:0:0:0:
256,192,255871,1,0,0:0:0:0:
256,192,255954,1,0,0:0:0:0:
256,192,256038,1,8,0:0:0:0:
256,192,256371,1,4,0:0:0:0:
256,192,256704,1,8,0:0:0:0:
256,192,256871,1,0,0:0:0:0:
256,192,257038,1,8,0:0:0:0:
256,192,257204,1,0,0:0:0:0:
256,192,257288,1,0,0:0:0:0:
256,192,257371,1,8,0:0:0:0:
256,192,257538,1,8,0:0:0:0:
256,192,257871,1,8,0:0:0:0:
256,192,258038,1,0,0:0:0:0:
256,192,258204,1,8,0:0:0:0:
256,192,258288,1,0,0:0:0:0:
256,192,258371,1,8,0:0:0:0:
256,192,258538,1,0,0:0:0:0:
256,192,258704,1,8,0:0:0:0:
256,192,259038,1,8,0:0:0:0:
256,192,259204,1,0,0:0:0:0:
256,192,259371,1,8,0:0:0:0:
256,192,259538,1,8,0:0:0:0:
256,192,259704,1,0,0:0:0:0:
256,192,259871,1,8,0:0:0:0:
256,192,259954,1,0,0:0:0:0:
256,192,260038,1,0,0:0:0:0:
256,192,260204,1,8,0:0:0:0:
256,192,260371,1,8,0:0:0:0:
256,192,260704,1,8,0:0:0:0:
256,192,260871,1,8,0:0:0:0:
256,192,261038,1,8,0:0:0:0:
256,192,261121,1,0,0:0:0:0:
256,192,261204,1,0,0:0:0:0:
256,192,261288,1,0,0:0:0:0:
256,192,261371,1,8,0:0:0:0:
256,192,261704,1,0,0:0:0:0:
256,192,261871,1,0,0:0:0:0:
256,192,262038,1,8,0:0:0:0:
256,192,262204,1,8,0:0:0:0:
256,192,262371,1,0,0:0:0:0:
256,192,262538,1,0,0:0:0:0:
256,192,262621,1,0,0:0:0:0:
256,192,262704,1,8,0:0:0:0:
256,192,262871,1,8,0:0:0:0:
256,192,263204,1,8,0:0:0:0:
256,192,263288,1,0,0:0:0:0:
256,192,263371,1,0,0:0:0:0:
256,192,263538,1,8,0:0:0:0:
256,192,263705,1,0,0:0:0:0:
256,192,263870,1,8,0:0:0:0:
256,192,263954,1,0,0:0:0:0:
256,192,264038,1,8,0:0:0:0:
256,192,264204,1,0,0:0:0:0:
256,192,264371,1,8,0:0:0:0:
256,192,264538,1,0,0:0:0:0:
256,192,264621,1,0,0:0:0:0:
256,192,264704,1,8,0:0:0:0:
256,192,264871,1,8,0:0:0:0:
256,192,265038,1,0,0:0:0:0:
256,192,265121,1,0,0:0:0:0:
256,192,265204,1,8,0:0:0:0:
256,192,265371,1,8,0:0:0:0:
256,192,265538,1,0,0:0:0:0:
256,192,265621,1,0,0:0:0:0:
256,192,265704,1,8,0:0:0:0:
256,192,265871,1,8,0:0:0:0:
256,192,266038,1,8,0:0:0:0:
256,192,266371,1,0,0:0:0:0:
256,192,266454,1,0,0:0:0:0:
256,192,266538,1,0,0:0:0:0:
256,192,266621,1,0,0:0:0:0:
256,192,266704,1,8,0:0:0:0:
256,192,267037,1,4,0:0:0:0:
256,192,267120,12,0,269370,0:0:0:0:
256,192,269704,5,8,0:0:0:0:
256,192,269871,1,8,0:0:0:0:
256,192,270037,1,0,0:0:0:0:
256,192,270204,1,8,0:0:0:0:
256,192,270371,1,8,0:0:0:0:
256,192,270704,1,8,0:0:0:0:
256,192,270870,1,0,0:0:0:0:
256,192,271037,1,8,0:0:0:0:
256,192,271204,1,0,0:0:0:0:
256,192,271287,1,0,0:0:0:0:
256,192,271371,1,8,0:0:0:0:
256,192,271537,1,0,0:0:0:0:
256,192,271704,1,8,0:0:0:0:
256,192,271871,1,8,0:0:0:0:
256,192,272037,1,8,0:0:0:0:
256,192,272371,1,8,0:0:0:0:
256,192,272537,1,8,0:0:0:0:
256,192,272704,1,0,0:0:0:0:
256,192,272871,1,8,0:0:0:0:
256,192,273037,1,8,0:0:0:0:
256,192,273371,1,8,0:0:0:0:
256,192,273537,1,8,0:0:0:0:
256,192,273704,1,0,0:0:0:0:
256,192,273871,1,0,0:0:0:0:
256,192,273954,1,0,0:0:0:0:
256,192,274037,1,8,0:0:0:0:
256,192,274204,1,0,0:0:0:0:
256,192,274371,1,8,0:0:0:0:
256,192,274454,1,8,0:0:0:0:
256,192,274538,1,0,0:0:0:0:
256,192,274621,1,0,0:0:0:0:
256,192,274704,1,8,0:0:0:0:
256,192,275037,1,8,0:0:0:0:
256,192,275204,1,8,0:0:0:0:
256,192,275371,1,0,0:0:0:0:
256,192,275538,1,8,0:0:0:0:
256,192,275704,1,8,0:0:0:0:
256,192,276037,1,8,0:0:0:0:
256,192,276204,1,8,0:0:0:0:
256,192,276371,1,0,0:0:0:0:
256,192,276537,1,12,0:0:0:0:
256,192,276704,1,0,0:0:0:0:
256,192,276788,1,0,0:0:0:0:
256,192,276871,1,0,0:0:0:0:
256,192,277037,1,8,0:0:0:0:
256,192,277204,1,8,0:0:0:0:
256,192,277371,1,0,0:0:0:0:
256,192,277537,1,0,0:0:0:0:
256,192,277704,1,8,0:0:0:0:
256,192,277871,1,0,0:0:0:0:
256,192,278038,1,0,0:0:0:0:
256,192,278204,1,8,0:0:0:0:
256,192,278371,1,0,0:0:0:0:
256,192,278538,1,0,0:0:0:0:
256,192,278704,1,8,0:0:0:0:
256,192,278871,1,8,0:0:0:0:
256,192,279037,1,0,0:0:0:0:
256,192,279204,1,8,0:0:0:0:
256,192,279287,1,0,0:0:0:0:
256,192,279370,1,0,0:0:0:0:
256,192,279537,1,8,0:0:0:0:
256,192,279704,1,8,0:0:0:0:
256,192,279871,1,0,0:0:0:0:
256,192,280037,1,8,0:0:0:0:
256,192,280204,1,0,0:0:0:0:
256,192,280371,1,8,0:0:0:0:
256,192,280704,1,8,0:0:0:0:
256,192,280871,1,8,0:0:0:0:
256,192,281037,1,8,0:0:0:0:
256,192,281371,1,0,0:0:0:0:
256,192,281705,1,8,0:0:0:0:
256,192,281871,1,8,0:0:0:0:
256,192,282037,1,0,0:0:0:0:
256,192,282204,1,8,0:0:0:0:
256,192,282371,1,8,0:0:0:0:
256,192,282704,1,8,0:0:0:0:
256,192,282871,1,0,0:0:0:0:
256,192,283037,1,8,0:0:0:0:
256,192,283204,1,0,0:0:0:0:
256,192,283370,1,0,0:0:0:0:
256,192,283537,1,8,0:0:0:0:
256,192,283704,1,0,0:0:0:0:
256,192,283870,1,0,0:0:0:0:
256,192,284037,1,8,0:0:0:0:
256,192,284204,1,0,0:0:0:0:
256,192,284371,1,8,0:0:0:0:
256,192,284537,1,8,0:0:0:0:
256,192,284620,1,0,0:0:0:0:
256,192,284704,1,0,0:0:0:0:
256,192,284871,1,8,0:0:0:0:
256,192,285037,1,8,0:0:0:0:
256,192,285204,1,0,0:0:0:0:
256,192,285371,1,8,0:0:0:0:
256,192,285704,1,8,0:0:0:0:
256,192,285871,1,0,0:0:0:0:
256,192,286037,1,8,0:0:0:0:
256,192,286204,1,0,0:0:0:0:
256,192,286371,1,0,0:0:0:0:
256,192,286704,1,0,0:0:0:0:
256,192,287037,1,0,0:0:0:0:
256,192,287204,1,8,0:0:0:0:
256,192,287287,1,8,0:0:0:0:
256,192,287371,1,8,0:0:0:0:
256,192,287537,1,0,0:0:0:0:
256,192,287704,1,8,0:0:0:0:
256,192,287787,1,8,0:0:0:0:
256,192,287871,1,8,0:0:0:0:
256,192,288037,1,0,0:0:0:0:
256,192,288204,1,0,0:0:0:0:
256,192,288371,1,8,0:0:0:0:
256,192,288538,1,8,0:0:0:0:
256,192,288704,1,0,0:0:0:0:
256,192,288871,1,8,0:0:0:0:
256,192,289038,1,8,0:0:0:0:
256,192,289204,1,0,0:0:0:0:
256,192,289371,1,8,0:0:0:0:
256,192,289704,1,0,0:0:0:0:
256,192,289871,1,8,0:0:0:0:
256,192,289954,1,8,0:0:0:0:
256,192,290037,1,8,0:0:0:0:
256,192,290204,1,0,0:0:0:0:
256,192,290371,1,8,0:0:0:0:
256,192,290454,1,8,0:0:0:0:
256,192,290537,1,8,0:0:0:0:
256,192,290704,1,0,0:0:0:0:
256,192,291037,1,8,0:0:0:0:
256,192,291204,1,8,0:0:0:0:
256,192,291370,1,0,0:0:0:0:
256,192,291537,1,8,0:0:0:0:
256,192,291704,1,8,0:0:0:0:
256,192,291870,1,0,0:0:0:0:
256,192,292037,1,8,0:0:0:0:
256,192,292370,1,0,0:0:0:0:
256,192,292537,1,8,0:0:0:0:
256,192,292620,1,8,0:0:0:0:
256,192,292703,1,8,0:0:0:0:
256,192,292870,1,0,0:0:0:0:
256,192,293037,1,8,0:0:0:0:
256,192,293120,1,8,0:0:0:0:
256,192,293203,1,8,0:0:0:0:
256,192,293370,1,0,0:0:0:0:
256,192,293704,1,8,0:0:0:0:
256,192,293871,1,8,0:0:0:0:
256,192,294037,1,0,0:0:0:0:
256,192,294204,1,8,0:0:0:0:
256,192,294371,1,8,0:0:0:0:
256,192,294537,1,0,0:0:0:0:
256,192,294704,1,8,0:0:0:0:
256,192,295037,1,0,0:0:0:0:
256,192,295204,1,8,0:0:0:0:
256,192,295287,1,8,0:0:0:0:
256,192,295370,1,8,0:0:0:0:
256,192,295537,1,0,0:0:0:0:
256,192,295704,1,8,0:0:0:0:
256,192,295787,1,8,0:0:0:0:
256,192,295870,1,8,0:0:0:0:
256,192,296037,1,0,0:0:0:0:
256,192,296370,1,8,0:0:0:0:
256,192,296537,1,8,0:0:0:0:
256,192,296703,1,0,0:0:0:0:
256,192,296870,1,8,0:0:0:0:
256,192,297037,1,8,0:0:0:0:
256,192,297203,1,0,0:0:0:0:
256,192,297370,1,8,0:0:0:0:
256,192,297703,1,0,0:0:0:0:
256,192,297870,1,8,0:0:0:0:
256,192,297953,1,8,0:0:0:0:
256,192,298036,1,8,0:0:0:0:
256,192,298203,1,0,0:0:0:0:
256,192,298370,1,8,0:0:0:0:
256,192,298453,1,8,0:0:0:0:
256,192,298536,1,8,0:0:0:0:
256,192,298620,1,8,0:0:0:0:
256,192,298703,1,0,0:0:0:0:
256,192,298870,1,0,0:0:0:0:
256,192,299037,1,8,0:0:0:0:
256,192,299204,1,8,0:0:0:0:
256,192,299287,1,0,0:0:0:0:
256,192,299370,1,0,0:0:0:0:
256,192,299537,1,8,0:0:0:0:
256,192,299704,1,8,0:0:0:0:
256,192,299870,1,0,0:0:0:0:
256,192,300037,1,8,0:0:0:0:
256,192,300370,1,0,0:0:0:0:
256,192,300537,1,8,0:0:0:0:
256,192,300620,1,8,0:0:0:0:
256,192,300703,1,8,0:0:0:0:
256,192,300870,1,0,0:0:0:0:
256,192,301037,1,8,0:0:0:0:
256,192,301120,1,8,0:0:0:0:
256,192,301203,1,8,0:0:0:0:
256,192,301287,1,8,0:0:0:0:
256,192,301370,1,0,0:0:0:0:
256,192,301537,1,0,0:0:0:0:
256,192,301703,1,8,0:0:0:0:
256,192,301870,1,8,0:0:0:0:
256,192,301954,1,0,0:0:0:0:
256,192,302036,1,0,0:0:0:0:
256,192,302203,1,8,0:0:0:0:
256,192,302370,1,8,0:0:0:0:
256,192,302536,1,0,0:0:0:0:
256,192,302703,1,8,0:0:0:0:
256,192,303036,1,0,0:0:0:0:
256,192,303203,1,8,0:0:0:0:
256,192,303286,1,8,0:0:0:0:
256,192,303369,1,8,0:0:0:0:
256,192,303536,1,0,0:0:0:0:
256,192,303703,1,8,0:0:0:0:
256,192,303786,1,8,0:0:0:0:
256,192,303869,1,8,0:0:0:0:
256,192,303954,1,8,0:0:0:0:
256,192,304036,1,0,0:0:0:0:
256,192,304370,1,8,0:0:0:0:
256,192,304454,1,8,0:0:0:0:
256,192,304537,1,8,0:0:0:0:
256,192,304703,1,0,0:0:0:0:
256,192,304870,1,8,0:0:0:0:
256,192,305037,1,8,0:0:0:0:
256,192,305203,1,0,0:0:0:0:
256,192,305370,1,8,0:0:0:0:
256,192,305703,1,0,0:0:0:0:
256,192,305870,1,8,0:0:0:0:
256,192,305953,1,8,0:0:0:0:
256,192,306036,1,8,0:0:0:0:
256,192,306203,1,0,0:0:0:0:
256,192,306370,1,8,0:0:0:0:
256,192,306453,1,8,0:0:0:0:
256,192,306536,1,8,0:0:0:0:
256,192,306620,1,8,0:0:0:0:
256,192,306703,1,0,0:0:0:0:
256,192,306870,1,0,0:0:0:0:
256,192,307036,1,8,0:0:0:0:
256,192,307120,1,8,0:0:0:0:
256,192,307203,1,8,0:0:0:0:
256,192,307369,1,0,0:0:0:0:
256,192,307536,1,8,0:0:0:0:
256,192,307703,1,8,0:0:0:0:
256,192,307869,1,0,0:0:0:0:
256,192,308036,1,8,0:0:0:0:
256,192,308369,1,0,0:0:0:0:
256,192,308536,1,8,0:0:0:0:
256,192,308619,1,8,0:0:0:0:
256,192,308704,1,8,0:0:0:0:
256,192,308869,1,0,0:0:0:0:
256,192,309036,1,8,0:0:0:0:
256,192,309119,1,8,0:0:0:0:
256,192,309204,1,8,0:0:0:0:
256,192,309286,1,8,0:0:0:0:
256,192,309369,1,0,0:0:0:0:
256,192,309704,1,12,0:0:0:0:
256,192,310204,1,8,0:0:0:0:
256,192,310704,1,8,0:0:0:0:
256,192,311204,1,8,0:0:0:0:
256,192,311704,1,0,0:0:0:0:
256,192,312037,1,0,0:0:0:0:
256,192,312370,1,8,0:0:0:0:
256,192,312870,1,8,0:0:0:0:
256,192,313370,1,8,0:0:0:0:
256,192,313870,1,8,0:0:0:0:
256,192,314370,1,0,0:0:0:0:
256,192,314704,1,0,0:0:0:0:
256,192,315037,1,8,0:0:0:0:
256,192,315537,1,8,0:0:0:0:
256,192,316037,1,8,0:0:0:0:
256,192,316537,1,8,0:0:0:0:
256,192,317038,1,0,0:0:0:0:
256,192,317371,1,0,0:0:0:0:
256,192,317704,1,8,0:0:0:0:
256,192,318204,1,8,0:0:0:0:
256,192,318704,1,8,0:0:0:0:
256,192,319204,1,8,0:0:0:0:
256,192,319704,1,0,0:0:0:0:
256,192,320037,1,0,0:0:0:0:
