osu file format v14

[General]
AudioFilename: audio.mp3
AudioLeadIn: 0
PreviewTime: 71704
Countdown: 0
SampleSet: None
StackLeniency: 0.4
Mode: 0
LetterboxInBreaks: 0
EpilepsyWarning: 1
WidescreenStoryboard: 1

[Editor]
Bookmarks: 32335,131037,153370,276537
DistanceSpacing: 1.2
BeatDivisor: 4
GridSize: 8
TimelineZoom: 2.500006

[Metadata]
Title:runaway(Halozy Mix)
TitleUnicode:runaway(Halozy Mix)
Artist:Minase Mashiro
ArtistUnicode:水瀬ましろ
Creator:Zxozmo
Version:Escape
Source:東方星蓮船 ~ Undefined Fantastic Object.
Tags:HLZY-0026 Grand Slam Studio Comiket Comic Market 91 C91 アサヒ Asahi 法界の火 東方Project Touhou Seirensen Star Lotus Ship Team Shanghai Alice ZUN 法界の火 Fires of Hokkai no Hi 感情の摩天楼 Kanjou no Matenrou Emotional Skyscraper Cosmic Mind Stage 6 Boss Theme 聖 白蓮 Hijiri Byakuren Doujin xtrem3x Envory PeterEU Fadillsan
BeatmapID:1291985
BeatmapSetID:612157

[Difficulty]
HPDrainRate:6.5
CircleSize:4
OverallDifficulty:9
ApproachRate:9.3
SliderMultiplier:2
SliderTickRate:1

[Events]
//Background and Video events
0,0,"STD.jpg",0,0
//Break Periods
2,11237,12912
2,224570,226320
2,229570,231653
2,269904,271106
//Storyboard Layer 0 (Background)
Sprite,Background,Centre,"SB\logo1.png",320,240 M,0,11037,11204,-351.4182,111.4182,102.3737,111.0593 S,0,11048,,0.616 M,0,11204,12120,102.3737,111.0593,129.1636,110.2545 M,0,12120,13537,129.1636,110.2545,176.2324,109.6745 M,0,13537,13704,176.2324,109.6745,182.6324,109.0927
//Storyboard Layer 1 (Fail)
//Storyboard Layer 2 (Pass)
//Storyboard Layer 3 (Foreground)
Sprite,Foreground,Centre,"SB\logo2.png",320,240 M,0,11037,11204,966.4001,389.5273,544.0001,387.7818 S,0,11048,,0.8021819 M,0,11204,13537,544.0001,387.7818,446.6588,386.6391 M,0,13537,13704,446.6588,386.6391,436.7679,386.6391
Sprite,Foreground,Centre,"SB\1.png",320,240 S,0,43037,,0.5985454 F,0,43037,43620,0,1 M,0,43037,47620,194.9091,381.9637,251.9273,383.1273 F,0,43620,46704,1 F,0,46704,47620,1,0
Sprite,Foreground,Centre,"SB\2.png",320,240 S,0,48002,,0.7730911 F,0,48037,48370,0,1 M,0,48037,50370,403.2,367.4182,354.9091,368 F,0,48370,49035,1 F,0,49035,49870,1,0.8167137 F,0,49870,50370,0.8167137,0
Sprite,Foreground,Centre,"SB\3.png",320,240 F,0,50370,51037,0,1 M,0,50370,53037,169.8909,400.5818,190.2545,400 S,0,50502,,0.5519999 F,0,51037,52537,1,0.7590909 F,0,52537,53037,0.7590909,0.002909088
Sprite,Foreground,Centre,"SB\4.png",320,240 S,0,53669,,0.645091 F,0,53704,54370,0,1 M,0,53704,58370,406.1091,334.2545,365.3818,332.5091 F,0,54370,,1 F,0,54370,,1 F,0,54370,57704,1 F,0,57704,58037,1,0.7556363 F,0,58037,58370,0.7556363,0
Sprite,Foreground,Centre,"SB\5.png",320,240 S,0,58502,,0.778909 F,0,58537,59037,0,1 M,0,58537,60954,105.3091,369.1636,127.4182,369.7455 F,0,59037,60620,1,0.72143 F,0,60620,60704,0.72143,0.5963637 F,0,60704,60954,0.5963637,0
Sprite,Foreground,Centre,"SB\6.png",320,240 S,0,61169,,0.656727 F,0,61204,61704,0,1 M,0,61204,63704,426.4727,299.9273,389.2364,299.9273 F,0,61704,63037,1 F,0,63037,63704,1,0
Sprite,Foreground,Centre,"SB\7.png",320,240 S,0,64335,,0.6625454 F,0,64370,,0 F,0,64370,64787,0.02836365,0.938595 M,0,64370,65370,121.6,420.9455,140.2182,420.9455 F,0,64787,65162,0.938595,1 F,0,65162,65370,1,0
Sprite,Foreground,Centre,"SB\8.png",320,240 S,0,65502,,0.6509089 F,0,65537,65787,0,1 M,0,65537,66704,488.1454,370.3273,457.3091,369.7455 F,0,65787,66454,1 F,0,66454,66704,1,0 F,0,66704,,0
Sprite,Foreground,Centre,"SB\9.png",320,240 S,0,66835,,0.7672727 F,0,66870,67204,0,1 M,0,66870,68037,106.4727,228.9454,131.4909,228.3636 F,0,67204,67704,1 F,0,67704,68037,1,0 F,0,68037,,0
Sprite,Foreground,Centre,"SB\10.png",320,240 S,0,68169,,0.7672728 F,0,68204,68704,0,1 M,0,68204,71037,469.5273,170.7636,420.0727,171.3454 F,0,68704,70537,1 F,0,70537,71037,1,0
Sprite,Foreground,Centre,"SB\11.png",320,240 S,0,71835,,0.7207271 F,0,71870,72370,0,1 M,0,71870,75037,141.3818,234.7636,168.7273,233.0182 F,0,72370,74537,1 F,0,74537,75037,1,0
Sprite,Foreground,Centre,"SB\12.png",320,240 S,0,75002,,0.6974545 F,0,75037,75537,0,1 M,0,75037,77537,404.3636,174.8364,353.1637,174.8364 F,0,75537,77204,1 F,0,77204,77537,1,0
Sprite,Foreground,Centre,"SB\13.png",320,240 S,0,77669,,0.7381818 F,0,77704,78204,0,1 M,0,77704,80204,150.6909,343.5637,184.4363,342.4 F,0,78204,79704,1 F,0,79704,79870,1 F,0,79870,80204,1,0
Sprite,Foreground,Centre,"SB\15.png",320,240 S,0,83002,,0.7556363 F,0,83037,83370,0,1 M,0,83037,85537,150.1091,164.9455,174.5454,164.9455 F,0,83370,85204,1 F,0,85204,85370,1 F,0,85204,85704,1,0
Sprite,Foreground,Centre,"SB\18.png",320,240 S,0,80335,,0.6858182 F,0,80370,80704,0,1 M,0,80370,83037,371.7818,422.6909,331.6364,423.2727 F,0,80704,82704,1 F,0,82704,83035,1,0
Sprite,Foreground,Centre,"SB\16.png",320,240 S,0,85669,,0.7905455 F,0,85704,86037,0,1 M,0,85704,88454,380.5091,220.2182,328.7272,220.2182 F,0,86037,87870,1 F,0,87870,88454,1,0
Sprite,Foreground,Centre,"SB\17.png",320,240 S,0,88335,,0.8080002 F,0,88370,88704,0,1 M,0,88370,91037,154.7637,285.9637,190.8364,287.1273 F,0,88704,90537,1 F,0,90537,91037,1,0
Sprite,Foreground,Centre,"SB\18.png",320,240 S,0,91002,,0.6858181 F,0,91037,91370,0,1 M,0,91037,93704,392.1454,346.4727,346.7636,346.4727 F,0,91370,93204,1 F,0,93204,93704,1,0
Sprite,Foreground,Centre,"SB\19.png",320,240 S,0,93669,,0.7207273 F,0,93704,94037,0,1 M,0,93704,98704,166.4,89.3091,247.2727,88.72729 F,0,94037,98204,1 F,0,98204,98704,1,0
Sprite,Foreground,Centre,"SB\21.png",320,240 S,0,96335,,0.4007272 F,0,96370,96704,0,0.3658183 M,0,96370,99037,369.4546,130.0364,294.9818,129.4546 F,0,96704,99037,0.3658183,0.2879363 M,0,99037,99287,294.9818,129.4546,288,128.8728 F,0,99037,99287,0.2879363,0 F,0,99287,99370,0
Sprite,Foreground,Centre,"SB\20.png",320,240 F,0,99037,99370,0,1 M,0,99037,101704,208.8727,358.1091,270.5455,357.5273 S,0,99048,,0.7090912 F,0,99370,101370,1 F,0,101370,102370,1,0.6590291 M,0,101704,103037,270.5455,357.5273,317.0909,358.6909 F,0,102370,103037,0.6590291,0
Sprite,Foreground,Centre,"SB\22.png",320,240 S,0,101669,,0.3890911 F,0,101704,102037,0,0.52 M,0,101704,104370,463.1273,317.9637,357.2363,317.3818 F,0,102037,104037,0.52,0.4239998 F,0,104037,104370,0.4239998,0 M,0,104370,,357.2363,317.3818
Sprite,Foreground,Centre,"SB\19.png",320,240 S,0,104335,,0.744 F,0,104370,104704,0,1 M,0,104370,108370,211.7818,125.9637,276.3635,125.9637 F,0,104704,107870,1 F,0,107870,108370,1,0
Sprite,Foreground,Centre,"SB\21.png",320,240 S,0,107002,,0.4065454 M,0,107037,107040,438.1091,177.7455 F,0,107037,107370,0,0.5032727 M,0,107040,107043,438.1091,177.7455 M,0,107043,109704,438.1091,177.7455,349.0909,176.5818 F,0,107370,109204,0.5032727,0.3156152 F,0,109204,109704,0.3156152,0
Sprite,Foreground,Centre,"SB\20.png",320,240 S,0,109669,,0.68 F,0,109704,110037,0.1098181,1 M,0,109704,112370,439.8546,328.4363,379.3553,327.6607 F,0,110037,112370,1 F,0,112370,113204,1 M,0,112370,113704,379.3553,327.6607,328.1454,326.1091 F,0,113204,113704,1,0.04000015
Sprite,Foreground,Centre,"SB\23.png",320,240 S,0,136335,,0.6625458 F,0,136370,136704,0,1 M,0,136370,141037,151.2728,352.8727,209.4546,352.2909 F,0,136704,140537,1 F,0,140537,141037,1,0
Sprite,Foreground,Centre,"SB\2.png",320,240 S,0,141335,,0.7847276 F,0,141370,141704,0,1 M,0,141370,143704,412.5091,208,360.7273,209.1636 F,0,141704,143204,1 F,0,143204,143704,1,0
Sprite,Foreground,Centre,"SB\24.png",320,240 S,0,143835,,0.7032729 F,0,143870,144204,0,1 M,0,143870,146704,261.8182,367.4182,299.6364,367.4182 F,0,144204,146204,1 F,0,146204,146704,1,0
Sprite,Foreground,Centre,"SB\25.png",320,240 S,0,147002,,0.68 F,0,147037,147370,0,1 M,0,147037,151870,219.3455,201.0182,247.2727,201.0182 F,0,147370,148870,1 F,0,148870,151537,1 F,0,151537,151870,1,0
Sprite,Foreground,Centre,"SB\26.png",320,240 F,0,149287,149620,0,1 M,0,149287,151787,459.6364,201.6,473.0182,202.1818 S,0,149381,,0.6916364 F,0,149620,151537,1 F,0,151537,151870,1,0
Sprite,Foreground,Centre,"SB\27.png",320,240 S,0,152002,,0.7498184 F,0,152037,152370,0,1 M,0,152037,154370,478.2545,99.2,425.3091,99.2 F,0,152370,152372,1 F,0,152372,153870,1 F,0,153870,154370,1,0 M,0,154370,154371,425.3091,99.2 M,0,154371,154375,425.3091,99.2 M,0,154375,154378,425.3091,99.2
Sprite,Foreground,Centre,"SB\28.png",320,240 S,0,154502,,0.6974545 F,0,154537,154870,0,1 M,0,154537,157370,201.3091,365.6728,249.0182,366.8364 F,0,154870,156870,1 F,0,156870,157370,1,0
Sprite,Foreground,Centre,"SB\29.png",320,240 S,0,157669,,0.7207272 F,0,157704,158037,0,1 M,0,157704,158870,306.6182,114.9091,290.3272,114.9091 F,0,158037,158537,1 F,0,158537,158870,1,0
Sprite,Foreground,Centre,"SB\pre.png",320,240 S,0,158835,,0.7090906 F,0,158870,159204,0,1 M,0,158870,160120,418.3273,200.4364,433.4545,201.0182 F,0,159204,159787,1 F,0,159787,160120,1,0
Sprite,Foreground,Centre,"SB\31-a.png",320,240 S,0,160169,,0.8080002 F,0,160204,160537,0,1 M,0,160204,161454,264.7273,297.0182,249.0182,297.0182 F,0,160537,161204,1 F,0,161204,161454,1,0.03709091
Sprite,Foreground,Centre,"SB\31-b.png",320,240 S,0,161502,,0.7323636 F,0,161537,161870,0,1 M,0,161537,164370,400.2909,400.5818,424.7272,400.5818 F,0,161870,164037,1 F,0,164037,164370,1,0
Sprite,Foreground,Centre,"SB\32.png",320,240 M,0,165204,,230.5724,323.1839 F,0,165204,,0 F,0,165204,165454,0,1 M,0,165204,168120,230.5724,323.1839,293.8023,322.0366 S,0,165252,,0.6916366 F,0,165454,167787,1 F,0,167787,168121,1,0 M,0,168120,168121,293.8023,322.0366,276.9455,322.6182
Sprite,Foreground,Centre,"SB\33.png",320,240 S,0,168335,,0.7265454 F,0,168370,168704,0,1 M,0,168370,170870,340.9455,217.3091,280.4364,217.8909 F,0,168704,170370,1 F,0,170370,170870,1,0
Sprite,Foreground,Centre,"SB\34.png",320,240 S,0,171002,,0.7149091 F,0,171048,171381,0,1 M,0,171048,173548,166.9818,95.12728,225.1636,93.96365 F,0,171381,173048,1 F,0,173048,173548,1,0
Sprite,Foreground,Centre,"SB\35.png",320,240 S,0,173669,,0.7381818 F,0,173704,174037,0,1 M,0,173704,176370,499.2,214.4,429.9637,215.5636 F,0,174037,175870,1 F,0,175870,176370,1,0
Sprite,Foreground,Centre,"SB\36.png",320,240 S,0,176335,,0.7323636 F,0,176370,176704,0,1 M,0,176370,179037,171.0545,355.2,230.9818,355.7818 F,0,176704,178537,1 F,0,178537,179037,1,0
Sprite,Foreground,Centre,"SB\37.png",320,240 S,0,179002,,0.6683636 F,0,179037,179370,0,1 M,0,179037,181537,418.3273,254.5454,372.9454,253.9636 F,0,179370,181037,1 F,0,181037,181537,1,0
Sprite,Foreground,Centre,"SB\38.png",320,240 S,0,181669,,0.6509091 F,0,181704,181708,0 M,0,181704,184204,257.1636,114.9091,309.5272,113.7455 F,0,181708,182037,0,1 F,0,182037,183704,1 F,0,183704,184204,1,0
Sprite,Foreground,Centre,"SB\40.png",320,240 S,0,191669,,0.6160002 R,0,191669,,6.243587E-07 M,0,191704,191705,391.5636,248.7273 F,0,191704,192037,0,1 M,0,191705,191709,391.5636,248.7273 M,0,191709,195037,391.5636,248.7273,274.0363,246.4 F,0,192037,194037,1 F,0,194037,195037,1,0 M,0,195037,195039,274.0363,246.4 M,0,195039,195043,274.0363,246.4,273.4545,246.4
Sprite,Foreground,Centre,"SB\40.png",320,240 S,0,271669,,0.8894547 R,0,271669,,0 F,0,271715,272048,0,1 M,0,271715,275048,364.8,252.8,246.1091,252.2182 F,0,272048,273715,1 F,0,273715,275048,1,0
Sprite,Foreground,Centre,"SB\41.png",320,240 M,0,224335,,134.4,120.1455 S,0,224335,,0.4938184 F,0,224370,224537,0,0.4392728 F,0,224537,226704,0.4392728,0.544 F,0,226704,227037,0.544,0
Sprite,Foreground,Centre,"SB\42.png",320,240 M,0,225502,,315.9273,120.1455 S,0,225502,,0.4647273 F,0,225537,225704,0,0.5818182 F,0,225704,226704,0.5818182,0.6621231 F,0,226704,227037,0.6621231,0
Sprite,Foreground,Centre,"SB\43.png",320,240 M,0,229669,,140.2182,231.8546 S,0,229669,,0.4589093 F,0,229704,229870,0,0.7505454 F,0,229870,229871,0.7505454 F,0,229871,229874,0.7505454 F,0,229874,229877,0.7505454 F,0,229877,229880,0.7505454 F,0,229880,229882,0.7505454 F,0,229882,229884,0.7505454 F,0,229884,229886,0.7505454 F,0,229886,229890,0.7505454 F,0,229890,229891,0.7505454 F,0,229891,229895,0.7505454 F,0,229895,229898,0.7505454 F,0,229898,230704,0.7505454,0.7767273 F,0,230704,232037,0.7767273,0.893091 F,0,232037,232370,0.893091,0
Sprite,Foreground,Centre,"SB\44.png",320,240 M,0,230835,,307.7818,232.4364 S,0,230835,,0.4239999 F,0,230870,231037,0,0.6458182 F,0,231037,232037,0.6458182,0.8798788 F,0,232037,232370,0.8798788,0
Sprite,Foreground,Centre,"SB\45.png",320,240 M,0,235002,,151.2727,369.1636 S,0,235002,,0.4181819 F,0,235037,235204,0,0.6894545 F,0,235204,237370,0.6894545,0.4741818 F,0,237370,237704,0.4741818,0
Sprite,Foreground,Centre,"SB\46.png",320,240 M,0,236169,,326.4,367.4182 S,0,236169,,0.4181821 F,0,236204,236370,0,0.5323637 F,0,236370,237370,0.5323637,0.5527273 F,0,237370,237704,0.5527273,0
Sprite,Foreground,Centre,"SB\47.png",320,240 M,0,240335,,358.4,272.5818 S,0,240335,,0.4530911 F,0,240370,240537,0,0.8640001 F,0,240537,240538,0.8640001 F,0,240538,,0.8640001 F,0,240538,242704,0.8640001,0.9105455 F,0,242704,243037,0.9105455,0
Sprite,Foreground,Centre,"SB\48.png",320,240 M,0,241502,,516.0728,272.5818 S,0,241502,,0.4356364 F,0,241537,241540,0 F,0,241540,241542,0 F,0,241542,241545,0 F,0,241545,241704,0,0.8138182 F,0,241704,242704,0.8138182,0.8093997 F,0,242704,243037,0.8093997,0
Sprite,Foreground,Centre,"SB\49.png",320,240 M,0,243002,,371.2,91.05454 S,0,243002,,0.4414546 F,0,243037,243204,0,0.9330907 F,0,243204,244204,0.9330907,0.8952726 F,0,244204,244704,0.8952726,0.9098936 F,0,244704,245037,0.9098936,0
Sprite,Foreground,Centre,"SB\51.png",320,240 S,0,245169,,0.6043637 F,0,245204,245537,0,1 M,0,245204,248370,194.3273,207.4182,225.7455,204.5091 F,0,245537,248037,1 F,0,248037,248370,1,0
Sprite,Foreground,Centre,"SB\52.png",320,240 S,0,248335,,0.7672727 F,0,248370,248704,0,1 M,0,248370,251037,424.1455,81.16364,370.0364,80.58182 F,0,248704,250704,1 F,0,250704,251037,1,0 M,0,251037,,370.0364,80.58182
Sprite,Foreground,Centre,"SB\53.png",320,240 S,0,251002,,0.6276364 F,0,251037,251370,0,1 M,0,251037,253704,137.3091,210.3273,190.2545,208.5818 F,0,251370,253370,1 F,0,253370,253704,1,0 F,0,253704,253706,0 F,0,253706,253710,0
Sprite,Foreground,Centre,"SB\54.png",320,240 S,0,253669,,0.7090909 F,0,253704,254037,0.09527268,1 M,0,253704,256370,429.9637,336.5818,398.5455,336.5818 F,0,254037,256037,1 F,0,256037,256370,1,0 M,0,256370,256371,398.5455,336.5818
Sprite,Foreground,Centre,"SB\55.png",320,240 S,0,256335,,0.7614548 F,0,256370,256704,0,1 M,0,256370,259037,210.0364,247.5636,250.1818,247.5636 F,0,256704,258704,1 F,0,258704,259037,1,0
Sprite,Foreground,Centre,"SB\56.png",320,240 S,0,259002,,0.7905458 F,0,259037,259370,0,1 M,0,259037,261704,447.4182,143.4182,352.5819,141.6727 F,0,259370,261370,1 F,0,261370,261704,1,0
Sprite,Foreground,Centre,"SB\57.png",320,240 S,0,261669,,0.7032727 F,0,261704,262037,0,1 M,0,261704,264370,245.5273,278.9818,307.7818,278.9818 F,0,262037,264037,1 F,0,264037,264370,1,0
Sprite,Foreground,Centre,"SB\58.png",320,240 S,0,264335,,0.6509091 F,0,264370,264704,0,1 M,0,264370,267037,422.4,376.7273,339.7818,376.1455 F,0,264704,266704,1 F,0,266704,267037,1,0 M,0,267037,,339.7818,376.1455
Sprite,Foreground,Centre,"SB\19.png",320,240 S,0,277669,,0.7672729 F,0,277704,278037,0,1 M,0,277704,280704,242.0364,96.87273,315.3455,95.12727 F,0,278037,280370,1 F,0,280370,280704,1,0
Sprite,Foreground,Centre,"SB\21.png",320,240 S,0,280335,,0.3716364 F,0,280370,280704,0,0.605091 M,0,280370,283037,578.9091,159.1273,498.0363,160.2909 F,0,280704,280787,0.605091,1 F,0,280787,282704,1 F,0,282704,283037,1,0
Sprite,Foreground,Centre,"SB\end.png",320,240 M,0,244169,,507.9273,91.05455 S,0,244169,,0.4065456 F,0,244204,244370,0,0.9570909 F,0,244370,244704,0.9570909,0.9367272 F,0,244704,245037,0.9367272,0
Sprite,Foreground,Centre,"SB\20.png",320,240 S,0,283002,,0.6625454 F,0,283037,283370,0,1 M,0,283037,288370,411.9272,374.9818,191.4736,374.4 F,0,283370,288037,1 F,0,288037,288370,1,0
Sprite,Foreground,Centre,"SB\39.png",320,240 S,0,184169,,0.7090909 F,0,184204,184537,0,1 M,0,184204,187037,250.1818,372.6545,305.4545,371.4909 F,0,184537,186370,1 F,0,186370,187037,1,0
//Storyboard Sound Samples

[TimingPoints]
371,333.333333333333,4,2,2,40,1,0
371,-133.333333333333,4,2,2,40,0,0
11037,-133.333333333333,4,2,1,80,0,0
13704,-133.333333333333,4,2,1,65,0,0
21287,-133.333333333333,4,2,1,80,0,0
21454,-100,4,2,1,80,0,0
21620,-83.3333333333333,4,2,1,65,0,0
43204,-133.333333333333,4,2,1,65,0,0
43370,-133.333333333333,4,2,2,65,0,0
46204,-200,4,2,2,65,0,0
47870,-83.3333333333333,4,2,1,65,0,0
53870,-133.333333333333,4,2,1,65,0,0
54037,-133.333333333333,4,2,2,65,0,0
56120,-133.333333333333,4,2,1,65,0,0
56620,-133.333333333333,4,2,2,65,0,0
57037,-200,4,2,2,65,0,0
58537,-83.3333333333333,4,2,1,65,0,0
64370,-133.333333333333,4,2,1,45,0,0
65537,-111.111111111111,4,2,1,50,0,0
66870,-100,4,2,1,55,0,0
68204,-83.3333333333333,4,2,1,60,0,0
69620,-100,4,2,1,65,0,0
70120,-80,4,2,1,65,0,0
70620,-66.6666666666667,4,2,1,65,0,0
71454,-76.9230769230769,4,2,1,65,0,0
71579,-76.9230769230769,4,2,1,5,0,0
71870,-76.9230769230769,4,2,1,65,0,0
72370,-76.9230769230769,4,2,1,80,0,1
77704,-76.9230769230769,4,2,1,50,0,1
77787,-76.9230769230769,4,2,1,80,0,1
82870,-76.9230769230769,4,2,1,60,0,0
83037,-76.9230769230769,4,2,1,80,0,1
91037,-76.9230769230769,4,2,1,100,0,1
93370,-76.9230769230769,4,2,1,60,0,1
93454,-83.3333333333333,4,2,1,60,0,0
103204,-83.3333333333333,4,2,1,40,0,0
103620,-83.3333333333333,4,2,1,5,0,0
103704,-83.3333333333333,4,2,1,40,0,0
103954,-83.3333333333333,4,2,1,5,0,0
104037,-83.3333333333333,4,2,1,40,0,0
104287,-83.3333333333333,4,2,1,5,0,0
104370,-83.3333333333333,4,2,1,60,0,0
112370,-83.3333333333333,4,2,1,40,0,0
112787,-83.3333333333333,4,2,1,5,0,0
112870,-83.3333333333333,4,2,1,40,0,0
113287,-83.3333333333333,4,2,1,5,0,0
113370,-83.3333333333333,4,2,1,40,0,0
113787,-83.3333333333333,4,2,1,5,0,0
113870,-83.3333333333333,4,2,1,60,0,0
115120,-100,4,2,1,60,0,0
136537,-133.333333333333,4,2,1,60,0,0
136704,-133.333333333333,4,2,2,60,0,0
139704,-200,4,2,2,60,0,0
141204,-83.3333333333333,4,2,1,60,0,0
147204,-133.333333333333,4,2,1,60,0,0
147370,-133.333333333333,4,2,2,60,0,0
149454,-133.333333333333,4,2,1,60,0,0
150120,-133.333333333333,4,2,2,60,0,0
150370,-200,4,2,2,60,0,0
151870,-83.3333333333333,4,2,1,60,0,0
157704,-117.647058823529,4,2,1,45,0,0
158870,-105.263157894737,4,2,1,50,0,0
160204,-95.2380952380951,4,2,1,55,0,0
161537,-83.3333333333333,4,2,1,60,0,0
162787,-100,4,2,1,60,0,0
164412,-100,4,2,1,5,0,0
165537,-100,4,2,1,65,0,0
165704,-74.0740740740741,4,2,1,80,0,1
173704,-74.0740740740741,4,2,1,80,0,1
175704,-74.0740740740741,4,2,1,80,0,1
176204,-83.3333333333333,4,2,1,80,0,0
176370,-74.0740740740741,4,2,1,80,0,1
187037,-83.3333333333333,4,2,1,60,0,0
189537,-83.3333333333333,4,2,1,5,0,0
189704,-83.3333333333333,4,2,1,40,0,0
190870,-83.3333333333333,4,2,1,5,0,0
191037,-83.3333333333333,4,2,1,40,0,0
191704,-133.333333333333,4,2,1,50,0,0
192370,-200,4,2,1,60,0,0
194954,-200,4,2,1,5,0,0
195037,-200,4,2,1,60,0,0
195370,-83.3333333333333,4,2,1,60,0,0
197037,-83.3333333333333,4,2,1,60,0,0
197370,-83.3333333333333,4,2,1,70,0,0
197704,-76.9230769230769,4,2,1,80,0,0
201037,-71.4285714285714,4,2,1,70,0,0
202370,-71.4285714285714,4,2,1,60,0,0
203537,-66.6666666666667,4,2,1,60,0,0
205620,-66.6666666666667,4,2,1,80,0,0
219037,-66.6666666666667,4,2,1,90,0,0
224120,-66.6666666666667,4,2,1,5,0,0
224204,-66.6666666666667,4,2,1,90,0,0
224370,-66.6666666666667,4,2,1,70,0,0
227037,-117.647058823529,4,2,2,50,0,0
244204,-200,4,3,1,70,0,0
244954,-83.3333333333333,4,2,1,75,0,0
245370,-66.6666666666667,4,2,1,75,0,0
245704,-66.6666666666667,4,2,1,80,0,1
256037,-66.6666666666667,4,2,1,80,0,0
256370,-66.6666666666667,4,2,1,80,0,1
266704,-83.3333333333333,4,2,1,80,0,0
267037,-83.3333333333333,4,2,1,70,0,0
269620,-83.3333333333333,4,2,1,5,0,0
269704,-83.3333333333333,4,2,1,70,0,0
271704,-83.3333333333333,4,2,1,60,0,0
275037,-83.3333333333333,4,2,1,40,0,0
275454,-83.3333333333333,4,2,1,5,0,0
275537,-83.3333333333333,4,2,1,40,0,0
275954,-83.3333333333333,4,2,1,5,0,0
276037,-83.3333333333333,4,2,1,40,0,0
276454,-83.3333333333333,4,2,1,5,0,0
276537,-83.3333333333333,4,2,1,70,0,0
277287,-83.3333333333333,4,2,1,70,0,0
277537,-83.3333333333333,4,2,1,70,0,0
277704,-83.3333333333333,4,2,1,70,0,0
285704,-83.3333333333333,4,2,1,40,0,0
286120,-83.3333333333333,4,2,1,5,0,0
286204,-83.3333333333333,4,2,1,40,0,0
286620,-83.3333333333333,4,2,1,5,0,0
286704,-83.3333333333333,4,2,1,40,0,0
287120,-83.3333333333333,4,2,1,5,0,0
287204,-83.3333333333333,4,2,1,70,0,0
288037,-74.0740740740741,4,2,1,80,0,1
298870,-74.0740740740741,4,2,1,80,0,0
299037,-74.0740740740741,4,2,1,80,0,1
309704,-133.333333333333,4,3,1,90,0,0
310204,-133.333333333333,4,2,0,70,0,0
310245,-133.333333333333,4,2,0,5,0,0
310704,-133.333333333333,4,2,0,70,0,0
310745,-133.333333333333,4,2,0,5,0,0
311204,-133.333333333333,4,2,0,70,0,0
311245,-133.333333333333,4,2,0,5,0,0
311704,-133.333333333333,4,2,0,70,0,0
311745,-133.333333333333,4,2,0,5,0,0
312037,-133.333333333333,4,2,0,70,0,0
312079,-133.333333333333,4,2,0,5,0,0
312370,-133.333333333333,4,3,1,50,0,0
312704,-133.333333333333,4,2,0,60,0,0
312870,-133.333333333333,4,2,0,60,0,0
312912,-133.333333333333,4,2,0,5,0,0
313370,-133.333333333333,4,2,0,60,0,0
313412,-133.333333333333,4,2,0,5,0,0
313870,-133.333333333333,4,2,0,60,0,0
313912,-133.333333333333,4,2,0,5,0,0
314370,-133.333333333333,4,2,0,60,0,0
314412,-133.333333333333,4,2,0,5,0,0
314704,-133.333333333333,4,2,0,60,0,0
314745,-133.333333333333,4,2,0,5,0,0
315037,-133.333333333333,4,3,1,50,0,0
315537,-133.333333333333,4,2,0,60,0,0
315579,-133.333333333333,4,2,0,5,0,0
316037,-133.333333333333,4,2,0,60,0,0
316079,-133.333333333333,4,2,0,5,0,0
316537,-133.333333333333,4,2,0,60,0,0
316579,-133.333333333333,4,2,0,5,0,0
317037,-133.333333333333,4,2,0,60,0,0
317079,-133.333333333333,4,2,0,5,0,0
317370,-133.333333333333,4,2,0,60,0,0
317412,-133.333333333333,4,2,0,5,0,0
317704,-133.333333333333,4,3,1,40,0,0
318037,-133.333333333333,4,2,0,50,0,0
318204,-133.333333333333,4,2,0,50,0,0
318245,-133.333333333333,4,2,0,5,0,0
318704,-133.333333333333,4,2,0,50,0,0
318745,-133.333333333333,4,2,0,5,0,0
319204,-133.333333333333,4,2,0,50,0,0
319245,-133.333333333333,4,2,0,5,0,0
319704,-133.333333333333,4,2,0,50,0,0
319745,-133.333333333333,4,2,0,5,0,0
320037,-133.333333333333,4,3,1,30,0,0

[Colours]
Combo1 : 67,52,254
Combo2 : 241,1,241
Combo3 : 247,242,79
Combo4 : 18,245,35
Combo5 : 255,0,0

[HitObjects]
152,120,371,6,0,P|200:80|236:76,1,75.0000028610231,2|0,0:0|2:0,0:0:0:0:
230,162,704,1,2,0:0:0:0:
156,204,870,2,0,P|108:196|72:152,1,75.0000028610231,2|0,0:0|0:0,0:0:0:0:
64,96,1204,1,2,0:0:0:0:
139,51,1370,2,0,P|199:94|231:179,1,150.000005722046,2|0,0:0|0:0,0:0:0:0:
272,232,1870,2,0,P|300:204|312:168,1,75.0000028610231,2|0,0:0|0:0,0:0:0:0:
229,161,2204,1,2,0:0:0:0:
292,96,2370,2,0,P|344:99|384:135,1,75.0000028610231,2|0,0:0|0:0,0:0:0:0:
312,172,2704,1,2,0:0:0:0:
288,204,3037,6,0,P|272:248|280:280,1,75.0000028610231,2|0,0:0|0:0,0:0:0:0:
352,248,3370,1,2,0:0:0:0:
420,288,3537,2,0,P|432:242|421:211,1,75.0000028610231,2|0,0:0|0:0,0:0:0:0:
356,148,3870,1,2,0:0:0:0:
268,128,4037,2,0,P|220:168|224:252,1,150.000005722046,2|0,0:0|0:0,0:0:0:0:
308,292,4537,2,0,P|316:248|310:212,1,75.0000028610231,2|0,0:0|0:0,0:0:0:0:
292,132,4870,1,2,0:0:0:0:
220,176,5037,2,0,P|213:213|223:249,1,75.0000028610231,2|0,0:0|0:0,0:0:0:0:
308,292,5370,1,2,0:0:0:0:
332,268,5704,6,0,P|337:219|315:176,1,75.0000028610231,2|0,0:0|0:0,0:0:0:0:
252,234,6037,1,2,0:0:0:0:
269,318,6204,2,0,P|298:340|335:346,1,75.0000028610231,2|0,0:0|0:0,0:0:0:0:
405,301,6537,1,2,0:0:0:0:
378,212,6704,2,0,P|315:189|247:240,1,150.000005722046,2|0,0:0|0:0,0:0:0:0:
184,284,7204,2,0,P|168:238|175:201,1,75.0000028610231,2|0,0:0|0:0,0:0:0:0:
227,157,7537,1,2,0:0:0:0:
153,123,7704,2,0,P|113:123|70:148,1,75.0000028610231,2|0,0:0|0:0,0:0:0:0:
132,200,8037,1,2,0:0:0:0:
143,227,8370,6,0,P|174:287|274:295,1,150.000005722046,2|0,0:0|0:0,0:0:0:0:
232,220,8870,2,0,P|260:186|268:143,1,75.0000028610231,2|0,0:0|0:0,0:0:0:0:
265,70,9204,1,2,0:0:0:0:
183,96,9370,2,0,P|136:163|153:243,1,150.000005722046,2|0,0:0|0:0,0:0:0:0:
190,301,9870,2,0,P|124:309|62:247,1,150.000005722046,2|0,0:0|0:0,0:0:0:0:
143,227,10370,2,0,P|180:208|220:212,1,75.0000028610231,2|2,0:0|0:0,0:0:0:0:
302,215,10704,2,0,P|293:251|266:277,1,75.0000028610231,2|0,0:0|0:0,0:0:0:0:
76,180,11037,5,4,0:0:0:0:
120,192,13704,6,0,L|179:117,1,75.0000028610231,4|0,0:0|0:0,0:0:0:0:
271,27,14037,1,0,0:0:0:0:
248,184,14204,2,0,L|196:248,1,75.0000028610231,8|0,0:0|0:0,0:0:0:0:
160,376,14537,1,0,0:0:0:0:
279,287,14704,2,0,L|335:219,1,75.0000028610231,8|0,0:0|0:0,0:0:0:0:
406,88,15037,5,4,0:0:0:0:
432,224,15204,2,0,L|420:156,2,37.5000014305115
460,356,15537,1,0,0:0:0:0:
339,302,15704,2,0,L|320:193,1,75.0000028610231,8|0,0:0|0:0,0:0:0:0:
304,88,16037,2,0,P|257:73|208:80,1,75.0000028610231,8|0,0:0|0:0,0:0:0:0:
136,220,16370,6,0,P|202:224|240:208,1,75.0000028610231,4|0,0:0|0:0,0:0:0:0:
432,160,16704,1,0,0:0:0:0:
364,272,16870,2,0,L|304:360,1,75.0000028610231,8|0,0:0|0:0,0:0:0:0:
328,176,17204,1,0,0:0:0:0:
264,272,17370,2,0,L|200:352,1,75.0000028610231,8|0,0:0|0:0,0:0:0:0:
230,130,17704,5,0,0:0:0:0:
264,272,17870,1,8,0:0:0:0:
230,130,18037,1,0,0:0:0:0:
264,272,18204,1,0,0:0:0:0:
320,70,18370,2,0,P|380:83|414:108,1,75.0000028610231,8|0,0:0|0:0,0:0:0:0:
420,304,18704,2,0,P|359:290|325:265,1,75.0000028610231,8|0,0:0|0:0,0:0:0:0:
116,256,19037,6,0,P|112:324|156:280,1,150.000005722046,4|0,0:0|0:0,0:0:0:0:
240,168,19537,1,8,3:0:0:0:
240,168,19620,1,0,3:0:0:0:
240,168,19704,1,8,3:0:0:0:
320,312,19870,5,8,3:0:0:0:
204,144,20037,1,8,3:0:0:0:
371,262,20204,2,0,P|351:294|303:314,1,75.0000028610231,8|0,3:0|0:0,0:0:0:0:
120,312,20537,6,0,L|184:232,1,75.0000028610231,4|0,0:0|0:0,0:0:0:0:
304,128,20870,1,8,0:0:0:0:
120,180,21037,1,8,0:0:0:0:
296,240,21204,1,8,0:0:0:0:
198,74,21370,1,4,0:0:0:0:
296,240,21537,1,8,0:0:0:0:
314,45,21704,6,0,L|166:81,1,119.999996337891,12|0,3:0|0:0,0:0:0:0:
376,140,22037,1,8,0:0:0:0:
300,160,22204,2,0,L|183:187,1,119.999996337891,0|2,0:0|0:0,0:0:0:0:
492,212,22537,1,0,0:0:0:0:
411,235,22704,2,0,L|178:290,1,239.999992675781,8|2,0:0|0:0,0:0:0:0:
336,156,23204,5,0,0:0:0:0:
148,114,23370,1,8,0:0:0:0:
144,280,23537,1,0,0:0:0:0:
148,114,23704,1,2,0:0:0:0:
292,300,23870,1,0,0:0:0:0:
148,114,24037,2,0,L|231:216,1,119.999996337891,8|0,0:0|0:0,0:0:0:0:
414,249,24370,6,0,L|310:121,1,119.999996337891,4|0,3:0|0:0,0:0:0:0:
471,332,24704,1,8,0:0:0:0:
299,240,24870,2,0,L|374:333,1,119.999996337891,0|2,0:0|0:0,0:0:0:0:
213,146,25204,1,0,0:0:0:0:
155,312,25370,2,0,P|119:206|213:146,1,239.999992675781,8|2,0:0|0:0,0:0:0:0:
315,369,25870,5,0,0:0:0:0:
155,312,26037,1,8,0:0:0:0:
376,268,26204,1,0,0:0:0:0:
136,318,26370,1,2,0:0:0:0:
296,160,26537,1,0,0:0:0:0:
118,321,26704,2,0,L|207:240,1,119.999996337891,8|0,0:0|0:0,0:0:0:0:
315,369,27037,6,0,L|411:281,1,119.999996337891,4|0,3:0|0:0,0:0:0:0:
296,160,27370,2,0,L|200:248,1,119.999996337891,8|0,0:0|0:0,0:0:0:0:
192,124,27704,1,2,0:0:0:0:
118,321,27870,1,0,0:0:0:0:
288,272,28037,2,0,B|351:216|351:216|397:231|455:215|482:157|477:130,1,239.999992675781,8|2,0:0|0:0,0:0:0:0:
287,31,28537,5,0,0:0:0:0:
208,160,28704,1,8,0:0:0:0:
372,116,28870,1,0,0:0:0:0:
192,144,29037,1,2,0:0:0:0:
296,264,29204,1,0,0:0:0:0:
176,128,29370,2,0,L|80:32,1,119.999996337891,8|0,0:0|0:0,0:0:0:0:
286,31,29704,6,0,L|382:127,1,119.999996337891,4|0,3:0|0:0,0:0:0:0:
480,240,30037,1,8,0:0:0:0:
432,60,30204,2,0,P|456:116|416:180,1,119.999996337891,0|2,0:0|0:0,0:0:0:0:
260,260,30537,1,0,0:0:0:0:
371,116,30704,2,0,B|316:180|316:180|246:140|176:188|172:232,1,239.999992675781,8|2,0:0|0:0,0:0:0:0:
319,366,31204,5,8,0:0:0:0:
433,167,31370,1,8,0:0:0:0:
191,226,31537,1,0,0:0:0:0:
360,260,31704,1,8,0:0:0:0:
352,87,31870,1,0,0:0:0:0:
191,226,32037,2,0,P|203:286|247:330,1,119.999996337891,8|0,0:0|0:0,0:0:0:0:
429,171,32370,6,0,P|381:99|313:87,1,119.999996337891,4|0,3:0|0:0,0:0:0:0:
196,196,32704,1,8,0:0:0:0:
392,194,32870,2,0,P|384:126|336:78,1,119.999996337891,0|2,0:0|0:0,0:0:0:0:
208,160,33204,1,0,0:0:0:0:
286,292,33370,2,0,P|346:239|337:65,1,239.999992675781,8|2,0:0|0:0,0:0:0:0:
212,8,33870,5,0,0:0:0:0:
28,124,34037,1,8,0:0:0:0:
159,79,34204,1,0,0:0:0:0:
136,220,34370,1,2,0:0:0:0:
48,32,34537,1,0,0:0:0:0:
48,256,34704,2,0,P|76:308|152:340,1,119.999996337891,8|0,0:0|0:0,0:0:0:0:
240,153,35037,6,0,P|196:112|128:96,1,119.999996337891,4|0,3:0|0:0,0:0:0:0:
127,337,35370,1,8,0:0:0:0:
296,212,35537,2,0,P|318:149|279:79,1,119.999996337891,0|2,0:0|0:0,0:0:0:0:
144,180,35870,1,0,0:0:0:0:
363,252,36037,2,0,P|396:153|311:14,1,239.999992675781,8|2,0:0|0:0,0:0:0:0:
140,76,36537,5,0,0:0:0:0:
296,212,36704,1,8,0:0:0:0:
144,180,36870,1,0,0:0:0:0:
332,108,37037,1,2,0:0:0:0:
212,264,37204,1,0,0:0:0:0:
244,56,37370,2,0,L|224:200,1,119.999996337891,8|0,0:0|0:0,0:0:0:0:
200,344,37704,6,0,P|260:353|336:320,1,119.999996337891,4|0,3:0|0:0,0:0:0:0:
227,174,38037,1,8,0:0:0:0:
248,264,38204,2,0,P|299:236|324:164,1,119.999996337891,0|2,0:0|0:0,0:0:0:0:
112,140,38537,1,0,0:0:0:0:
227,174,38704,2,0,P|239:82|79:58,1,239.999992675781,8|2,0:0|0:0,0:0:0:0:
16,208,39204,5,0,0:0:0:0:
227,174,39370,1,8,0:0:0:0:
148,292,39537,1,0,0:0:0:0:
136,108,39704,1,2,0:0:0:0:
144,288,39870,1,0,0:0:0:0:
64,148,40037,2,0,P|60:84|136:24,1,119.999996337891,8|0,0:0|0:0,0:0:0:0:
287,125,40370,6,0,P|307:181|279:253,1,119.999996337891,4|0,3:0|0:0,0:0:0:0:
127,353,40704,1,8,0:0:0:0:
115,189,40870,2,0,P|175:168|244:197,1,119.999996337891,0|2,0:0|0:0,0:0:0:0:
232,352,41204,1,0,0:0:0:0:
32,256,41370,2,0,P|60:136|184:96,1,239.999992675781,8|2,0:0|0:0,0:0:0:0:
366,185,41870,6,0,P|414:185|383:127,1,119.999996337891,4|0,0:0|0:0,0:0:0:0:
243,100,42204,1,8,0:0:0:0:
243,100,42287,1,0,0:0:0:0:
243,100,42370,1,8,0:0:0:0:
366,185,42537,1,0,0:0:0:0:
147,384,42704,1,8,0:0:0:0:
147,384,43037,5,12,0:0:0:0:
192,296,43204,2,0,B|259:199|397:339|457:188,1,300.000011444092,6|0,0:0|0:0,0:0:0:0:
366,185,44037,1,2,0:0:0:0:
366,185,44204,1,2,0:0:0:0:
296,136,44370,2,0,B|217:161|136:161|108:95|160:32|252:40|276:88|217:161|156:216,1,375.000014305115,2|0,0:0|0:0,0:0:0:0:
116,252,45370,5,2,0:0:0:0:
116,252,45537,1,0,0:0:0:0:
52,300,45704,2,0,P|100:332|184:296,1,150.000005722046,2|0,0:0|0:0,0:0:0:0:
220,224,46204,1,2,0:0:0:0:
224,228,46370,2,0,P|372:236|244:152,1,400
299,207,47870,5,8,0:0:0:0:
204,88,48037,2,0,P|280:56|332:56,1,119.999996337891,8|0,0:0|0:0,0:0:0:0:
409,174,48370,2,0,P|335:209|286:203,1,119.999996337891,8|0,0:0|0:0,0:0:0:0:
204,116,48704,5,8,0:0:0:0:
208,300,48870,1,0,0:0:0:0:
332,128,49037,1,0,0:0:0:0:
144,228,49204,1,0,0:0:0:0:
304,64,49370,1,8,0:0:0:0:
272,236,49537,1,0,0:0:0:0:
224,36,49704,6,0,P|148:56|124:124,1,119.999996337891
144,228,50037,1,8,0:0:0:0:
330,175,50204,2,0,P|298:131|233:114,1,119.999996337891
200,303,50537,5,0,0:0:0:0:
352,280,50704,2,0,P|400:248|412:164,1,119.999996337891,8|0,0:0|0:0,0:0:0:0:
246,192,51037,2,0,L|200:303,1,119.999996337891,2|0,0:0|0:0,0:0:0:0:
432,296,51370,5,8,0:0:0:0:
246,192,51537,1,0,0:0:0:0:
312,352,51704,1,0,0:0:0:0:
404,208,51870,1,0,0:0:0:0:
200,303,52037,2,0,L|252:179,1,119.999996337891,8|0,0:0|0:0,0:0:0:0:
432,20,52370,2,0,L|380:144,1,119.999996337891
299,261,52704,5,8,0:0:0:0:
297,70,52870,1,0,0:0:0:0:
297,70,52954,1,0,0:0:0:0:
297,70,53037,1,8,0:0:0:0:
342,196,53204,1,0,0:0:0:0:
103,263,53370,1,12,0:0:0:0:
103,263,53704,5,6,0:0:0:0:
200,309,53870,2,0,B|226:325|268:316|288:288|300:260|300:260|324:284|424:288|432:200|408:164,1,300.000011444092,6|0,0:0|0:0,0:0:0:0:
342,196,54704,1,2,0:0:0:0:
273,152,54870,1,2,0:0:0:0:
273,152,55037,6,0,P|401:52|489:208,1,375.000014305115,2|0,0:0|0:0,0:0:0:0:
472,268,56037,1,2,0:0:0:0:
392,280,56204,6,0,P|408:220|440:188,1,75.0000028610231,12|0,0:0|0:0,0:0:0:0:
319,247,56537,2,0,P|299:307|267:327,1,75.0000028610231,12|0,0:0|0:0,0:0:0:0:
237,254,56870,5,0,0:0:0:0:
238,171,57037,2,0,P|174:309|318:238,1,400
331,128,58537,5,12,0:0:0:0:
239,255,58704,2,0,P|186:224|165:171,1,119.999996337891,8|0,0:0|0:0,0:0:0:0:
208,56,59037,2,0,B|256:72|288:56|288:56|320:40|364:40|404:60|424:108|412:148,1,239.999992675781,8|8,0:0|0:0,0:0:0:0:
418,308,59537,5,0,0:0:0:0:
418,308,59704,1,0,0:0:0:0:
331,128,59870,1,0,0:0:0:0:
237,286,60037,1,8,0:0:0:0:
331,128,60204,5,0,0:0:0:0:
336,340,60370,2,0,P|265:321|232:272,1,119.999996337891
331,128,60704,1,8,0:0:0:0:
143,165,60870,1,0,0:0:0:0:
319,255,61037,1,0,0:0:0:0:
331,128,61204,6,0,P|279:100|199:128,1,119.999996337891,0|8,0:0|0:0,0:0:0:0:
237,286,61537,1,0,0:0:0:0:
416,180,61704,1,0,0:0:0:0:
143,165,61870,1,0,0:0:0:0:
319,255,62037,1,8,0:0:0:0:
331,128,62204,6,0,P|265:133|211:164,1,119.999996337891,0|2,0:0|0:0,0:0:0:0:
28,231,62537,2,0,P|94:236|148:267,1,119.999996337891,0|8,0:0|0:0,0:0:0:0:
248,365,62870,1,0,0:0:0:0:
368,189,63037,1,2,0:0:0:0:
218,157,63204,1,0,0:0:0:0:
328,336,63370,1,8,0:0:0:0:
224,276,63537,5,0,0:0:0:0:
224,276,63620,1,0,0:0:0:0:
224,276,63704,1,8,0:0:0:0:
444,329,63870,5,0,0:0:0:0:
444,329,63954,1,0,0:0:0:0:
444,329,64037,1,8,0:0:0:0:
136,288,64370,5,10,0:0:0:0:
126,265,64454,1,0,0:0:0:0:
121,242,64537,5,10,0:0:0:0:
118,218,64620,1,0,0:0:0:0:
119,194,64704,5,10,0:0:0:0:
124,171,64787,1,0,0:0:0:0:
131,148,64870,5,10,0:0:0:0:
142,127,64954,1,0,0:0:0:0:
156,107,65037,5,10,0:0:0:0:
172,89,65120,1,0,0:0:0:0:
192,76,65204,6,0,P|224:64|252:64,1,37.5000014305115,10|0,0:0|0:0,0:0:0:0:
340,52,65370,2,0,P|374:54|399:66,1,37.5000014305115,8|0,0:0|0:0,0:0:0:0:
472,136,65537,5,10,0:0:0:0:
487,168,65620,1,0,0:0:0:0:
495,203,65704,1,8,0:0:0:0:
493,239,65787,1,0,0:0:0:0:
482,273,65870,5,10,0:0:0:0:
463,303,65954,1,0,0:0:0:0:
437,328,66037,5,10,0:0:0:0:
405,345,66120,1,0,0:0:0:0:
371,354,66204,5,10,0:0:0:0:
335,354,66287,1,0,0:0:0:0:
300,345,66370,5,10,0:0:0:0:
269,327,66454,1,0,0:0:0:0:
243,302,66537,6,0,P|231:262|235:234,1,44.999998626709,10|0,0:0|0:0,0:0:0:0:
308,144,66704,2,0,P|301:102|286:78,1,44.999998626709,8|0,0:0|0:0,0:0:0:0:
153,44,66870,5,10,0:0:0:0:
139,86,66953,1,0,0:0:0:0:
111,121,67036,1,8,0:0:0:0:
72,142,67120,1,0,0:0:0:0:
35,168,67203,1,10,0:0:0:0:
16,208,67286,1,0,0:0:0:0:
18,252,67370,5,10,0:0:0:0:
32,296,67454,1,0,0:0:0:0:
62,328,67537,5,10,0:0:0:0:
102,348,67620,1,0,0:0:0:0:
147,353,67703,5,10,0:0:0:0:
190,343,67787,1,0,0:0:0:0:
227,318,67870,2,0,P|248:284|256:248,1,50,8|0,0:0|0:0,0:0:0:0:
176,168,68037,2,0,P|185:129|204:97,1,50,8|0,0:0|0:0,0:0:0:0:
320,16,68204,5,10,0:0:0:0:
379,14,68287,1,0,0:0:0:0:
429,45,68370,1,8,0:0:0:0:
454,98,68453,1,0,0:0:0:0:
445,157,68537,5,10,0:0:0:0:
405,200,68620,1,0,0:0:0:0:
361,238,68703,5,10,0:0:0:0:
360,296,68786,1,0,0:0:0:0:
403,335,68870,5,10,0:0:0:0:
461,334,68953,1,0,0:0:0:0:
498,289,69037,5,10,0:0:0:0:
487,232,69121,1,0,0:0:0:0:
444,192,69204,5,10,0:0:0:0:
423,138,69287,1,0,0:0:0:0:
428,88,69370,6,0,P|377:53|293:53,1,119.999996337891,10|4,0:0|0:0,0:0:0:0:
20,24,69704,5,8,0:0:0:0:
99,299,69870,1,0,0:0:0:0:
297,92,70037,1,0,0:0:0:0:
169,21,70204,5,8,0:0:0:0:
99,299,70370,1,0,0:0:0:0:
374,218,70537,1,0,0:0:0:0:
297,92,70704,5,8,0:0:0:0:
99,299,70870,1,0,0:0:0:0:
256,355,71037,5,8,0:0:0:0:
256,24,71204,1,8,0:0:0:0:
256,355,71537,6,4,L|256:307,1,32.4999985122681,12|0,0:0|0:0,0:0:0:0:
293,14,71870,5,8,0:0:0:0:
256,24,72037,1,8,0:0:0:0:
219,34,72204,1,8,0:0:0:0:
84,116,72370,6,0,P|72:180|144:260,1,129.999994049073,4|0,0:0|0:0,0:0:0:0:
241,344,72704,1,8,0:0:0:0:
168,164,72870,1,0,0:0:0:0:
48,300,73037,1,2,0:0:0:0:
241,344,73204,6,0,P|348:320|371:264,1,129.999994049073,0|8,0:0|0:0,0:0:0:0:
262,119,73537,2,0,P|248:184|280:245,1,129.999994049073,0|2,0:0|0:0,0:0:0:0:
472,164,73870,1,0,0:0:0:0:
444,312,74037,5,8,0:0:0:0:
328,164,74204,1,0,0:0:0:0:
241,344,74370,1,2,0:0:0:0:
472,164,74537,1,0,0:0:0:0:
280,43,74704,2,0,L|339:192,1,129.999994049073,8|0,0:0|0:0,0:0:0:0:
400,296,75037,5,2,0:0:0:0:
327,163,75204,1,0,0:0:0:0:
320,320,75370,1,8,0:0:0:0:
245,108,75537,1,0,0:0:0:0:
241,344,75704,1,2,0:0:0:0:
245,180,75870,5,0,0:0:0:0:
241,344,76037,1,8,0:0:0:0:
113,312,76204,1,0,0:0:0:0:
245,147,76370,1,2,0:0:0:0:
358,307,76537,1,0,0:0:0:0:
245,108,76704,1,8,0:0:0:0:
113,312,76870,1,0,0:0:0:0:
36,172,77037,5,8,0:0:0:0:
39,112,77120,1,0,0:0:0:0:
68,63,77204,1,8,0:0:0:0:
111,27,77287,1,0,0:0:0:0:
165,8,77370,1,8,0:0:0:0:
222,8,77454,1,0,0:0:0:0:
275,27,77537,1,12,0:0:0:0:
408,216,77704,6,0,P|384:280|316:312,1,129.999994049073,4|0,3:0|0:0,0:0:0:0:
123,206,78037,1,8,0:0:0:0:
238,318,78204,1,0,0:0:0:0:
316,224,78370,1,2,0:0:0:0:
123,350,78537,1,0,0:0:0:0:
258,158,78704,5,8,0:0:0:0:
123,350,78870,1,0,0:0:0:0:
69,177,79037,1,2,0:0:0:0:
238,318,79204,1,0,0:0:0:0:
142,113,79370,5,8,0:0:0:0:
238,318,79537,1,0,0:0:0:0:
69,177,79704,1,2,0:0:0:0:
270,186,79870,1,0,0:0:0:0:
270,186,79954,1,0,0:0:0:0:
270,186,80037,1,8,0:0:0:0:
202,27,80204,1,8,0:0:0:0:
408,92,80370,5,12,0:0:0:0:
472,208,80537,1,0,0:0:0:0:
425,330,80704,1,0,0:0:0:0:
389,171,80870,5,12,0:0:0:0:
350,304,81037,1,0,0:0:0:0:
225,360,81204,1,0,0:0:0:0:
315,221,81370,5,12,0:0:0:0:
187,290,81537,1,0,0:0:0:0:
53,239,81704,1,0,0:0:0:0:
215,204,81870,5,12,0:0:0:0:
68,159,82037,1,0,0:0:0:0:
7,22,82204,1,0,0:0:0:0:
160,132,82370,5,12,0:0:0:0:
160,132,82454,1,0,0:0:0:0:
160,132,82537,1,0,0:0:0:0:
232,304,82704,5,12,0:0:0:0:
232,304,82787,1,0,0:0:0:0:
232,304,82870,1,0,0:0:0:0:
69,167,83037,6,0,P|73:95|133:43,1,129.999994049073,4|0,3:0|0:0,0:0:0:0:
280,104,83370,1,8,0:0:0:0:
232,304,83537,1,0,0:0:0:0:
160,132,83704,1,2,0:0:0:0:
312,192,83870,1,0,0:0:0:0:
152,336,84037,1,8,0:0:0:0:
39,159,84204,6,0,P|87:131|200:153,1,129.999994049073,0|2,0:0|0:0,0:0:0:0:
312,192,84537,1,0,0:0:0:0:
320,40,84704,1,8,0:0:0:0:
159,131,84870,2,0,P|135:190|147:254,1,129.999994049073,0|2,0:0|0:0,0:0:0:0:
441,186,85204,1,0,0:0:0:0:
441,186,85287,1,0,0:0:0:0:
441,186,85370,2,0,L|293:192,1,129.999994049073,8|0,0:0|0:0,0:0:0:0:
140,196,85704,5,2,0:0:0:0:
252,332,85870,1,0,0:0:0:0:
73,255,86037,2,0,P|49:199|77:135,1,129.999994049073,8|0,0:0|0:0,0:0:0:0:
261,218,86370,2,0,P|283:273|249:334,1,129.999994049073,2|0,0:0|0:0,0:0:0:0:
140,196,86704,1,8,0:0:0:0:
251,331,86870,5,0,0:0:0:0:
184,96,87037,1,2,0:0:0:0:
251,331,87204,1,0,0:0:0:0:
280,40,87370,1,8,0:0:0:0:
251,331,87537,1,0,0:0:0:0:
390,86,87704,6,0,P|408:121|412:163,1,64.9999970245363,2|0,0:0|0:0,0:0:0:0:
416,197,87870,1,8,0:0:0:0:
397,251,87954,1,0,0:0:0:0:
359,296,88037,1,8,0:0:0:0:
309,324,88120,1,0,0:0:0:0:
251,331,88204,1,8,0:0:0:0:
194,317,88287,1,0,0:0:0:0:
150,278,88370,6,0,P|133:219|151:145,1,129.999994049073,6|0,0:0|0:0,0:0:0:0:
276,27,88704,2,0,P|348:52|412:115,1,129.999994049073,8|0,0:0|0:0,0:0:0:0:
349,263,89037,1,2,0:0:0:0:
152,365,89204,1,0,0:0:0:0:
263,222,89370,2,0,P|321:177|405:181,1,129.999994049073,8|0,0:0|0:0,0:0:0:0:
477,353,89704,5,2,0:0:0:0:
349,263,89870,2,0,P|312:189|317:84,1,129.999994049073,0|8,0:0|0:0,0:0:0:0:
428,36,90204,1,0,0:0:0:0:
220,143,90370,1,2,0:0:0:0:
426,238,90537,1,0,0:0:0:0:
426,238,90620,1,0,0:0:0:0:
426,238,90704,2,0,P|414:310|351:354,1,129.999994049073,8|0,0:0|0:0,0:0:0:0:
216,228,91037,5,12,0:0:0:0:
303,140,91204,1,0,0:0:0:0:
335,259,91370,1,0,0:0:0:0:
220,143,91537,5,12,0:0:0:0:
374,187,91704,1,0,0:0:0:0:
259,298,91870,1,0,0:0:0:0:
318,95,92037,5,12,0:0:0:0:
366,297,92204,1,0,0:0:0:0:
167,237,92370,1,0,0:0:0:0:
435,174,92537,5,12,0:0:0:0:
239,359,92704,1,0,0:0:0:0:
178,96,92870,1,0,0:0:0:0:
275,251,93037,5,8,0:0:0:0:
309,143,93204,1,8,0:0:0:0:
344,40,93370,1,8,0:0:0:0:
344,40,93704,6,0,L|384:188,1,119.999996337891,4|0,3:0|0:0,0:0:0:0:
413,291,94037,1,8,0:0:0:0:
265,116,94204,1,0,0:0:0:0:
296,232,94370,2,0,L|336:380,1,119.999996337891,2|0,0:0|0:0,0:0:0:0:
164,148,94704,2,0,L|196:268,1,119.999996337891,8|0,0:0|0:0,0:0:0:0:
225,384,95037,1,2,0:0:0:0:
296,232,95204,6,0,L|261:101,1,119.999996337891,0|8,0:0|0:0,0:0:0:0:
100,208,95537,1,0,0:0:0:0:
240,300,95704,2,0,P|352:308|376:200,1,239.999992675781,2|8,0:0|0:0,0:0:0:0:
152,124,96204,1,0,0:0:0:0:
296,232,96370,6,0,L|261:101,1,119.999996337891,2|0,0:0|0:0,0:0:0:0:
376,168,96704,1,8,0:0:0:0:
146,236,96870,1,0,0:0:0:0:
265,116,97037,1,2,0:0:0:0:
56,48,97204,1,0,0:0:0:0:
152,124,97370,2,0,P|132:172|168:260,1,119.999996337891,8|0,0:0|0:0,0:0:0:0:
315,299,97704,1,2,0:0:0:0:
329,129,97870,6,0,L|217:53,1,119.999996337891,0|8,0:0|0:0,0:0:0:0:
138,216,98204,1,0,0:0:0:0:
304,216,98370,2,0,P|392:192|380:48,1,239.999992675781,2|8,0:0|0:0,0:0:0:0:
166,63,98870,1,0,0:0:0:0:
299,102,99037,5,2,0:0:0:0:
191,282,99204,1,0,0:0:0:0:
195,162,99370,1,8,0:0:0:0:
352,250,99537,1,0,0:0:0:0:
299,102,99704,1,2,0:0:0:0:
496,220,99870,1,0,0:0:0:0:
298,357,100037,1,8,0:0:0:0:
195,162,100204,5,0,0:0:0:0:
352,250,100370,2,0,L|292:371,1,119.999996337891,2|0,0:0|0:0,0:0:0:0:
164,352,100704,1,8,0:0:0:0:
304,136,100871,1,0,0:0:0:0:
195,162,101037,2,0,P|213:241|363:235,1,239.999992675781,2|8,0:0|0:0,0:0:0:0:
299,102,101537,1,0,0:0:0:0:
473,227,101704,5,2,0:0:0:0:
484,3,101870,1,0,0:0:0:0:
404,141,102037,2,0,L|344:262,1,119.999996337891,8|0,0:0|0:0,0:0:0:0:
225,325,102370,2,0,P|185:261|205:189,1,119.999996337891,2|0,0:0|0:0,0:0:0:0:
391,58,102704,2,0,P|455:78|491:138,1,119.999996337891,8|0,0:0|0:0,0:0:0:0:
384,276,103037,1,2,0:0:0:0:
199,150,103204,6,0,B|211:182|246:206|246:206|327:215|327:215|406:169|464:243,1,299.999990844727,6|0,0:3|0:0,0:0:0:0:
384,276,103704,2,0,B|346:294|346:294|222:279|222:279|155:260,1,179.999994506836,6|0,0:3|0:0,0:0:0:0:
151,221,104037,2,0,B|123:163|123:163|120:112|148:84|176:72|208:76,1,179.999994506836,6|0,0:3|0:0,0:0:0:0:
199,150,104370,6,0,B|232:203|232:203|319:216,1,119.999996337891,4|0,0:0|0:0,0:0:0:0:
456,166,104704,1,8,0:0:0:0:
375,310,104870,1,0,0:0:0:0:
280,118,105037,2,0,B|247:65|247:65|160:52,1,119.999996337891,2|0,0:0|0:0,0:0:0:0:
230,201,105370,2,0,L|289:306,1,119.999996337891,8|0,0:0|0:0,0:0:0:0:
280,118,105704,1,2,0:0:0:0:
112,148,105870,6,0,L|177:264,1,119.999996337891,0|8,0:0|0:0,0:0:0:0:
350,243,106204,1,0,0:0:0:0:
378,97,106370,2,0,P|276:29|192:93,1,239.999992675781,2|8,0:0|0:0,0:0:0:0:
241,227,106870,1,0,0:0:0:0:
449,149,107037,6,0,L|429:275,1,119.999996337891,2|0,0:0|0:0,0:0:0:0:
330,373,107370,1,8,0:0:0:0:
241,227,107537,1,0,0:0:0:0:
449,149,107704,1,2,0:0:0:0:
330,373,107870,1,0,0:0:0:0:
321,201,108037,2,0,P|249:149|180:180,1,119.999996337891,8|0,0:0|0:0,0:0:0:0:
223,322,108370,1,2,0:0:0:0:
397,257,108537,6,0,L|458:130,1,119.999996337891,0|8,0:0|0:0,0:0:0:0:
224,100,108870,1,0,0:0:0:0:
292,285,109037,2,0,L|405:52,1,239.999992675781,2|8,0:0|0:0,0:0:0:0:
224,100,109537,1,0,0:0:0:0:
292,285,109704,5,2,0:0:0:0:
112,148,109870,1,0,0:0:0:0:
173,314,110037,1,8,0:0:0:0:
56,256,110204,1,0,0:0:0:0:
112,148,110370,1,2,0:0:0:0:
59,349,110537,2,0,L|212:303,1,119.999996337891,0|8,0:0|0:0,0:0:0:0:
320,189,110870,5,0,0:0:0:0:
56,256,111037,1,2,0:0:0:0:
160,64,111204,1,0,0:0:0:0:
287,279,111370,2,0,L|173:314,1,119.999996337891,8|0,0:0|0:0,0:0:0:0:
64,128,111704,1,2,0:0:0:0:
252,64,111870,1,0,0:0:0:0:
448,128,112037,1,8,0:0:0:0:
256,328,112204,1,0,0:0:0:0:
112,255,112370,6,0,B|48:223|80:191|64:127|64:127|112:159|160:111|192:191,1,299.999990844727,4|0,3:0|0:0,0:0:0:0:
192,190,112870,2,0,B|171:130|235:110|251:62|251:62|267:110|331:126|320:192,1,299.999990844727,4|0,3:0|0:0,0:0:0:0:
320,192,113370,2,0,B|356:112|400:160|448:128|448:128|432:192|464:224|400:256,1,299.999990844727,4|0,3:0|0:0,0:0:0:0:
312,276,113870,6,0,P|261:244|241:189,1,119.999996337891,4|0,0:0|0:0,0:0:0:0:
448,128,114204,1,0,0:0:0:0:
448,128,114287,1,0,0:0:0:0:
448,128,114370,1,8,0:0:0:0:
192,32,114537,1,0,0:0:0:0:
400,280,114704,1,12,0:0:0:0:
472,28,114870,1,8,0:0:0:0:
224,184,115037,5,4,3:0:0:0:
352,80,115204,1,0,0:0:0:0:
184,108,115370,2,0,P|144:160|140:212,1,100,8|0,0:0|0:0,0:0:0:0:
196,360,115704,1,2,0:0:0:0:
60,252,115870,1,0,0:0:0:0:
224,184,116037,2,0,P|272:96|184:28,1,200,8|2,0:0|0:0,0:0:0:0:
63,132,116537,5,0,0:0:0:0:
224,184,116704,1,8,0:0:0:0:
117,296,116870,1,0,0:0:0:0:
356,281,117037,1,2,0:0:0:0:
224,184,117204,1,0,0:0:0:0:
312,360,117370,2,0,L|220:284,1,100,8|0,0:0|0:0,0:0:0:0:
94,138,117704,5,4,3:0:0:0:
295,220,117870,1,0,0:0:0:0:
199,48,118037,1,8,0:0:0:0:
234,296,118204,1,0,0:0:0:0:
306,104,118370,1,2,0:0:0:0:
148,244,118537,1,0,0:0:0:0:
364,252,118704,2,0,P|440:188|380:80,1,200,8|2,0:0|0:0,0:0:0:0:
172,56,119204,5,0,0:0:0:0:
360,168,119370,1,8,0:0:0:0:
181,200,119537,1,0,0:0:0:0:
283,126,119704,1,2,0:0:0:0:
248,310,119870,1,0,0:0:0:0:
376,88,120037,2,0,L|280:128,1,100,8|0,0:0|0:0,0:0:0:0:
96,264,120370,5,4,3:0:0:0:
203,115,120537,2,0,P|215:163|263:195,1,100,0|8,0:0|0:0,0:0:0:0:
456,52,120870,1,0,0:0:0:0:
356,200,121037,2,0,P|344:152|296:120,1,100,2|0,0:0|0:0,0:0:0:0:
104,136,121370,2,0,P|140:200|256:192,1,200,8|2,0:0|0:0,0:0:0:0:
293,31,121870,5,0,0:0:0:0:
128,136,122037,1,8,0:0:0:0:
300,208,122204,1,0,0:0:0:0:
194,58,122370,1,2,0:0:0:0:
151,240,122537,1,0,0:0:0:0:
384,236,122704,2,0,P|384:184|336:128,1,100,8|0,0:0|0:0,0:0:0:0:
151,240,123037,5,4,3:0:0:0:
109,24,123204,1,0,0:0:0:0:
233,149,123370,1,8,0:0:0:0:
37,158,123537,1,0,0:0:0:0:
262,41,123704,2,0,P|334:97|342:149,1,100,2|0,0:0|0:0,0:0:0:0:
309,296,124037,2,0,P|226:239|254:126,1,200,8|2,0:0|0:0,0:0:0:0:
460,100,124537,5,0,0:0:0:0:
301,205,124704,1,8,0:0:0:0:
287,18,124870,1,0,0:0:0:0:
264,184,125037,1,8,0:0:0:0:
95,52,125204,1,0,0:0:0:0:
248,216,125370,1,8,0:0:0:0:
56,301,125537,1,12,0:0:0:0:
288,232,125704,6,0,P|364:236|400:280,1,100,4|0,3:0|0:0,0:0:0:0:
198,307,126037,2,0,P|158:263|170:199,1,100,8|0,0:0|0:0,0:0:0:0:
316,156,126370,1,2,0:0:0:0:
192,44,126537,1,0,0:0:0:0:
382,115,126704,2,0,P|394:175|278:227,1,200,8|2,0:0|0:0,0:0:0:0:
192,44,127204,5,0,0:0:0:0:
196,200,127370,1,8,0:0:0:0:
148,120,127537,1,0,0:0:0:0:
292,227,127704,1,2,0:0:0:0:
382,115,127870,1,0,0:0:0:0:
196,200,128037,2,0,L|308:232,1,100,8|0,0:0|0:0,0:0:0:0:
476,184,128370,5,4,3:0:0:0:
324,52,128537,2,0,P|292:104|312:168,1,100,0|8,0:0|0:0,0:0:0:0:
352,320,128870,1,0,0:0:0:0:
476,184,129037,2,0,P|504:140|500:80,1,100,2|0,0:0|0:0,0:0:0:0:
372,116,129370,2,0,P|304:132|300:252,1,200,8|2,0:0|0:0,0:0:0:0:
460,348,129870,5,0,0:0:0:0:
448,160,130037,1,8,0:0:0:0:
294,246,130204,1,0,0:0:0:0:
500,240,130370,1,2,0:0:0:0:
352,320,130537,1,0,0:0:0:0:
448,160,130704,2,0,P|424:112|344:76,1,100,8|0,0:0|0:0,0:0:0:0:
232,32,131037,5,4,3:0:0:0:
280,272,131204,1,0,0:0:0:0:
356,188,131370,1,8,0:0:0:0:
184,120,131537,1,0,0:0:0:0:
304,100,131704,1,2,0:0:0:0:
168,236,131870,1,0,0:0:0:0:
416,248,132037,2,0,P|436:128|368:112,1,200,8|2,0:0|0:0,0:0:0:0:
184,120,132537,5,0,0:0:0:0:
356,188,132704,1,8,0:0:0:0:
240,336,132870,1,0,0:0:0:0:
168,236,133037,1,2,0:0:0:0:
388,340,133204,1,0,0:0:0:0:
259,213,133370,2,0,L|367:185,1,100,8|0,0:0|0:0,0:0:0:0:
472,176,133704,5,4,3:0:0:0:
388,340,133870,1,0,0:0:0:0:
259,213,134037,1,8,0:0:0:0:
220,340,134204,1,0,0:0:0:0:
355,187,134370,2,0,P|311:115|275:99,1,100,2|0,0:0|0:0,0:0:0:0:
100,140,134704,2,0,P|80:224|148:176,1,200,8|0,0:0|0:0,0:0:0:0:
208,8,135204,5,12,0:0:0:0:
312,228,135370,1,0,0:0:0:0:
352,20,135537,1,8,0:0:0:0:
352,20,135620,1,0,0:0:0:0:
352,20,135704,1,8,0:0:0:0:
264,144,135870,1,8,0:0:0:0:
488,316,136037,1,8,0:0:0:0:
488,316,136370,5,12,0:0:0:0:
360,288,136537,2,0,B|304:216|304:216|244:240|188:208|168:152|200:96,1,300.000011444092,8|0,0:0|0:0,0:0:0:0:
264,144,137370,6,0,P|272:68|256:44,1,75.0000028610231,2|0,0:0|0:0,0:0:0:0:
148,24,137704,2,0,P|96:168|240:312,1,375.000014305115,2|0,0:0|0:0,0:0:0:0:
272,236,138704,2,0,B|316:260|322:320,1,75.0000028610231,2|0,0:0|0:0,0:0:0:0:
412,304,139037,5,2,0:0:0:0:
412,304,139204,2,0,P|383:253|378:207,1,75.0000028610231,2|0,0:0|0:0,0:0:0:0:
363,160,139537,5,2,0:0:0:0:
392,84,139704,2,0,B|460:104|472:216|408:272|336:244|296:216|296:216|248:248|192:224,1,400
120,160,141204,5,12,0:0:0:0:
120,160,141287,1,0,0:0:0:0:
120,160,141370,1,8,0:0:0:0:
276,80,141537,1,0,0:0:0:0:
300,248,141704,1,8,0:0:0:0:
212,160,141870,1,0,0:0:0:0:
384,172,142037,5,8,0:0:0:0:
436,316,142204,1,0,0:0:0:0:
472,156,142370,2,0,P|412:88|348:76,1,119.999996337891
192,72,142704,5,8,0:0:0:0:
304,220,142870,1,0,0:0:0:0:
168,152,143037,2,0,P|116:112|105:52,1,119.999996337891
109,222,143370,5,8,0:0:0:0:
312,308,143537,1,0,0:0:0:0:
108,322,143704,1,0,0:0:0:0:
261,154,143870,1,0,0:0:0:0:
216,284,144037,5,8,0:0:0:0:
270,67,144204,2,0,P|202:91|176:140,1,119.999996337891
216,284,144537,1,0,0:0:0:0:
261,154,144704,2,0,P|219:90|147:51,1,119.999996337891,8|0,0:0|0:0,0:0:0:0:
69,70,145037,5,0,0:0:0:0:
187,203,145204,2,0,P|263:241|339:222,1,119.999996337891,0|8,0:0|0:0,0:0:0:0:
474,118,145537,1,0,0:0:0:0:
304,35,145704,2,0,L|355:160,1,119.999996337891
424,280,146037,5,8,0:0:0:0:
364,172,146204,1,8,0:0:0:0:
364,172,146287,1,8,0:0:0:0:
364,172,146370,1,8,0:0:0:0:
360,356,146537,1,0,0:0:0:0:
110,146,146704,1,8,0:0:0:0:
110,146,147037,5,12,0:0:0:0:
71,232,147204,2,0,P|160:342|313:270,1,300.000011444092,4|0,0:0|0:0,0:0:0:0:
337,238,148037,1,0,0:0:0:0:
399,285,148204,1,0,0:0:0:0:
411,209,148370,6,0,B|388:168|336:140|292:168|256:196|256:196|212:232|156:232|108:196|108:128,1,375.000014305115
190,144,149370,1,0,0:0:0:0:
190,68,149537,6,0,P|238:84|262:128,1,75.0000028610231,12|0,0:0|0:0,0:0:0:0:
328,101,149870,2,0,P|354:75|392:68,1,75.0000028610231,12|0,0:0|0:0,0:0:0:0:
393,142,150204,5,2,0:0:0:0:
407,219,150370,2,0,P|470:127|331:189,1,400
411,308,151870,5,12,0:0:0:0:
411,308,151954,1,0,0:0:0:0:
411,308,152037,1,8,0:0:0:0:
392,140,152204,1,0,0:0:0:0:
288,292,152370,1,8,0:0:0:0:
392,140,152537,1,0,0:0:0:0:
203,203,152704,5,8,0:0:0:0:
392,140,152870,1,0,0:0:0:0:
223,42,153037,1,0,0:0:0:0:
310,212,153204,1,0,0:0:0:0:
223,42,153370,5,8,0:0:0:0:
392,140,153537,2,0,P|380:176|291:209,1,119.999996337891
129,205,153870,1,0,0:0:0:0:
304,132,154037,5,8,0:0:0:0:
220,344,154204,1,0,0:0:0:0:
316,300,154370,1,0,0:0:0:0:
129,205,154537,1,0,0:0:0:0:
340,212,154704,1,8,0:0:0:0:
129,205,154870,6,0,L|272:176,1,119.999996337891
392,140,155204,1,0,0:0:0:0:
192,74,155370,1,8,0:0:0:0:
235,239,155537,1,0,0:0:0:0:
392,140,155704,1,0,0:0:0:0:
235,239,155870,5,0,0:0:0:0:
374,311,156037,1,8,0:0:0:0:
180,312,156204,2,0,P|144:264|144:204,1,119.999996337891
232,60,156537,1,0,0:0:0:0:
235,239,156704,5,8,0:0:0:0:
250,283,156787,1,0,0:0:0:0:
286,316,156870,1,8,0:0:0:0:
331,326,156954,1,8,0:0:0:0:
374,311,157037,1,8,0:0:0:0:
432,176,157204,5,0,0:0:0:0:
398,138,157287,1,0,0:0:0:0:
353,124,157370,2,0,P|289:125|233:157,1,119.999996337891,8|0,0:0|0:0,0:0:0:0:
181,311,157704,5,10,0:0:0:0:
147,324,157787,1,0,0:0:0:0:
112,326,157870,5,10,0:0:0:0:
77,315,157954,1,0,0:0:0:0:
49,294,158037,5,10,0:0:0:0:
29,264,158120,1,0,0:0:0:0:
21,229,158204,5,10,0:0:0:0:
25,194,158287,1,0,0:0:0:0:
41,162,158370,5,10,0:0:0:0:
72,143,158453,1,0,0:0:0:0:
107,139,158537,6,0,P|152:144|185:160,1,42.5000008106232,10|0,0:0|0:0,0:0:0:0:
251,236,158704,2,0,P|279:245|306:244,1,42.5000008106232,8|0,0:0|0:0,0:0:0:0:
449,196,158870,5,10,0:0:0:0:
473,167,158953,1,0,0:0:0:0:
483,130,159036,1,8,0:0:0:0:
478,93,159120,1,0,0:0:0:0:
458,61,159204,5,10,0:0:0:0:
426,41,159286,1,0,0:0:0:0:
389,35,159370,5,10,0:0:0:0:
358,57,159453,1,0,0:0:0:0:
324,73,159536,5,10,0:0:0:0:
287,83,159620,1,0,0:0:0:0:
249,85,159703,5,10,0:0:0:0:
212,79,159786,1,0,0:0:0:0:
176,67,159870,6,0,P|135:83|110:108,1,47.4999987316132,8|0,0:0|0:0,0:0:0:0:
21,219,160037,2,0,P|36:260|61:285,1,47.4999987316132,8|0,0:0|0:0,0:0:0:0:
184,344,160204,5,10,0:0:0:0:
198,299,160287,1,0,0:0:0:0:
233,267,160370,1,8,0:0:0:0:
278,255,160454,1,0,0:0:0:0:
323,265,160537,1,8,0:0:0:0:
365,285,160620,1,0,0:0:0:0:
411,284,160703,5,10,0:0:0:0:
453,263,160787,1,0,0:0:0:0:
480,225,160870,1,8,0:0:0:0:
482,178,160953,1,0,0:0:0:0:
463,135,161036,5,10,0:0:0:0:
427,105,161120,1,0,0:0:0:0:
382,93,161204,2,0,P|357:101|331:105,1,52.4999983978272,8|0,0:0|0:0,0:0:0:0:
173,52,161370,2,0,P|133:61|93:85,1,52.4999983978272,8|0,0:0|0:0,0:0:0:0:
28,184,161537,5,10,0:0:0:0:
9,240,161620,1,0,0:0:0:0:
23,297,161703,1,8,0:0:0:0:
65,339,161787,1,0,0:0:0:0:
122,353,161870,5,10,0:0:0:0:
178,334,161954,1,0,0:0:0:0:
213,287,162037,5,10,0:0:0:0:
210,228,162120,1,0,0:0:0:0:
189,172,162203,5,10,0:0:0:0:
199,113,162286,1,0,0:0:0:0:
237,68,162370,5,10,0:0:0:0:
293,48,162453,1,0,0:0:0:0:
351,59,162537,6,0,B|386:73|386:73|424:100,1,59.9999981689454,10|0,0:0|0:0,0:0:0:0:
490,194,162704,6,0,B|485:231|485:231|469:275,1,59.9999981689454,10|0,0:0|0:0,0:0:0:0:
397,347,162870,1,8,0:0:0:0:
104,132,163037,5,8,0:0:0:0:
293,321,163204,1,0,0:0:0:0:
510,162,163370,1,0,0:0:0:0:
411,28,163537,5,8,0:0:0:0:
221,218,163704,1,0,0:0:0:0:
5,59,163870,1,0,0:0:0:0:
372,145,164037,5,8,0:0:0:0:
138,145,164204,1,0,0:0:0:0:
256,384,164370,2,2,L|256:340,1,25,10|2,0:0|0:0,0:0:0:0:
256,192,164454,12,8,165537,0:0:0:0:
112,80,165704,5,6,0:0:0:0:
308,199,165870,1,0,0:0:0:0:
308,8,166037,1,8,0:0:0:0:
224,228,166204,2,0,P|300:284|392:264,1,135.000000514984,0|2,0:0|0:0,0:0:0:0:
392,116,166537,1,0,0:0:0:0:
196,140,166704,2,0,P|152:184|156:284,1,135.000000514984,8|0,0:0|0:0,0:0:0:0:
337,285,167037,5,2,0:0:0:0:
392,116,167204,1,0,0:0:0:0:
408,324,167370,2,0,P|368:360|280:352,1,135.000000514984,8|0,0:0|0:0,0:0:0:0:
160,216,167704,1,2,0:0:0:0:
337,285,167870,1,0,0:0:0:0:
196,140,168037,2,0,P|130:133|80:180,1,135.000000514984,8|0,0:0|0:0,0:0:0:0:
100,384,168370,5,2,0:0:0:0:
160,216,168537,1,0,0:0:0:0:
336,316,168704,1,8,0:0:0:0:
182,177,168870,1,0,0:0:0:0:
228,376,169037,1,2,0:0:0:0:
199,141,169204,1,0,0:0:0:0:
388,228,169370,1,8,0:0:0:0:
214,102,169537,5,0,0:0:0:0:
336,316,169704,1,2,0:0:0:0:
372,100,169870,1,0,0:0:0:0:
225,315,170037,1,8,0:0:0:0:
348,24,170204,2,0,P|444:60|452:120,1,135.000000514984,0|2,0:0|0:0,0:0:0:0:
460,148,170454,5,0,0:0:0:0:
448,212,170537,1,8,0:0:0:0:
412,268,170620,1,0,0:0:0:0:
356,308,170704,1,0,0:0:0:0:
292,324,170787,1,0,0:0:0:0:
225,315,170870,1,8,0:0:0:0:
28,152,171037,6,0,L|144:256,1,135.000000514984,6|0,0:0|0:0,0:0:0:0:
292,324,171370,1,8,0:0:0:0:
168,156,171537,1,0,0:0:0:0:
100,360,171704,1,2,0:0:0:0:
260,220,171870,1,0,0:0:0:0:
216,36,172037,1,8,0:0:0:0:
16,184,172204,5,0,0:0:0:0:
312,132,172370,1,2,0:0:0:0:
133,280,172537,1,0,0:0:0:0:
349,321,172704,2,0,B|241:199,1,135.000000514984,8|0,0:0|0:0,0:0:0:0:
102,178,173037,1,2,0:0:0:0:
312,132,173204,1,0,0:0:0:0:
24,0,173370,2,0,P|-12:64|32:152,1,135.000000514984,8|0,0:0|0:0,0:0:0:0:
133,280,173704,5,12,0:0:0:0:
102,178,173870,1,0,0:0:0:0:
70,74,174037,1,0,0:0:0:0:
258,305,174204,5,12,0:0:0:0:
222,187,174370,1,0,0:0:0:0:
185,68,174537,1,0,0:0:0:0:
382,329,174704,5,12,0:0:0:0:
343,197,174870,1,0,0:0:0:0:
303,67,175037,1,0,0:0:0:0:
511,351,175204,5,12,0:0:0:0:
469,210,175370,1,0,0:0:0:0:
427,70,175537,1,0,0:0:0:0:
382,329,175704,5,8,0:0:0:0:
363,266,175787,1,0,0:0:0:0:
342,198,175870,1,0,0:0:0:0:
222,22,176037,2,0,L|273:185,1,135.000000514984,8|0,0:0|0:0,0:0:0:0:
368,384,176370,5,4,3:0:0:0:
96,320,176537,1,0,0:0:0:0:
263,151,176704,1,8,0:0:0:0:
240,296,176870,1,0,0:0:0:0:
191,106,177037,2,0,P|251:70|336:101,1,135.000000514984,2|0,0:0|0:0,0:0:0:0:
476,223,177370,2,0,P|416:259|332:243,1,135.000000514984,8|0,0:0|0:0,0:0:0:0:
188,216,177704,5,2,0:0:0:0:
392,176,177870,1,0,0:0:0:0:
320,336,178037,1,8,0:0:0:0:
312,81,178204,1,0,0:0:0:0:
187,310,178370,1,2,0:0:0:0:
312,81,178537,1,0,0:0:0:0:
320,336,178704,2,0,L|178:309,1,135.000000514984,8|0,0:0|0:0,0:0:0:0:
296,156,179037,5,2,0:0:0:0:
320,336,179204,1,0,0:0:0:0:
216,56,179370,1,8,0:0:0:0:
187,305,179537,1,0,0:0:0:0:
350,70,179704,2,0,L|202:54,1,135.000000514984,2|0,0:0|0:0,0:0:0:0:
114,240,180037,5,8,0:0:0:0:
314,257,180204,1,0,0:0:0:0:
216,56,180370,1,2,0:0:0:0:
474,103,180537,1,0,0:0:0:0:
187,305,180704,1,8,0:0:0:0:
288,8,180870,1,0,0:0:0:0:
474,103,181037,5,8,0:0:0:0:
496,165,181121,1,0,0:0:0:0:
482,231,181204,1,8,0:0:0:0:
436,279,181287,1,0,0:0:0:0:
372,296,181371,1,8,0:0:0:0:
308,277,181454,1,0,0:0:0:0:
264,228,181537,1,8,0:0:0:0:
188,8,181704,5,6,0:0:0:0:
496,165,181870,1,0,0:0:0:0:
336,0,182037,2,0,L|216:108,1,135.000000514984,8|0,0:0|0:0,0:0:0:0:
144,192,182370,1,2,0:0:0:0:
272,356,182537,5,0,0:0:0:0:
120,192,182704,1,8,0:0:0:0:
300,140,182870,1,0,0:0:0:0:
96,192,183037,1,2,0:0:0:0:
280,276,183204,5,0,0:0:0:0:
80,192,183370,1,8,0:0:0:0:
300,40,183537,1,0,0:0:0:0:
64,192,183704,1,2,0:0:0:0:
336,188,183870,1,0,0:0:0:0:
48,192,184037,2,0,L|192:192,1,135.000000514984,8|0,0:0|0:0,0:0:0:0:
336,188,184370,5,8,0:0:0:0:
472,162,184537,1,0,0:0:0:0:
384,57,184704,1,8,0:0:0:0:
336,188,184870,5,8,0:0:0:0:
337,350,185037,1,0,0:0:0:0:
480,269,185204,1,8,0:0:0:0:
336,188,185370,5,8,0:0:0:0:
159,158,185537,1,0,0:0:0:0:
220,328,185704,1,8,0:0:0:0:
336,188,185870,5,8,0:0:0:0:
399,3,186037,1,0,0:0:0:0:
205,36,186204,1,8,0:0:0:0:
173,93,186287,1,0,0:0:0:0:
159,158,186370,5,8,0:0:0:0:
182,222,186454,1,0,0:0:0:0:
233,263,186537,5,8,0:0:0:0:
456,324,186704,1,8,0:0:0:0:
48,336,187037,1,12,0:0:0:0:
256,192,187120,12,0,189620,3:0:0:0:
320,136,189704,5,4,3:0:0:0:
256,192,189787,12,0,190954,3:0:0:0:
340,304,191037,5,4,3:0:0:0:
235,123,191704,5,12,0:0:0:0:
235,123,191787,1,4,0:0:0:0:
235,123,191870,1,12,0:0:0:0:
248,260,192037,1,4,0:0:0:0:
328,80,192204,1,4,0:0:0:0:
340,304,192370,1,4,3:0:0:0:
256,192,192454,12,0,194954,3:0:0:0:
160,304,195037,5,4,3:0:0:0:
160,304,195537,5,8,0:0:0:0:
131,260,195620,1,0,0:0:0:0:
131,212,195704,1,8,0:0:0:0:
240,80,195870,1,8,0:0:0:0:
220,232,196037,1,8,0:0:0:0:
344,134,196204,2,0,P|280:90|224:78,1,119.999996337891,8|0,0:0|0:0,0:0:0:0:
60,160,196537,5,4,0:0:0:0:
144,44,196704,1,0,0:0:0:0:
220,232,196870,1,8,0:0:0:0:
316,52,197037,5,8,0:0:0:0:
352,64,197120,1,0,0:0:0:0:
388,88,197204,1,8,0:0:0:0:
420,128,197287,1,0,0:0:0:0:
438,175,197370,1,8,0:0:0:0:
430,230,197454,1,0,0:0:0:0:
405,281,197537,1,8,0:0:0:0:
359,323,197620,1,0,0:0:0:0:
304,348,197704,2,0,P|208:348|168:288,1,129.999994049073,6|0,0:0|0:0,0:0:0:0:
217,180,198037,5,8,0:0:0:0:
96,360,198204,1,0,0:0:0:0:
264,264,198370,2,0,P|308:215|302:140,1,129.999994049073
224,0,198704,1,8,0:0:0:0:
224,0,198787,1,0,0:0:0:0:
224,0,198870,1,0,0:0:0:0:
16,113,199037,2,0,P|48:177|227:168,1,259.999988098145,0|8,0:0|0:0,0:0:0:0:
272,20,199537,5,0,0:0:0:0:
128,112,199704,1,0,0:0:0:0:
400,64,199870,1,0,0:0:0:0:
255,247,200037,1,8,0:0:0:0:
272,20,200204,5,0,0:0:0:0:
401,253,200370,1,0,0:0:0:0:
208,112,200537,1,0,0:0:0:0:
300,344,200704,1,8,0:0:0:0:
416,128,200870,1,0,0:0:0:0:
300,344,201037,5,2,0:0:0:0:
208,112,201204,1,0,0:0:0:0:
401,253,201370,2,0,P|358:311|242:351,1,139.999995727539,8|0,0:0|0:0,0:0:0:0:
208,112,201704,5,2,0:0:0:0:
300,344,201871,1,0,0:0:0:0:
107,203,202037,2,0,P|150:145|266:105,1,139.999995727539,8|0,0:0|0:0,0:0:0:0:
475,125,202370,5,12,0:0:0:0:
200,296,202537,1,0,0:0:0:0:
472,252,202704,2,0,P|498:172|438:100,1,139.999995727539,8|0,0:0|0:0,0:0:0:0:
176,72,203037,2,0,B|244:192|340:96|416:192,1,279.999991455078,4|8,0:0|0:0,0:0:0:0:
324,360,203537,5,0,0:0:0:0:
408,88,203704,1,2,0:0:0:0:
176,72,203870,1,0,0:0:0:0:
437,193,204037,1,8,0:0:0:0:
149,207,204204,1,0,0:0:0:0:
256,20,204370,1,2,0:0:0:0:
437,193,204537,6,0,P|445:266|407:329,1,150.000005722046,0|8,0:0|0:0,0:0:0:0:
224,316,204870,1,8,0:0:0:0:
360,76,205037,2,0,P|417:27|502:36,1,150.000005722046,2|0,0:0|0:0,0:0:0:0:
351,271,205370,5,8,0:0:0:0:
264,152,205537,1,8,0:0:0:0:
192,32,205704,5,8,0:0:0:0:
18,224,205870,1,0,0:0:0:0:
280,313,206037,1,0,0:0:0:0:
369,182,206204,5,8,0:0:0:0:
112,97,206370,1,0,0:0:0:0:
186,364,206537,1,0,0:0:0:0:
424,306,206704,5,8,0:0:0:0:
430,43,206870,1,0,0:0:0:0:
227,157,207037,1,0,0:0:0:0:
300,325,207204,5,8,0:0:0:0:
320,43,207370,1,0,0:0:0:0:
68,137,207537,1,0,0:0:0:0:
133,325,207704,5,8,0:0:0:0:
389,261,207870,1,0,0:0:0:0:
155,88,208037,1,8,0:0:0:0:
133,325,208204,1,0,0:0:0:0:
389,261,208370,6,0,L|327:125,1,150.000005722046,4|0,0:0|0:0,0:0:0:0:
188,196,208704,1,8,0:0:0:0:
444,156,208870,1,0,0:0:0:0:
276,304,209037,1,0,0:0:0:0:
326,124,209204,1,0,0:0:0:0:
472,284,209370,5,8,0:0:0:0:
472,284,209454,1,0,0:0:0:0:
472,284,209537,2,0,P|424:340|336:364,1,150.000005722046
164,276,209870,1,0,0:0:0:0:
326,124,210037,1,8,0:0:0:0:
216,360,210204,1,0,0:0:0:0:
449,196,210370,2,0,P|384:136|308:124,1,150.000005722046
144,140,210704,5,8,0:0:0:0:
216,360,210870,1,8,0:0:0:0:
449,196,211037,1,0,0:0:0:0:
136,252,211204,1,0,0:0:0:0:
244,53,211370,1,8,0:0:0:0:
336,276,211537,1,8,0:0:0:0:
384,40,211704,5,0,0:0:0:0:
124,226,211870,1,0,0:0:0:0:
345,240,212037,1,8,0:0:0:0:
124,96,212204,1,8,0:0:0:0:
235,360,212370,1,0,0:0:0:0:
360,120,212537,1,8,0:0:0:0:
134,264,212704,5,8,0:0:0:0:
304,56,212870,1,0,0:0:0:0:
28,140,213037,1,8,0:0:0:0:
220,224,213204,1,0,0:0:0:0:
84,16,213370,1,8,0:0:0:0:
244,256,213537,5,8,0:0:0:0:
304,56,213704,2,0,B|224:188|384:188|292:352,1,300.000011444092,10|8,0:0|0:0,0:0:0:0:
360,128,214204,1,8,0:0:0:0:
292,356,214370,1,0,0:0:0:0:
444,160,214537,2,0,P|444:102|372:44,1,150.000005722046,8|8,0:0|0:0,0:0:0:0:
168,128,214870,1,8,0:0:0:0:
496,240,215037,5,0,0:0:0:0:
292,356,215204,1,8,0:0:0:0:
292,356,215287,1,0,0:0:0:0:
292,356,215370,1,8,0:0:0:0:
480,368,215537,1,0,0:0:0:0:
360,128,215704,1,8,0:0:0:0:
252,229,215870,1,0,0:0:0:0:
512,124,216037,1,8,0:0:0:0:
204,44,216204,6,0,P|129:88|104:160,1,150.000005722046,0|8,0:0|0:0,0:0:0:0:
176,352,216537,2,0,P|220:312|252:192,1,150.000005722046,0|8,0:0|0:0,0:0:0:0:
299,26,216870,1,2,0:0:0:0:
362,36,216954,1,0,0:0:0:0:
415,72,217037,1,10,0:0:0:0:
450,126,217120,1,0,0:0:0:0:
463,190,217204,5,2,0:0:0:0:
148,369,217370,1,8,0:0:0:0:
463,190,217537,1,8,0:0:0:0:
132,97,217704,1,0,0:0:0:0:
463,190,217870,5,8,0:0:0:0:
111,221,218037,1,4,0:0:0:0:
276,373,218204,1,8,0:0:0:0:
463,190,218370,1,12,0:0:0:0:
209,15,218537,5,8,0:0:0:0:
463,190,218704,1,8,0:0:0:0:
28,192,219037,1,4,0:0:0:0:
256,192,219120,12,0,224120,0:0:0:0:
328,200,224204,6,0,B|312:248|248:260|248:260|336:292,1,150.000005722046,8|2,0:0|0:0,0:0:0:0:
92,200,227037,6,0,P|116:172|172:160,1,85.0000016212464,2|0,2:0|2:0,2:0:0:0:
164,244,227370,1,2,2:0:0:0:
236,196,227537,2,0,P|244:140|232:112,1,85.0000016212464,2|0,2:0|2:0,2:0:0:0:
168,60,227870,1,2,2:0:0:0:
88,68,228037,2,0,P|108:114|155:139,1,85.0000016212464,2|0,2:0|2:0,2:0:0:0:
216,152,228370,1,2,2:0:0:0:
292,116,228537,2,0,P|299:157|287:198,1,85.0000016212464,2|0,2:0|2:0,2:0:0:0:
212,236,228870,1,2,0:0:0:0:
216,152,229037,1,2,0:0:0:0:
216,152,229370,5,2,0:0:0:0:
388,68,232370,6,0,L|308:112,1,85.0000016212464,2|0,2:0|2:0,2:0:0:0:
260,176,232704,1,2,2:0:0:0:
348,188,232870,2,0,L|432:148,1,85.0000016212464,2|0,2:0|2:0,2:0:0:0:
492,204,233204,1,2,2:0:0:0:
492,204,233370,1,2,0:0:0:0:
336,276,233704,5,0,0:0:0:0:
257,303,233870,1,2,0:0:0:0:
208,140,234204,5,2,2:0:0:0:
140,92,234370,1,2,2:0:0:0:
36,224,234704,5,2,0:0:0:0:
44,308,234870,2,0,L|100:336,1,42.5000008106232
119,345,235037,5,0,0:0:0:0:
204,336,235204,1,0,0:0:0:0:
252,268,235370,1,0,0:0:0:0:
216,192,235537,1,0,0:0:0:0:
236,108,235704,1,0,0:0:0:0:
308,68,235870,2,0,P|348:56|412:96,1,85.0000016212464
432,140,236204,6,0,P|392:152|328:112,1,85.0000016212464
308,68,236537,1,0,0:0:0:0:
236,108,236704,2,0,P|223:147|235:188,1,85.0000016212464
304,236,237037,1,0,0:0:0:0:
299,147,237204,1,0,0:0:0:0:
304,150,237537,5,0,0:0:0:0:
304,150,237704,2,0,L|404:150,1,85.0000016212464,2|0,2:0|2:0,2:0:0:0:
464,152,238037,1,2,2:0:0:0:
440,224,238204,2,0,L|340:224,1,85.0000016212464,2|0,2:0|2:0,2:0:0:0:
280,220,238537,1,2,2:0:0:0:
228,156,238704,1,2,0:0:0:0:
236,164,239037,5,0,0:0:0:0:
236,164,239204,1,2,0:0:0:0:
224,240,239370,1,2,0:0:0:0:
224,240,239537,1,0,0:0:0:0:
292,276,239704,1,2,0:0:0:0:
364,256,239870,1,2,2:0:0:0:
388,184,240037,1,2,2:0:0:0:
352,164,240370,6,0,L|260:120,1,85.0000016212464,2|0,2:0|2:0,2:0:0:0:
224,60,240704,1,2,2:0:0:0:
308,51,240870,2,0,P|301:89|260:138,1,85.0000016212464,2|0,2:0|2:0,2:0:0:0:
216,176,241204,1,2,2:0:0:0:
196,204,241537,5,2,0:0:0:0:
257,261,241704,1,2,2:0:0:0:
178,288,241870,1,2,2:0:0:0:
112,235,242037,1,2,2:0:0:0:
130,151,242204,1,2,2:0:0:0:
209,120,242370,1,0,0:0:0:0:
271,178,242537,1,2,0:0:0:0:
270,178,242870,5,0,0:0:0:0:
176,220,243037,1,2,2:0:0:0:
177,96,243204,1,0,0:0:0:0:
309,73,243370,1,0,0:0:0:0:
369,193,243537,1,2,2:0:0:0:
272,292,243704,1,2,2:0:0:0:
270,178,243870,1,0,0:0:0:0:
270,178,244204,6,0,P|364:232|296:288,1,225,2|0,0:0|0:0,0:0:0:0:
272,292,245037,5,8,0:0:0:0:
232,300,245120,5,0,0:0:0:0:
176,296,245204,5,8,0:0:0:0:
120,264,245287,5,0,0:0:0:0:
64,208,245370,6,0,P|64:156|80:116,1,75.0000028610231,8|0,0:0|0:0,0:0:0:0:
136,48,245537,5,8,0:0:0:0:
232,24,245620,5,0,0:0:0:0:
336,52,245704,6,0,P|376:96|376:192,1,150.000005722046,14|0,0:0|0:0,0:0:0:0:
224,376,246037,1,8,0:0:0:0:
248,128,246204,1,0,0:0:0:0:
120,264,246370,1,2,0:0:0:0:
379,183,246537,2,0,P|381:109|336:52,1,150.000005722046,0|8,0:0|0:0,0:0:0:0:
304,272,246870,1,0,0:0:0:0:
167,243,247037,6,0,P|122:185|124:112,1,150.000005722046,2|0,0:0|0:0,0:0:0:0:
304,136,247370,1,8,0:0:0:0:
136,32,247537,1,0,0:0:0:0:
167,243,247704,1,2,0:0:0:0:
284,20,247870,1,0,0:0:0:0:
96,200,248037,2,0,P|92:272|184:332,1,150.000005722046,8|0,0:0|0:0,0:0:0:0:
368,264,248370,5,2,0:0:0:0:
167,243,248537,1,0,0:0:0:0:
360,352,248704,2,0,P|428:330|456:256,1,150.000005722046,8|0,0:0|0:0,0:0:0:0:
370,83,249037,1,2,0:0:0:0:
167,243,249204,1,0,0:0:0:0:
246,90,249370,1,8,0:0:0:0:
268,328,249537,5,0,0:0:0:0:
370,83,249704,1,2,0:0:0:0:
167,243,249870,1,0,0:0:0:0:
500,128,250037,1,8,0:0:0:0:
168,344,250204,1,0,0:0:0:0:
445,259,250370,5,8,0:0:0:0:
444,191,250453,1,0,0:0:0:0:
418,130,250536,1,8,0:0:0:0:
370,83,250620,1,0,0:0:0:0:
307,58,250703,1,8,0:0:0:0:
240,59,250786,1,0,0:0:0:0:
179,85,250870,5,8,0:0:0:0:
32,279,251037,2,0,L|210:364,1,150.000005722046,6|0,0:0|0:0,0:0:0:0:
380,352,251370,1,8,0:0:0:0:
179,85,251537,1,0,0:0:0:0:
92,348,251704,1,2,0:0:0:0:
276,264,251870,2,0,P|316:212|272:112,1,150.000005722046,0|8,0:0|0:0,0:0:0:0:
200,336,252204,6,0,P|248:368|352:328,1,150.000005722046,0|2,0:0|0:0,0:0:0:0:
280,112,252537,1,0,0:0:0:0:
380,352,252704,1,8,0:0:0:0:
480,128,252870,1,0,0:0:0:0:
272,288,253037,1,2,0:0:0:0:
403,31,253204,1,0,0:0:0:0:
403,31,253287,1,0,0:0:0:0:
403,31,253370,1,8,0:0:0:0:
403,31,253704,5,12,0:0:0:0:
255,95,253870,2,0,P|287:159|367:191,1,150.000005722046
96,48,254204,5,12,0:0:0:0:
160,196,254370,2,0,P|224:164|256:84,1,150.000005722046
112,355,254704,5,12,0:0:0:0:
260,291,254870,2,0,P|228:227|148:195,1,150.000005722046
419,338,255204,5,12,0:0:0:0:
355,190,255370,2,0,P|291:222|259:302,1,150.000005722046
250,101,255704,1,8,0:0:0:0:
198,155,255787,1,0,0:0:0:0:
146,209,255870,1,8,0:0:0:0:
94,263,255954,1,0,0:0:0:0:
42,317,256037,1,8,0:0:0:0:
42,317,256370,5,8,0:0:0:0:
250,101,256537,1,0,0:0:0:0:
5,216,256704,5,8,0:0:0:0:
347,229,256870,1,0,0:0:0:0:
88,138,257037,5,8,0:0:0:0:
345,341,257204,1,0,0:0:0:0:
212,49,257370,5,8,0:0:0:0:
130,367,257537,1,0,0:0:0:0:
349,168,257704,5,8,0:0:0:0:
82,206,257870,1,0,0:0:0:0:
304,287,258037,5,8,0:0:0:0:
77,48,258204,1,0,0:0:0:0:
163,376,258370,5,8,0:0:0:0:
264,61,258537,1,0,0:0:0:0:
162,215,258704,5,8,0:0:0:0:
162,215,258787,1,0,0:0:0:0:
162,215,258870,1,0,0:0:0:0:
419,308,259037,5,8,0:0:0:0:
182,11,259204,1,0,0:0:0:0:
495,175,259370,5,8,0:0:0:0:
162,215,259537,1,0,0:0:0:0:
484,6,259704,5,8,0:0:0:0:
264,311,259870,1,0,0:0:0:0:
299,80,260037,5,8,0:0:0:0:
453,381,260204,1,0,0:0:0:0:
130,202,260370,5,8,0:0:0:0:
458,277,260537,1,0,0:0:0:0:
98,325,260704,5,8,0:0:0:0:
422,170,260870,1,0,0:0:0:0:
254,365,261037,5,8,0:0:0:0:
356,0,261204,1,0,0:0:0:0:
336,340,261370,5,8,0:0:0:0:
336,340,261454,1,0,0:0:0:0:
336,340,261537,1,0,0:0:0:0:
302,22,261704,5,8,0:0:0:0:
215,354,261870,1,0,0:0:0:0:
395,118,262037,5,8,0:0:0:0:
99,289,262204,1,0,0:0:0:0:
381,245,262370,5,8,0:0:0:0:
49,158,262537,1,0,0:0:0:0:
329,332,262704,5,8,0:0:0:0:
158,36,262870,1,0,0:0:0:0:
194,333,263037,5,8,0:0:0:0:
282,0,263204,1,0,0:0:0:0:
133,232,263370,5,8,0:0:0:0:
429,60,263537,1,0,0:0:0:0:
112,108,263704,5,8,0:0:0:0:
481,220,263870,1,0,0:0:0:0:
275,13,264037,5,8,0:0:0:0:
275,13,264120,1,0,0:0:0:0:
275,13,264204,1,0,0:0:0:0:
260,336,264370,5,6,0:0:0:0:
264,196,264537,1,0,0:0:0:0:
377,96,264704,1,8,0:0:0:0:
379,318,264870,5,6,0:0:0:0:
264,196,265037,1,0,0:0:0:0:
275,13,265204,1,8,0:0:0:0:
464,202,265370,5,6,0:0:0:0:
264,196,265537,1,0,0:0:0:0:
119,32,265704,1,8,0:0:0:0:
438,32,265870,5,6,0:0:0:0:
264,196,266037,1,0,0:0:0:0:
2,180,266204,1,8,0:0:0:0:
468,120,266370,5,8,0:0:0:0:
34,77,266537,1,8,0:0:0:0:
285,369,266704,1,8,0:0:0:0:
256,192,267037,5,4,0:0:0:0:
256,192,267120,12,0,269620,0:0:0:0:
256,192,269704,5,4,3:0:0:0:
396,180,271704,5,12,0:0:0:0:
396,180,271787,1,4,0:0:0:0:
396,180,271870,1,12,0:0:0:0:
172,272,272037,1,4,0:0:0:0:
300,132,272204,1,4,0:0:0:0:
308,332,272370,1,4,0:3:0:0:
256,192,272454,12,0,274870,0:0:0:0:
192,192,275037,6,0,B|112:224|160:272|128:320|128:320|192:304|224:336|256:272,1,299.999990844727,4|0,3:0|0:0,0:0:0:0:
256,272,275537,2,0,B|288:336|320:304|384:320|384:320|352:272|400:228|320:192,1,299.999990844727,4|0,3:0|0:0,0:0:0:0:
320,192,276037,2,0,B|331:126|267:110|251:62|251:62|235:110|171:130|196:204,1,299.999990844727,4|0,3:0|0:0,0:0:0:0:
256,272,276537,5,4,0:0:0:0:
428,104,276704,1,8,0:0:0:0:
192,190,276870,1,4,0:0:0:0:
428,104,277037,1,8,0:0:0:0:
176,48,277204,1,0,0:0:0:0:
428,104,277370,2,0,L|376:224,1,119.999996337891,4|0,0:0|0:0,0:0:0:0:
287,341,277704,6,0,P|234:367|176:352,1,119.999996337891,4|0,0:0|0:0,0:0:0:0:
112,104,278037,1,8,0:0:0:0:
224,284,278204,1,0,0:0:0:0:
175,47,278370,2,0,P|122:21|64:36,1,119.999996337891,2|0,0:0|0:0,0:0:0:0:
111,241,278704,2,0,L|247:293,1,119.999996337891,8|0,0:0|0:0,0:0:0:0:
452,224,279037,6,0,L|316:172,1,119.999996337891,2|0,0:0|0:0,0:0:0:0:
108,100,279370,1,8,0:0:0:0:
223,283,279537,1,0,0:0:0:0:
280,80,279704,2,0,P|384:36|504:96,1,239.999992675781,2|8,0:0|0:0,0:0:0:0:
400,356,280204,1,0,0:0:0:0:
332,160,280370,6,0,P|386:135|440:160,1,119.999996337891,2|0,0:0|0:0,0:0:0:0:
400,356,280704,1,8,0:0:0:0:
248,288,280870,1,0,0:0:0:0:
433,193,281037,1,2,0:0:0:0:
400,356,281204,1,0,0:0:0:0:
247,288,281370,2,0,P|202:249|178:195,1,119.999996337891,8|0,0:0|0:0,0:0:0:0:
268,32,281704,5,2,0:0:0:0:
472,88,281870,2,0,P|470:147|434:193,1,119.999996337891,0|8,0:0|0:0,0:0:0:0:
268,32,282204,1,0,0:0:0:0:
510,95,282370,2,0,P|476:204|360:256,1,239.999992675781,2|8,0:0|0:0,0:0:0:0:
248,196,282870,5,0,0:0:0:0:
376,12,283037,1,2,0:0:0:0:
368,255,283204,1,0,0:0:0:0:
304,112,283370,1,8,0:0:0:0:
248,304,283537,5,0,0:0:0:0:
416,112,283704,1,2,0:0:0:0:
400,368,283870,1,0,0:0:0:0:
248,196,284037,1,8,0:0:0:0:
296,24,284204,5,0,0:0:0:0:
465,213,284370,1,2,0:0:0:0:
248,196,284537,1,0,0:0:0:0:
458,98,284704,2,0,P|476:154|466:213,1,119.999996337891,8|0,0:0|0:0,0:0:0:0:
328,340,285037,5,2,0:0:0:0:
202,103,285204,1,0,0:0:0:0:
156,356,285370,1,8,0:0:0:0:
58,152,285537,1,0,0:0:0:0:
202,103,285704,6,0,B|246:145|250:205|250:205|218:257|170:273|170:273|156:372,1,299.999990844727,4|0,3:0|0:0,0:0:0:0:
80,368,286204,2,0,B|103:227|103:227|168:184|168:184|120:116,1,299.999990844727,4|0,3:0|0:0,0:0:0:0:
52,156,286704,2,0,B|24:112|24:112|58:49|58:49|146:29|146:29|216:122,1,299.999990844727,4|0,3:0|0:0,0:0:0:0:
256,172,287204,5,4,0:0:0:0:
200,364,287370,1,0,0:0:0:0:
420,324,287537,1,8,0:0:0:0:
420,324,287620,1,0,0:0:0:0:
420,324,287704,1,8,0:0:0:0:
200,364,287870,1,0,0:0:0:0:
408,112,288037,2,0,L|305:248,1,135.000000514984,8|0,0:0|0:0,0:0:0:0:
104,344,288370,5,4,3:0:0:0:
152,128,288537,2,0,L|256:-12,1,135.000000514984,0|8,0:0|0:0,0:0:0:0:
340,168,288870,1,0,0:0:0:0:
294,353,289037,1,2,0:0:0:0:
152,216,289204,1,0,0:0:0:0:
340,168,289370,2,0,P|396:274|279:351,1,270.000001029968,8|2,0:0|0:0,0:0:0:0:
152,216,289870,5,0,0:0:0:0:
360,76,290037,1,8,0:0:0:0:
284,257,290204,1,0,0:0:0:0:
449,160,290370,1,2,0:0:0:0:
221,75,290537,1,0,0:0:0:0:
470,27,290704,2,0,L|445:191,1,135.000000514984,8|0,0:0|0:0,0:0:0:0:
384,352,291037,5,4,3:0:0:0:
144,284,291204,1,0,0:0:0:0:
348,316,291370,1,8,0:0:0:0:
340,140,291537,1,0,0:0:0:0:
316,280,291704,1,2,0:0:0:0:
193,161,291870,1,0,0:0:0:0:
384,352,292037,2,0,L|184:152,1,270.000001029968,8|2,0:0|0:0,0:0:0:0:
48,32,292537,5,0,0:0:0:0:
64,208,292704,1,8,0:0:0:0:
188,56,292870,1,0,0:0:0:0:
64,208,293037,1,2,0:0:0:0:
248,175,293204,1,0,0:0:0:0:
64,208,293370,2,0,L|188:312,1,135.000000514984,8|0,0:0|0:0,0:0:0:0:
350,262,293704,6,0,L|242:170,1,135.000000514984,4|0,3:0|0:0,0:0:0:0:
444,208,294037,1,8,0:0:0:0:
356,136,294204,2,0,L|226:25,1,135.000000514984,0|2,0:0|0:0,0:0:0:0:
248,175,294537,1,0,0:0:0:0:
145,87,294704,2,0,L|367:276,1,270.000001029968,8|2,0:0|0:0,0:0:0:0:
184,320,295204,5,0,0:0:0:0:
432,328,295370,1,8,0:0:0:0:
412,128,295537,1,0,0:0:0:0:
432,328,295704,1,2,0:0:0:0:
248,175,295870,1,0,0:0:0:0:
432,328,296037,2,0,L|312:232,1,135.000000514984,8|0,0:0|0:0,0:0:0:0:
144,64,296370,5,4,3:0:0:0:
172,221,296537,1,0,0:0:0:0:
0,252,296704,1,8,0:0:0:0:
220,295,296870,2,0,P|259:235|246:171,1,135.000000514984,0|2,0:0|0:0,0:0:0:0:
0,252,297204,1,0,0:0:0:0:
188,381,297370,2,0,P|288:341|336:193,1,270.000001029968,8|2,0:0|0:0,0:0:0:0:
216,48,297870,5,8,0:0:0:0:
200,224,298037,1,12,0:0:0:0:
352,104,298204,1,8,0:0:0:0:
196,256,298370,1,12,0:0:0:0:
56,80,298537,1,8,0:0:0:0:
192,292,298704,2,0,L|208:124,1,135.000000514984,12|0,0:0|0:0,0:0:0:0:
272,324,299037,6,0,P|216:372|136:364,1,135.000000514984,6|0,3:0|0:0,0:0:0:0:
85,202,299370,2,0,P|149:158|221:162,1,135.000000514984,8|0,0:0|0:0,0:0:0:0:
376,288,299704,1,2,0:0:0:0:
340,88,299870,1,0,0:0:0:0:
272,324,300037,2,0,P|156:336|212:236,1,270.000001029968,8|2,0:0|0:0,0:0:0:0:
232,76,300537,5,0,0:0:0:0:
416,196,300704,1,8,0:0:0:0:
197,237,300870,1,0,0:0:0:0:
416,196,301037,1,2,0:0:0:0:
356,368,301204,1,0,0:0:0:0:
416,196,301370,2,0,L|272:224,1,135.000000514984,8|0,0:0|0:0,0:0:0:0:
120,192,301704,6,0,P|108:248|148:316,1,135.000000514984,4|0,3:0|0:0,0:0:0:0:
283,221,302037,1,8,0:0:0:0:
152,112,302204,2,0,P|89:118|37:172,1,135.000000514984,0|2,0:0|0:0,0:0:0:0:
197,237,302537,1,0,0:0:0:0:
264,72,302704,2,0,P|176:28|8:56,1,270.000001029968,8|2,0:0|0:0,0:0:0:0:
120,256,303204,5,0,0:0:0:0:
312,200,303370,1,8,0:0:0:0:
80,136,303537,1,0,0:0:0:0:
292,204,303704,1,2,0:0:0:0:
80,344,303870,1,0,0:0:0:0:
260,212,304037,2,0,L|416:176,1,135.000000514984,8|0,0:0|0:0,0:0:0:0:
180,192,304370,6,0,P|228:208|328:196,1,135.000000514984,4|0,3:0|0:0,0:0:0:0:
256,4,304704,1,8,0:0:0:0:
123,118,304870,2,0,P|89:198|103:245,1,135.000000514984,0|2,0:0|0:0,0:0:0:0:
360,128,305204,1,0,0:0:0:0:
58,47,305370,2,0,P|-1:196|35:295,1,270.000001029968,8|2,0:0|0:0,0:0:0:0:
357,238,305870,5,0,0:0:0:0:
314,26,306037,1,8,0:0:0:0:
116,156,306204,1,0,0:0:0:0:
314,26,306370,1,2,0:0:0:0:
208,268,306537,1,0,0:0:0:0:
314,26,306704,2,0,L|254:174,1,135.000000514984,8|0,0:0|0:0,0:0:0:0:
308,364,307037,6,0,L|365:221,1,135.000000514984,4|0,3:0|0:0,0:0:0:0:
420,90,307370,1,8,0:0:0:0:
208,296,307537,1,0,0:0:0:0:
357,238,307704,1,2,0:0:0:0:
269,91,307870,1,0,0:0:0:0:
440,236,308037,2,0,B|428:168|384:144|328:148|296:184|296:184|268:188|240:188|208:168|196:148,1,270.000001029968,8|2,0:0|0:0,0:0:0:0:
124,24,308537,1,8,0:0:0:0:
48,233,308704,5,8,0:0:0:0:
74,307,308787,1,0,0:0:0:0:
134,361,308870,1,8,0:0:0:0:
214,379,308954,1,0,0:0:0:0:
291,357,309037,1,8,0:0:0:0:
348,301,309120,1,0,0:0:0:0:
371,224,309204,1,8,0:0:0:0:
328,32,309370,5,8,0:0:0:0:
214,379,309537,1,8,0:0:0:0:
164,60,309704,1,4,0:0:0:0:
404,168,310204,6,0,L|420:196,1,18.7500007152558,2|0,0:0|0:0,0:0:0:0:
232,136,310704,2,0,L|200:140,1,18.7500007152558,2|0,0:0|0:0,0:0:0:0:
116,256,311204,2,0,L|148:248,1,18.7500007152558,2|0,0:0|0:0,0:0:0:0:
300,232,311704,2,0,L|292:260,1,18.7500007152558,2|0,0:0|0:0,0:0:0:0:
252,348,312037,2,0,L|220:340,1,18.7500007152558,2|0,0:0|0:0,0:0:0:0:
200,244,312370,5,4,0:0:0:0:
316,108,312870,2,0,L|300:128,1,18.7500007152558,2|0,0:0|0:0,0:0:0:0:
308,264,313370,2,0,L|328:240,1,18.7500007152558,2|0,0:0|0:0,0:0:0:0:
200,136,313870,2,0,L|184:156,1,18.7500007152558,2|0,0:0|0:0,0:0:0:0:
352,160,314370,2,0,L|344:136,1,18.7500007152558,2|0,0:0|0:0,0:0:0:0:
276,64,314704,2,0,L|276:96,1,18.7500007152558,2|0,0:0|0:0,0:0:0:0:
272,248,315037,5,4,0:0:0:0:
136,328,315537,2,0,L|160:304,1,18.7500007152558,2|0,0:0|0:0,0:0:0:0:
268,144,316037,2,0,L|272:176,1,18.7500007152558,2|0,0:0|0:0,0:0:0:0:
340,360,316537,2,0,L|316:336,1,18.7500007152558,2|0,0:0|0:0,0:0:0:0:
160,200,317037,2,0,L|136:180,1,18.7500007152558,2|0,0:0|0:0,0:0:0:0:
180,44,317370,2,0,L|204:32,1,18.7500007152558,2|0,0:0|0:0,0:0:0:0:
316,136,317704,5,4,0:0:0:0:
320,264,318204,2,0,L|352:260,1,18.7500007152558,2|0,0:0|0:0,0:0:0:0:
336,120,318704,2,0,L|316:136,1,18.7500007152558
160,276,319204,2,0,L|148:244,1,18.7500007152558
156,84,319704,2,0,L|176:112,1,18.7500007152558
256,192,320037,5,6,0:0:0:0:
