osu file format v14

[General]
AudioFilename: sntvns_v2.mp3
AudioLeadIn: 0
PreviewTime: 70170
Countdown: 0
SampleSet: Soft
StackLeniency: 0.7
Mode: 2
LetterboxInBreaks: 0
WidescreenStoryboard: 0

[Editor]
DistanceSpacing: 2.5
BeatDivisor: 4
GridSize: 8
TimelineZoom: 1.4

[Metadata]
Title:Sentimental Venus
TitleUnicode:Sentimental Venus
Artist:Minase Iori, Emily Stewart, Makabe Mizuki, Momose Rio
ArtistUnicode:水瀬伊織、エミリー=スチュアート、真壁瑞希、百瀬莉緒
Creator:Kagari
Version:MILLION MIX
Source:THE IDOLM@STER MILLION LIVE
Tags:LIVE THE@TER PERFORMANCE 05 こだまさおり Saori Kodama rino 関野元規 Motoki Sekino 釘宮理恵 Kugimiya Rie 郁原ゆう Kahara Yuu 阿部里果 Abe Rika 山口立花子 Yamaguci Rikako
BeatmapID:1772470
BeatmapSetID:847556

[Difficulty]
HPDrainRate:6
CircleSize:4
OverallDifficulty:9
ApproachRate:9
SliderMultiplier:1.71999990463257
SliderTickRate:2

[Events]
//Background and Video events
0,0,"iori.png",0,0
//Break Periods
//Storyboard Layer 0 (Background)
//Storyboard Layer 1 (Fail)
//Storyboard Layer 2 (Pass)
//Storyboard Layer 3 (Foreground)
//Storyboard Layer 4 (Overlay)
//Storyboard Sound Samples

[TimingPoints]
570,342.857142857143,4,2,0,10,1,0
3141,-100,4,2,1,40,0,0
12912,-100,4,2,1,50,0,0
25084,-100,4,2,1,70,0,0
36227,-100,4,2,1,50,0,0
70341,-100,4,2,1,70,0,1
92284,-100,4,2,1,50,0,0

[Colours]
Combo1 : 241,149,145
Combo2 : 250,119,197
Combo3 : 85,65,113
Combo4 : 153,183,220

[HitObjects]
256,256,3141,6,0,L|424:216,1,171.999990463257,2|0,0:0|0:0,0:0:0:0:
248,160,3655,1,0,0:0:0:0:
328,144,3827,1,0,0:0:0:0:
248,96,3998,1,0,0:0:0:0:
424,96,4170,1,0,0:0:0:0:
256,256,4512,6,0,L|88:216,1,171.999990463257,2|0,0:0|0:0,0:0:0:0:
264,160,5026,1,0,0:0:0:0:
184,144,5198,1,0,0:0:0:0:
264,96,5369,1,0,0:0:0:0:
88,96,5541,1,0,0:0:0:0:
256,256,5884,6,0,L|424:216,1,171.999990463257,2|0,0:0|0:0,0:0:0:0:
248,160,6398,1,0,0:0:0:0:
328,144,6570,1,0,0:0:0:0:
248,96,6741,1,0,0:0:0:0:
424,96,6913,1,0,0:0:0:0:
360,104,7255,1,0,0:0:0:0:
128,152,7427,1,2,0:0:0:0:
304,200,7770,1,0,0:0:0:0:
72,208,7941,2,0,L|112:128,1,85.9999952316285
440,208,8284,2,0,L|400:128,1,85.9999952316285
256,256,8627,6,0,L|88:216,1,171.999990463257,2|0,0:0|0:0,0:0:0:0:
264,160,9141,1,0,0:0:0:0:
184,144,9313,1,0,0:0:0:0:
264,96,9484,1,0,0:0:0:0:
88,96,9656,1,0,0:0:0:0:
256,256,9998,6,0,L|424:216,1,171.999990463257,2|0,0:0|0:0,0:0:0:0:
248,160,10512,1,0,0:0:0:0:
328,144,10684,1,0,0:0:0:0:
248,96,10855,1,0,0:0:0:0:
424,96,11027,1,0,0:0:0:0:
256,256,11370,6,0,L|88:216,1,171.999990463257,2|0,0:0|0:0,0:0:0:0:
264,160,11884,1,0,0:0:0:0:
184,144,12056,1,0,0:0:0:0:
264,96,12227,1,0,0:0:0:0:
88,96,12399,1,0,0:0:0:0:
304,120,12741,1,2,0:0:0:0:
72,152,12913,1,0,0:0:0:0:
248,200,13256,1,0,0:0:0:0:
16,208,13427,2,0,L|56:128,1,85.9999952316285
400,200,13770,2,0,L|360:120,1,85.9999952316285
184,128,14112,1,0,0:0:0:0:
416,224,14284,6,0,L|248:192,1,171.999990463257
424,152,14798,1,0,0:0:0:0:
496,120,14970,1,0,0:0:0:0:
320,112,15141,1,0,0:0:0:0:
408,96,15312,1,0,0:0:0:0:
176,224,15484,6,0,L|344:192,1,171.999990463257
256,144,15998,1,0,0:0:0:0:
432,184,16170,2,0,L|384:112,1,85.9999952316285
208,184,16512,2,0,L|256:112,1,85.9999952316285
432,112,16855,1,0,0:0:0:0:
96,224,17027,6,0,L|264:192,1,171.999990463257
88,152,17541,1,0,0:0:0:0:
16,120,17713,1,0,0:0:0:0:
192,112,17884,1,0,0:0:0:0:
104,96,18055,1,0,0:0:0:0:
336,224,18227,6,0,L|168:192,1,171.999990463257
256,144,18741,1,0,0:0:0:0:
80,184,18912,2,0,L|128:112,1,85.9999952316285
304,128,19255,1,0,0:0:0:0:
144,136,19427,1,0,0:0:0:0:
304,88,19598,1,0,0:0:0:0:
72,208,19770,6,0,L|104:128,1,85.9999952316285
280,232,20112,2,0,L|352:184,1,85.9999952316285
176,224,20455,2,0,L|104:176,1,85.9999952316285
280,152,20798,1,0,0:0:0:0:
120,152,20970,1,0,0:0:0:0:
352,192,21141,6,0,L|432:160,1,85.9999952316285
272,120,21484,1,0,0:0:0:0:
448,224,21655,2,0,P|480:168|424:88,1,171.999990463257
248,216,22170,2,0,L|176:168,1,85.9999952316285
408,208,22512,6,0,L|376:128,1,85.9999952316285
104,208,22855,2,0,L|136:128,1,85.9999952316285
312,120,23198,1,0,0:0:0:0:
136,96,23370,1,0,0:0:0:0:
368,216,23541,2,0,L|424:152,1,85.9999952316285
152,192,23884,5,0,0:0:0:0:
272,192,24055,1,0,0:0:0:0:
152,144,24227,1,0,0:0:0:0:
320,240,24398,2,0,P|288:160|216:120,1,171.999990463257
384,120,24912,1,0,0:0:0:0:
104,216,25084,6,0,L|272:184,1,171.999990463257
96,128,25598,2,0,L|176:96,1,85.9999952316285
416,200,25941,1,0,0:0:0:0:
120,192,26112,2,0,L|152:112,1,85.9999952316285
408,216,26455,6,0,L|240:184,1,171.999990463257
416,128,26969,2,0,L|336:96,1,85.9999952316285
96,200,27312,1,0,0:0:0:0:
392,192,27483,2,0,L|360:112,1,85.9999952316285
104,216,27827,6,0,L|272:184,1,171.999990463257
96,128,28341,2,0,L|176:96,1,85.9999952316285
416,200,28684,1,0,0:0:0:0:
152,184,28855,2,0,L|184:104,1,85.9999952316285
344,120,29198,1,0,0:0:0:0:
112,192,29370,6,0,L|160:120,1,85.9999952316285
328,88,29712,1,0,0:0:0:0:
88,192,29884,2,0,L|120:112,1,85.9999952316285
384,200,30227,2,0,L|416:120,1,85.9999952316285
144,216,30570,6,0,L|208:160,1,85.9999952316285
96,144,30913,1,0,0:0:0:0:
264,120,31084,1,0,0:0:0:0:
96,96,31256,1,0,0:0:0:0:
336,192,31427,1,0,0:0:0:0:
96,184,31598,2,0,L|128:104,1,85.9999952316285
368,216,31941,6,0,L|304:160,1,85.9999952316285
416,144,32284,1,0,0:0:0:0:
248,120,32455,1,0,0:0:0:0:
416,96,32627,1,0,0:0:0:0:
176,192,32798,1,0,0:0:0:0:
416,184,32969,2,0,L|384:104,1,85.9999952316285
144,216,33312,6,0,L|208:160,1,85.9999952316285
96,144,33655,1,0,0:0:0:0:
264,120,33826,1,0,0:0:0:0:
96,96,33998,1,0,0:0:0:0:
360,168,34170,1,0,0:0:0:0:
192,200,34341,1,0,0:0:0:0:
360,224,34512,1,0,0:0:0:0:
56,192,34684,6,0,L|88:112,1,85.9999952316285
408,256,35027,2,0,P|464:200|424:128,1,171.999990463257
136,192,35541,2,0,L|184:120,1,85.9999952316285
416,200,35884,2,0,L|464:128,1,85.9999952316285
160,168,36227,5,0,0:0:0:0:
248,144,36398,1,0,0:0:0:0:
160,120,36570,1,0,0:0:0:0:
248,96,36741,1,0,0:0:0:0:
80,192,36912,2,0,L|128:120,1,85.9999952316285
296,128,37255,1,0,0:0:0:0:
56,216,37427,6,0,L|104:144,1,85.9999952316285
272,120,37770,1,0,0:0:0:0:
184,112,37941,1,0,0:0:0:0:
416,224,38112,2,0,L|256:160,1,171.999990463257
432,160,38627,2,0,L|400:80,1,85.9999952316285
112,200,38970,6,0,L|144:120,1,85.9999952316285
312,120,39312,1,0,0:0:0:0:
224,120,39484,1,0,0:0:0:0:
400,192,39655,2,0,L|352:120,1,85.9999952316285
184,128,39998,1,0,0:0:0:0:
416,216,40170,6,0,L|368:144,1,85.9999952316285
200,120,40512,1,0,0:0:0:0:
288,112,40683,1,0,0:0:0:0:
56,224,40855,2,0,L|216:160,1,171.999990463257
40,160,41370,2,0,L|72:80,1,85.9999952316285
312,80,41712,6,0,L|264:152,1,85.9999952316285
96,168,42055,1,0,0:0:0:0:
328,232,42227,2,0,L|280:160,1,85.9999952316285
160,176,42570,1,0,0:0:0:0:
328,160,42741,1,0,0:0:0:0:
160,128,42912,1,0,0:0:0:0:
392,200,43084,6,0,L|352:120,1,85.9999952316285
120,200,43427,2,0,L|160:120,1,85.9999952316285
392,208,43770,2,0,L|432:128,1,85.9999952316285
120,208,44112,2,0,L|80:128,1,85.9999952316285
360,120,44455,5,0,0:0:0:0:
192,96,44627,1,0,0:0:0:0:
360,80,44798,1,0,0:0:0:0:
128,144,44970,2,0,L|56:192,2,85.9999952316285
304,136,45484,1,0,0:0:0:0:
72,192,45655,6,0,L|112:112,1,85.9999952316285
440,192,45998,2,0,L|400:112,1,85.9999952316285
160,224,46341,2,0,L|80:192,1,85.9999952316285
256,144,46684,1,0,0:0:0:0:
24,152,46855,2,0,L|72:80,1,85.9999952316285
352,168,47198,5,0,0:0:0:0:
264,144,47369,1,0,0:0:0:0:
352,120,47541,1,0,0:0:0:0:
264,96,47712,1,0,0:0:0:0:
432,192,47883,2,0,L|384:120,1,85.9999952316285
216,128,48226,1,0,0:0:0:0:
456,216,48398,6,0,L|408:144,1,85.9999952316285
240,120,48741,1,0,0:0:0:0:
328,112,48912,1,0,0:0:0:0:
96,224,49084,2,0,L|256:160,1,171.999990463257
80,160,49598,2,0,L|112:80,1,85.9999952316285
400,200,49941,6,0,L|368:120,1,85.9999952316285
200,120,50283,1,0,0:0:0:0:
288,120,50455,1,0,0:0:0:0:
112,192,50626,2,0,L|160:120,1,85.9999952316285
328,128,50969,1,0,0:0:0:0:
96,216,51141,6,0,L|144:144,1,85.9999952316285
312,120,51483,1,0,0:0:0:0:
144,120,51654,1,0,0:0:0:0:
456,224,51827,2,0,L|296:160,1,171.999990463257
472,160,52341,2,0,L|440:80,1,85.9999952316285
160,152,52684,5,0,0:0:0:0:
248,152,52855,1,0,0:0:0:0:
160,208,53027,1,0,0:0:0:0:
392,200,53198,2,0,L|240:120,1,171.999990463257
400,104,53712,1,0,0:0:0:0:
120,232,53884,6,0,L|272:152,1,171.999990463257
112,128,54398,1,0,0:0:0:0:
392,200,54570,2,0,L|336:136,1,85.9999952316285
176,136,54912,1,0,0:0:0:0:
416,160,55084,2,0,L|360:96,1,85.9999952316285
120,192,55427,5,0,0:0:0:0:
240,168,55598,1,0,0:0:0:0:
120,152,55770,1,0,0:0:0:0:
360,176,55941,2,0,L|328:96,1,85.9999952316285
152,176,56284,2,0,L|184:96,1,85.9999952316285
432,224,56627,6,0,L|280:144,1,171.999990463257
440,128,57141,1,0,0:0:0:0:
200,208,57312,2,0,B|112:192|112:192|200:208,1,171.999990463257
384,208,57827,2,0,L|448:152,1,85.9999952316285
408,112,58084,1,0,0:0:0:0:
160,184,58170,6,0,L|208:112,1,85.9999952316285
296,176,58512,1,0,0:0:0:0:
120,216,58684,2,0,L|176:152,1,85.9999952316285
336,216,59027,2,0,L|392:152,1,85.9999952316285
144,200,59370,6,0,L|192:128,1,85.9999952316285
352,120,59712,1,0,0:0:0:0:
120,88,59884,1,0,0:0:0:0:
240,80,60055,1,0,0:0:0:0:
296,64,60141,1,0,0:0:0:0:
296,144,60227,1,0,0:0:0:0:
240,136,60312,1,0,0:0:0:0:
144,176,60398,1,0,0:0:0:0:
304,200,60570,1,0,0:0:0:0:
144,240,60741,1,0,0:0:0:0:
376,184,60912,6,0,L|328:112,1,85.9999952316285
240,176,61254,1,0,0:0:0:0:
408,192,61427,2,0,L|352:128,1,85.9999952316285
192,120,61770,1,0,0:0:0:0:
352,80,61941,1,0,0:0:0:0:
120,192,62112,6,0,L|176:128,1,85.9999952316285
336,176,62455,1,0,0:0:0:0:
96,248,62627,1,0,0:0:0:0:
256,248,62798,2,0,L|96:184,1,171.999990463257
264,136,63312,1,0,0:0:0:0:
104,144,63484,1,0,0:0:0:0:
344,232,63655,6,0,L|416:184,1,85.9999952316285
256,136,63998,1,0,0:0:0:0:
488,216,64170,2,0,L|320:176,1,171.999990463257
416,128,64684,1,0,0:0:0:0:
152,224,64855,6,0,L|72:192,2,85.9999952316285
392,224,65370,2,0,L|360:144,1,85.9999952316285
120,224,65712,2,0,L|152:144,1,85.9999952316285
392,224,66055,2,0,L|360:144,1,85.9999952316285
120,224,66398,6,0,L|152:144,1,85.9999952316285
320,136,66741,1,0,0:0:0:0:
88,240,66912,2,0,L|16:192,2,85.9999952316285
336,168,67427,1,0,0:0:0:0:
104,152,67598,1,0,0:0:0:0:
256,192,67770,12,0,68798,0:0:0:0:
304,208,69141,6,0,L|144:144,1,171.999990463257
392,208,69655,2,0,L|360:128,1,85.9999952316285
120,208,69998,2,0,L|152:128,1,85.9999952316285
400,240,70341,6,0,L|232:200,1,171.999990463257
408,160,70855,1,0,0:0:0:0:
248,152,71027,1,0,0:0:0:0:
408,120,71198,1,0,0:0:0:0:
80,176,71370,2,0,L|112:96,1,85.9999952316285
400,240,71712,6,0,L|232:200,1,171.999990463257
408,160,72226,2,0,L|328:128,1,85.9999952316285
152,96,72569,1,0,0:0:0:0:
432,176,72741,2,0,L|400:96,1,85.9999952316285
112,240,73084,6,0,L|280:200,1,171.999990463257
104,160,73598,2,0,L|184:128,1,85.9999952316285
360,96,73941,1,0,0:0:0:0:
128,144,74113,2,0,L|160:64,1,85.9999952316285
328,64,74455,1,0,0:0:0:0:
88,128,74627,6,0,L|136:200,1,85.9999952316285
296,200,74970,1,0,0:0:0:0:
64,192,75141,2,0,L|96:112,1,85.9999952316285
448,192,75484,2,0,L|416:112,1,85.9999952316285
88,240,75827,6,0,L|256:200,1,171.999990463257
80,160,76341,1,0,0:0:0:0:
240,152,76513,1,0,0:0:0:0:
80,120,76684,1,0,0:0:0:0:
312,96,76855,1,0,0:0:0:0:
168,96,77027,1,0,0:0:0:0:
424,240,77198,6,0,L|256:200,1,171.999990463257
432,160,77712,1,0,0:0:0:0:
272,152,77884,1,0,0:0:0:0:
432,120,78055,1,0,0:0:0:0:
200,96,78226,1,0,0:0:0:0:
344,96,78398,1,0,0:0:0:0:
88,240,78570,6,0,L|256:200,1,171.999990463257
80,160,79084,1,0,0:0:0:0:
240,152,79256,1,0,0:0:0:0:
80,120,79427,1,0,0:0:0:0:
320,160,79599,2,0,L|288:80,1,85.9999952316285
120,80,79941,1,0,0:0:0:0:
424,128,80112,6,0,L|376:200,1,85.9999952316285
216,200,80455,1,0,0:0:0:0:
448,192,80626,2,0,L|416:112,1,85.9999952316285
160,192,80969,2,0,L|192:112,1,85.9999952316285
352,112,81312,1,0,0:0:0:0:
96,224,81484,6,0,L|264:192,1,171.999990463257
88,152,81998,1,0,0:0:0:0:
16,120,82170,1,0,0:0:0:0:
192,112,82341,1,0,0:0:0:0:
40,80,82512,1,0,0:0:0:0:
272,224,82684,6,0,L|104:192,1,171.999990463257
256,144,83198,1,0,0:0:0:0:
24,184,83370,2,0,L|72:112,1,85.9999952316285
304,184,83712,2,0,L|256:112,1,85.9999952316285
80,112,84055,1,0,0:0:0:0:
416,224,84227,6,0,L|248:192,1,171.999990463257
424,152,84741,1,0,0:0:0:0:
496,120,84913,1,0,0:0:0:0:
320,112,85084,1,0,0:0:0:0:
472,96,85255,1,0,0:0:0:0:
240,224,85427,6,0,L|408:192,1,171.999990463257
256,144,85941,1,0,0:0:0:0:
488,184,86112,2,0,L|440:112,1,85.9999952316285
192,128,86455,5,0,0:0:0:0:
352,136,86627,1,0,0:0:0:0:
192,88,86798,1,0,0:0:0:0:
440,208,86970,6,0,L|408:128,1,85.9999952316285
232,232,87312,2,0,L|160:184,1,85.9999952316285
336,224,87655,2,0,L|408:176,1,85.9999952316285
232,152,87998,1,0,0:0:0:0:
392,152,88170,1,0,0:0:0:0:
152,184,88341,6,0,L|216:128,1,85.9999952316285
376,96,88684,1,0,0:0:0:0:
200,256,88855,2,0,L|120:224,1,85.9999952316285
80,184,89112,1,0,0:0:0:0:
48,144,89198,1,0,0:0:0:0:
80,112,89284,1,0,0:0:0:0:
376,272,89370,1,0,0:0:0:0:
424,240,89455,1,0,0:0:0:0:
456,184,89541,1,0,0:0:0:0:
424,136,89627,1,0,0:0:0:0:
104,208,89712,6,0,L|136:128,1,85.9999952316285
408,208,90055,2,0,L|376:128,1,85.9999952316285
144,112,90398,1,0,0:0:0:0:
376,96,90570,1,0,0:0:0:0:
144,216,90741,2,0,L|88:152,1,85.9999952316285
360,192,91084,5,0,0:0:0:0:
208,176,91255,1,0,0:0:0:0:
360,144,91427,1,0,0:0:0:0:
120,224,91598,2,0,L|264:128,1,171.999990463257
112,120,92112,1,0,0:0:0:0:
408,216,92284,6,0,L|240:184,1,171.999990463257
416,128,92798,2,0,L|336:96,1,85.9999952316285
96,200,93141,1,0,0:0:0:0:
392,192,93312,2,0,L|360:112,1,85.9999952316285
104,216,93655,6,0,L|272:184,1,171.999990463257
96,128,94169,2,0,L|176:96,1,85.9999952316285
416,200,94512,1,0,0:0:0:0:
120,192,94683,2,0,L|152:112,1,85.9999952316285
408,216,95027,6,0,L|240:184,1,171.999990463257
416,128,95541,2,0,L|336:96,1,85.9999952316285
96,200,95884,1,0,0:0:0:0:
360,184,96055,2,0,L|328:104,1,85.9999952316285
168,120,96398,1,0,0:0:0:0:
400,192,96570,5,0,0:0:0:0:
232,192,96741,1,0,0:0:0:0:
400,160,96912,1,0,0:0:0:0:
168,200,97084,2,0,L|96:152,1,85.9999952316285
256,128,97427,1,0,0:0:0:0:
96,104,97598,1,0,0:0:0:0:
368,216,97770,6,0,L|304:160,1,85.9999952316285
416,144,98113,1,0,0:0:0:0:
248,120,98284,1,0,0:0:0:0:
416,96,98456,1,0,0:0:0:0:
176,192,98627,1,0,0:0:0:0:
416,184,98798,2,0,L|384:104,1,85.9999952316285
144,216,99141,6,0,L|208:160,1,85.9999952316285
96,144,99484,1,0,0:0:0:0:
264,120,99655,1,0,0:0:0:0:
96,96,99827,1,0,0:0:0:0:
336,192,99998,1,0,0:0:0:0:
96,184,100169,2,0,L|128:104,1,85.9999952316285
368,216,100512,6,0,L|304:160,1,85.9999952316285
416,144,100855,1,0,0:0:0:0:
248,120,101026,1,0,0:0:0:0:
416,96,101198,1,0,0:0:0:0:
152,168,101370,1,0,0:0:0:0:
320,200,101541,1,0,0:0:0:0:
152,224,101712,1,0,0:0:0:0:
456,192,101884,6,0,L|424:112,1,85.9999952316285
104,256,102227,2,0,P|48:200|88:128,1,171.999990463257
376,192,102741,2,0,L|328:120,1,85.9999952316285
96,200,103084,2,0,L|48:128,1,85.9999952316285
376,104,103427,5,0,0:0:0:0:
104,256,103598,2,0,P|48:200|88:128,1,171.999990463257
320,200,104112,2,0,L|392:152,1,85.9999952316285
368,104,104370,1,0,0:0:0:0:
176,216,104455,1,0,0:0:0:0:
128,184,104541,1,0,0:0:0:0:
128,136,104627,1,0,0:0:0:0:
176,112,104712,1,0,0:0:0:0:
376,104,104798,5,0,0:0:0:0:
104,256,104970,2,0,P|48:200|88:128,1,171.999990463257
376,192,105484,2,0,L|328:120,1,85.9999952316285
96,200,105827,2,0,L|144:128,1,85.9999952316285
392,248,106170,1,0,0:0:0:0:
256,192,106512,12,0,108570,0:0:0:0:
