osu file format v14

[General]
AudioFilename: sntvns_v2.mp3
AudioLeadIn: 0
PreviewTime: 70170
Countdown: 0
SampleSet: Soft
StackLeniency: 0.7
Mode: 2
LetterboxInBreaks: 0
WidescreenStoryboard: 1

[Editor]
DistanceSpacing: 2.5
BeatDivisor: 2
GridSize: 8
TimelineZoom: 1.4

[Metadata]
Title:Sentimental Venus
TitleUnicode:Sentimental Venus
Artist:Minase Iori, Emily Stewart, Makabe Mizuki, Momose Rio
ArtistUnicode:水瀬伊織、エミリー=スチュアート、真壁瑞希、百瀬莉緒
Creator:Kagari
Version:6MIX
Source:THE IDOLM@STER MILLION LIVE
Tags:LIVE THE@TER PERFORMANCE 05 こだまさおり Saori Kodama rino 関野元規 Motoki Sekino 釘宮理恵 Kugimiya Rie 郁原ゆう Kahara Yuu 阿部里果 Abe Rika 山口立花子 Yamaguci Rikako
BeatmapID:1773122
BeatmapSetID:847556

[Difficulty]
HPDrainRate:5
CircleSize:3.5
OverallDifficulty:8
ApproachRate:8
SliderMultiplier:1.71999990463257
SliderTickRate:1

[Events]
//Background and Video events
0,0,"iori.png",0,0
//Break Periods
//Storyboard Layer 0 (Background)
//Storyboard Layer 1 (Fail)
//Storyboard Layer 2 (Pass)
//Storyboard Layer 3 (Foreground)
//Storyboard Layer 4 (Overlay)
//Storyboard Sound Samples

[TimingPoints]
570,342.857142857143,4,2,0,10,1,0
3141,-100,4,2,1,40,0,0
12912,-100,4,2,1,50,0,0
25084,-100,4,2,1,70,0,0
36227,-100,4,2,1,50,0,0
70341,-100,4,2,1,70,0,1
92284,-100,4,2,1,50,0,0

[Colours]
Combo1 : 241,149,145
Combo2 : 250,119,197
Combo3 : 85,65,113
Combo4 : 153,183,220

[HitObjects]
256,256,3141,6,0,L|424:216,1,171.999990463257,2|0,0:0|0:0,0:0:0:0:
256,160,3655,1,0,0:0:0:0:
336,144,3827,1,0,0:0:0:0:
256,96,3998,1,0,0:0:0:0:
424,96,4170,1,0,0:0:0:0:
256,256,4512,6,0,L|88:216,1,171.999990463257,2|0,0:0|0:0,0:0:0:0:
256,160,5026,1,0,0:0:0:0:
176,144,5198,1,0,0:0:0:0:
256,96,5369,1,0,0:0:0:0:
88,96,5541,1,0,0:0:0:0:
256,256,5884,6,0,L|424:216,1,171.999990463257,2|0,0:0|0:0,0:0:0:0:
256,160,6398,1,0,0:0:0:0:
336,144,6570,1,0,0:0:0:0:
256,96,6741,1,0,0:0:0:0:
424,96,6913,1,0,0:0:0:0:
360,104,7255,1,0,0:0:0:0:
192,136,7427,1,2,0:0:0:0:
360,184,7770,1,0,0:0:0:0:
192,200,7941,2,0,L|232:120,1,85.9999952316285
400,200,8284,2,0,L|360:120,1,85.9999952316285
256,256,8627,6,0,L|88:216,1,171.999990463257,2|0,0:0|0:0,0:0:0:0:
256,160,9141,1,0,0:0:0:0:
176,144,9313,1,0,0:0:0:0:
256,96,9484,1,0,0:0:0:0:
88,96,9656,1,0,0:0:0:0:
256,256,9998,6,0,L|424:216,1,171.999990463257,2|0,0:0|0:0,0:0:0:0:
256,160,10512,1,0,0:0:0:0:
336,144,10684,1,0,0:0:0:0:
256,96,10855,1,0,0:0:0:0:
424,96,11027,1,0,0:0:0:0:
256,256,11370,6,0,L|88:216,1,171.999990463257,2|0,0:0|0:0,0:0:0:0:
256,160,11884,1,0,0:0:0:0:
176,144,12056,1,0,0:0:0:0:
256,96,12227,1,0,0:0:0:0:
88,96,12399,1,0,0:0:0:0:
304,120,12741,1,2,0:0:0:0:
136,152,12913,1,0,0:0:0:0:
304,192,13256,1,0,0:0:0:0:
136,200,13427,2,0,L|176:120,1,85.9999952316285
344,200,13770,2,0,L|416:152,2,85.9999952316285
176,216,14284,6,0,P|112:168|160:112,1,171.999990463257
320,176,14798,1,0,0:0:0:0:
392,144,14970,1,0,0:0:0:0:
320,112,15141,1,0,0:0:0:0:
408,96,15312,1,0,0:0:0:0:
240,216,15484,6,0,L|88:136,1,171.999990463257
200,96,15998,1,0,0:0:0:0:
368,184,16170,2,0,L|336:104,1,85.9999952316285
168,176,16512,2,0,L|96:128,2,85.9999952316285
336,216,17027,6,0,P|400:168|352:112,1,171.999990463257
192,176,17541,1,0,0:0:0:0:
120,144,17713,1,0,0:0:0:0:
192,112,17884,1,0,0:0:0:0:
104,96,18055,1,0,0:0:0:0:
272,216,18227,6,0,L|424:136,1,171.999990463257
312,96,18741,1,0,0:0:0:0:
144,184,18913,2,0,L|176:104,1,85.9999952316285
344,176,19255,2,0,L|416:128,2,85.9999952316285
80,208,19770,6,0,L|112:128,1,85.9999952316285
280,232,20112,2,0,L|352:184,1,85.9999952316285
184,224,20455,2,0,L|112:176,1,85.9999952316285
280,152,20798,1,0,0:0:0:0:
192,152,20970,1,0,0:0:0:0:
352,192,21141,6,0,L|432:160,2,85.9999952316285
184,248,21655,2,0,P|128:192|168:120,1,171.999990463257
336,208,22170,2,0,L|408:160,1,85.9999952316285
160,208,22512,6,0,L|192:128,1,85.9999952316285
352,208,22855,2,0,L|320:128,1,85.9999952316285
160,208,23198,2,0,L|192:128,1,85.9999952316285
360,216,23541,2,0,L|416:152,1,85.9999952316285
152,240,23884,6,0,L|72:208,2,85.9999952316285
320,240,24398,2,0,L|456:136,1,171.999990463257
376,112,24912,1,0,0:0:0:0:
120,216,25084,6,0,L|256:112,1,171.999990463257
104,128,25598,2,0,L|184:96,1,85.9999952316285
352,168,25941,1,0,0:0:0:0:
184,192,26112,2,0,L|216:112,1,85.9999952316285
392,216,26455,6,0,L|256:112,1,171.999990463257
408,128,26969,2,0,L|328:96,1,85.9999952316285
160,168,27312,1,0,0:0:0:0:
328,192,27483,2,0,L|296:112,1,85.9999952316285
120,216,27827,6,0,L|256:112,1,171.999990463257
104,128,28341,2,0,L|184:96,1,85.9999952316285
352,168,28684,1,0,0:0:0:0:
184,192,28855,2,0,L|112:144,2,85.9999952316285
352,200,29370,6,0,L|416:144,2,85.9999952316285
184,200,29884,2,0,L|216:120,1,85.9999952316285
384,200,30227,2,0,L|416:120,1,85.9999952316285
160,248,30570,6,0,L|96:192,2,85.9999952316285
248,120,31084,1,0,0:0:0:0:
160,120,31256,1,0,0:0:0:0:
328,192,31427,1,0,0:0:0:0:
160,192,31598,2,0,L|192:112,1,85.9999952316285
352,248,31941,6,0,L|416:192,2,85.9999952316285
264,120,32455,1,0,0:0:0:0:
352,120,32627,1,0,0:0:0:0:
184,192,32798,1,0,0:0:0:0:
352,192,32969,2,0,L|320:112,1,85.9999952316285
168,248,33312,6,0,L|104:192,2,85.9999952316285
256,120,33826,1,0,0:0:0:0:
168,120,33998,1,0,0:0:0:0:
336,72,34170,2,0,L|416:104,2,85.9999952316285
168,208,34684,6,0,L|112:144,1,85.9999952316285
376,240,35027,2,0,P|432:184|392:112,1,171.999990463257
152,192,35541,2,0,L|104:120,1,85.9999952316285
272,192,35884,2,0,L|320:120,1,85.9999952316285
160,168,36227,5,0,0:0:0:0:
248,144,36398,1,0,0:0:0:0:
160,120,36570,1,0,0:0:0:0:
248,96,36741,1,0,0:0:0:0:
88,192,36912,2,0,L|16:144,2,85.9999952316285
256,208,37427,6,0,L|328:160,2,85.9999952316285
168,112,37941,1,0,0:0:0:0:
336,216,38112,2,0,L|200:112,1,171.999990463257
360,168,38627,2,0,L|328:88,1,85.9999952316285
168,208,38970,6,0,L|104:152,2,85.9999952316285
280,208,39484,1,0,0:0:0:0:
112,232,39655,2,0,L|32:192,2,85.9999952316285
280,224,40170,6,0,L|360:192,2,85.9999952316285
192,120,40683,1,0,0:0:0:0:
352,224,40855,2,0,L|248:88,1,171.999990463257
416,168,41370,2,0,L|384:88,1,85.9999952316285
216,88,41712,6,0,L|136:120,2,85.9999952316285
384,232,42227,2,0,L|464:200,2,85.9999952316285
216,192,42741,2,0,L|296:160,1,85.9999952316285
128,200,43084,6,0,L|168:120,1,85.9999952316285
328,200,43427,2,0,L|288:120,1,85.9999952316285
120,200,43770,2,0,L|160:120,1,85.9999952316285
328,208,44112,2,0,L|368:128,1,85.9999952316285
120,200,44455,6,0,L|56:144,2,85.9999952316285
288,152,44970,2,0,L|360:200,2,85.9999952316285
200,136,45484,1,0,0:0:0:0:
368,184,45655,6,0,L|328:104,1,85.9999952316285
160,184,45998,2,0,L|200:104,1,85.9999952316285
368,224,46341,2,0,L|448:192,2,85.9999952316285
128,216,46855,2,0,L|80:144,1,85.9999952316285
352,168,47198,5,0,0:0:0:0:
264,144,47369,1,0,0:0:0:0:
352,120,47541,1,0,0:0:0:0:
264,96,47712,1,0,0:0:0:0:
424,192,47884,2,0,L|496:144,2,85.9999952316285
256,208,48398,6,0,L|184:160,2,85.9999952316285
344,112,48912,1,0,0:0:0:0:
176,216,49084,2,0,L|312:112,1,171.999990463257
152,168,49598,2,0,L|184:88,1,85.9999952316285
344,208,49941,6,0,L|408:152,2,85.9999952316285
232,208,50455,1,0,0:0:0:0:
400,232,50627,2,0,L|480:192,2,85.9999952316285
160,232,51141,6,0,L|80:200,2,85.9999952316285
248,128,51654,1,0,0:0:0:0:
88,232,51827,2,0,L|192:96,1,171.999990463257
24,176,52341,2,0,L|56:96,1,85.9999952316285
304,168,52684,6,0,L|384:200,2,85.9999952316285
144,192,53198,2,0,L|280:88,1,171.999990463257
192,80,53712,1,0,0:0:0:0:
360,200,53884,6,0,L|224:96,1,171.999990463257
320,88,54398,1,0,0:0:0:0:
152,200,54570,2,0,L|72:168,2,85.9999952316285
320,200,55084,2,0,L|376:136,1,85.9999952316285
136,192,55427,6,0,L|56:160,2,85.9999952316285
304,192,55941,2,0,L|272:112,1,85.9999952316285
104,192,56284,2,0,L|136:112,1,85.9999952316285
376,200,56627,6,0,P|456:160|488:88,1,171.999990463257
400,96,57141,1,0,0:0:0:0:
232,200,57312,2,0,B|144:184|144:184|232:200,1,171.999990463257
392,192,57827,2,0,L|448:128,1,85.9999952316285
208,224,58170,6,0,L|128:184,2,85.9999952316285
376,176,58684,2,0,L|320:112,1,85.9999952316285
160,176,59027,2,0,L|216:112,1,85.9999952316285
384,200,59370,6,0,L|464:168,2,85.9999952316285
216,224,59884,2,0,L|144:176,2,85.9999952316285
304,152,60398,1,0,0:0:0:0:
144,144,60570,2,0,L|80:88,1,85.9999952316285
344,208,60912,6,0,L|424:168,2,85.9999952316285
176,224,61427,2,0,L|96:184,2,85.9999952316285
272,176,61941,1,0,0:0:0:0:
104,176,62112,6,0,L|32:128,2,85.9999952316285
200,160,62627,1,0,0:0:0:0:
368,216,62798,2,0,L|264:80,1,171.999990463257
96,168,63312,2,0,L|144:96,1,85.9999952316285
312,232,63655,6,0,L|392:200,2,85.9999952316285
144,208,64170,2,0,P|64:168|32:96,1,171.999990463257
128,96,64684,1,0,0:0:0:0:
296,216,64855,6,0,L|376:184,2,85.9999952316285
128,192,65370,2,0,L|160:112,1,85.9999952316285
328,184,65712,2,0,L|296:104,1,85.9999952316285
128,192,66055,2,0,L|160:112,1,85.9999952316285
400,224,66398,6,0,L|472:176,2,85.9999952316285
232,240,66912,2,0,L|160:192,2,85.9999952316285
328,168,67427,1,0,0:0:0:0:
160,144,67598,1,0,0:0:0:0:
256,192,67770,12,0,68798,0:0:0:0:
256,208,69141,6,0,L|96:144,1,171.999990463257
256,176,69655,2,0,L|224:96,1,85.9999952316285
64,176,69998,2,0,L|96:96,1,85.9999952316285
352,208,70341,6,0,P|432:168|464:96,1,171.999990463257
304,136,70855,1,0,0:0:0:0:
392,112,71027,1,0,0:0:0:0:
304,96,71198,1,0,0:0:0:0:
464,152,71370,2,0,L|408:88,1,85.9999952316285
160,216,71712,6,0,P|80:176|48:104,1,171.999990463257
208,152,72227,2,0,L|128:120,1,85.9999952316285
216,104,72570,1,0,0:0:0:0:
48,128,72741,2,0,L|104:64,1,85.9999952316285
352,208,73084,6,0,P|432:168|464:96,1,171.999990463257
304,144,73599,2,0,L|384:112,1,85.9999952316285
296,96,73942,1,0,0:0:0:0:
128,120,74113,2,0,L|56:72,2,85.9999952316285
376,128,74627,6,0,L|448:80,2,85.9999952316285
208,192,75141,2,0,L|264:128,1,85.9999952316285
432,192,75484,2,0,L|400:112,1,85.9999952316285
160,208,75827,6,0,P|80:168|48:96,1,171.999990463257
208,136,76341,1,0,0:0:0:0:
120,112,76513,1,0,0:0:0:0:
208,96,76684,1,0,0:0:0:0:
48,152,76856,2,0,L|104:88,1,85.9999952316285
352,208,77198,6,0,P|432:168|464:96,1,171.999990463257
304,136,77712,1,0,0:0:0:0:
392,112,77884,1,0,0:0:0:0:
304,96,78055,1,0,0:0:0:0:
464,152,78227,2,0,L|408:88,1,85.9999952316285
160,208,78570,6,0,P|80:168|48:96,1,171.999990463257
208,136,79084,1,0,0:0:0:0:
120,112,79256,1,0,0:0:0:0:
208,96,79427,1,0,0:0:0:0:
376,128,79599,2,0,L|456:96,2,85.9999952316285
120,128,80112,6,0,L|48:80,2,85.9999952316285
288,192,80627,2,0,L|256:112,1,85.9999952316285
88,200,80970,2,0,L|24:144,2,85.9999952316285
336,216,81484,6,0,P|400:168|352:112,1,171.999990463257
192,176,81998,1,0,0:0:0:0:
120,144,82170,1,0,0:0:0:0:
192,112,82341,1,0,0:0:0:0:
104,96,82512,1,0,0:0:0:0:
272,216,82684,6,0,L|424:136,1,171.999990463257
312,96,83198,1,0,0:0:0:0:
144,184,83370,2,0,L|176:104,1,85.9999952316285
344,176,83712,2,0,L|416:128,2,85.9999952316285
176,216,84227,6,0,P|112:168|160:112,1,171.999990463257
320,176,84741,1,0,0:0:0:0:
392,144,84913,1,0,0:0:0:0:
320,112,85084,1,0,0:0:0:0:
408,96,85255,1,0,0:0:0:0:
240,216,85427,6,0,L|88:136,1,171.999990463257
200,96,85941,1,0,0:0:0:0:
368,184,86113,2,0,L|336:104,1,85.9999952316285
168,176,86455,2,0,L|96:128,2,85.9999952316285
432,208,86970,6,0,L|400:128,1,85.9999952316285
232,232,87312,2,0,L|160:184,1,85.9999952316285
328,224,87655,2,0,L|400:176,1,85.9999952316285
232,152,87998,1,0,0:0:0:0:
320,152,88170,1,0,0:0:0:0:
160,192,88341,6,0,L|80:160,2,85.9999952316285
328,248,88855,2,0,L|400:200,2,85.9999952316285
160,208,89370,2,0,L|88:160,1,85.9999952316285
352,208,89712,6,0,L|320:128,1,85.9999952316285
160,208,90055,2,0,L|192:128,1,85.9999952316285
352,208,90398,2,0,L|320:128,1,85.9999952316285
152,216,90741,2,0,L|96:152,1,85.9999952316285
360,240,91084,6,0,L|440:208,2,85.9999952316285
192,240,91598,2,0,L|56:136,1,171.999990463257
136,112,92112,1,0,0:0:0:0:
392,216,92284,6,0,L|256:112,1,171.999990463257
408,128,92798,2,0,L|328:96,1,85.9999952316285
160,168,93141,1,0,0:0:0:0:
328,192,93312,2,0,L|296:112,1,85.9999952316285
120,216,93655,6,0,L|256:112,1,171.999990463257
104,128,94169,2,0,L|184:96,1,85.9999952316285
352,168,94512,1,0,0:0:0:0:
184,192,94683,2,0,L|216:112,1,85.9999952316285
392,216,95027,6,0,L|256:112,1,171.999990463257
408,128,95541,2,0,L|328:96,1,85.9999952316285
160,168,95884,1,0,0:0:0:0:
328,192,96055,2,0,L|400:144,2,85.9999952316285
88,184,96570,6,0,L|8:152,2,85.9999952316285
256,192,97084,2,0,L|328:144,2,85.9999952316285
112,128,97598,1,0,0:0:0:0:
352,248,97770,6,0,L|416:192,2,85.9999952316285
264,120,98284,1,0,0:0:0:0:
352,120,98456,1,0,0:0:0:0:
184,192,98627,1,0,0:0:0:0:
352,192,98798,2,0,L|320:112,1,85.9999952316285
160,248,99141,6,0,L|96:192,2,85.9999952316285
248,120,99655,1,0,0:0:0:0:
160,120,99827,1,0,0:0:0:0:
328,192,99998,1,0,0:0:0:0:
160,192,100169,2,0,L|192:112,1,85.9999952316285
344,248,100512,6,0,L|408:192,2,85.9999952316285
256,120,101026,1,0,0:0:0:0:
344,120,101198,1,0,0:0:0:0:
176,72,101370,2,0,L|96:104,2,85.9999952316285
344,208,101884,6,0,L|400:144,1,85.9999952316285
136,240,102227,2,0,P|80:184|120:112,1,171.999990463257
360,192,102741,2,0,L|408:120,1,85.9999952316285
240,192,103084,2,0,L|192:120,1,85.9999952316285
352,104,103427,5,0,0:0:0:0:
112,256,103598,2,0,P|56:200|96:128,1,171.999990463257
264,264,104112,2,0,L|336:216,1,85.9999952316285
368,184,104455,1,0,0:0:0:0:
336,136,104541,1,0,0:0:0:0:
280,128,104627,1,0,0:0:0:0:
120,104,104798,5,0,0:0:0:0:
400,256,104970,2,0,P|456:200|416:128,1,171.999990463257
176,248,105484,2,0,L|104:200,1,85.9999952316285
272,208,105827,2,0,L|320:136,1,85.9999952316285
72,144,106170,1,0,0:0:0:0:
256,192,106512,12,0,108570,0:0:0:0:
