osu file format v14

[General]
AudioFilename: audio.mp3
AudioLeadIn: 0
PreviewTime: 38341
Countdown: 0
SampleSet: Soft
StackLeniency: 0.7
Mode: 0
LetterboxInBreaks: 0
WidescreenStoryboard: 0

[Editor]
DistanceSpacing: 1.5
BeatDivisor: 4
GridSize: 32
TimelineZoom: 1.4

[Metadata]
Title:Koko kara, Koko kara (TV Size)
TitleUnicode:ここから、ここから (TV Size)
Artist:Minase Inori, Hanazawa Kana, Iguchi Yuka, Hayami Saori
ArtistUnicode:水瀬いのり,花澤香菜,井口裕香,早見沙織
Creator:vick
Version:Insane
Source:宇宙よりも遠い場所
Tags:sora yori mo tooi basho ed ending anime japanese pop jpop j-pop 玉木マリ Tamaki Mari 小淵沢報瀬 Kobuchizawa Shirase 三宅日向 Miyake Hinata 白石結月 Shiraishi Yuzuki A Place Further Than The Universe
BeatmapID:2564290
BeatmapSetID:1233505

[Difficulty]
HPDrainRate:6
CircleSize:3.8
OverallDifficulty:8.3
ApproachRate:9
SliderMultiplier:1.6
SliderTickRate:1

[Events]
//Background and Video events
0,0,"lol.jpg",0,0
//Break Periods
//Storyboard Layer 0 (Background)
//Storyboard Layer 1 (Fail)
//Storyboard Layer 2 (Pass)
//Storyboard Layer 3 (Foreground)
//Storyboard Layer 4 (Overlay)
//Storyboard Sound Samples

[TimingPoints]
1141,342.857142857143,4,2,1,50,1,0
1141,-125,4,2,1,50,0,0
12112,-125,4,2,1,50,0,0
23083,-125,4,2,1,50,0,0
34054,-111.111111111111,4,2,1,60,0,0
39541,-100,4,2,1,70,0,1
61483,-100,4,2,1,70,0,1
83426,-125,4,2,1,30,0,0
90283,-125,4,2,1,5,0,0

[Colours]
Combo1 : 164,164,255
Combo2 : 255,183,111
Combo3 : 179,255,255

[HitObjects]
107,40,12112,5,4,3:2:0:0:
107,40,12455,2,0,P|103:103|100:184,1,128,2|2,3:0|0:0,0:0:0:0:
223,237,13141,2,0,P|224:269|225:312,1,64,0|0,3:0|0:0,0:0:0:0:
294,346,13483,6,0,P|368:351|413:291,1,128,0|2,3:0|0:0,0:0:0:0:
418,234,13998,2,0,P|416:169|413:92,1,128,2|0,3:0|0:0,0:0:0:0:
364,38,14511,1,0,3:0:0:0:
303,95,14682,1,2,3:0:0:0:
234,46,14855,6,0,P|173:30|105:53,1,128,0|2,3:0|0:0,0:0:0:0:
112,48,15369,1,2,3:0:0:0:
61,124,15883,1,0,3:0:0:0:
147,266,16226,6,0,L|144:343,1,64,0|0,3:0|1:0,0:0:0:0:
234,378,16569,2,0,L|231:314,1,64,2|2,3:0|3:0,0:0:0:0:
321,266,16912,2,0,L|318:329,1,64,0|2,3:0|3:0,0:0:0:0:
396,212,17255,1,0,3:0:0:0:
272,143,17598,6,0,P|214:154|154:122,1,128,4|2,3:2|0:0,0:0:0:0:
155,123,18111,1,2,3:0:0:0:
46,308,18626,2,0,P|82:308|118:307,1,64,0|0,3:0|0:0,0:0:0:0:
161,241,18969,6,0,P|229:243|296:243,1,128,0|2,3:0|0:0,0:0:0:0:
288,243,19482,1,2,3:0:0:0:
459,63,19825,1,2,3:0:0:0:
401,123,19998,1,0,3:0:0:0:
345,61,20168,1,2,3:0:0:0:
282,115,20340,6,0,P|284:186|290:271,1,128,0|2,3:0|0:0,0:0:0:0:
287,242,20854,1,2,3:0:0:0:
140,348,21369,2,0,P|149:311|141:273,1,64,0|0,3:0|0:0,0:0:0:0:
81,233,21712,6,0,P|78:169|79:92,1,128,0|2,3:0|0:0,0:0:0:0:
180,8,22226,2,0,P|177:42|181:73,1,64,2|0,3:0|0:0,0:0:0:0:
243,125,22568,1,2,3:0:0:0:
239,208,22740,1,0,3:0:0:0:
236,290,22912,1,2,3:0:0:0:
67,201,23083,5,4,3:2:0:0:
243,125,23426,2,0,P|309:124|370:122,2,128,0|2|2,3:0|0:0|3:0,0:0:0:0:
243,125,24455,2,0,P|178:115|114:144,1,128,0|2,3:0|0:0,0:0:0:0:
67,201,24969,2,0,P|68:264|72:344,1,128,2|0,3:0|0:0,0:0:0:0:
163,382,25482,1,0,3:0:0:0:
186,302,25654,1,2,3:0:0:0:
261,334,25826,6,0,P|322:350|389:322,1,128,0|2,3:0|0:0,0:0:0:0:
381,328,26340,1,2,3:0:0:0:
447,264,26854,1,0,3:0:0:0:
391,138,27198,6,0,L|394:75,1,64,0|0,3:0|1:0,0:0:0:0:
306,22,27541,2,0,L|309:86,1,64,2|2,3:0|3:0,0:0:0:0:
218,130,27883,2,0,L|220:66,1,64,0|2,3:0|3:0,0:0:0:0:
120,145,28227,1,2,3:0:0:0:
220,242,28569,6,0,P|286:242|352:240,1,128,0|2,3:0|0:0,0:0:0:0:
347,240,29082,1,2,3:0:0:0:
424,132,29597,2,0,L|421:203,1,64,0|0,3:0|0:0,0:0:0:0:
347,240,29940,6,0,P|348:306|352:390,1,128,0|2,3:0|0:0,0:0:0:0:
351,367,30455,1,2,3:0:0:0:
230,40,30797,1,2,3:0:0:0:
170,97,30968,1,0,3:0:0:0:
214,167,31140,1,2,3:0:0:0:
293,144,31312,6,0,P|359:129|433:162,1,128,0|2,3:0|0:0,0:0:0:0:
414,147,31825,1,2,3:0:0:0:
187,17,32340,2,0,L|191:93,1,64,0|0,3:0|0:0,0:0:0:0:
130,138,32683,5,0,3:0:0:0:
175,208,32854,1,0,1:0:0:0:
250,174,33026,2,0,P|290:170|324:174,1,64,2|0,0:0|0:0,0:0:0:0:
380,221,33369,2,0,L|382:301,1,64,0|0,0:0|3:0,0:0:0:0:
461,166,33712,1,0,3:0:0:0:
424,91,33882,1,2,3:0:0:0:
323,117,34055,6,0,P|253:137|187:114,1,143.999995605469,4|2,3:2|0:0,0:0:0:0:
114,24,34568,1,0,0:0:0:0:
23,178,34741,2,0,P|66:177|110:177,1,71.9999978027344,0|0,1:0|0:0,0:0:0:0:
218,265,35083,2,0,P|179:264|134:263,1,71.9999978027344,10|0,3:0|0:0,0:0:0:0:
281,185,35426,6,0,P|318:239|294:326,1,143.999995605469,6|2,3:2|0:0,0:0:0:0:
403,144,35940,1,0,0:0:0:0:
306,70,36112,2,0,P|271:73|233:76,1,71.9999978027344,0|0,1:0|0:0,0:0:0:0:
119,21,36454,1,10,3:0:0:0:
209,309,36798,5,4,3:2:0:0:
234,75,37141,1,8,0:0:0:0:
315,235,37312,1,8,0:0:0:0:
315,235,37397,1,8,0:0:0:0:
315,235,37482,1,8,0:0:0:0:
141,96,37654,1,2,3:0:0:0:
386,111,37826,1,0,3:0:0:0:
202,206,37998,1,2,0:0:0:0:
421,296,38169,1,12,0:0:0:0:
148,198,39541,6,0,P|232:187|311:189,1,160,6|8,3:2|0:0,0:0:0:0:
450,256,40055,1,2,3:2:0:0:
489,69,40226,2,0,P|444:83|404:102,1,80,0|0,0:0|3:0,0:0:0:0:
269,52,40569,2,0,P|247:93|232:135,1,80,10|0,0:2|0:0,0:0:0:0:
280,279,40911,6,0,P|281:326|286:362,1,80,2|0,3:2|0:0,0:0:0:0:
370,199,41254,1,8,0:0:0:0:
176,196,41425,1,2,3:2:0:0:
269,52,41597,2,0,P|267:98|263:135,1,80,2|0,0:0|3:0,0:0:0:0:
78,167,41940,2,0,P|78:212|84:250,1,80,10|0,0:0|0:0,0:0:0:0:
203,346,42283,6,0,P|299:359|359:327,1,160,2|8,3:2|0:0,0:0:0:0:
445,114,42798,2,0,P|444:194|448:285,1,160,2|0,3:2|0:0,0:0:0:0:
351,33,43311,1,10,0:0:0:0:
351,33,43655,5,0,3:0:0:0:
334,175,43826,1,0,3:0:0:0:
155,38,43998,2,0,L|65:42,1,80,10|0,0:0|3:0,0:0:0:0:
389,57,44341,5,2,0:0:0:0:
372,199,44512,1,0,0:0:0:0:
193,62,44683,2,0,L|103:66,1,80,10|0,0:0|0:0,0:0:0:0:
0,245,45026,6,0,P|81:222|159:247,1,160,6|8,3:2|0:0,0:0:0:0:
256,354,45540,2,0,P|249:271|255:179,1,160,2|0,3:2|3:0,0:0:0:0:
362,79,46055,1,10,0:0:0:0:
336,246,46225,1,0,0:0:0:0:
511,168,46398,6,0,P|466:168|428:171,1,80,2|0,3:2|0:0,0:0:0:0:
282,75,46741,2,0,P|326:79|365:78,1,80,8|2,0:0|3:2,0:0:0:0:
179,132,47082,1,2,0:0:0:0:
239,0,47254,1,0,3:0:0:0:
298,202,47425,1,10,0:0:0:0:
298,202,47769,6,0,P|293:276|301:362,1,160,2|8,3:2|0:0,0:0:0:0:
473,143,48283,2,0,P|451:66|370:30,1,160,2|0,3:2|3:0,0:0:0:0:
194,106,48797,2,0,P|242:108|301:103,1,80,10|0,0:0|0:0,0:0:0:0:
108,42,49140,5,0,3:0:0:0:
35,166,49311,1,0,3:0:0:0:
233,248,49483,2,0,L|324:242,1,80,8|0,0:0|0:0,0:0:0:0:
121,69,49825,5,2,3:2:0:0:
48,193,49998,1,0,0:0:0:0:
246,275,50169,2,0,L|337:269,1,80,8|0,0:0|0:0,0:0:0:0:
486,125,50512,6,0,P|413:141|341:99,1,160,4|8,3:2|0:0,0:0:0:0:
253,0,51026,1,2,3:2:0:0:
82,115,51197,2,0,P|126:110|170:111,1,80,2|0,0:0|3:0,0:0:0:0:
291,175,51541,2,0,P|284:250|279:358,1,160,10|2,0:0|3:2,0:0:0:0:
389,88,52054,5,0,0:0:0:0:
401,222,52225,1,8,0:0:0:0:
483,42,52397,1,2,3:2:0:0:
284,123,52569,2,0,P|239:124|196:121,1,80,0|0,0:0|3:0,0:0:0:0:
91,31,52911,1,10,0:0:0:0:
20,274,53255,6,0,P|94:248|185:259,1,160,2|8,3:2|0:0,0:0:0:0:
305,358,53769,2,0,P|299:276|296:185,1,160,2|0,3:2|0:0,0:0:0:0:
198,15,54283,2,0,P|206:66|194:102,1,80,10|0,0:0|0:0,0:0:0:0:
1,257,54626,6,0,P|79:234|166:242,1,160,2|8,3:2|0:0,0:0:0:0:
244,348,55140,1,2,3:2:0:0:
358,268,55312,2,0,P|356:223|353:173,1,80,0|0,0:0|3:0,0:0:0:0:
237,9,55654,1,10,0:0:0:0:
177,162,55826,1,0,0:0:0:0:
331,101,55998,6,0,P|381:94|427:96,1,80,2|0,3:2|0:0,0:0:0:0:
512,297,56341,2,0,P|462:304|416:302,1,80,8|2,0:0|3:2,0:0:0:0:
248,205,56683,2,0,P|175:203|95:236,1,160,2|10,0:0|0:0,0:0:0:0:
337,326,57198,1,0,0:0:0:0:
427,182,57369,6,0,P|423:99|418:21,1,160,2|8,3:2|0:0,0:0:0:0:
200,107,57882,1,2,3:2:0:0:
380,70,58054,1,0,0:0:0:0:
258,0,58225,1,0,0:0:0:0:
324,155,58397,2,0,P|327:198|319:240,1,80,10|0,0:0|3:0,0:0:0:0:
180,342,58741,6,0,P|80:358|17:323,1,160,2|8,3:2|0:0,0:0:0:0:
1,127,59255,1,2,3:2:0:0:
101,243,59425,1,8,0:0:0:0:
101,46,59598,1,0,3:0:0:0:
99,268,59768,1,10,0:0:0:0:
242,118,59940,1,0,0:0:0:0:
101,46,60112,5,4,3:2:0:0:
206,242,60282,1,8,0:0:0:0:
206,242,60369,1,8,0:0:0:0:
206,242,60455,1,8,0:0:0:0:
270,82,60626,2,0,L|312:79,2,40,8|8|8,0:0|0:0|0:0,0:0:0:0:
116,165,60969,1,2,0:0:0:0:
295,306,61141,1,8,0:0:0:0:
295,306,61226,1,8,0:0:0:0:
295,306,61312,1,8,0:0:0:0:
295,306,61398,1,8,0:0:0:0:
295,306,61483,6,0,P|375:320|442:279,1,160,6|8,3:2|0:0,0:0:0:0:
190,101,61998,1,2,3:2:0:0:
68,260,62169,2,0,P|64:307|63:357,1,80,0|0,0:0|3:0,0:0:0:0:
204,120,62512,2,0,P|207:167|209:217,1,80,10|0,0:0|0:0,0:0:0:0:
71,92,62855,5,2,3:2:0:0:
229,3,63026,1,0,0:0:0:0:
330,174,63198,2,0,P|333:221|335:271,1,80,8|2,0:0|3:2,0:0:0:0:
165,364,63541,1,2,0:0:0:0:
206,201,63712,1,0,3:0:0:0:
47,100,63883,1,10,0:0:0:0:
61,273,64055,1,2,0:0:0:0:
259,63,64226,6,0,P|298:59|338:60,1,80,2|0,3:2|0:0,0:0:0:0:
139,11,64569,1,8,0:0:0:0:
240,188,64741,2,0,P|323:176|417:193,1,160,2|0,3:2|0:0,0:0:0:0:
484,311,65255,1,10,0:0:0:0:
85,258,65598,5,0,3:0:0:0:
225,226,65769,1,0,3:0:0:0:
136,19,65941,2,0,L|133:121,1,80,10|0,0:0|3:0,0:0:0:0:
111,283,66283,5,2,3:2:0:0:
251,251,66455,1,0,0:0:0:0:
162,44,66626,2,0,L|159:146,1,80,10|0,0:0|0:0,0:0:0:0:
340,0,66969,6,0,P|338:76|346:181,1,160,6|8,3:2|0:0,0:0:0:0:
276,337,67483,1,2,3:2:0:0:
124,214,67655,2,0,P|81:211|27:219,1,80,0|0,0:0|3:0,0:0:0:0:
214,77,67998,2,0,P|293:82|381:74,1,160,10|2,0:0|3:2,0:0:0:0:
478,189,68512,5,0,0:0:0:0:
337,352,68683,2,0,P|335:310|338:265,1,80,8|2,0:0|3:2,0:0:0:0:
218,96,69026,1,2,3:2:0:0:
186,317,69198,1,0,3:0:0:0:
335,169,69369,1,10,0:0:0:0:
118,214,69541,1,8,0:0:0:0:
118,214,69626,1,8,0:0:0:0:
118,214,69712,6,0,P|76:218|25:212,1,80,2|0,3:2|0:0,0:0:0:0:
192,67,70055,1,8,0:0:0:0:
157,290,70226,2,0,P|72:304|-13:293,1,160,2|0,3:2|3:0,0:0:0:0:
0,132,70741,1,10,0:0:0:0:
379,30,71083,5,0,3:0:0:0:
411,170,71255,1,0,3:0:0:0:
203,87,71426,2,0,P|160:85|115:89,1,80,8|0,0:0|3:0,0:0:0:0:
403,56,71769,5,2,3:2:0:0:
435,196,71941,1,0,0:0:0:0:
227,113,72112,2,0,P|184:111|139:115,1,80,8|0,0:0|0:0,0:0:0:0:
11,279,72455,6,0,P|88:263|183:278,1,160,4|8,3:2|0:0,0:0:0:0:
327,364,72969,1,2,3:2:0:0:
261,140,73141,2,0,P|258:183|260:231,1,80,0|0,0:0|3:0,0:0:0:0:
404,24,73483,2,0,P|411:100|414:205,1,160,12|2,0:0|3:2,0:0:0:0:
327,364,73998,5,0,0:0:0:0:
189,173,74169,1,8,0:0:0:0:
166,337,74341,1,2,3:2:0:0:
369,197,74512,2,0,P|414:191|459:188,1,80,0|0,0:0|3:0,0:0:0:0:
252,67,74855,2,0,P|206:61|84:69,1,160,12|2,0:0|3:2,0:0:0:0:
37,229,75369,6,0,P|85:216|140:216,1,80,0|8,0:0|0:0,0:0:0:0:
358,233,75712,1,2,3:2:0:0:
206,363,75883,1,2,0:0:0:0:
268,15,76226,6,0,B|242:58|242:58|246:111|257:202,1,160,12|2,0:0|3:2,0:0:0:0:
349,327,76741,1,0,0:0:0:0:
159,247,76912,2,0,P|71:248|-2:254,1,160,8|2,0:0|3:2,0:0:0:0:
349,327,77426,1,0,3:0:0:0:
253,167,77598,1,10,0:0:0:0:
220,364,77769,1,0,0:0:0:0:
441,191,77941,6,0,P|458:120|433:38,1,160,2|8,3:2|0:0,0:0:0:0:
278,60,78455,2,0,P|192:58|119:56,1,160,2|0,3:2|0:0,0:0:0:0:
0,133,78969,1,10,0:0:0:0:
108,212,79141,1,0,0:0:0:0:
11,343,79312,6,0,P|77:328|177:338,1,160,2|8,3:2|0:0,0:0:0:0:
357,295,79826,2,0,P|375:217|371:137,1,160,2|0,3:2|0:0,0:0:0:0:
227,14,80341,1,10,0:0:0:0:
175,227,80512,5,8,0:0:0:0:
175,227,80598,1,8,0:0:0:0:
175,227,80683,1,10,0:0:0:0:
371,137,80855,1,0,0:0:0:0:
112,57,81026,1,8,0:0:0:0:
278,193,81198,5,2,3:2:0:0:
227,14,81369,1,10,0:0:0:0:
94,184,81541,1,0,3:0:0:0:
300,88,81712,2,0,L|382:82,1,80,8|0,0:2|0:0,0:0:0:0:
494,271,82055,5,10,0:0:0:0:
249,185,82226,1,0,0:0:0:0:
441,149,82398,1,8,0:0:0:0:
260,313,82569,1,8,0:0:0:0:
260,313,82655,1,8,0:0:0:0:
260,313,82741,5,8,0:0:0:0:
359,252,82912,1,8,0:0:0:0:
409,143,83083,1,10,0:0:0:0:
330,28,83255,1,8,0:0:0:0:
205,103,83426,6,0,P|137:113|72:91,1,128,2|0,0:2|0:0,0:0:0:0:
81,96,83941,1,2,0:0:0:0:
3,236,84283,2,0,L|6:304,1,64,2|0,0:0|0:0,0:0:0:0:
208,371,84798,6,0,P|197:298|205:242,1,128,2|0,0:0|0:0,0:0:0:0:
204,244,85312,1,2,0:0:0:0:
346,186,85655,2,0,L|412:184,1,64,2|0,0:0|0:0,0:0:0:0:
469,25,86169,6,0,P|407:49|323:37,1,128,2|0,0:0|0:0,0:0:0:0:
346,45,86683,1,2,0:0:0:0:
155,7,87026,2,0,L|157:91,1,64,2|0,0:0|0:0,0:0:0:0:
74,205,87541,5,2,0:0:0:0:
304,159,87883,1,2,0:0:0:0:
304,159,88055,1,2,0:0:0:0:
122,122,88398,5,2,0:0:0:0:
145,273,88569,1,2,0:0:0:0:
256,192,88741,12,0,90283,0:0:0:0:
