osu file format v14

[General]
AudioFilename: audio.mp3
AudioLeadIn: 0
PreviewTime: 37951
Countdown: 0
SampleSet: Soft
StackLeniency: 0.3
Mode: 0
LetterboxInBreaks: 0
WidescreenStoryboard: 1

[Editor]
DistanceSpacing: 1.3
BeatDivisor: 4
GridSize: 4
TimelineZoom: 1

[Metadata]
Title:Koko kara, Koko kara (TV Size)
TitleUnicode:ここから、ここから (TV Size)
Artist:Minase Inori, Hanazawa Kana, Iguchi Yuka, Hayami Saori
ArtistUnicode:水瀬いのり,花澤香菜,井口裕香,早見沙織
Creator:bossandy
Version:Mikan's Hard
Source:宇宙よりも遠い場所
Tags:Sora yori mo Tooi Basho A Place Further Than The Universe Yorimoi ed ending Jpop J-pop Pop Anime Japanese 玉木マリ Tamaki Mari 小淵沢報瀬 Kobuchizawa Shirase 三宅日向 Miyake Hinata 白石結月 Shiraishi Yuzuki Chaoslitz YTYuyu Byakugan249 -Mikan Silent Rock
BeatmapID:2424717
BeatmapSetID:1140357

[Difficulty]
HPDrainRate:5
CircleSize:3.6
OverallDifficulty:6.3
ApproachRate:8
SliderMultiplier:1.5
SliderTickRate:1

[Events]
//Background and Video events
0,0,"BG.jpg",0,0
Video,-643,"video.avi"
//Break Periods
//Storyboard Layer 0 (Background)
//Storyboard Layer 1 (Fail)
//Storyboard Layer 2 (Pass)
//Storyboard Layer 3 (Foreground)
//Storyboard Layer 4 (Overlay)
//Storyboard Sound Samples

[TimingPoints]
580,342.857142857143,4,2,1,40,1,0
580,-125,4,2,1,40,0,0
11551,-125,4,2,1,60,0,0
33494,-125,4,2,1,70,0,0
37951,-200,4,2,1,40,0,0
38808,-200,4,2,1,20,0,0
38980,-100,4,2,1,80,0,1
41637,-100,4,2,1,5,0,1
41722,-100,4,2,1,80,0,1
44380,-100,4,2,1,5,0,1
44465,-100,4,2,1,80,0,1
47122,-100,4,2,1,5,0,1
47208,-100,4,2,1,80,0,1
55351,-100,4,2,1,5,0,1
55437,-100,4,2,1,80,0,1
58180,-100,4,2,1,80,0,0
60922,-100,4,2,1,80,0,1
63580,-100,4,2,1,5,0,1
63665,-100,4,2,1,80,0,1
66322,-100,4,2,1,5,0,1
66408,-100,4,2,1,80,0,1
69065,-100,4,2,1,5,0,1
69151,-100,4,2,1,80,0,1
71808,-100,4,2,1,5,0,1
71894,-100,4,2,1,80,0,1
77294,-100,4,2,1,5,0,1
77380,-100,4,2,1,80,0,1
82865,-166.666666666667,4,2,1,40,0,0
88094,-166.666666666667,4,2,1,30,0,0
88351,-166.666666666667,4,2,1,25,0,0
88694,-166.666666666667,4,2,1,20,0,0
89037,-166.666666666667,4,2,1,15,0,0
89380,-166.666666666667,4,2,1,10,0,0
89722,-166.666666666667,4,2,1,5,0,0

[Colours]
Combo1 : 196,77,124
Combo2 : 22,40,205
Combo3 : 177,56,71
Combo4 : 12,188,157

[HitObjects]
44,350,580,5,2,0:0:0:0:
114,301,922,1,0,0:0:0:0:
114,301,1094,1,2,0:0:0:0:
191,349,1437,1,0,0:0:0:0:
191,349,1608,1,2,0:0:0:0:
297,294,1951,5,2,0:0:0:0:
367,343,2294,1,0,0:0:0:0:
367,343,2465,1,2,0:0:0:0:
444,295,2808,1,0,0:0:0:0:
444,295,2980,1,2,0:0:0:0:
368,239,3322,5,2,0:0:0:0:
376,152,3665,1,0,0:0:0:0:
376,152,3837,1,2,0:0:0:0:
379,63,4180,1,0,0:0:0:0:
379,63,4351,1,2,0:0:0:0:
258,27,4694,5,2,0:0:0:0:
266,114,5037,1,0,0:0:0:0:
266,114,5208,1,2,0:0:0:0:
269,203,5551,1,0,0:0:0:0:
269,203,5722,1,2,0:0:0:0:
172,285,6065,5,2,0:0:0:0:
91,256,6408,1,0,0:0:0:0:
91,256,6580,1,2,0:0:0:0:
158,204,6922,1,0,0:0:0:0:
158,204,7094,1,2,0:0:0:0:
23,142,7437,5,2,0:0:0:0:
104,113,7780,1,0,0:0:0:0:
104,113,7951,1,2,0:0:0:0:
37,61,8294,1,0,0:0:0:0:
37,61,8465,1,2,0:0:0:0:
177,28,8808,5,2,0:0:0:0:
266,37,9151,1,0,0:0:0:0:
266,37,9322,1,2,0:0:0:0:
355,47,9665,1,0,0:0:0:0:
355,47,9837,1,2,0:0:0:0:
470,133,10180,5,2,0:0:0:0:
381,142,10522,1,0,0:0:0:0:
381,142,10694,1,2,0:0:0:0:
381,142,10865,2,0,P|362:192|348:266,1,120,2|2,0:0|0:0,0:0:0:0:
384,326,11380,1,0,0:0:0:0:
458,298,11551,5,6,3:2:0:0:
348,257,11894,2,0,L|268:281,1,60,8|2,3:0|3:0,0:0:0:0:
257,349,12237,2,0,L|126:332,1,120,0|2,0:0|3:0,0:0:0:0:
0,189,12922,6,0,L|131:206,1,120,2|8,3:0|3:0,0:0:0:0:
188,163,13437,2,0,P|204:130|204:89,1,60,2|0,3:0|0:0,0:0:0:0:
154,49,13780,1,0,3:0:0:0:
154,49,13951,1,2,3:0:0:0:
295,6,14294,6,0,L|425:16,1,120,2|8,3:0|3:0,0:0:0:0:
462,80,14808,2,0,L|446:148,1,60,2|0,3:0|0:0,0:0:0:0:
464,216,15151,1,0,0:0:0:0:
464,216,15322,1,2,3:0:0:0:
340,120,15665,5,2,3:0:0:0:
272,192,15837,1,8,0:0:0:0:
272,192,16008,2,0,L|212:196,1,60,8|2,3:0|3:0,0:0:0:0:
167,300,16351,6,0,L|102:291,1,60,0|0,0:0|3:0,0:0:0:0:
57,349,16694,2,0,P|14:320|12:235,1,120,2|6,3:0|3:2,0:0:0:0:
98,119,17380,1,8,3:0:0:0:
98,119,17551,2,0,P|141:148|143:233,1,120,2|0,3:0|0:0,0:0:0:0:
87,259,18065,5,2,3:0:0:0:
189,329,18408,2,0,L|270:314,1,60,2|0,3:0|0:0,0:0:0:0:
320,358,18751,1,8,3:0:0:0:
320,358,18922,2,0,L|448:370,1,120,2|0,3:0|3:0,0:0:0:0:
504,320,19437,1,2,3:0:0:0:
404,166,19780,6,0,L|393:291,1,120,2|8,3:0|3:0,0:0:0:0:
313,250,20294,2,0,L|319:178,1,60,2|0,3:0|0:0,0:0:0:0:
258,135,20637,1,0,0:0:0:0:
258,135,20808,2,0,L|264:63,1,60,2|0,3:0|0:0,0:0:0:0:
187,23,21151,5,2,3:0:0:0:
108,120,21322,1,8,0:0:0:0:
85,44,21494,1,8,3:0:0:0:
5,48,21665,2,0,L|0:107,1,60,2|2,3:0|0:0,0:0:0:0:
50,178,22008,1,0,3:0:0:0:
50,178,22180,2,0,L|44:237,1,60,2|0,3:0|0:0,0:0:0:0:
33,340,22522,5,6,3:2:0:0:
151,282,22865,2,0,L|214:301,1,60,8|2,3:0|3:0,0:0:0:0:
252,364,23208,2,0,L|372:341,1,120,0|2,0:0|3:0,0:0:0:0:
480,196,23894,6,0,L|360:219,1,120,2|8,3:0|3:0,0:0:0:0:
296,171,24408,2,0,L|307:88,1,60,2|0,3:0|0:0,0:0:0:0:
242,59,24751,1,0,3:0:0:0:
242,59,24922,2,0,L|171:76,1,60,2|0,3:0|0:0,0:0:0:0:
121,25,25265,5,2,3:0:0:0:
50,110,25608,1,8,3:0:0:0:
50,110,25780,1,2,3:0:0:0:
116,193,26122,1,0,0:0:0:0:
116,193,26294,1,2,3:0:0:0:
182,105,26637,5,2,3:0:0:0:
260,162,26808,1,8,0:0:0:0:
260,162,26980,2,0,L|329:148,1,60,8|2,3:0|3:0,0:0:0:0:
436,107,27322,5,0,0:0:0:0:
497,159,27494,1,0,3:0:0:0:
479,236,27665,2,0,L|359:221,1,120,2|6,3:0|3:2,0:0:0:0:
359,221,28350,5,8,3:0:0:0:
301,276,28522,2,0,L|315:341,1,60,2|0,3:0|0:0,0:0:0:0:
240,369,28865,1,0,0:0:0:0:
240,369,29037,2,0,L|181:356,1,60,2|0,3:0|0:0,0:0:0:0:
118,284,29380,6,0,L|-13:310,1,120,2|8,3:0|3:0,0:0:0:0:
36,194,29894,2,0,L|52:275,1,60,2|0,3:0|0:0,0:0:0:0:
126,201,30237,1,0,3:0:0:0:
126,201,30408,2,0,L|114:142,1,60,2|0,3:0|0:0,0:0:0:0:
49,89,30751,5,2,3:0:0:0:
134,15,31094,1,8,3:0:0:0:
134,15,31265,1,2,3:0:0:0:
239,68,31608,1,0,0:0:0:0:
239,68,31780,1,2,3:0:0:0:
346,12,32122,5,2,3:0:0:0:
409,76,32294,2,0,L|396:136,1,60,8|0,0:0|0:0,0:0:0:0:
466,174,32637,1,2,3:0:0:0:
482,252,32808,1,0,0:0:0:0:
441,320,32980,1,0,3:0:0:0:
364,331,33151,1,2,3:0:0:0:
364,331,33494,6,0,B|220:314|309:232|157:213,1,240,6|10,3:2|0:0,0:0:0:0:
101,260,34522,2,0,L|115:324,1,60,2|0,0:0|0:0,0:0:0:0:
0,349,34865,5,2,3:0:0:0:
0,349,35037,2,0,L|28:144,1,180,8|10,0:0|0:0,0:0:0:0:
84,117,35722,1,0,3:0:0:0:
13,88,35894,1,2,3:0:0:0:
13,88,36237,6,0,L|-1:15,1,60,4|0,3:2|0:0,0:0:0:0:
87,0,36580,2,0,L|101:73,1,60,10|0,0:0|3:0,0:0:0:0:
176,109,36922,5,10,0:0:0:0:
249,48,37094,1,8,3:0:0:0:
312,100,37265,1,2,3:0:0:0:
388,39,37437,1,0,3:0:0:0:
485,91,37608,5,10,3:2:0:0:
485,91,38980,6,0,P|474:141|469:182,1,75,6|0,3:2|0:0,0:0:0:0:
388,227,39322,1,8,0:0:0:0:
319,171,39494,2,0,B|242:177|269:237|184:245,1,150,2|0,3:2|3:0,0:0:0:0:
117,204,40008,6,0,P|127:153|134:120,1,75,10|0,0:0|0:0,0:0:0:0:
48,46,40351,2,0,P|38:97|31:130,1,75,2|0,3:0|0:0,0:0:0:0:
111,184,40694,2,0,P|121:133|128:100,1,75,10|0,0:0|3:0,0:0:0:0:
42,29,41037,2,0,P|32:80|25:113,1,75,2|0,0:0|3:0,0:0:0:0:
111,184,41380,6,0,B|188:190|161:250|246:258,2,150,10|2|8,0:0|3:0|0:0,0:0:0:0:
37,227,42237,2,0,L|22:305,1,75,2|0,3:0|0:0,0:0:0:0:
119,371,42580,1,0,3:0:0:0:
119,371,42751,2,0,L|134:293,1,75,10|0,0:0|0:0,0:0:0:0:
236,253,43094,1,2,3:0:0:0:
236,253,43437,6,0,P|277:206|278:170,1,75,10|0,0:0|3:0,0:0:0:0:
239,53,43780,2,0,P|198:100|197:136,1,75,2|0,0:0|3:0,0:0:0:0:
257,173,44122,2,0,P|338:155|428:145,2,150,10|6|8,0:0|3:2|0:0,0:0:0:0:
157,225,44980,6,0,P|113:214|73:210,1,75,2|0,3:0|0:0,0:0:0:0:
18,140,45322,1,0,3:0:0:0:
88,55,45494,2,0,P|96:114|101:150,1,75,10|0,0:0|0:0,0:0:0:0:
10,252,45837,2,0,P|2:193|-3:157,1,75,2|0,3:0|0:0,0:0:0:0:
112,144,46180,2,0,P|120:203|125:239,1,75,10|0,0:0|3:0,0:0:0:0:
10,342,46522,2,0,P|4:304|0:267,1,75,2|0,0:0|3:0,0:0:0:0:
112,310,46865,6,0,B|198:310|165:364|266:365,1,150,10|2,0:0|3:0,0:0:0:0:
395,232,47551,1,8,0:0:0:0:
338,176,47722,2,0,P|315:223|321:258,1,75,0|2,3:0|0:0,0:0:0:0:
382,384,48065,1,0,3:0:0:0:
382,384,48237,2,0,P|405:337|399:302,1,75,10|0,0:0|0:0,0:0:0:0:
322,328,48580,1,2,3:0:0:0:
322,328,48751,1,0,3:0:0:0:
395,232,48922,6,0,P|440:217|494:213,1,75,12|2,0:0|0:0,0:0:0:0:
512,92,49265,2,0,P|467:107|413:111,1,75,2|0,3:0|3:0,0:0:0:0:
367,54,49608,2,0,P|337:2|237:18,1,150,10|6,0:0|3:2,0:0:0:0:
254,1,50294,6,0,P|261:56|266:90,1,75,10|0,0:0|3:0,0:0:0:0:
170,95,50637,2,0,P|175:132|179:169,1,75,2|0,0:0|3:0,0:0:0:0:
254,223,50980,2,0,B|316:214|316:214|350:227|350:227|415:217,1,150,10|2,0:0|3:0,0:0:0:0:
507,278,51494,1,0,3:0:0:0:
448,337,51665,6,0,L|366:320,1,75,10|0,0:0|3:0,0:0:0:0:
306,369,52008,2,0,L|224:386,1,75,2|0,0:0|3:0,0:0:0:0:
168,325,52351,2,0,B|94:319|110:370|26:367,1,150,10|2,0:0|3:0,0:0:0:0:
28,367,53037,5,8,0:0:0:0:
7,287,53208,2,0,P|14:246|15:197,1,75,2|0,3:0|0:0,0:0:0:0:
119,170,53551,1,0,3:0:0:0:
119,170,53722,2,0,P|112:211|111:260,1,75,10|0,0:0|0:0,0:0:0:0:
37,125,54065,6,0,P|62:76|167:71,2,150,2|10|2,3:0|0:0|0:0,0:0:0:0:
119,170,54922,1,0,3:0:0:0:
15,212,55094,2,0,P|30:286|38:368,1,150,10|2,0:0|3:0,0:0:0:0:
37,360,55608,1,0,0:0:0:0:
185,302,55780,6,0,P|120:288|91:283,1,75,10|0,0:0|3:0,0:0:0:0:
247,236,56122,2,0,P|312:222|341:217,1,75,2|0,0:0|3:0,0:0:0:0:
182,182,56465,2,0,P|170:135|156:99,1,75,10|0,0:0|0:0,0:0:0:0:
245,37,56808,2,0,P|259:79|268:121,1,75,2|0,3:0|3:0,0:0:0:0:
356,153,57151,5,10,0:0:0:0:
356,153,57322,1,0,3:0:0:0:
437,107,57494,2,0,P|443:53|449:14,1,75,2|0,0:0|3:0,0:0:0:0:
512,175,57837,2,0,B|427:175|464:236|359:237,1,150,10|2,0:0|3:0,0:0:0:0:
380,235,58522,6,0,P|341:260|300:271,1,75,12|2,0:0|0:0,0:0:0:0:
227,263,58865,1,0,3:0:0:0:
168,326,59037,1,0,3:0:0:0:
64,282,59208,2,0,P|69:235|68:188,1,75,14|0,0:0|0:0,0:0:0:0:
4,126,59551,5,0,3:0:0:0:
64,67,59722,2,0,L|102:75,2,37.5,8|8|10,0:0|0:0|0:0,0:0:0:0:
6,4,60065,1,8,0:0:0:0:
6,4,60151,1,8,0:0:0:0:
6,4,60237,1,10,0:0:0:0:
64,67,60408,1,2,3:0:0:0:
4,126,60580,1,0,3:0:0:0:
69,207,60751,5,8,0:0:0:0:
69,207,60837,1,8,0:0:0:0:
69,207,60922,2,0,B|163:210|109:276|211:285,1,150,6|8,3:2|0:0,0:0:0:0:
242,348,61437,2,0,P|288:335|341:328,1,75,2|0,3:0|0:0,0:0:0:0:
387,250,61780,5,0,3:0:0:0:
387,250,61951,2,0,P|432:265|479:290,1,75,10|0,0:0|0:0,0:0:0:0:
350,172,62294,2,0,P|396:158|449:152,1,75,2|0,3:0|0:0,0:0:0:0:
269,132,62637,2,0,P|299:94|338:58,1,75,10|0,0:0|3:0,0:0:0:0:
185,147,62980,2,0,P|188:99|200:47,1,75,2|0,0:0|3:0,0:0:0:0:
125,205,63322,6,0,P|75:194|39:106,2,150,10|2|8,0:0|3:0|0:0,0:0:0:0:
174,281,64180,2,0,P|218:291|255:301,1,75,2|0,3:0|0:0,0:0:0:0:
322,239,64522,1,0,3:0:0:0:
322,239,64694,2,0,L|305:156,1,75,10|0,0:0|0:0,0:0:0:0:
381,90,65037,1,2,3:0:0:0:
381,90,65380,6,0,L|396:163,1,75,10|0,0:0|0:0,0:0:0:0:
512,276,65722,2,0,L|496:202,1,75,2|0,3:0|3:0,0:0:0:0:
400,261,66065,2,0,B|318:264|349:338|249:325,1,150,10|6,0:0|3:2,0:0:0:0:
271,326,66751,5,8,0:0:0:0:
204,267,66922,1,2,3:0:0:0:
204,267,67094,2,0,L|121:291,1,75,0|0,0:0|3:0,0:0:0:0:
38,345,67437,2,0,L|61:193,1,150,10|2,0:0|3:0,0:0:0:0:
0,108,67951,5,0,0:0:0:0:
59,50,68122,2,0,P|100:59|144:65,1,75,10|0,0:0|3:0,0:0:0:0:
221,163,68465,2,0,P|183:157|147:149,1,75,2|0,0:0|3:0,0:0:0:0:
60,196,68808,2,0,P|53:232|137:282,2,150,10|2|8,0:0|3:0|0:0,0:0:0:0:
147,149,69665,5,0,3:0:0:0:
147,149,69837,2,0,P|183:157|221:163,1,75,2|0,0:0|3:0,0:0:0:0:
304,116,70180,1,10,0:0:0:0:
252,49,70351,1,0,0:0:0:0:
318,2,70522,1,2,3:0:0:0:
318,2,70694,1,0,3:0:0:0:
448,48,70865,6,0,P|410:53|374:61,1,75,14|0,0:0|0:0,0:0:0:0:
304,116,71208,2,0,P|312:156|321:200,1,75,2|0,3:0|3:0,0:0:0:0:
424,238,71551,2,0,P|410:291|393:388,1,150,14|2,0:0|3:2,0:0:0:0:
303,262,72237,6,0,P|317:207|319:173,1,75,10|0,0:0|3:0,0:0:0:0:
209,134,72580,2,0,P|195:189|193:223,1,75,2|0,0:0|3:0,0:0:0:0:
129,270,72922,2,0,B|64:270|76:333|-11:343,1,150,10|2,0:0|3:0,0:0:0:0:
36,215,73608,6,0,P|24:175|10:132,1,75,10|0,0:0|3:0,0:0:0:0:
77,29,73951,2,0,P|89:69|103:112,1,75,2|0,0:0|3:0,0:0:0:0:
174,156,74294,2,0,P|225:138|250:132,1,75,10|0,0:0|0:0,0:0:0:0:
315,56,74637,6,0,P|356:65|457:115,1,150,2|10,3:0|0:0,0:0:0:0:
452,111,75151,1,0,0:0:0:0:
390,234,75322,2,0,P|381:185|371:142,1,75,2|0,3:0|3:0,0:0:0:0:
504,216,75665,2,0,P|485:304|474:376,1,150,14|2,0:0|0:0,0:0:0:0:
475,363,76180,1,0,3:0:0:0:
375,329,76351,6,0,P|335:337|290:354,1,75,10|0,0:0|0:0,0:0:0:0:
260,269,76694,2,0,P|220:261|175:244,1,75,2|2,3:0|3:0,0:0:0:0:
140,318,77037,2,0,P|73:336|-9:378,2,150,10|6|8,0:0|3:2|0:0,0:0:0:0:
187,249,77894,2,0,B|211:196|211:196|169:89,1,150,2|0,3:0|3:0,0:0:0:0:
199,25,78408,5,10,0:0:0:0:
268,76,78580,2,0,B|342:66|326:21|406:13,1,150,2|0,0:0|0:0,0:0:0:0:
456,84,79094,1,8,0:0:0:0:
456,84,79265,2,0,L|442:174,1,75,2|0,3:0|0:0,0:0:0:0:
359,178,79608,1,0,3:0:0:0:
359,178,79780,2,0,L|373:268,1,75,10|2,0:0|0:0,0:0:0:0:
326,327,80122,6,0,B|425:317|392:374|493:364,2,150,6|8|0,3:2|0:0|3:0,0:0:0:0:
251,371,80980,1,0,3:0:0:0:
191,313,81151,2,0,L|199:224,1,75,10|0,0:0|0:0,0:0:0:0:
123,152,81494,5,14,0:0:0:0:
0,251,81837,2,0,L|8:340,1,75,10|0,0:0|3:0,0:0:0:0:
6,325,82094,1,8,0:0:0:0:
6,325,82180,1,10,0:0:0:0:
89,373,82351,1,0,3:0:0:0:
144,315,82522,1,2,3:0:0:0:
234,356,82694,1,8,0:0:0:0:
272,287,82865,5,2,0:0:0:0:
253,204,83208,1,0,0:0:0:0:
253,204,83380,1,2,0:0:0:0:
228,119,83722,1,0,0:0:0:0:
228,119,83894,1,2,0:0:0:0:
389,55,84237,5,2,0:0:0:0:
370,138,84580,1,0,0:0:0:0:
370,138,84751,1,2,0:0:0:0:
345,223,85094,1,0,0:0:0:0:
345,223,85265,1,2,0:0:0:0:
434,331,85608,5,2,0:0:0:0:
512,296,85951,1,0,0:0:0:0:
512,296,86122,1,2,0:0:0:0:
443,249,86465,1,0,0:0:0:0:
443,249,86637,1,2,0:0:0:0:
370,138,86980,5,2,0:0:0:0:
292,103,87322,1,0,0:0:0:0:
292,103,87494,1,2,0:0:0:0:
361,56,87837,1,0,0:0:0:0:
370,138,88008,5,2,0:0:0:0:
256,192,88094,12,0,89722,0:0:0:0:
