osu file format v14

[General]
AudioFilename: audio.mp3
AudioLeadIn: 0
PreviewTime: 207746
Countdown: 1
SampleSet: Soft
StackLeniency: 0.7
Mode: 2
LetterboxInBreaks: 0
WidescreenStoryboard: 0

[Editor]
DistanceSpacing: 3
BeatDivisor: 4
GridSize: 8
TimelineZoom: 2

[Metadata]
Title:Koko kara, Koko kara
TitleUnicode:ここから、ここから
Artist:Minase Inori, Hanazawa Kana, Iguchi Yuka, Hayami Saori
ArtistUnicode:水瀬いのり,花澤香菜,井口裕香,早見沙織
Creator:Hanik
Version:Hajimari
Source:宇宙よりも遠い場所
Tags:宇宙よりも遠い場所 sora yori mo tooi basho ed ending full yorimoi Minase Inori Hanazawa Kana Iguchi Yuka Hayami Saori
BeatmapID:2143029
BeatmapSetID:1024552

[Difficulty]
HPDrainRate:6
CircleSize:4
OverallDifficulty:9.4
ApproachRate:9.4
SliderMultiplier:1.6
SliderTickRate:1

[Events]
//Background and Video events
0,0,"bg.jpg",0,0
//Break Periods
2,83146,93378
//Storyboard Layer 0 (Background)
//Storyboard Layer 1 (Fail)
//Storyboard Layer 2 (Pass)
//Storyboard Layer 3 (Foreground)
//Storyboard Layer 4 (Overlay)
//Storyboard Sound Samples

[TimingPoints]
661,342.857142857143,4,2,0,60,1,0
39061,-100,4,2,0,60,0,1
59632,-100,4,2,0,60,0,0
61003,-100,4,2,0,60,0,1
82946,-100,4,2,0,60,0,0
121346,-100,4,2,0,60,0,1
141918,-100,4,2,0,60,0,0
143289,-100,4,2,0,60,0,1
165232,-100,4,2,0,60,0,0
209118,-200,4,2,0,60,0,0
220089,-100,4,2,0,60,0,0
231061,-100,4,2,0,60,0,1
261232,-100,4,2,0,60,0,0

[HitObjects]
96,192,11632,5,4,0:0:0:0:
240,184,11975,2,0,L|336:184,1,80,10|8,0:0|0:0,0:0:0:0:
240,144,12318,2,0,L|64:144,1,160,8|8,0:0|0:0,0:0:0:0:
320,48,13003,6,0,P|368:88|304:152,1,160,4|8,0:0|0:0,0:0:0:0:
176,152,13518,2,0,P|128:192|192:256,1,160,8|0,0:0|0:0,0:0:0:0:
280,256,14032,2,0,L|376:256,1,80,10|0,0:0|0:0,0:0:0:0:
120,264,14375,6,0,L|96:88,1,160,4|8,0:0|0:0,0:0:0:0:
216,104,14889,2,0,L|272:264,1,160,8|0,0:0|0:0,0:0:0:0:
408,176,15403,2,0,L|440:72,1,80,10|0,0:0|0:0,0:0:0:0:
192,80,15746,6,0,L|304:80,1,80,4|0,0:0|0:0,0:0:0:0:
208,144,16089,2,0,L|184:224,1,80,8|8,0:0|0:0,0:0:0:0:
312,232,16432,2,0,L|408:232,1,80
296,304,16775,2,0,P|240:272|216:248,1,80,10|0,0:0|0:0,0:0:0:0:
472,240,17118,6,0,L|472:64,1,160,4|8,0:0|0:0,0:0:0:0:
360,80,17632,2,0,L|192:80,1,160,8|0,0:0|0:0,0:0:0:0:
272,144,18146,2,0,L|176:144,1,80,10|0,0:0|0:0,0:0:0:0:
432,144,18489,6,0,L|432:312,1,160,4|8,0:0|0:0,0:0:0:0:
320,144,19003,2,0,L|320:312,1,160,8|0,0:0|0:0,0:0:0:0:
432,304,19518,2,0,L|336:304,1,80,10|0,0:0|0:0,0:0:0:0:
112,304,19861,6,0,L|296:304,1,160,4|8,0:0|0:0,0:0:0:0:
184,304,20375,2,0,L|368:304,1,160,8|0,0:0|0:0,0:0:0:0:
272,232,20889,2,0,L|160:232,1,80,10|0,0:0|0:0,0:0:0:0:
432,232,21232,5,4,0:0:0:0:
272,232,21403,1,8,0:0:0:0:
432,232,21575,2,0,L|488:152,2,80,8|0|8,0:0|0:0|0:0,0:0:0:0:
272,232,22089,1,0,0:0:0:0:
128,232,22261,2,0,L|224:232,1,80,10|8,0:0|0:0,0:0:0:0:
448,232,22603,6,0,P|472:152|408:96,1,160,4|8,0:0|0:0,0:0:0:0:
280,96,23118,2,0,L|184:96,2,80,8|0|0,0:0|0:0|0:0,0:0:0:0:
208,160,23632,2,0,L|304:160,1,80,10|0,0:0|0:0,0:0:0:0:
48,160,23975,6,0,L|232:160,1,160,4|8,0:0|0:0,0:0:0:0:
304,208,24489,2,0,L|112:208,1,160,8|0,0:0|0:0,0:0:0:0:
232,272,25003,2,0,L|344:272,1,80,10|0,0:0|0:0,0:0:0:0:
72,272,25346,6,0,L|80:80,1,160,4|8,0:0|0:0,0:0:0:0:
192,104,25861,2,0,L|208:272,1,160,8|0,0:0|0:0,0:0:0:0:
328,272,26375,2,0,L|416:272,1,80,10|0,0:0|0:0,0:0:0:0:
168,272,26718,5,12,0:0:0:0:
320,272,26889,1,8,0:0:0:0:
168,272,27061,2,0,L|152:176,1,80,0|8,0:0|0:0,0:0:0:0:
256,192,27403,2,0,L|344:192,1,80,8|0,0:0|0:0,0:0:0:0:
96,192,27746,2,0,L|96:88,1,80,10|0,0:0|0:0,0:0:0:0:
336,96,28089,6,0,L|496:96,1,160,4|8,0:0|0:0,0:0:0:0:
432,152,28603,2,0,L|264:152,1,160,8|0,0:0|0:0,0:0:0:0:
336,96,29118,2,0,L|424:96,1,80,10|0,0:0|0:0,0:0:0:0:
176,88,29461,6,0,L|144:176,1,80,4|0,0:0|0:0,0:0:0:0:
264,176,29803,1,8,0:0:0:0:
136,168,29975,2,0,P|104:232|152:304,1,160,8|0,0:0|0:0,0:0:0:0:
226,301,30489,2,0,L|130:301,1,80,10|0,0:0|0:0,0:0:0:0:
384,304,30832,6,0,P|432:272|368:184,1,160,4|8,0:0|0:0,0:0:0:0:
296,176,31346,2,0,L|104:184,1,160,8|0,0:0|0:0,0:0:0:0:
208,120,31861,2,0,L|320:120,1,80,10|0,0:0|0:0,0:0:0:0:
48,120,32203,5,0,0:0:0:0:
176,120,32375,1,8,0:0:0:0:
48,120,32546,2,0,L|48:224,1,80
168,200,32889,2,0,L|328:200,2,160,8|0|0,0:0|0:0|0:0,0:0:0:0:
384,128,33918,6,0,L|496:128,1,80
416,184,34261,2,0,L|320:184,1,80
240,112,34603,2,0,L|344:112,1,80
80,112,34946,6,0,L|176:112,1,80,8|8,0:0|0:0,0:0:0:0:
272,144,35289,2,0,L|288:248,1,80
152,224,35632,2,0,L|264:224,1,80
192,152,35975,2,0,L|88:152,1,80
352,152,36318,6,0,P|384:232|336:280,1,160,4|0,0:0|0:0,0:0:0:0:
96,272,36832,2,8,L|32:272,1,40,8|8,0:0|0:0,0:0:0:0:
272,216,37003,1,8,0:0:0:0:
128,216,37175,1,0,0:0:0:0:
240,216,37346,2,0,L|320:216,1,80,8|0,0:0|0:0,0:0:0:0:
80,216,37689,1,8,0:0:0:0:
144,136,39061,6,0,P|104:200|136:280,1,160,4|8,0:0|0:0,0:0:0:0:
232,264,39575,2,0,L|400:248,1,160,8|8,0:0|0:0,0:0:0:0:
312,184,40089,2,0,L|200:192,1,80,10|0,0:0|0:0,0:0:0:0:
472,176,40432,6,0,L|376:184,1,80,4|0,0:0|0:0,0:0:0:0:
152,192,40775,1,8,0:0:0:0:
248,192,40946,2,0,P|280:160|208:64,1,160,8|8,0:0|0:0,0:0:0:0:
128,64,41461,2,0,L|40:64,1,80,10|0,0:0|0:0,0:0:0:0:
288,72,41803,6,0,P|352:136|288:184,1,160,4|8,0:0|0:0,0:0:0:0:
168,184,42318,2,0,P|104:248|168:296,1,160,8|8,0:0|0:0,0:0:0:0:
248,296,42832,2,0,L|344:296,1,80,10|0,0:0|0:0,0:0:0:0:
88,296,43175,6,0,L|72:200,1,80,12|0,0:0|0:0,0:0:0:0:
200,208,43518,2,0,L|192:104,1,80,8|0,0:0|0:0,0:0:0:0:
328,208,43861,2,0,L|336:112,1,80,8|0,0:0|0:0,0:0:0:0:
208,112,44203,2,0,L|96:112,1,80,10|0,0:0|0:0,0:0:0:0:
384,88,44546,6,0,P|440:120|368:168,1,160,4|8,0:0|0:0,0:0:0:0:
272,184,45061,2,0,L|88:184,1,160,8|8,0:0|0:0,0:0:0:0:
352,184,45575,2,0,L|240:184,1,80,10|0,0:0|0:0,0:0:0:0:
32,184,45918,6,0,L|128:184,1,80,8|0,0:0|0:0,0:0:0:0:
352,184,46261,2,0,L|448:184,1,80,8|0,0:0|0:0,0:0:0:0:
192,184,46603,2,0,L|80:184,1,80,8|0,0:0|0:0,0:0:0:0:
352,184,46946,2,0,L|384:88,1,80,10|0,0:0|0:0,0:0:0:0:
136,80,47289,6,0,P|88:120|168:160,1,160,4|0,0:0|0:0,0:0:0:0:
384,176,47803,1,8,0:0:0:0:
328,240,47975,1,8,0:0:0:0:
224,256,48146,1,8,0:0:0:0:
120,256,48318,1,8,0:0:0:0:
224,256,48489,1,8,0:0:0:0:
464,256,48661,6,0,L|408:192,2,80,4|0|0,0:0|0:0|0:0,0:0:0:0:
240,256,49346,2,0,L|296:192,2,80
40,168,50032,6,0,L|208:168,1,160,4|8,0:0|0:0,0:0:0:0:
464,168,50546,2,0,L|296:168,1,160,8|8,0:0|0:0,0:0:0:0:
184,160,51061,2,0,L|80:160,1,80,8|0,0:0|0:0,0:0:0:0:
344,160,51403,6,0,L|392:264,1,80,4|0,0:0|0:0,0:0:0:0:
248,240,51746,1,8,0:0:0:0:
376,240,51918,2,0,P|424:224|352:176,1,160,8|8,0:0|0:0,0:0:0:0:
264,152,52432,2,0,L|176:152,1,80,10|0,0:0|0:0,0:0:0:0:
424,152,52775,6,0,P|456:216|400:296,1,160,4|8,0:0|0:0,0:0:0:0:
304,288,53289,2,0,L|128:280,1,160,8|8,0:0|0:0,0:0:0:0:
224,224,53803,2,0,L|320:224,1,80,10|0,0:0|0:0,0:0:0:0:
64,208,54146,6,0,L|56:120,1,80,4|0,0:0|0:0,0:0:0:0:
176,128,54489,1,8,0:0:0:0:
56,128,54661,2,0,L|240:120,1,160,8|8,0:0|0:0,0:0:0:0:
144,176,55175,2,0,L|32:184,1,80,10|0,0:0|0:0,0:0:0:0:
304,176,55518,6,0,L|480:176,1,160,4|8,0:0|0:0,0:0:0:0:
224,176,56032,2,0,L|48:176,1,160,8|8,0:0|0:0,0:0:0:0:
136,136,56546,2,0,L|160:40,1,80,10|0,0:0|0:0,0:0:0:0:
400,64,56889,6,0,L|288:64,1,80,4|0,0:0|0:0,0:0:0:0:
80,64,57232,1,8,0:0:0:0:
176,64,57403,2,0,P|208:104|144:200,1,160,8|8,0:0|0:0,0:0:0:0:
264,200,57918,2,0,L|360:200,1,80,10|0,0:0|0:0,0:0:0:0:
104,200,58261,6,0,P|64:152|136:72,1,160,4|8,0:0|0:0,0:0:0:0:
368,56,58946,1,8,0:0:0:0:
256,88,59118,1,8,0:0:0:0:
368,128,59289,1,8,0:0:0:0:
176,136,59632,5,8,0:0:0:0:
416,160,59803,1,8,0:0:0:0:
488,128,59889,1,8,0:0:0:0:
416,104,59975,1,8,0:0:0:0:
184,160,60146,1,8,0:0:0:0:
112,128,60232,1,8,0:0:0:0:
184,104,60318,1,8,0:0:0:0:
416,160,60489,1,8,0:0:0:0:
176,160,60661,1,8,0:0:0:0:
416,160,60832,1,0,0:0:0:0:
376,160,60917,1,0,0:0:0:0:
144,136,61003,6,0,P|104:200|136:280,1,160,4|8,0:0|0:0,0:0:0:0:
264,136,61518,2,0,P|304:200|272:280,1,160,8|8,0:0|0:0,0:0:0:0:
192,264,62031,2,0,L|80:272,1,80,10|0,0:0|0:0,0:0:0:0:
352,264,62374,6,0,L|448:272,1,80,4|0,0:0|0:0,0:0:0:0:
192,272,62717,1,8,0:0:0:0:
280,272,62889,2,0,L|104:248,1,160,8|8,0:0|0:0,0:0:0:0:
224,192,63403,2,0,L|312:192,1,80,10|0,0:0|0:0,0:0:0:0:
64,192,63746,6,0,L|192:64,1,160,4|8,0:0|0:0,0:0:0:0:
288,80,64261,2,0,P|368:80|440:120,1,160,8|8,0:0|0:0,0:0:0:0:
336,144,64774,2,0,L|240:144,1,80,10|0,0:0|0:0,0:0:0:0:
16,136,65117,6,0,L|112:136,1,80,12|0,0:0|0:0,0:0:0:0:
336,136,65461,2,0,L|232:136,1,80,8|0,0:0|0:0,0:0:0:0:
336,136,65803,2,0,L|232:136,1,80,8|0,0:0|0:0,0:0:0:0:
16,136,66146,2,0,L|128:136,1,80,10|0,0:0|0:0,0:0:0:0:
384,88,66489,6,0,P|440:120|368:168,1,160,4|8,0:0|0:0,0:0:0:0:
296,176,67003,2,0,L|480:176,1,160,8|8,0:0|0:0,0:0:0:0:
400,232,67517,2,0,L|288:232,1,80,10|0,0:0|0:0,0:0:0:0:
80,240,67860,6,0,L|176:240,1,80,12|0,0:0|0:0,0:0:0:0:
400,232,68203,2,0,L|400:144,1,80,8|0,0:0|0:0,0:0:0:0:
328,152,68546,2,0,L|216:152,1,80,8|0,0:0|0:0,0:0:0:0:
328,152,68889,2,0,L|360:56,1,80,10|0,0:0|0:0,0:0:0:0:
112,64,69232,6,0,P|64:104|144:144,1,160,4|8,0:0|0:0,0:0:0:0:
384,168,69745,1,8,0:0:0:0:
288,168,69917,1,8,0:0:0:0:
384,168,70088,1,8,0:0:0:0:
288,168,70260,1,8,0:0:0:0:
384,168,70431,1,8,0:0:0:0:
144,168,70603,6,0,L|40:168,2,80,4|0|0,0:0|0:0|0:0,0:0:0:0:
304,168,71289,2,0,L|192:168,2,80
304,168,71975,6,0,L|472:168,1,160,4|8,0:0|0:0,0:0:0:0:
368,224,72489,2,0,L|192:224,1,160,8|8,0:0|0:0,0:0:0:0:
272,160,73003,2,0,L|368:160,1,80,10|0,0:0|0:0,0:0:0:0:
112,160,73346,6,0,L|272:160,1,160,4|8,0:0|0:0,0:0:0:0:
192,104,73861,1,8,0:0:0:0:
304,104,74032,2,0,L|392:112,1,80,0|8,0:0|0:0,0:0:0:0:
304,168,74375,2,0,L|216:176,1,80,10|0,0:0|0:0,0:0:0:0:
464,168,74718,6,0,L|464:264,1,80,12|0,0:0|0:0,0:0:0:0:
352,248,75061,2,0,L|264:248,1,80,8|0,0:0|0:0,0:0:0:0:
184,192,75403,2,0,L|288:192,1,80,8|0,0:0|0:0,0:0:0:0:
24,192,75746,6,0,L|344:112,1,320,4|0,0:0|0:0,0:0:0:0:
152,96,76775,2,0,L|56:96,2,80
376,88,77461,6,0,P|376:168|344:248,1,160,4|8,0:0|0:0,0:0:0:0:
256,160,77975,2,0,P|256:240|224:320,1,160,8|8,0:0|0:0,0:0:0:0:
320,320,78489,2,0,L|416:320,1,80,10|0,0:0|0:0,0:0:0:0:
160,320,78832,6,0,L|152:208,1,80,4|0,0:0|0:0,0:0:0:0:
264,240,79175,1,8,0:0:0:0:
152,240,79346,2,0,L|72:80,1,160,8|8,0:0|0:0,0:0:0:0:
208,72,79861,2,0,L|312:72,1,80,10|0,0:0|0:0,0:0:0:0:
48,80,80203,6,0,L|224:72,1,160,4|0,0:0|0:0,0:0:0:0:
488,144,80889,1,8,0:0:0:0:
256,144,81061,1,8,0:0:0:0:
24,144,81232,1,8,0:0:0:0:
488,88,81575,5,8,0:0:0:0:
248,88,81746,1,0,0:0:0:0:
488,88,81918,1,8,0:0:0:0:
336,88,82089,1,8,0:0:0:0:
376,88,82175,1,8,0:0:0:0:
416,88,82260,1,8,0:0:0:0:
96,88,82432,1,0,0:0:0:0:
352,88,82603,1,0,0:0:0:0:
112,88,82775,1,0,0:0:0:0:
240,88,82946,1,4,0:0:0:0:
64,184,93918,5,4,0:0:0:0:
240,184,94261,2,0,L|336:184,1,80,8|8,0:0|0:0,0:0:0:0:
192,112,94603,2,0,P|137:168|192:240,1,160,0|10,0:0|0:0,0:0:0:0:
472,256,95289,6,0,L|304:264,1,160,4|8,0:0|0:0,0:0:0:0:
200,208,95803,2,0,L|384:208,1,160,8|0,0:0|0:0,0:0:0:0:
248,208,96317,2,0,L|344:208,1,80,10|0,0:0|0:0,0:0:0:0:
48,208,96661,6,0,L|216:208,1,160,4|8,0:0|0:0,0:0:0:0:
88,208,97175,2,0,P|56:152|120:88,1,160,8|0,0:0|0:0,0:0:0:0:
240,80,97689,2,0,L|152:80,1,80,10|0,0:0|0:0,0:0:0:0:
400,80,98032,6,0,L|512:80,1,80,12|0,0:0|0:0,0:0:0:0:
200,80,98375,2,0,L|152:168,1,80,8|0,0:0|0:0,0:0:0:0:
440,176,98718,2,0,L|440:288,1,80,8|0,0:0|0:0,0:0:0:0:
160,256,99061,2,0,L|64:256,1,80,10|0,0:0|0:0,0:0:0:0:
440,320,99403,6,0,L|280:272,1,160,4|8,0:0|0:0,0:0:0:0:
120,264,99918,2,0,L|128:80,1,160,8|0,0:0|0:0,0:0:0:0:
272,112,100432,2,0,L|176:112,1,80,10|0,0:0|0:0,0:0:0:0:
472,112,100775,6,0,L|296:112,1,160,4|8,0:0|0:0,0:0:0:0:
440,112,101289,2,0,L|440:280,1,160,8|0,0:0|0:0,0:0:0:0:
280,272,101803,2,0,L|184:272,1,80,10|0,0:0|0:0,0:0:0:0:
480,272,102146,6,0,L|480:80,1,160,4|8,0:0|0:0,0:0:0:0:
320,104,102661,2,0,L|136:104,1,160,8|0,0:0|0:0,0:0:0:0:
296,160,103175,2,0,L|392:160,1,80,10|0,0:0|0:0,0:0:0:0:
88,168,103517,5,12,0:0:0:0:
368,168,103688,1,8,0:0:0:0:
88,168,103861,1,8,0:0:0:0:
224,168,104032,1,8,0:0:0:0:
88,168,104203,1,8,0:0:0:0:
368,168,104374,1,8,0:0:0:0:
88,168,104546,2,0,L|-8:168,1,80,10|0,0:0|0:0,0:0:0:0:
288,168,104889,6,0,P|312:128|224:56,1,160,4|8,0:0|0:0,0:0:0:0:
112,48,105403,2,0,L|208:48,2,80,8|0|0,0:0|0:0|0:0,0:0:0:0:
256,48,105917,2,0,L|352:48,1,80,10|0,0:0|0:0,0:0:0:0:
56,48,106261,6,0,L|40:224,1,160,4|8,0:0|0:0,0:0:0:0:
192,48,106775,2,0,L|176:224,1,160,8|0,0:0|0:0,0:0:0:0:
336,208,107289,2,0,L|448:208,1,80,10|0,0:0|0:0,0:0:0:0:
96,208,107632,6,0,P|64:160|104:56,1,160,4|8,0:0|0:0,0:0:0:0:
240,56,108146,2,0,P|168:64|64:104,1,160,8|0,0:0|0:0,0:0:0:0:
200,96,108661,2,0,L|208:16,1,80,10|0,0:0|0:0,0:0:0:0:
456,40,109003,6,0,L|368:48,1,80,12|0,0:0|0:0,0:0:0:0:
96,48,109346,2,0,L|208:32,1,80,8|0,0:0|0:0,0:0:0:0:
440,136,109689,2,0,L|416:32,1,80,8|0,0:0|0:0,0:0:0:0:
136,56,110032,2,0,L|24:56,1,80,10|0,0:0|0:0,0:0:0:0:
336,56,110375,6,0,P|400:120|344:144,1,160,4|8,0:0|0:0,0:0:0:0:
200,144,110889,2,0,L|32:144,1,160,8|0,0:0|0:0,0:0:0:0:
184,88,111403,2,0,L|104:88,1,80,10|0,0:0|0:0,0:0:0:0:
360,88,111746,6,0,L|248:88,1,80,4|0,0:0|0:0,0:0:0:0:
136,88,112088,1,8,0:0:0:0:
280,88,112261,2,0,P|336:120|328:208,1,160,8|0,0:0|0:0,0:0:0:0:
176,208,112775,2,0,L|80:208,1,80,10|0,0:0|0:0,0:0:0:0:
408,208,113118,6,0,L|480:40,1,160,4|8,0:0|0:0,0:0:0:0:
296,48,113632,2,0,L|136:48,1,160,8|0,0:0|0:0,0:0:0:0:
272,48,114146,2,0,L|352:120,1,80,10|0,0:0|0:0,0:0:0:0:
40,104,114488,5,4,0:0:0:0:
320,104,114660,1,0,0:0:0:0:
40,104,114832,2,0,L|40:208,1,80,0|8,0:0|0:0,0:0:0:0:
320,200,115175,1,8,0:0:0:0:
40,192,115346,2,0,L|144:184,1,80,8|8,0:0|0:0,0:0:0:0:
408,152,115861,5,4,0:0:0:0:
280,152,116203,2,0,B|88:128,2,160
40,152,117232,5,4,0:0:0:0:
168,152,117575,2,0,B|360:128,2,160
424,136,118603,6,0,P|456:216|408:264,1,160,4|8,0:0|0:0,0:0:0:0:
152,248,119289,1,8,0:0:0:0:
256,248,119461,2,0,L|336:96,1,160,8|8,0:0|0:0,0:0:0:0:
48,104,119975,5,8,0:0:0:0:
328,104,120146,2,8,L|376:64,1,40,8|8,0:0|0:0,0:0:0:0:
184,104,120318,2,8,L|136:64,1,40,8|8,0:0|0:0,0:0:0:0:
376,104,120489,2,8,L|424:64,1,40,8|8,0:0|0:0,0:0:0:0:
136,104,120661,2,8,L|88:64,1,40,8|8,0:0|0:0,0:0:0:0:
424,104,120832,2,8,L|472:64,1,40,8|8,0:0|0:0,0:0:0:0:
88,104,121003,2,8,L|40:64,1,40,8|8,0:0|0:0,0:0:0:0:
472,104,121175,2,8,L|520:64,1,40,8|8,0:0|0:0,0:0:0:0:
152,56,121346,6,0,P|120:136|160:216,1,160,4|8,0:0|0:0,0:0:0:0:
272,208,121861,1,8,0:0:0:0:
144,208,122032,2,0,L|136:304,1,80,0|8,0:0|0:0,0:0:0:0:
272,288,122375,2,0,L|368:288,1,80,10|0,0:0|0:0,0:0:0:0:
72,296,122718,6,0,L|48:208,1,80,12|0,0:0|0:0,0:0:0:0:
192,192,123061,2,0,L|192:104,1,80,8|0,0:0|0:0,0:0:0:0:
336,136,123403,2,0,L|360:56,1,80,8|0,0:0|0:0,0:0:0:0:
200,56,123746,2,0,L|112:56,1,80,10|0,0:0|0:0,0:0:0:0:
400,64,124089,6,0,P|440:144|400:232,1,160,4|8,0:0|0:0,0:0:0:0:
272,200,124603,1,8,0:0:0:0:
416,208,124775,2,0,L|432:96,1,80,0|8,0:0|0:0,0:0:0:0:
264,112,125118,2,0,L|160:112,1,80,10|0,0:0|0:0,0:0:0:0:
464,112,125461,6,0,L|368:112,1,80,12|0,0:0|0:0,0:0:0:0:
232,104,125803,2,0,L|320:104,1,80,8|0,0:0|0:0,0:0:0:0:
184,112,126146,2,0,L|200:224,1,80,8|0,0:0|0:0,0:0:0:0:
352,200,126489,2,0,L|440:200,1,80,8|0,0:0|0:0,0:0:0:0:
152,208,126832,6,0,P|64:208|56:144,1,160,4|8,0:0|0:0,0:0:0:0:
192,192,127346,1,8,0:0:0:0:
320,192,127518,2,0,L|344:104,1,80,0|8,0:0|0:0,0:0:0:0:
192,96,127861,2,0,L|88:96,1,80,10|0,0:0|0:0,0:0:0:0:
392,88,128203,6,0,L|400:192,1,80,12|0,0:0|0:0,0:0:0:0:
232,176,128546,2,0,L|128:176,1,80,8|0,0:0|0:0,0:0:0:0:
288,240,128889,2,0,L|376:240,1,80,8|0,0:0|0:0,0:0:0:0:
232,176,129232,2,0,L|336:176,1,80,10|0,0:0|0:0,0:0:0:0:
32,176,129575,6,0,L|208:176,1,160,4|8,0:0|0:0,0:0:0:0:
104,176,130089,1,8,0:0:0:0:
232,176,130261,2,0,L|208:72,1,80,0|8,0:0|0:0,0:0:0:0:
368,96,130603,2,0,L|464:96,1,80,10|0,0:0|0:0,0:0:0:0:
168,96,130946,5,8,0:0:0:0:
312,88,131118,1,8,0:0:0:0:
160,64,131289,1,8,0:0:0:0:
344,96,131632,1,8,0:0:0:0:
200,88,131804,1,8,0:0:0:0:
352,64,131975,1,8,0:0:0:0:
144,48,132318,6,0,L|112:232,1,160,4|8,0:0|0:0,0:0:0:0:
256,208,132832,1,8,0:0:0:0:
112,200,133003,2,0,L|16:216,1,80,0|8,0:0|0:0,0:0:0:0:
104,136,133346,2,0,L|208:144,1,80,10|0,0:0|0:0,0:0:0:0:
464,136,133689,6,0,L|352:136,1,80,12|0,0:0|0:0,0:0:0:0:
240,136,134032,2,0,L|216:32,1,80,8|0,0:0|0:0,0:0:0:0:
360,136,134375,2,0,L|376:40,1,80,8|0,0:0|0:0,0:0:0:0:
224,48,134718,2,0,L|112:48,1,80,10|0,0:0|0:0,0:0:0:0:
424,48,135061,6,0,P|456:96|440:216,1,160,4|8,0:0|0:0,0:0:0:0:
296,200,135575,1,8,0:0:0:0:
408,200,135746,2,0,L|496:200,1,80,0|8,0:0|0:0,0:0:0:0:
368,136,136089,2,0,L|264:136,1,80,10|0,0:0|0:0,0:0:0:0:
8,136,136432,6,0,L|104:136,1,80,12|0,0:0|0:0,0:0:0:0:
240,136,136775,2,0,L|256:240,1,80,8|0,0:0|0:0,0:0:0:0:
112,232,137118,2,0,L|64:312,1,80,8|0,0:0|0:0,0:0:0:0:
224,304,137461,2,0,L|328:304,1,80,10|0,0:0|0:0,0:0:0:0:
24,296,137803,6,0,L|24:120,1,160,4|8,0:0|0:0,0:0:0:0:
160,136,138318,1,8,0:0:0:0:
24,136,138489,2,0,L|120:136,1,80,0|8,0:0|0:0,0:0:0:0:
256,152,138832,2,0,L|192:224,1,80,10|0,0:0|0:0,0:0:0:0:
480,216,139175,6,0,L|392:216,1,80,12|0,0:0|0:0,0:0:0:0:
120,216,139518,2,0,L|224:216,1,80,8|0,0:0|0:0,0:0:0:0:
480,168,139861,2,0,L|384:168,1,80,8|0,0:0|0:0,0:0:0:0:
120,160,140203,2,0,L|224:160,1,80,8|0,0:0|0:0,0:0:0:0:
480,112,140546,5,8,0:0:0:0:
200,88,140718,2,0,L|96:88,1,80,8|0,0:0|0:0,0:0:0:0:
432,80,141061,1,8,0:0:0:0:
152,56,141233,2,0,L|48:56,1,80,8|0,0:0|0:0,0:0:0:0:
368,64,141575,1,8,0:0:0:0:
88,40,141747,2,0,L|-16:40,1,80,10|0,0:0|0:0,0:0:0:0:
384,120,142089,6,8,L|456:112,1,40
384,120,142261,2,8,L|328:120,1,40
88,120,142432,2,8,L|144:120,1,40
384,192,142603,2,8,L|432:192,1,40
56,224,142775,2,8,L|112:216,1,40
416,136,142946,2,8,L|472:136,1,40
96,144,143118,2,8,L|32:144,1,40
488,216,143289,6,0,L|304:216,1,160,4|8,0:0|0:0,0:0:0:0:
95,218,143803,1,8,0:0:0:0:
192,216,143975,2,0,L|88:216,1,80,0|8,0:0|0:0,0:0:0:0:
440,216,144318,2,0,L|448:112,1,80,10|0,0:0|0:0,0:0:0:0:
208,112,144661,6,0,L|112:112,1,80,12|0,0:0|0:0,0:0:0:0:
368,112,145003,2,0,L|256:112,1,80,8|0,0:0|0:0,0:0:0:0:
56,128,145346,1,8,0:0:0:0:
288,120,145518,1,0,0:0:0:0:
56,128,145689,2,0,L|56:232,1,80,10|0,0:0|0:0,0:0:0:0:
288,200,146032,6,0,L|456:200,1,160,4|8,0:0|0:0,0:0:0:0:
216,200,146546,1,8,0:0:0:0:
448,200,146718,2,0,L|344:200,1,80,0|8,0:0|0:0,0:0:0:0:
136,200,147061,2,0,L|240:200,1,80,10|0,0:0|0:0,0:0:0:0:
448,200,147403,6,0,L|448:112,1,80,12|0,0:0|0:0,0:0:0:0:
216,128,147746,2,0,L|216:16,1,80,8|0,0:0|0:0,0:0:0:0:
448,48,148089,2,0,L|368:48,1,80,8|0,0:0|0:0,0:0:0:0:
136,48,148432,2,0,L|240:48,1,80,8|0,0:0|0:0,0:0:0:0:
448,40,148775,6,0,P|464:136|448:224,1,160,4|8,0:0|0:0,0:0:0:0:
224,192,149289,1,8,0:0:0:0:
360,192,149461,2,0,L|256:192,1,80,0|8,0:0|0:0,0:0:0:0:
48,192,149803,2,0,L|152:192,1,80,10|0,0:0|0:0,0:0:0:0:
360,192,150146,6,0,L|472:192,1,80,12|0,0:0|0:0,0:0:0:0:
208,184,150489,2,0,L|296:184,1,80,8|0,0:0|0:0,0:0:0:0:
56,184,150832,2,0,L|168:184,1,80,8|0,0:0|0:0,0:0:0:0:
368,192,151175,2,0,L|400:88,1,80,8|0,0:0|0:0,0:0:0:0:
160,88,151518,6,0,P|80:80|24:0,1,160,4|8,0:0|0:0,0:0:0:0:
264,24,152032,1,8,0:0:0:0:
136,24,152203,2,0,L|128:128,1,80,0|8,0:0|0:0,0:0:0:0:
360,112,152546,2,0,L|448:112,1,80,10|0,0:0|0:0,0:0:0:0:
208,112,152889,6,8,L|176:208,1,80
416,208,153232,1,8,0:0:0:0:
144,112,153575,6,8,L|112:208,1,80
352,208,153918,1,8,0:0:0:0:
144,216,154261,6,0,P|152:112|216:48,1,160,4|8,0:0|0:0,0:0:0:0:
416,72,154775,1,8,0:0:0:0:
288,72,154946,2,0,L|192:72,1,80,0|8,0:0|0:0,0:0:0:0:
440,72,155289,2,0,L|352:72,1,80,10|0,0:0|0:0,0:0:0:0:
128,64,155632,6,0,L|112:168,1,80,12|0,0:0|0:0,0:0:0:0:
352,144,155975,2,0,L|464:144,1,80,8|0,0:0|0:0,0:0:0:0:
200,136,156318,2,0,L|200:240,1,80,8|0,0:0|0:0,0:0:0:0:
432,216,156661,2,0,L|488:288,1,80,10|0,0:0|0:0,0:0:0:0:
248,288,157003,6,0,P|192:240|256:176,1,160,4|8,0:0|0:0,0:0:0:0:
464,176,157518,1,8,0:0:0:0:
304,176,157689,2,0,L|208:176,1,80,8|0,0:0|0:0,0:0:0:0:
456,184,158032,6,0,L|112:160,1,320,12|0,0:0|0:0,0:0:0:0:
304,96,159061,1,0,0:0:0:0:
424,160,159232,1,0,0:0:0:0:
304,200,159403,1,0,0:0:0:0:
96,200,159746,6,0,P|64:304|104:328,1,160,4|8,0:0|0:0,0:0:0:0:
320,320,160261,1,8,0:0:0:0:
184,320,160432,2,0,L|80:320,1,80,0|8,0:0|0:0,0:0:0:0:
336,320,160775,2,0,L|440:320,1,80,10|0,0:0|0:0,0:0:0:0:
184,320,161118,6,0,L|80:320,1,80,12|0,0:0|0:0,0:0:0:0:
336,320,161461,2,0,L|248:320,1,80,8|0,0:0|0:0,0:0:0:0:
488,320,161803,2,0,L|392:320,1,80,8|0,0:0|0:0,0:0:0:0:
176,328,162146,2,0,L|152:224,1,80,10|0,0:0|0:0,0:0:0:0:
392,240,162489,6,0,P|448:192|376:136,1,160,4|8,0:0|0:0,0:0:0:0:
264,128,163003,1,8,0:0:0:0:
408,128,163175,2,0,L|432:224,1,80,0|8,0:0|0:0,0:0:0:0:
192,208,163518,2,0,L|96:208,1,80,10|0,0:0|0:0,0:0:0:0:
352,208,163861,5,4,0:0:0:0:
48,208,164032,1,8,0:0:0:0:
352,208,164203,1,8,0:0:0:0:
120,208,164375,1,8,0:0:0:0:
280,208,164461,1,8,0:0:0:0:
440,208,164546,1,8,0:0:0:0:
208,208,164718,1,0,0:0:0:0:
472,208,164889,1,8,0:0:0:0:
352,208,165061,1,8,0:0:0:0:
208,208,165232,6,0,P|174:247|264:304,1,160,4|8,0:0|0:0,0:0:0:0:
384,312,165746,1,8,0:0:0:0:
240,312,165918,2,0,L|216:208,1,80
352,224,166261,2,0,L|440:224,1,80,10|0,0:0|0:0,0:0:0:0:
200,224,166603,6,0,L|40:224,1,160,4|8,0:0|0:0,0:0:0:0:
136,160,167118,1,8,0:0:0:0:
264,160,167289,2,0,L|296:64,1,80
144,64,167632,2,0,L|48:72,1,80,10|0,0:0|0:0,0:0:0:0:
296,64,167975,6,0,P|392:120|400:168,1,160,4|8,0:0|0:0,0:0:0:0:
272,168,168489,1,8,0:0:0:0:
408,160,168661,2,0,P|408:224|384:256,1,80
248,240,169003,2,0,L|144:240,1,80,10|0,0:0|0:0,0:0:0:0:
448,248,169346,6,0,L|464:160,1,80,12|0,0:0|0:0,0:0:0:0:
320,160,169689,2,0,L|232:160,1,80,8|0,0:0|0:0,0:0:0:0:
352,160,170032,1,8,0:0:0:0:
464,160,170203,1,8,0:0:0:0:
352,160,170375,2,0,L|352:264,1,80,10|0,0:0|0:0,0:0:0:0:
72,240,170718,6,0,L|240:240,1,160,4|8,0:0|0:0,0:0:0:0:
120,184,171232,1,8,0:0:0:0:
240,176,171403,2,0,L|248:88,1,80
112,80,171746,2,0,L|32:80,1,80,10|0,0:0|0:0,0:0:0:0:
312,80,172089,6,0,P|328:192|304:240,1,160,4|8,0:0|0:0,0:0:0:0:
160,232,172603,1,8,0:0:0:0:
280,232,172775,2,0,L|376:232,1,80
264,168,173118,2,0,L|152:176,1,80,10|0,0:0|0:0,0:0:0:0:
464,160,173461,6,0,L|304:160,1,160,4|8,0:0|0:0,0:0:0:0:
416,104,173975,1,8,0:0:0:0:
264,104,174146,2,0,L|96:104,1,160,0|10,0:0|0:0,0:0:0:0:
192,104,174661,1,0,0:0:0:0:
472,104,174832,6,0,P|464:160|440:200,1,80,12|0,0:0|0:0,0:0:0:0:
320,184,175175,2,0,L|224:184,1,80,8|0,0:0|0:0,0:0:0:0:
352,136,175518,2,0,L|416:72,1,80,8|8,0:0|0:0,0:0:0:0:
128,72,175861,1,0,0:0:0:0:
392,72,176203,6,0,P|400:120|400:248,1,160,4|8,0:0|0:0,0:0:0:0:
256,232,176718,1,8,0:0:0:0:
392,232,176889,2,0,L|488:232,1,80
336,168,177232,2,0,L|416:168,1,80,10|0,0:0|0:0,0:0:0:0:
136,160,177575,6,0,L|112:256,1,80,12|0,0:0|0:0,0:0:0:0:
256,248,177918,2,0,L|264:344,1,80,8|0,0:0|0:0,0:0:0:0:
120,328,178261,2,0,L|40:328,1,80,8|0,0:0|0:0,0:0:0:0:
128,248,178603,2,0,L|240:248,1,80,10|0,0:0|0:0,0:0:0:0:
488,240,178946,6,0,P|472:192|384:104,1,160,4|8,0:0|0:0,0:0:0:0:
256,104,179461,1,8,0:0:0:0:
384,104,179632,2,0,L|400:208,1,80
256,200,179975,2,0,L|160:208,1,80,10|0,0:0|0:0,0:0:0:0:
456,200,180318,6,0,L|472:104,1,80,4|0,0:0|0:0,0:0:0:0:
192,104,180661,2,0,L|368:104,1,160,8|8,0:0|0:0,0:0:0:0:
64,112,181175,1,8,0:0:0:0:
344,104,181346,2,0,P|360:160|344:200,1,80,10|0,0:0|0:0,0:0:0:0:
72,184,181689,6,0,L|232:184,1,160,4|8,0:0|0:0,0:0:0:0:
360,184,182203,1,8,0:0:0:0:
232,184,182375,1,0,0:0:0:0:
104,184,182546,1,0,0:0:0:0:
384,184,182718,2,0,P|408:232|400:272,1,80,10|0,0:0|0:0,0:0:0:0:
128,280,183061,6,0,L|304:272,1,160,4|8,0:0|0:0,0:0:0:0:
184,216,183575,1,8,0:0:0:0:
328,216,183746,2,0,L|344:120,1,80
64,128,184089,2,0,L|152:128,1,80,10|0,0:0|0:0,0:0:0:0:
424,136,184432,6,0,L|328:136,1,80,4|8,0:0|0:0,0:0:0:0:
488,144,184775,1,8,0:0:0:0:
256,144,184947,1,8,0:0:0:0:
24,144,185118,1,8,0:0:0:0:
256,144,185289,1,8,0:0:0:0:
24,144,185461,1,8,0:0:0:0:
256,144,185632,1,8,0:0:0:0:
488,144,185803,5,12,0:0:0:0:
256,144,185975,1,8,0:0:0:0:
200,120,186061,1,8,0:0:0:0:
200,64,186146,1,8,0:0:0:0:
256,40,186232,1,8,0:0:0:0:
448,40,186318,2,8,L|504:40,1,40
256,40,186489,2,8,L|200:40,1,40
72,40,186661,2,8,L|32:40,1,40
256,40,186832,2,8,L|312:40,1,40
488,40,187003,2,8,L|424:40,1,40
72,40,187175,6,0,L|168:40,2,80,4|0|8,0:0|0:0|0:0,0:0:0:0:
184,88,187689,2,0,L|360:88,1,160,8|0,0:0|0:0,0:0:0:0:
256,152,188203,2,0,L|152:152,1,80,10|0,0:0|0:0,0:0:0:0:
408,152,188546,5,12,0:0:0:0:
280,152,188718,1,8,0:0:0:0:
408,152,188889,2,0,P|420:196|360:312,1,160,8|8,0:0|0:0,0:0:0:0:
232,296,189403,1,8,0:0:0:0:
344,304,189575,2,0,L|400:232,1,80,10|0,0:0|0:0,0:0:0:0:
160,224,189918,6,0,P|136:184|192:80,1,160,4|8,0:0|0:0,0:0:0:0:
320,88,190432,2,0,P|352:120|320:248,1,160,8|0,0:0|0:0,0:0:0:0:
184,232,190946,2,0,L|72:232,1,80,10|0,0:0|0:0,0:0:0:0:
336,232,191289,5,12,0:0:0:0:
192,192,191461,1,8,0:0:0:0:
328,168,191632,2,0,L|424:168,1,80,8|0,0:0|0:0,0:0:0:0:
320,104,191975,1,8,0:0:0:0:
184,104,192146,1,8,0:0:0:0:
320,104,192318,2,0,L|320:208,1,80,8|0,0:0|0:0,0:0:0:0:
88,192,192661,6,0,L|256:184,1,160,4|8,0:0|0:0,0:0:0:0:
120,120,193175,2,0,L|312:112,1,160,8|0,0:0|0:0,0:0:0:0:
152,112,193689,2,0,L|144:216,1,80,10|0,0:0|0:0,0:0:0:0:
376,192,194032,5,12,0:0:0:0:
248,192,194203,1,8,0:0:0:0:
480,184,194375,1,8,0:0:0:0:
360,184,194546,2,0,L|168:184,1,160,8|0,0:0|0:0,0:0:0:0:
304,128,195061,2,0,L|408:128,1,80,10|0,0:0|0:0,0:0:0:0:
152,112,195403,6,0,P|136:160|144:272,1,160,4|8,0:0|0:0,0:0:0:0:
288,264,195918,2,0,L|472:232,1,160,8|0,0:0|0:0,0:0:0:0:
320,192,196432,2,0,L|312:96,1,80,10|0,0:0|0:0,0:0:0:0:
80,112,196775,6,0,L|48:192,1,80,12|0,0:0|0:0,0:0:0:0:
160,200,197118,2,0,L|56:200,1,80,8|0,0:0|0:0,0:0:0:0:
312,200,197461,1,8,0:0:0:0:
80,200,197632,1,8,0:0:0:0:
208,200,197803,2,0,L|320:200,1,80,10|0,0:0|0:0,0:0:0:0:
56,200,198146,6,0,P|48:152|88:32,1,160,4|8,0:0|0:0,0:0:0:0:
208,48,198661,1,8,0:0:0:0:
88,56,198832,2,0,L|0:64,1,80
112,120,199175,2,0,L|216:136,1,80,10|0,0:0|0:0,0:0:0:0:
424,136,199518,5,12,0:0:0:0:
280,136,199689,1,8,0:0:0:0:
400,136,199861,2,0,L|408:240,1,80,8|0,0:0|0:0,0:0:0:0:
272,224,200203,2,0,L|176:224,1,80,8|8,0:0|0:0,0:0:0:0:
304,176,200546,2,0,L|344:80,1,80,10|0,0:0|0:0,0:0:0:0:
104,80,200889,6,0,P|88:128|96:256,1,160,4|8,0:0|0:0,0:0:0:0:
224,232,201403,1,8,0:0:0:0:
96,232,201575,2,0,L|88:120,1,80
320,152,201918,2,0,L|432:144,1,80,10|0,0:0|0:0,0:0:0:0:
168,152,202261,5,12,0:0:0:0:
304,136,202432,1,8,0:0:0:0:
72,128,202603,2,0,L|256:96,1,160,8|8,0:0|0:0,0:0:0:0:
104,64,203118,1,8,0:0:0:0:
336,56,203289,2,0,L|336:152,1,80,10|0,0:0|0:0,0:0:0:0:
104,136,203632,6,0,L|216:136,2,80,4|0|8,0:0|0:0|0:0,0:0:0:0:
240,80,204146,1,8,0:0:0:0:
104,80,204318,2,0,L|96:176,1,80
240,168,204661,2,0,L|336:168,1,80,10|0,0:0|0:0,0:0:0:0:
88,160,205003,6,0,L|272:136,1,160,4|8,0:0|0:0,0:0:0:0:
128,96,205518,2,0,L|104:264,1,160,8|0,0:0|0:0,0:0:0:0:
256,256,206032,2,0,L|352:256,1,80,10|0,0:0|0:0,0:0:0:0:
104,256,206375,6,0,L|240:192,1,120,12|0,0:0|0:0,0:0:0:0:
104,256,206718,2,0,L|240:192,1,120,8|0,0:0|0:0,0:0:0:0:
408,256,207061,2,0,L|272:192,1,120,8|0,0:0|0:0,0:0:0:0:
408,256,207404,2,0,L|272:192,1,120,8|0,0:0|0:0,0:0:0:0:
56,192,207746,6,0,L|192:192,1,120,12|0,0:0|0:0,0:0:0:0:
456,192,208089,2,0,L|320:192,1,120,8|0,0:0|0:0,0:0:0:0:
32,192,208432,2,0,L|128:192,2,80,8|8|8,0:0|0:0|0:0,0:0:0:0:
264,192,208946,1,0,0:0:0:0:
48,192,209118,6,0,B|40:96|136:64|136:64|272:80|296:224|296:224|216:240|196:136,1,560,6|2,0:0|0:0,0:0:0:0:
288,64,211861,6,0,B|368:40|488:56|488:56|288:136|288:136|368:128|448:152,1,560,6|2,0:0|0:0,0:0:0:0:
296,136,214603,6,0,B|208:208|216:312|216:312|312:240|384:344|384:344|216:312,1,560,6|2,0:0|0:0,0:0:0:0:
384,344,217346,6,0,B|200:304|200:304|168:200|248:112|248:112|264:168|232:280,1,560,6|2,0:0|0:0,0:0:0:0:
432,232,220089,6,0,P|440:176|400:72,1,160,4|8,0:0|0:0,0:0:0:0:
280,80,220603,1,8,0:0:0:0:
408,80,220775,2,0,P|416:120|328:216,1,160,8|8,0:0|0:0,0:0:0:0:
128,192,221461,6,0,L|288:192,1,160,4|8,0:0|0:0,0:0:0:0:
160,136,221975,1,8,0:0:0:0:
312,128,222146,2,0,P|328:216|304:288,1,160,8|8,0:0|0:0,0:0:0:0:
72,264,222832,6,0,L|56:88,1,160,4|8,0:0|0:0,0:0:0:0:
192,96,223346,1,8,0:0:0:0:
56,112,223518,2,0,L|240:96,1,160,8|8,0:0|0:0,0:0:0:0:
368,96,224203,6,0,L|384:192,1,80,4|0,0:0|0:0,0:0:0:0:
232,184,224546,2,0,L|136:168,1,80,8|8,0:0|0:0,0:0:0:0:
296,144,224889,2,0,P|384:144|456:104,1,160,8|8,0:0|0:0,0:0:0:0:
224,48,225575,6,0,L|192:208,1,160,4|8,0:0|0:0,0:0:0:0:
320,216,226089,1,8,0:0:0:0:
192,208,226261,2,0,P|96:184|48:128,1,160,8|8,0:0|0:0,0:0:0:0:
232,88,226946,6,0,P|320:80|424:96,1,160,4|8,0:0|0:0,0:0:0:0:
288,80,227461,1,8,0:0:0:0:
424,80,227632,2,0,P|432:168|432:248,1,160,8|8,0:0|0:0,0:0:0:0:
216,88,228318,5,12,0:0:0:0:
368,80,228661,1,8,0:0:0:0:
136,80,228832,1,8,0:0:0:0:
396,80,229003,1,8,0:0:0:0:
107,80,229174,1,8,0:0:0:0:
426,80,229346,1,8,0:0:0:0:
77,80,229517,1,8,0:0:0:0:
312,80,229689,6,8,L|344:40,3,40
88,56,230032,2,8,L|160:48,1,40
400,56,230203,2,8,L|448:56,1,40
128,160,230375,2,8,L|72:160,1,40
448,168,230546,2,8,L|384:168,1,40
128,224,230718,2,8,L|200:224,1,40
408,240,230889,2,8,L|464:240,1,40
56,216,231061,6,0,L|224:176,1,160,4|8,0:0|0:0,0:0:0:0:
448,184,231575,1,8,0:0:0:0:
216,176,231746,2,0,L|120:176,1,80,0|8,0:0|0:0,0:0:0:0:
368,176,232089,2,0,L|264:176,1,80,10|0,0:0|0:0,0:0:0:0:
56,176,232432,6,0,L|40:72,1,80,12|0,0:0|0:0,0:0:0:0:
280,80,232775,2,0,L|376:80,1,80,8|0,0:0|0:0,0:0:0:0:
128,80,233118,2,0,L|32:80,1,80,8|0,0:0|0:0,0:0:0:0:
280,80,233461,2,0,L|288:192,1,80,10|0,0:0|0:0,0:0:0:0:
56,160,233803,6,0,P|120:200|240:216,1,160,4|8,0:0|0:0,0:0:0:0:
432,216,234318,1,8,0:0:0:0:
201,217,234489,2,0,L|313:217,1,80,0|8,0:0|0:0,0:0:0:0:
48,208,234832,1,10,0:0:0:0:
280,208,235003,1,0,0:0:0:0:
48,208,235175,6,0,L|40:120,1,80,12|0,0:0|0:0,0:0:0:0:
272,112,235518,2,0,L|168:112,1,80,8|0,0:0|0:0,0:0:0:0:
424,112,235861,2,0,L|456:192,1,80,8|0,0:0|0:0,0:0:0:0:
224,208,236203,2,0,L|312:192,1,80,10|0,0:0|0:0,0:0:0:0:
72,216,236546,6,0,P|64:168|128:40,1,160,4|8,0:0|0:0,0:0:0:0:
336,64,237061,1,8,0:0:0:0:
104,64,237232,2,0,L|104:168,1,80,0|8,0:0|0:0,0:0:0:0:
336,152,237575,1,10,0:0:0:0:
104,152,237746,1,0,0:0:0:0:
336,152,237918,6,0,L|224:152,1,80,12|0,0:0|0:0,0:0:0:0:
488,152,238261,1,8,0:0:0:0:
256,152,238432,1,0,0:0:0:0:
24,160,238603,2,0,L|24:48,1,80,8|0,0:0|0:0,0:0:0:0:
256,72,238946,2,0,L|160:72,1,80,8|0,0:0|0:0,0:0:0:0:
408,72,239289,6,0,P|448:136|376:184,1,160,4|8,0:0|0:0,0:0:0:0:
160,184,239803,1,8,0:0:0:0:
392,192,239975,2,0,L|488:192,1,80,0|8,0:0|0:0,0:0:0:0:
240,192,240318,2,0,L|336:192,1,80,10|0,0:0|0:0,0:0:0:0:
32,192,240661,5,12,0:0:0:0:
272,160,240832,1,8,0:0:0:0:
32,112,241003,1,8,0:0:0:0:
480,192,241346,5,8,0:0:0:0:
240,160,241517,1,8,0:0:0:0:
480,112,241688,1,8,0:0:0:0:
32,112,242032,6,2,L|32:280,1,160,6|10,0:0|0:0,0:0:0:0:
264,272,242546,1,8,0:0:0:0:
32,272,242718,2,0,L|144:272,1,80,0|8,0:0|0:0,0:0:0:0:
344,272,243061,2,0,L|240:272,1,80,10|0,0:0|0:0,0:0:0:0:
496,272,243403,6,0,L|496:168,1,80,12|0,0:0|0:0,0:0:0:0:
264,176,243746,2,0,L|368:176,1,80,8|0,0:0|0:0,0:0:0:0:
112,168,244089,2,0,L|208:168,1,80,8|0,0:0|0:0,0:0:0:0:
424,176,244432,1,8,0:0:0:0:
144,144,244775,6,8,L|72:144,1,40,12|8,0:0|0:0,0:0:0:0:
168,144,244946,2,8,L|176:88,1,40
384,112,245118,2,8,L|448:104,1,40
216,96,245289,2,8,L|144:80,1,40
432,176,245461,2,8,L|432:120,1,40
120,112,245632,2,8,L|64:104,1,40
464,80,245803,6,0,P|480:144|344:256,1,240,4|8,0:0|0:0,0:0:0:0:
136,256,246489,2,0,P|96:208|96:160,1,80,8|0,0:0|0:0,0:0:0:0:
328,184,246832,2,0,L|432:176,2,80,10|0|0,0:0|0:0|0:0,0:0:0:0:
80,96,247518,6,0,P|64:192|72:264,1,160,4|8,0:0|0:0,0:0:0:0:
304,248,248032,1,8,0:0:0:0:
72,248,248203,2,0,L|40:144,1,80,0|8,0:0|0:0,0:0:0:0:
280,144,248546,2,0,L|176:152,1,80,10|0,0:0|0:0,0:0:0:0:
432,136,248889,6,0,P|448:200|392:296,1,160,4|8,0:0|0:0,0:0:0:0:
176,280,249403,1,8,0:0:0:0:
408,288,249575,2,0,L|472:224,1,80,0|8,0:0|0:0,0:0:0:0:
232,192,249918,2,0,L|336:192,1,80,10|0,0:0|0:0,0:0:0:0:
72,192,250261,6,0,L|256:192,1,160,4|8,0:0|0:0,0:0:0:0:
472,200,250775,1,8,0:0:0:0:
232,192,250946,2,0,L|136:176,2,80,0|8|10,0:0|0:0|0:0,0:0:0:0:
472,200,251461,1,0,0:0:0:0:
232,192,251632,6,0,L|184:120,1,80,4|0,0:0|0:0,0:0:0:0:
432,120,251975,1,8,0:0:0:0:
72,120,252146,1,8,0:0:0:0:
256,112,252232,1,8,0:0:0:0:
440,112,252318,1,8,0:0:0:0:
200,120,252489,1,0,0:0:0:0:
440,112,252661,1,8,0:0:0:0:
40,120,252832,1,8,0:0:0:0:
280,112,253003,6,0,P|328:152|304:272,1,160,4|8,0:0|0:0,0:0:0:0:
88,232,253518,1,8,0:0:0:0:
328,232,253689,2,0,L|224:216,1,80,0|8,0:0|0:0,0:0:0:0:
488,240,254032,2,0,L|488:136,1,80,10|0,0:0|0:0,0:0:0:0:
248,152,254375,6,0,L|416:152,1,160,4|8,0:0|0:0,0:0:0:0:
168,144,254889,1,8,0:0:0:0:
408,160,255061,2,0,L|408:56,1,80,0|8,0:0|0:0,0:0:0:0:
168,56,255403,2,0,L|80:56,1,80,10|0,0:0|0:0,0:0:0:0:
408,64,255746,5,8,0:0:0:0:
112,64,256089,1,8,0:0:0:0:
408,64,256432,1,8,0:0:0:0:
80,64,256775,6,0,L|400:48,1,320,4|0,0:0|0:0,0:0:0:0:
24,144,257803,1,0,0:0:0:0:
256,144,257975,1,0,0:0:0:0:
488,144,258146,1,0,0:0:0:0:
24,144,258489,6,0,P|24:232|72:304,1,160,4|8,0:0|0:0,0:0:0:0:
304,288,259003,1,8,0:0:0:0:
64,288,259175,2,0,L|64:192,1,80,0|8,0:0|0:0,0:0:0:0:
304,208,259518,2,0,L|192:208,1,80,10|0,0:0|0:0,0:0:0:0:
464,208,259861,6,0,L|280:208,1,160,4|8,0:0|0:0,0:0:0:0:
64,208,260375,1,8,0:0:0:0:
304,216,260546,2,0,L|392:216,1,80,0|8,0:0|0:0,0:0:0:0:
144,216,260889,2,0,L|248:216,1,80,10|0,0:0|0:0,0:0:0:0:
464,224,261232,6,0,L|464:72,1,120,12|0,0:0|0:0,0:0:0:0:
344,224,261575,2,0,L|344:72,1,120,8|0,0:0|0:0,0:0:0:0:
224,224,261918,2,0,L|224:72,1,120,8|0,0:0|0:0,0:0:0:0:
104,224,262261,2,0,L|104:72,1,120,10|0,0:0|0:0,0:0:0:0:
408,224,262603,6,0,L|408:72,1,120,12|0,0:0|0:0,0:0:0:0:
208,96,262946,1,8,0:0:0:0:
456,80,263118,1,8,0:0:0:0:
256,80,263203,1,8,0:0:0:0:
56,80,263289,1,8,0:0:0:0:
384,88,263461,1,0,0:0:0:0:
96,48,263632,1,8,0:0:0:0:
440,56,263803,1,8,0:0:0:0:
152,16,263975,5,6,0:0:0:0:
256,24,264318,1,2,0:0:0:0:
256,24,264489,1,2,0:0:0:0:
368,24,264832,1,2,0:0:0:0:
368,24,265003,1,2,0:0:0:0:
160,24,265346,5,6,0:0:0:0:
264,112,265689,1,2,0:0:0:0:
264,112,265860,1,2,0:0:0:0:
112,120,266203,1,2,0:0:0:0:
112,120,266375,1,2,0:0:0:0:
360,144,266718,5,6,0:0:0:0:
232,192,267061,1,2,0:0:0:0:
232,192,267232,1,2,0:0:0:0:
72,192,267575,1,2,0:0:0:0:
72,192,267746,1,2,0:0:0:0:
456,192,268089,5,6,0:0:0:0:
320,192,268432,1,2,0:0:0:0:
320,192,268603,1,2,0:0:0:0:
200,192,268946,1,2,0:0:0:0:
440,64,269118,2,0,P|448:280|176:56,1,800,6|0,0:0|0:0,0:0:0:0:
