osu file format v14

[General]
AudioFilename: audio.mp3
AudioLeadIn: 0
PreviewTime: 37953
Countdown: 0
SampleSet: Soft
StackLeniency: 0.7
Mode: 3
LetterboxInBreaks: 0
SpecialStyle: 0
WidescreenStoryboard: 1

[Editor]
DistanceSpacing: 1.6
BeatDivisor: 4
GridSize: 16
TimelineZoom: 1.1

[Metadata]
Title:Koko Kara, Koko Kara (TV Size)
TitleUnicode:ここから、ここから (TV Size)
Artist:Minase Inori, Hanazawa Kana, Iguchi Yuka, Hayami Saori
ArtistUnicode:水瀬いのり,花澤香菜,井口裕香,早見沙織
Creator:LLENN-
Version:Antarctica
Source:宇宙よりも遠い場所
Tags:FerdiXIA- Kanon Matsubara Japanese Anime 玉木マリ 小淵沢報瀬 三宅日向 白石結月 Tamaki Mari Kobuchizawa Shirase Miyake Hinata Shiraishi Yuzuki Uchuu yori mo Tooi Basho A Story That Leads to the Antarctica A Place Further Than The Universe Yorimoi Sora yori mo Tooi Basho Ending Theme jpop pop J-pop
BeatmapID:2217800
BeatmapSetID:1058971

[Difficulty]
HPDrainRate:8
CircleSize:4
OverallDifficulty:8
ApproachRate:5
SliderMultiplier:1.4
SliderTickRate:1

[Events]
//Background and Video events
0,0,"BG2.jpg",0,0
Video,327,"kokokere.avi"
//Break Periods
//Storyboard Layer 0 (Background)
//Storyboard Layer 1 (Fail)
//Storyboard Layer 2 (Pass)
//Storyboard Layer 3 (Foreground)
//Storyboard Layer 4 (Overlay)
//Storyboard Sound Samples
Sample,11896,0,"A#6S_Bb6S_s.wav",70
Sample,12067,0,"F7.wav",60
Sample,12924,0,"D#7.wav",60
Sample,13267,0,"A#6S_Bb6S_s.wav",70
Sample,13439,0,"F7.wav",60
Sample,13782,0,"A#6S_Bb6S_s.wav",70
Sample,13953,0,"D#7.wav",60
Sample,14296,0,"D#7.wav",60
Sample,14639,0,"A#6S_Bb6S_s.wav",70
Sample,14810,0,"F7.wav",60
Sample,15324,0,"D#7.wav",60
Sample,15667,0,"D#7.wav",60
Sample,16182,0,"F7.wav",60
Sample,16524,0,"A#6S_Bb6S_s.wav",70
Sample,16696,0,"G7_l.wav",60
Sample,17382,0,"A#6S_Bb6S_s.wav",70
Sample,17553,0,"F7.wav",60
Sample,18067,0,"D#7.wav",60
Sample,18410,0,"D#7.wav",60
Sample,18753,0,"A#6S_Bb6S_s.wav",70
Sample,18924,0,"F7.wav",60
Sample,19267,0,"A#6S_Bb6S_s.wav",70
Sample,19439,0,"D#7.wav",60
Sample,19782,0,"D#7.wav",60
Sample,20124,0,"A#6S_Bb6S_s.wav",70
Sample,20296,0,"F7.wav",60
Sample,20810,0,"D#7.wav",60
Sample,21153,0,"D#7.wav",60
Sample,21667,0,"F7.wav",60
Sample,22010,0,"A#6S_Bb6S_s.wav",70
Sample,22867,0,"A#6S_Bb6S_s.wav",70
Sample,23039,0,"F7.wav",60
Sample,23553,0,"D#7.wav",60
Sample,23896,0,"D#7.wav",60
Sample,24239,0,"A#6S_Bb6S_s.wav",70
Sample,24410,0,"F7.wav",60
Sample,24753,0,"A#6S_Bb6S_s.wav",70
Sample,24924,0,"D#7.wav",60
Sample,25267,0,"D#7.wav",60
Sample,25610,0,"A#6S_Bb6S_s.wav",70
Sample,25782,0,"F7.wav",60
Sample,26296,0,"D#7.wav",60
Sample,26639,0,"G6S.wav",70
Sample,26639,0,"D#7.wav",60
Sample,27153,0,"F7.wav",60
Sample,27496,0,"A#6S_Bb6S_s.wav",70
Sample,27667,0,"G7_l.wav",60
Sample,28010,0,"D#6S_Eb6S.wav",70
Sample,28010,0,"D#7.wav",60
Sample,28353,0,"A#6S_Bb6S_s.wav",70
Sample,28524,0,"F7.wav",60
Sample,29039,0,"D#7.wav",60
Sample,29382,0,"F6S.wav",70
Sample,29382,0,"D#7.wav",60
Sample,29724,0,"A#6S_Bb6S_s.wav",70
Sample,29896,0,"F7.wav",60
Sample,30239,0,"A#6S_Bb6S_s.wav",70
Sample,30410,0,"D#7.wav",60
Sample,30753,0,"G6S.wav",70
Sample,30753,0,"D#7.wav",60
Sample,31096,0,"A#6S_Bb6S_s.wav",70
Sample,31267,0,"F7.wav",60
Sample,31782,0,"D#7.wav",60
Sample,32124,0,"G6S.wav",70
Sample,32124,0,"D#7.wav",60
Sample,32639,0,"F7.wav",60
Sample,32982,0,"A#6S_Bb6S_s.wav",70
Sample,39324,0,"A#6S_Bb6S_s.wav",70
Sample,39496,0,"F7.wav",60
Sample,39839,0,"A#6S_Bb6S_s.wav",70
Sample,40353,0,"D#7.wav",60
Sample,40867,0,"F7.wav",60
Sample,41210,0,"A#6S_Bb6S_s.wav",70
Sample,41724,0,"D#7.wav",60
Sample,41724,0,"Ride.wav",40
Sample,42067,0,"A#6S_Bb6S_s.wav",70
Sample,42239,0,"F7.wav",60
Sample,42582,0,"A#6S_Bb6S_s.wav",70
Sample,42753,0,"D#7.wav",60
Sample,43096,0,"D#7.wav",60
Sample,43096,0,"Ride.wav",40
Sample,43610,0,"F7.wav",60
Sample,43953,0,"A#6S_Bb6S_s.wav",70
Sample,44467,0,"D#7.wav",60
Sample,44467,0,"Ride.wav",40
Sample,44810,0,"A#6S_Bb6S_s.wav",70
Sample,44982,0,"F7.wav",60
Sample,45324,0,"A#6S_Bb6S_s.wav",70
Sample,45839,0,"D#7.wav",60
Sample,46353,0,"F7.wav",60
Sample,46696,0,"A#6S_Bb6S_s.wav",70
Sample,47210,0,"D#7.wav",60
Sample,47210,0,"Ride.wav",40
Sample,47553,0,"A#6S_Bb6S_s.wav",70
Sample,47724,0,"F7.wav",60
Sample,48067,0,"A#6S_Bb6S_s.wav",70
Sample,48239,0,"D#7.wav",60
Sample,48582,0,"D#7.wav",60
Sample,48582,0,"Ride.wav",40
Sample,48924,0,"A#6S_Bb6S_s.wav",70
Sample,49267,0,"Ride.wav",40
Sample,49439,0,"A#6S_Bb6S_s.wav",70
Sample,50296,0,"A#6S_Bb6S_s.wav",70
Sample,50467,0,"F7.wav",60
Sample,50810,0,"A#6S_Bb6S_s.wav",70
Sample,51324,0,"D#7.wav",60
Sample,51324,0,"Ride.wav",40
Sample,51839,0,"F7.wav",60
Sample,52182,0,"A#6S_Bb6S_s.wav",70
Sample,52696,0,"D#7.wav",60
Sample,52696,0,"Ride.wav",40
Sample,53039,0,"A#6S_Bb6S_s.wav",70
Sample,53210,0,"F7.wav",60
Sample,53553,0,"A#6S_Bb6S_s.wav",70
Sample,53724,0,"D#7.wav",60
Sample,54067,0,"D#7.wav",60
Sample,54067,0,"Ride.wav",40
Sample,54582,0,"F7.wav",60
Sample,54924,0,"A#6S_Bb6S_s.wav",70
Sample,55439,0,"D#7.wav",60
Sample,55439,0,"Ride.wav",40
Sample,55953,0,"F7.wav",60
Sample,56296,0,"A#6S_Bb6S_s.wav",70
Sample,56810,0,"D#7.wav",60
Sample,57153,0,"A#6S_Bb6S_s.wav",70
Sample,57324,0,"F7.wav",60
Sample,57667,0,"A#6S_Bb6S_s.wav",70
Sample,58182,0,"D#7.wav",60
Sample,58182,0,"Ride.wav",40
Sample,58524,0,"A#6S_Bb6S_s.wav",70
Sample,58867,0,"Ride.wav",40
Sample,59039,0,"A#6S_Bb6S_s.wav",70
Sample,59210,0,"D#7.wav",60
Sample,60067,0,"F7.wav",60
Sample,60582,0,"A#7_l.wav",60
Sample,60582,0,"Tom2.wav",45
Sample,61267,0,"A#6S_Bb6S_s.wav",70
Sample,61439,0,"F7.wav",60
Sample,61782,0,"A#6S_Bb6S_s.wav",70
Sample,62296,0,"D#7.wav",60
Sample,62810,0,"F7.wav",60
Sample,63153,0,"A#6S_Bb6S_s.wav",70
Sample,63667,0,"D#7.wav",60
Sample,63667,0,"Ride.wav",40
Sample,64010,0,"A#6S_Bb6S_s.wav",70
Sample,64182,0,"F7.wav",60
Sample,64524,0,"A#6S_Bb6S_s.wav",70
Sample,64696,0,"D#7.wav",60
Sample,65039,0,"D#7.wav",60
Sample,65039,0,"Ride.wav",40
Sample,65724,0,"Ride.wav",40
Sample,65896,0,"A#6S_Bb6S_s.wav",70
Sample,66410,0,"D#7.wav",60
Sample,66753,0,"A#6S_Bb6S_s.wav",70
Sample,66924,0,"F7.wav",60
Sample,67267,0,"A#6S_Bb6S_s.wav",70
Sample,67782,0,"D#7.wav",60
Sample,67782,0,"Ride.wav",40
Sample,68296,0,"F7.wav",60
Sample,68639,0,"A#6S_Bb6S_s.wav",70
Sample,69153,0,"D#7.wav",60
Sample,69153,0,"Ride.wav",40
Sample,69496,0,"A#6S_Bb6S_s.wav",70
Sample,69667,0,"F7.wav",60
Sample,70010,0,"A#6S_Bb6S_s.wav",70
Sample,70182,0,"D#7.wav",60
Sample,70524,0,"D#7.wav",60
Sample,70524,0,"Ride.wav",40
Sample,70867,0,"A#6S_Bb6S_s.wav",70
Sample,71210,0,"Ride.wav",40
Sample,71382,0,"A#6S_Bb6S_s.wav",70
Sample,72239,0,"A#6S_Bb6S_s.wav",70
Sample,72410,0,"F7.wav",60
Sample,72753,0,"A#6S_Bb6S_s.wav",70
Sample,73267,0,"D#7.wav",60
Sample,73267,0,"Ride.wav",40
Sample,73782,0,"F7.wav",60
Sample,74124,0,"A#6S_Bb6S_s.wav",70
Sample,74639,0,"D#7.wav",60
Sample,75496,0,"A#6S_Bb6S_s.wav",70
Sample,76010,0,"D#7.wav",60
Sample,76353,0,"A#6S_Bb6S_s.wav",70
Sample,76696,0,"Ride.wav",40
Sample,76867,0,"A#6S_Bb6S_s.wav",70
Sample,77724,0,"A#6S_Bb6S_s.wav",70
Sample,77896,0,"F7.wav",60
Sample,78239,0,"A#6S_Bb6S_s.wav",70
Sample,78753,0,"D#7.wav",60
Sample,79096,0,"A#6S_Bb6S_s.wav",70
Sample,79267,0,"F7.wav",60
Sample,79610,0,"A#6S_Bb6S_s.wav",70
Sample,80467,0,"A#6S_Bb6S_s.wav",70
Sample,80810,0,"Ride.wav",40
Sample,80982,0,"A#6S_Bb6S_s.wav",70
Sample,81153,0,"D#7.wav",60
Sample,82010,0,"F7.wav",60
Sample,82353,0,"A#6S_Bb6S_s.wav",70
Sample,82524,0,"A#7_l.wav",60

[TimingPoints]
582,342.857142857143,4,2,1,35,1,0
37610,-100,4,2,1,30,0,0
38982,-100,4,2,1,50,0,1
82867,-100,4,2,1,35,0,0

[HitObjects]
64,192,582,128,0,1610:0:0:0:60:D#7.wav
192,192,582,1,0,0:0:0:0:
448,192,924,128,0,1096:0:0:0:70:A#6S_Bb6S_s.wav
320,192,1096,1,0,0:0:0:60:F7.wav
192,192,1439,128,0,1610:0:0:0:70:A#6S_Bb6S_s.wav
448,192,1610,1,0,0:0:0:60:D#7.wav
64,192,1953,128,0,2982:0:0:0:60:D#7.wav
192,192,1953,1,0,0:0:0:0:
448,192,2296,128,0,2467:0:0:0:70:A#6S_Bb6S_s.wav
320,192,2467,1,0,0:0:0:60:F7.wav
192,192,2810,128,0,2982:0:0:0:70:A#6S_Bb6S_s.wav
448,192,2982,1,0,0:0:0:60:D#7.wav
192,192,3324,128,0,4353:0:0:0:60:D#7.wav
320,192,3324,1,0,0:0:0:0:
64,192,3667,128,0,3839:0:0:0:70:A#6S_Bb6S_s.wav
448,192,3839,1,0,0:0:0:60:F7.wav
320,192,4182,128,0,4353:0:0:0:70:A#6S_Bb6S_s.wav
64,192,4353,1,0,0:0:0:60:D#7.wav
192,192,4696,128,0,5724:0:0:0:60:D#7.wav
320,192,4696,1,0,0:0:0:0:
64,192,5039,128,0,5210:0:0:0:70:A#6S_Bb6S_s.wav
448,192,5210,1,0,0:0:0:60:F7.wav
320,192,5553,128,0,5724:0:0:0:70:A#6S_Bb6S_s.wav
448,192,5724,1,0,0:0:0:60:G7_l.wav
64,192,6067,1,0,0:0:0:60:D#7.wav
320,192,6067,128,0,7096:0:0:0:0:
192,192,6410,128,0,6582:0:0:0:70:A#6S_Bb6S_s.wav
448,192,6582,1,0,0:0:0:60:F7.wav
64,192,6924,128,0,7096:0:0:0:70:A#6S_Bb6S_s.wav
192,192,7096,1,0,0:0:0:60:D#7.wav
64,192,7439,1,0,0:0:0:60:D#7.wav
320,192,7439,128,0,8467:0:0:0:0:
192,192,7782,128,0,7953:0:0:0:70:A#6S_Bb6S_s.wav
448,192,7953,1,0,0:0:0:60:F7.wav
64,192,8296,128,0,8467:0:0:0:70:A#6S_Bb6S_s.wav
192,192,8467,1,0,0:0:0:60:D#7.wav
192,192,8810,1,0,0:0:0:60:D#7.wav
448,192,8810,128,0,9839:0:0:0:0:
320,192,9153,128,0,9324:0:0:0:70:A#6S_Bb6S_s.wav
64,192,9324,1,0,0:0:0:60:F7.wav
64,192,9667,128,0,9839:0:0:0:70:A#6S_Bb6S_s.wav
320,192,9839,1,0,0:0:0:60:D#7.wav
192,192,10182,1,0,0:0:0:60:D#7.wav
448,192,10182,128,0,11210:0:0:0:0:
192,192,10524,128,0,10696:0:0:0:70:A#6S_Bb6S_s.wav
320,192,10696,128,0,10867:0:0:0:60:F7.wav
64,192,10867,128,0,11039:0:0:0:0:
192,192,11039,128,0,11210:0:0:0:70:A#6S_Bb6S_s.wav
320,192,11210,128,0,11382:0:0:0:60:A#7_l.wav
64,192,11382,128,0,11553:0:0:0:0:
192,192,11553,1,2,0:0:0:0:
320,192,11553,128,4,12582:0:0:0:0:
448,192,11553,1,0,0:0:0:60:D#7.wav
448,192,11896,1,0,0:0:0:40:Tom1.wav
64,192,12067,1,0,0:0:0:45:Tom2.wav
192,192,12410,128,0,12582:0:0:0:70:A#6S_Bb6S_s.wav
64,192,12582,1,0,0:0:0:45:Tom3.wav
448,192,12582,1,0,0:0:0:60:D#7.wav
192,192,12924,1,2,0:0:0:0:
320,192,12924,128,0,13953:0:0:0:40:Ride.wav
64,192,13267,1,0,0:0:0:40:Tom1.wav
448,192,13439,1,0,0:0:0:45:Tom2.wav
192,192,13782,128,0,13953:0:0:0:45:Tom3.wav
448,192,13953,1,0,0:0:0:45:Tom3.wav
64,192,14296,128,2,15324:0:0:0:0:
192,192,14296,1,0,0:0:0:40:Ride.wav
320,192,14639,1,0,0:0:0:40:Tom1.wav
448,192,14810,1,0,0:0:0:45:Tom2.wav
192,192,15153,128,0,15324:0:0:0:70:A#6S_Bb6S_s.wav
320,192,15324,1,0,0:0:0:45:Tom3.wav
64,192,15667,128,2,16696:0:0:0:0:
192,192,15667,1,0,0:0:0:40:Ride.wav
320,192,15839,1,8,0:0:0:0:
448,192,15839,1,0,0:0:0:0:
192,192,16182,1,0,0:0:0:40:Tom1.wav
448,192,16524,128,0,16696:0:0:0:45:Tom2.wav
320,192,16696,1,0,0:0:0:45:Tom3.wav
64,192,17039,1,2,0:0:0:0:
192,192,17039,1,0,0:0:0:35:Crash 2.wav
448,192,17039,128,0,18067:0:0:0:60:D#7.wav
320,192,17382,1,0,0:0:0:40:Tom1.wav
192,192,17553,1,0,0:0:0:45:Tom2.wav
64,192,17896,128,0,18067:0:0:0:70:A#6S_Bb6S_s.wav
320,192,18067,1,0,0:0:0:45:Tom3.wav
192,192,18410,1,2,0:0:0:0:
448,192,18410,128,0,19439:0:0:0:40:Ride.wav
320,192,18753,1,0,0:0:0:40:Tom1.wav
64,192,18924,1,0,0:0:0:45:Tom2.wav
192,192,19267,128,0,19439:0:0:0:40:Tom1.wav
64,192,19439,1,0,0:0:0:45:Tom3.wav
192,192,19782,128,2,20810:0:0:0:0:
320,192,19782,1,0,0:0:0:40:Ride.wav
64,192,20124,1,0,0:0:0:40:Tom1.wav
448,192,20296,1,0,0:0:0:45:Tom2.wav
320,192,20639,128,0,20810:0:0:0:70:A#6S_Bb6S_s.wav
448,192,20810,1,0,0:0:0:45:Tom3.wav
64,192,21153,1,2,0:0:0:0:
192,192,21153,128,0,22182:0:0:0:40:Ride.wav
320,192,21324,1,8,0:0:0:0:
448,192,21324,1,0,0:0:0:0:
64,192,21496,128,0,21667:0:0:0:70:A#6S_Bb6S_s.wav
448,192,21667,128,0,21839:0:0:0:40:Tom1.wav
320,192,21839,128,0,22010:0:0:0:0:
64,192,22010,128,0,22182:0:0:0:45:Tom2.wav
320,192,22182,1,0,0:0:0:45:Tom3.wav
448,192,22182,128,0,22353:0:0:0:60:A#7_l.wav
192,192,22353,128,0,22524:0:0:0:0:
64,192,22524,128,2,23553:0:0:0:0:
320,192,22524,1,4,0:0:0:0:
448,192,22524,1,0,0:0:0:60:D#7.wav
320,192,22867,1,0,0:0:0:40:Tom1.wav
448,192,23039,1,0,0:0:0:45:Tom2.wav
192,192,23382,128,0,23553:0:0:0:70:A#6S_Bb6S_s.wav
320,192,23553,1,0,0:0:0:45:Tom3.wav
64,192,23896,128,2,24924:0:0:0:0:
448,192,23896,1,0,0:0:0:40:Ride.wav
192,192,24239,1,0,0:0:0:40:Tom1.wav
320,192,24410,1,0,0:0:0:45:Tom2.wav
448,192,24753,128,0,24924:0:0:0:40:Tom1.wav
192,192,24924,1,0,0:0:0:45:Tom3.wav
64,192,25267,1,2,0:0:0:0:
320,192,25267,128,0,26296:0:0:0:40:Ride.wav
448,192,25610,1,0,0:0:0:40:Tom1.wav
192,192,25782,1,0,0:0:0:45:Tom2.wav
64,192,26124,128,0,26296:0:0:0:70:A#6S_Bb6S_s.wav
192,192,26296,1,0,0:0:0:45:Tom3.wav
320,192,26639,128,2,27667:0:0:0:0:
448,192,26639,1,0,0:0:0:40:Ride.wav
64,192,26810,1,8,0:0:0:0:
192,192,26810,1,0,0:0:0:0:
448,192,27153,1,0,0:0:0:40:Tom1.wav
192,192,27496,128,0,27667:0:0:0:45:Tom2.wav
64,192,27667,1,0,0:0:0:45:Tom3.wav
192,192,28010,1,2,0:0:0:0:
448,192,28010,128,0,29039:0:0:0:40:Ride.wav
320,192,28353,1,0,0:0:0:40:Tom1.wav
64,192,28524,1,0,0:0:0:45:Tom2.wav
192,192,28867,128,0,29039:0:0:0:70:A#6S_Bb6S_s.wav
64,192,29039,1,0,0:0:0:45:Tom3.wav
320,192,29382,1,2,0:0:0:0:
448,192,29382,128,0,30410:0:0:0:40:Ride.wav
192,192,29724,1,0,0:0:0:40:Tom1.wav
64,192,29896,1,0,0:0:0:45:Tom2.wav
320,192,30239,128,0,30410:0:0:0:70:Tom2.wav
64,192,30410,1,0,0:0:0:45:Tom3.wav
192,192,30753,128,2,31782:0:0:0:0:
320,192,30753,1,0,0:0:0:40:Ride.wav
64,192,31096,1,0,0:0:0:40:Tom1.wav
320,192,31267,1,0,0:0:0:45:Tom2.wav
448,192,31610,128,0,31782:0:0:0:70:A#6S_Bb6S_s.wav
320,192,31782,1,0,0:0:0:45:Tom3.wav
64,192,32124,1,2,0:0:0:0:
192,192,32124,128,0,33153:0:0:0:40:Ride.wav
320,192,32296,1,8,0:0:0:0:
448,192,32296,1,0,0:0:0:0:
64,192,32467,128,0,32639:0:0:0:70:A#6S_Bb6S_s.wav
448,192,32639,128,0,32810:0:0:0:40:Tom1.wav
320,192,32810,128,0,32982:0:0:0:70:F6S.wav
64,192,32982,128,0,33153:0:0:0:45:Tom2.wav
320,192,33153,1,0,0:0:0:45:Tom3.wav
448,192,33153,128,0,33324:0:0:0:60:A#7_l.wav
192,192,33324,128,0,33496:0:0:0:0:
64,192,33496,1,2,0:0:0:0:
320,192,33496,1,0,0:0:0:35:Crash 2.wav
448,192,33496,128,0,34867:0:0:0:0:
192,192,33667,1,0,0:0:0:40:Tom1.wav
64,192,34010,1,2,0:0:0:0:
192,192,34182,1,8,0:0:0:0:
320,192,34182,1,0,0:0:0:40:Ride.wav
320,192,34524,128,0,34867:0:0:0:40:Ride.wav
64,192,34867,128,2,35896:0:0:0:0:
192,192,34867,1,0,0:0:0:40:Ride.wav
320,192,35039,1,8,0:0:0:0:
448,192,35039,1,0,0:0:0:0:
192,192,35210,1,0,0:0:0:40:Ride.wav
320,192,35382,1,2,0:0:0:0:
192,192,35553,1,8,0:0:0:0:
448,192,35553,1,0,0:0:0:40:Ride.wav
320,192,35724,1,2,0:0:0:0:
192,192,35896,128,0,36067:0:0:0:45:Tom2.wav
448,192,35896,1,0,0:0:0:0:
64,192,36239,1,2,0:0:0:0:
320,192,36239,1,4,0:0:0:0:
448,192,36239,128,0,37610:0:0:0:0:
192,192,36582,1,8,0:0:0:0:
320,192,36582,1,0,0:0:0:0:
64,192,36753,1,8,0:0:0:0:
192,192,36839,1,8,0:0:0:0:
64,192,36924,1,8,0:0:0:0:
320,192,36924,1,0,0:0:0:0:
192,192,37096,1,0,0:0:0:40:Tom1.wav
64,192,37267,1,0,0:0:0:45:Tom2.wav
320,192,37439,1,2,0:0:0:0:
64,192,37610,1,8,0:0:0:0:
192,192,37610,1,0,0:0:0:40:Ride.wav
320,192,37953,128,0,38467:0:0:0:0:
192,192,38296,128,0,38467:0:0:0:0:
64,192,38467,128,0,38982:0:0:0:0:
192,192,38982,1,2,0:0:0:0:
320,192,38982,1,4,0:0:0:0:
448,192,38982,128,0,39667:0:0:0:60:D#7.wav
64,192,39324,1,8,0:0:0:0:
192,192,39324,1,0,0:0:0:40:Ride.wav
320,192,39496,1,2,0:0:0:0:
192,192,39667,1,0,0:0:0:40:Ride.wav
448,192,39839,1,2,0:0:0:0:
64,192,40010,1,8,0:0:0:0:
192,192,40010,128,0,40353:0:0:0:40:Ride.wav
320,192,40010,1,0,0:0:0:60:D#7.wav
64,192,40353,128,2,40696:0:0:0:0:
448,192,40353,1,0,0:0:0:40:Ride.wav
192,192,40696,1,8,0:0:0:0:
320,192,40696,1,0,0:0:0:40:Ride.wav
448,192,40696,128,0,41039:0:0:0:70:A#6S_Bb6S_s.wav
64,192,40867,1,2,0:0:0:0:
320,192,41039,128,0,41382:0:0:0:40:Ride.wav
192,192,41210,1,2,0:0:0:0:
64,192,41382,128,8,42753:0:0:0:0:
192,192,41382,1,0,0:0:0:40:Ride.wav
448,192,41382,1,0,0:0:0:60:D#7.wav
192,192,41724,1,2,0:0:0:0:
320,192,42067,1,8,0:0:0:0:
448,192,42067,1,0,0:0:0:40:Ride.wav
192,192,42239,1,2,0:0:0:0:
320,192,42410,1,0,0:0:0:40:Ride.wav
448,192,42582,1,2,0:0:0:0:
192,192,42753,1,8,0:0:0:0:
320,192,42753,1,0,0:0:0:40:Ride.wav
448,192,43096,1,2,0:0:0:0:
192,192,43267,1,2,0:0:0:0:
64,192,43439,1,8,0:0:0:0:
320,192,43439,1,0,0:0:0:40:Ride.wav
448,192,43439,128,0,43782:0:0:0:70:A#6S_Bb6S_s.wav
192,192,43610,1,2,0:0:0:0:
64,192,43782,128,0,44124:0:0:0:40:Ride.wav
320,192,43953,1,2,0:0:0:0:
192,192,44124,128,8,45153:0:0:0:0:
320,192,44124,1,0,0:0:0:40:Ride.wav
448,192,44124,1,0,0:0:0:60:G7_l.wav
64,192,44467,1,2,0:0:0:0:
320,192,44810,1,8,0:0:0:0:
448,192,44810,1,0,0:0:0:40:Ride.wav
64,192,44982,1,2,0:0:0:0:
448,192,45153,1,0,0:0:0:40:Ride.wav
320,192,45324,1,2,0:0:0:0:
64,192,45496,1,8,0:0:0:0:
192,192,45496,1,0,0:0:0:40:Ride.wav
448,192,45496,128,0,45839:0:0:0:60:D#7.wav
64,192,45839,128,2,46182:0:0:0:0:
320,192,45839,1,0,0:0:0:40:Ride.wav
192,192,46182,1,8,0:0:0:0:
320,192,46182,1,0,0:0:0:40:Ride.wav
448,192,46182,128,0,46524:0:0:0:70:A#6S_Bb6S_s.wav
64,192,46353,1,2,0:0:0:0:
192,192,46524,128,0,46867:0:0:0:40:Ride.wav
320,192,46696,1,2,0:0:0:0:
64,192,46867,1,8,0:0:0:0:
320,192,46867,1,0,0:0:0:40:Ride.wav
448,192,46867,128,0,48582:0:0:0:60:D#7.wav
192,192,47210,1,2,0:0:0:0:
64,192,47553,1,8,0:0:0:0:
320,192,47553,1,0,0:0:0:40:Ride.wav
192,192,47724,1,2,0:0:0:0:
64,192,47896,1,0,0:0:0:40:Ride.wav
320,192,48067,1,2,0:0:0:0:
64,192,48239,1,8,0:0:0:0:
192,192,48239,1,0,0:0:0:40:Ride.wav
320,192,48582,1,2,0:0:0:0:
192,192,48753,1,2,0:0:0:0:
64,192,48924,1,8,0:0:0:0:
320,192,48924,1,0,0:0:0:35:Crash 2.wav
448,192,49267,1,2,0:0:0:0:
320,192,49439,1,2,0:0:0:0:
64,192,49610,128,8,50296:0:0:0:0:
192,192,49610,1,0,0:0:0:35:Crash 2.wav
448,192,49610,1,0,0:0:0:60:A#7_l.wav
192,192,49953,1,6,0:0:0:0:
320,192,49953,1,0,0:0:0:60:D#7.wav
192,192,50296,1,8,0:0:0:0:
448,192,50296,1,0,0:0:0:40:Ride.wav
320,192,50467,1,2,0:0:0:0:
448,192,50639,128,0,50982:0:0:0:40:Ride.wav
192,192,50810,1,2,0:0:0:0:
64,192,50982,128,8,51496:0:0:0:0:
192,192,50982,1,0,0:0:0:40:Ride.wav
320,192,50982,1,0,0:0:0:60:D#7.wav
320,192,51324,1,2,0:0:0:0:
320,192,51496,1,2,0:0:0:0:
64,192,51667,1,8,0:0:0:0:
192,192,51667,1,0,0:0:0:40:Ride.wav
448,192,51667,128,0,52010:0:0:0:70:A#6S_Bb6S_s.wav
320,192,51839,1,2,0:0:0:0:
192,192,52010,128,0,52353:0:0:0:40:Ride.wav
64,192,52182,1,2,0:0:0:0:
64,192,52353,1,8,0:0:0:0:
320,192,52353,1,0,0:0:0:40:Ride.wav
448,192,52353,128,0,53724:0:0:0:60:D#7.wav
64,192,52696,1,2,0:0:0:0:
192,192,53039,1,8,0:0:0:0:
320,192,53039,1,0,0:0:0:40:Ride.wav
64,192,53210,1,2,0:0:0:0:
192,192,53382,1,0,0:0:0:40:Ride.wav
320,192,53553,1,2,0:0:0:0:
64,192,53724,1,8,0:0:0:0:
192,192,53724,1,0,0:0:0:40:Ride.wav
320,192,54067,1,2,0:0:0:0:
320,192,54239,1,2,0:0:0:0:
64,192,54410,128,8,54924:0:0:0:0:
192,192,54410,1,0,0:0:0:40:Ride.wav
448,192,54410,1,0,0:0:0:70:A#6S_Bb6S_s.wav
448,192,54582,1,2,0:0:0:0:
192,192,54753,1,0,0:0:0:40:Ride.wav
320,192,54924,1,2,0:0:0:0:
64,192,55096,1,8,0:0:0:0:
192,192,55096,1,0,0:0:0:40:Ride.wav
448,192,55096,128,0,55782:0:0:0:60:G7_l.wav
320,192,55439,1,2,0:0:0:0:
64,192,55782,128,8,56124:0:0:0:0:
192,192,55782,1,0,0:0:0:40:Ride.wav
320,192,55782,1,0,0:0:0:70:A#6S_Bb6S_s.wav
448,192,55953,1,2,0:0:0:0:
192,192,56124,1,0,0:0:0:40:Ride.wav
320,192,56296,1,2,0:0:0:0:
64,192,56467,1,8,0:0:0:0:
192,192,56467,1,0,0:0:0:40:Ride.wav
448,192,56467,128,0,56810:0:0:0:60:D#7.wav
64,192,56810,128,2,57153:0:0:0:0:
320,192,56810,1,0,0:0:0:40:Ride.wav
320,192,56982,1,2,0:0:0:0:
192,192,57153,1,8,0:0:0:0:
448,192,57153,1,0,0:0:0:40:Ride.wav
320,192,57324,1,2,0:0:0:0:
192,192,57496,128,0,57839:0:0:0:40:Ride.wav
448,192,57667,1,2,0:0:0:0:
64,192,57839,128,8,59210:0:0:0:0:
320,192,57839,1,0,0:0:0:40:Ride.wav
448,192,57839,1,0,0:0:0:60:D#7.wav
192,192,58182,1,2,0:0:0:0:
320,192,58524,1,8,0:0:0:0:
448,192,58524,1,0,0:0:0:35:Crash 2.wav
192,192,58867,1,2,0:0:0:0:
320,192,59039,1,2,0:0:0:0:
192,192,59210,1,8,0:0:0:0:
448,192,59210,1,0,0:0:0:35:Crash 2.wav
64,192,59553,1,6,0:0:0:0:
320,192,59553,1,0,0:0:0:60:D#7.wav
192,192,59724,1,8,0:0:0:0:
320,192,59810,1,8,0:0:0:0:
64,192,59896,1,10,0:0:0:0:
448,192,59896,1,0,0:0:0:70:A#6S_Bb6S_s.wav
192,192,60067,1,8,0:0:0:0:
64,192,60153,1,8,0:0:0:0:
320,192,60239,1,8,0:0:0:0:
448,192,60239,1,2,0:0:0:0:
64,192,60410,1,8,0:0:0:45:Tom1.wav
192,192,60410,1,0,0:0:0:70:A#6S_Bb6S_s.wav
448,192,60582,1,2,0:0:0:0:
320,192,60753,1,8,0:0:0:0:
192,192,60839,1,8,0:0:0:0:
64,192,60924,1,2,0:0:0:0:
320,192,60924,1,0,0:0:0:35:Crash 2.wav
448,192,60924,128,0,61782:0:0:0:60:D#7.wav
64,192,61267,1,8,0:0:0:0:
192,192,61267,1,0,0:0:0:40:Ride.wav
320,192,61439,1,2,0:0:0:0:
192,192,61610,1,0,0:0:0:40:Ride.wav
64,192,61782,1,2,0:0:0:0:
192,192,61953,128,8,62296:0:0:0:0:
320,192,61953,1,0,0:0:0:40:Ride.wav
448,192,61953,1,0,0:0:0:60:D#7.wav
64,192,62296,128,2,62639:0:0:0:0:
448,192,62296,1,0,0:0:0:40:Ride.wav
192,192,62639,1,8,0:0:0:0:
320,192,62639,1,0,0:0:0:40:Ride.wav
448,192,62639,128,0,62982:0:0:0:70:A#6S_Bb6S_s.wav
64,192,62810,1,2,0:0:0:0:
320,192,62982,128,0,63324:0:0:0:40:Ride.wav
192,192,63153,1,2,0:0:0:0:
64,192,63324,128,8,64696:0:0:0:0:
192,192,63324,1,0,0:0:0:40:Ride.wav
448,192,63324,1,0,0:0:0:60:D#7.wav
320,192,63667,1,2,0:0:0:0:
192,192,64010,1,8,0:0:0:0:
448,192,64010,1,0,0:0:0:40:Ride.wav
320,192,64182,1,2,0:0:0:0:
192,192,64353,1,0,0:0:0:40:Ride.wav
448,192,64524,1,2,0:0:0:0:
192,192,64696,1,8,0:0:0:0:
320,192,64696,1,0,0:0:0:40:Ride.wav
64,192,65039,1,2,0:0:0:0:
192,192,65210,1,2,0:0:0:0:
64,192,65382,1,8,0:0:0:0:
320,192,65382,1,0,0:0:0:40:Ride.wav
448,192,65382,128,0,65896:0:0:0:70:A#6S_Bb6S_s.wav
192,192,65724,1,2,0:0:0:0:
320,192,65896,1,2,0:0:0:0:
64,192,66067,1,8,0:0:0:0:
192,192,66067,128,0,67096:0:0:0:40:Ride.wav
448,192,66067,1,0,0:0:0:60:G7_l.wav
64,192,66410,1,2,0:0:0:0:
320,192,66410,1,0,0:0:0:35:Crash 2.wav
320,192,66753,1,8,0:0:0:0:
448,192,66753,1,0,0:0:0:40:Ride.wav
64,192,66924,1,2,0:0:0:0:
448,192,67096,1,0,0:0:0:40:Ride.wav
320,192,67267,1,2,0:0:0:0:
64,192,67439,128,8,67953:0:0:0:0:
192,192,67439,1,0,0:0:0:40:Ride.wav
448,192,67439,1,0,0:0:0:60:D#7.wav
320,192,67782,1,2,0:0:0:0:
192,192,68124,128,8,68467:0:0:0:0:
320,192,68124,1,0,0:0:0:40:Ride.wav
448,192,68124,1,0,0:0:0:70:A#6S_Bb6S_s.wav
64,192,68296,1,2,0:0:0:0:
320,192,68467,128,0,68810:0:0:0:40:Ride.wav
448,192,68467,1,0,0:0:0:0:
64,192,68639,1,2,0:0:0:0:
64,192,68810,1,8,0:0:0:0:
192,192,68810,1,0,0:0:0:40:Ride.wav
448,192,68810,128,0,70524:0:0:0:60:D#7.wav
320,192,69153,1,2,0:0:0:0:
64,192,69496,1,8,0:0:0:0:
192,192,69496,1,0,0:0:0:40:Ride.wav
320,192,69667,1,2,0:0:0:0:
192,192,69839,1,0,0:0:0:40:Ride.wav
64,192,70010,1,2,0:0:0:0:
192,192,70182,1,8,0:0:0:0:
320,192,70182,1,0,0:0:0:40:Ride.wav
64,192,70524,1,2,0:0:0:0:
192,192,70696,1,2,0:0:0:0:
320,192,70867,1,8,0:0:0:0:
448,192,70867,1,0,0:0:0:35:Crash 2.wav
192,192,71210,1,2,0:0:0:0:
320,192,71382,1,2,0:0:0:0:
64,192,71553,1,8,0:0:0:0:
192,192,71553,128,0,72239:0:0:0:35:Crash 2.wav
448,192,71553,1,0,0:0:0:60:A#7_l.wav
64,192,71896,1,6,0:0:0:0:
320,192,71896,1,0,0:0:0:60:D#7.wav
64,192,72239,1,8,0:0:0:0:
448,192,72239,1,0,0:0:0:40:Ride.wav
320,192,72410,1,2,0:0:0:0:
192,192,72582,128,0,72924:0:0:0:40:Ride.wav
448,192,72753,1,2,0:0:0:0:
64,192,72924,128,8,73439:0:0:0:0:
320,192,72924,1,0,0:0:0:40:Ride.wav
448,192,72924,1,0,0:0:0:60:D#7.wav
192,192,73267,1,2,0:0:0:0:
192,192,73610,1,8,0:0:0:0:
320,192,73610,1,0,0:0:0:40:Ride.wav
448,192,73610,128,0,73953:0:0:0:70:A#6S_Bb6S_s.wav
64,192,73782,1,2,0:0:0:0:
320,192,73953,1,0,0:0:0:40:Ride.wav
64,192,74124,1,2,0:0:0:0:
192,192,74296,1,8,0:0:0:0:
320,192,74296,128,0,74639:0:0:0:40:Ride.wav
448,192,74296,1,0,0:0:0:60:D#7.wav
64,192,74639,128,2,74982:0:0:0:0:
192,192,74639,1,0,0:0:0:40:Ride.wav
192,192,74982,128,8,75324:0:0:0:0:
320,192,74982,1,0,0:0:0:40:Ride.wav
448,192,74982,1,0,0:0:0:70:A#6S_Bb6S_s.wav
64,192,75324,1,2,0:0:0:0:
448,192,75324,128,0,75667:0:0:0:40:Ride.wav
192,192,75496,1,2,0:0:0:0:
64,192,75667,1,8,0:0:0:0:
192,192,75667,1,0,0:0:0:35:Crash 2.wav
320,192,75667,128,0,76353:0:0:0:60:D#7.wav
192,192,76010,1,0,0:0:0:40:Ride.wav
64,192,76182,1,2,0:0:0:0:
192,192,76353,1,8,0:0:0:0:
448,192,76353,1,0,0:0:0:40:Ride.wav
320,192,76696,1,2,0:0:0:0:
192,192,76867,1,2,0:0:0:0:
64,192,77039,1,8,0:0:0:0:
320,192,77039,128,0,78067:0:0:0:40:Ride.wav
448,192,77039,1,0,0:0:0:60:G7_l.wav
64,192,77382,1,6,0:0:0:0:
192,192,77382,1,0,0:0:0:60:D#7.wav
64,192,77724,1,8,0:0:0:0:
448,192,77724,1,0,0:0:0:40:Ride.wav
192,192,77896,1,2,0:0:0:0:
64,192,78067,1,0,0:0:0:40:Ride.wav
320,192,78239,1,2,0:0:0:0:
192,192,78410,128,8,78582:0:0:0:0:
64,192,78410,1,0,0:0:0:40:Ride.wav
448,192,78410,1,0,0:0:0:60:D#7.wav
320,192,78582,128,0,78753:0:0:0:0:
64,192,78753,128,0,79610:0:0:0:0:
192,192,78753,1,2,0:0:0:0:
448,192,78753,1,0,0:0:0:35:Crash 2.wav
192,192,79096,1,8,0:0:0:0:
320,192,79096,1,0,0:0:0:40:Ride.wav
448,192,79267,1,2,0:0:0:0:
320,192,79439,1,0,0:0:0:40:Ride.wav
192,192,79610,1,2,0:0:0:0:
64,192,79782,1,8,0:0:0:0:
320,192,79782,128,0,79953:0:0:0:40:Ride.wav
448,192,79782,1,0,0:0:0:60:D#7.wav
192,192,79953,128,0,80124:0:0:0:0:
64,192,80124,1,4,0:0:0:0:
320,192,80124,1,2,0:0:0:0:
448,192,80124,128,0,81496:0:0:0:60:D#7.wav
64,192,80467,1,8,0:0:0:0:
192,192,80467,1,0,0:0:0:40:Ride.wav
320,192,80810,1,2,0:0:0:0:
192,192,80982,1,2,0:0:0:0:
64,192,81153,1,8,0:0:0:0:
320,192,81153,1,0,0:0:0:40:Ride.wav
64,192,81496,1,12,0:0:0:0:
192,192,81496,1,0,0:0:0:60:D#7.wav
320,192,81667,1,2,0:0:0:0:
64,192,81839,1,8,0:0:0:0:
448,192,81839,1,0,0:0:0:70:A#6S_Bb6S_s.wav
320,192,82010,1,8,0:0:0:0:
192,192,82096,1,8,0:0:0:0:
64,192,82182,1,8,0:0:0:0:
448,192,82182,1,0,0:0:0:0:
320,192,82353,1,0,0:0:0:40:Tom1.wav
192,192,82524,1,0,0:0:0:45:Tom2.wav
320,192,82696,1,8,0:0:0:0:
448,192,82696,1,0,0:0:0:0:
64,192,82867,128,0,83210:0:0:0:60:D#7.wav
320,192,83210,1,0,0:0:0:70:A#6S_Bb6S_s.wav
192,192,83382,128,0,83724:0:0:0:60:F7.wav
448,192,83724,1,0,0:0:0:70:A#6S_Bb6S_s.wav
64,192,83896,1,0,0:0:0:60:D#7.wav
320,192,84239,128,0,84582:0:0:0:60:D#7.wav
64,192,84582,1,0,0:0:0:70:A#6S_Bb6S_s.wav
192,192,84753,128,0,85096:0:0:0:60:F7.wav
448,192,85096,1,0,0:0:0:70:A#6S_Bb6S_s.wav
64,192,85267,1,0,0:0:0:60:D#7.wav
448,192,85610,128,0,85953:0:0:0:60:D#7.wav
192,192,85953,1,0,0:0:0:70:A#6S_Bb6S_s.wav
320,192,86124,128,0,86467:0:0:0:60:F7.wav
64,192,86467,1,0,0:0:0:70:A#6S_Bb6S_s.wav
448,192,86639,1,0,0:0:0:60:D#7.wav
192,192,86982,128,0,87324:0:0:0:60:D#7.wav
448,192,87324,1,0,0:0:0:70:A#6S_Bb6S_s.wav
320,192,87496,128,0,87839:0:0:0:60:F7.wav
64,192,87839,1,0,0:0:0:70:A#6S_Bb6S_s.wav
448,192,88010,1,0,0:0:0:60:A#7_l.wav
